osu file format v14

[General]
AudioFilename: audio.mp3
AudioLeadIn: 0
PreviewTime: 32405
Countdown: 0
SampleSet: Soft
StackLeniency: 0.7
Mode: 0
LetterboxInBreaks: 0
WidescreenStoryboard: 1

[Editor]
Bookmarks: 11457,22491,33526,44560,61112,66629,88698,99733,110767,121802,132836,149388,154905,176974,199043
DistanceSpacing: 0.6
BeatDivisor: 4
GridSize: 32
TimelineZoom: 1

[Metadata]
Title:Walk This Way
TitleUnicode:Walk This Way
Artist:THE BEAT GARDEN
ArtistUnicode:THE BEAT GARDEN
Creator:Shirahane Suou
Version:Insane
Source:神撃のバハムート VIRGIN SOUL
Tags:shingeki no bahamut rage of anime 2nd second op opening japanese pop jpop j-pop electronic edm dance music i'm flower ビートガーデン
BeatmapID:3940770
BeatmapSetID:1910531

[Difficulty]
HPDrainRate:5
CircleSize:4
OverallDifficulty:8
ApproachRate:9
SliderMultiplier:1.7
SliderTickRate:1

[Events]
//Background and Video events
0,0,"walk this way.jpg",0,0
//Break Periods
//Storyboard Layer 0 (Background)
//Storyboard Layer 1 (Fail)
//Storyboard Layer 2 (Pass)
//Storyboard Layer 3 (Foreground)
//Storyboard Layer 4 (Overlay)
//Storyboard Sound Samples

[TimingPoints]
423,344.827586206897,4,2,1,30,1,0
423,-250,4,2,1,30,0,0
11457,-166.666666666667,4,2,1,40,0,0
22491,-133.333333333333,4,2,1,50,0,0
30767,-166.666666666667,4,2,1,50,0,0
33526,-133.333333333333,4,2,1,70,0,1
34043,-90.9090909090909,4,2,1,70,0,1
34560,-133.333333333333,4,2,1,70,0,1
35078,-90.9090909090909,4,2,1,70,0,1
35595,-111.111111111111,4,2,1,70,0,1
36285,-133.333333333333,4,2,1,70,0,1
36802,-90.9090909090909,4,2,1,70,0,1
37319,-133.333333333333,4,2,1,70,0,1
37836,-90.9090909090909,4,2,1,70,0,1
38354,-111.111111111111,4,2,1,70,0,1
38698,-133.333333333333,4,2,1,70,0,1
39560,-90.9090909090909,4,2,1,70,0,1
40078,-133.333333333333,4,2,1,70,0,1
40595,-90.9090909090909,4,2,1,70,0,1
41112,-111.111111111111,4,2,1,70,0,1
41802,-133.333333333333,4,2,1,70,0,1
42319,-90.9090909090909,4,2,1,70,0,1
42836,-133.333333333333,4,2,1,70,0,1
43354,-90.9090909090909,4,2,1,70,0,1
44560,-111.111111111111,4,2,1,60,0,0
66629,-95.2380952380952,4,2,1,80,0,1
72147,-133.333333333333,4,2,1,80,0,1
72491,-95.2380952380952,4,2,1,80,0,1
83181,-133.333333333333,4,2,1,80,0,1
83526,-95.2380952380952,4,2,1,80,0,1
87319,-133.333333333333,4,2,1,80,0,0
88698,-133.333333333333,4,2,1,70,0,1
89216,-90.9090909090909,4,2,1,70,0,1
89733,-133.333333333333,4,2,1,70,0,1
90250,-90.9090909090909,4,2,1,70,0,1
90767,-111.111111111111,4,2,1,70,0,1
91457,-133.333333333333,4,2,1,70,0,1
91974,-90.9090909090909,4,2,1,70,0,1
92491,-133.333333333333,4,2,1,70,0,1
93009,-90.9090909090909,4,2,1,70,0,1
93526,-111.111111111111,4,2,1,70,0,1
93871,-133.333333333333,4,2,1,70,0,1
94733,-90.9090909090909,4,2,1,70,0,1
95250,-133.333333333333,4,2,1,70,0,1
95767,-90.9090909090909,4,2,1,70,0,1
96285,-111.111111111111,4,2,1,70,0,1
96974,-133.333333333333,4,2,1,70,0,1
97491,-90.9090909090909,4,2,1,70,0,1
98009,-133.333333333333,4,2,1,70,0,1
98526,-90.9090909090909,4,2,1,70,0,1
99043,-111.111111111111,4,2,1,70,0,1
99388,-133.333333333333,4,2,1,70,0,1
99733,-166.666666666667,4,2,1,40,0,0
110767,-133.333333333333,4,2,1,50,0,0
119043,-166.666666666667,4,2,1,50,0,0
121802,-133.333333333333,4,2,1,70,0,1
122319,-90.9090909090909,4,2,1,70,0,1
122836,-133.333333333333,4,2,1,70,0,1
123354,-90.9090909090909,4,2,1,70,0,1
123871,-111.111111111111,4,2,1,70,0,1
124560,-133.333333333333,4,2,1,70,0,1
125078,-90.9090909090909,4,2,1,70,0,1
125595,-133.333333333333,4,2,1,70,0,1
126112,-90.9090909090909,4,2,1,70,0,1
126629,-111.111111111111,4,2,1,70,0,1
126974,-133.333333333333,4,2,1,70,0,1
127836,-90.9090909090909,4,2,1,70,0,1
128354,-133.333333333333,4,2,1,70,0,1
128871,-90.9090909090909,4,2,1,70,0,1
129388,-111.111111111111,4,2,1,70,0,1
130078,-133.333333333333,4,2,1,70,0,1
130595,-90.9090909090909,4,2,1,70,0,1
131112,-133.333333333333,4,2,1,70,0,1
131629,-90.9090909090909,4,2,1,70,0,1
132836,-111.111111111111,4,2,1,60,0,0
154905,-95.2380952380952,4,2,1,80,0,1
160423,-133.333333333333,4,2,1,80,0,1
160767,-95.2380952380952,4,2,1,80,0,1
171457,-133.333333333333,4,2,1,80,0,1
171802,-95.2380952380952,4,2,1,80,0,1
175595,-133.333333333333,4,2,1,80,0,0
176974,-133.333333333333,4,2,1,70,0,1
177491,-90.9090909090909,4,2,1,70,0,1
178009,-133.333333333333,4,2,1,70,0,1
178526,-90.9090909090909,4,2,1,70,0,1
179043,-111.111111111111,4,2,1,70,0,1
179733,-133.333333333333,4,2,1,70,0,1
180250,-90.9090909090909,4,2,1,70,0,1
180767,-133.333333333333,4,2,1,70,0,1
181285,-90.9090909090909,4,2,1,70,0,1
181802,-111.111111111111,4,2,1,70,0,1
182147,-133.333333333333,4,2,1,70,0,1
183009,-90.9090909090909,4,2,1,70,0,1
183526,-133.333333333333,4,2,1,70,0,1
184043,-90.9090909090909,4,2,1,70,0,1
184560,-111.111111111111,4,2,1,70,0,1
185250,-133.333333333333,4,2,1,70,0,1
185767,-90.9090909090909,4,2,1,70,0,1
186285,-133.333333333333,4,2,1,70,0,1
186802,-90.9090909090909,4,2,1,70,0,1
187319,-111.111111111111,4,2,1,70,0,1
187664,-133.333333333333,4,2,1,70,0,1
188526,-90.9090909090909,4,2,1,70,0,1
189043,-133.333333333333,4,2,1,70,0,1
189560,-90.9090909090909,4,2,1,70,0,1
190078,-111.111111111111,4,2,1,70,0,1
190767,-133.333333333333,4,2,1,70,0,1
191285,-90.9090909090909,4,2,1,70,0,1
191802,-133.333333333333,4,2,1,70,0,1
192319,-90.9090909090909,4,2,1,70,0,1
192836,-111.111111111111,4,2,1,70,0,1
193181,-133.333333333333,4,2,1,70,0,1
194043,-90.9090909090909,4,2,1,70,0,1
194560,-133.333333333333,4,2,1,70,0,1
195078,-90.9090909090909,4,2,1,70,0,1
195595,-111.111111111111,4,2,1,70,0,1
196285,-133.333333333333,4,2,1,70,0,1
196802,-90.9090909090909,4,2,1,70,0,1
197319,-133.333333333333,4,2,1,70,0,1
197836,-90.9090909090909,4,2,1,70,0,1
198354,-111.111111111111,4,2,1,70,0,1
198698,-166.666666666667,4,2,1,70,0,1
199043,-166.666666666667,4,2,1,70,0,0

[Colours]
Combo1 : 237,119,141
Combo2 : 251,156,112
Combo3 : 248,207,148
Combo4 : 193,168,189

[HitObjects]
416,130,423,6,0,B|424:87|424:87|436:79|436:79|446:28,2,102,2|0|0,0:2|0:0|0:0,0:0:0:0:
320,249,1802,2,0,P|287:259|255:272,1,68,2|0,0:2|0:0,0:0:0:0:
171,269,2319,2,0,P|150:254|150:179,1,102,0|0,0:0|0:0,0:0:0:0:
264,70,3181,6,0,B|289:96|289:96|269:168,2,102,2|0|0,0:2|0:0|0:0,0:0:0:0:
161,20,4560,2,0,P|132:36|99:43,1,68,2|0,0:2|0:0,0:0:0:0:
57,118,5078,2,0,P|81:162|92:211,1,102,0|0,0:0|0:0,0:0:0:0:
221,326,5940,6,0,P|188:363|131:358,2,102,2|0|0,0:2|0:0|0:0,0:0:0:0:
334,226,7319,2,0,P|316:187|313:152,1,68,2|0,0:2|0:0,0:0:0:0:
242,108,7836,2,0,P|275:71|332:76,1,102,0|0,0:0|0:0,0:0:0:0:
405,190,8698,6,0,P|392:221|386:254,1,68,2|0,0:2|0:0,0:0:0:0:
294,227,9216,2,0,P|306:195|312:162,1,68,0|0,0:0|0:0,0:0:0:0:
498,218,9733,2,0,P|485:249|479:282,1,68,2|0,0:2|0:0,0:0:0:0:
256,192,10250,12,0,11371,0:0:0:0:
256,192,11457,5,6,3:2:0:0:
416,98,11802,1,0,0:0:0:0:
416,98,11974,2,0,P|440:119|427:195,1,101.999996887207,2|0,0:2|0:0,0:0:0:0:
358,234,12664,2,0,P|342:159|315:87,1,152.999995330811,2|0,0:2|0:0,0:0:0:0:
241,54,13354,2,0,P|216:61|191:66,1,50.9999984436036,2|0,0:2|0:0,0:0:0:0:
150,136,13698,1,2,0:2:0:0:
30,31,14043,6,0,P|59:49|59:121,1,101.999996887207,2|0,0:2|0:0,0:0:0:0:
226,194,14733,2,0,P|208:223|136:223,1,101.999996887207,2|0,0:2|0:0,0:0:0:0:
0,303,15423,2,0,B|68:285|98:324|83:350|126:384|192:359,1,203.999993774414,2|0,0:2|0:0,0:0:0:0:
256,325,16285,2,0,P|272:278|247:235,1,101.999996887207,2|2,0:2|0:2,0:0:0:0:
110,81,16974,6,0,P|132:153|145:229,1,152.999995330811,2|0,0:2|0:0,0:0:0:0:
321,119,18009,1,2,0:2:0:0:
321,119,18354,2,0,P|268:135|214:144,1,101.999996887207,2|0,0:2|0:0,0:0:0:0:
248,236,18871,2,0,P|300:219|354:210,1,101.999996887207,2|0,0:2|0:0,0:0:0:0:
353,218,19302,1,2,0:2:0:0:
359,224,19388,2,0,P|347:260|338:297,1,76.4999976654053,2|2,0:2|0:2,0:0:0:0:
344,316,19733,6,0,P|293:325|245:340,1,101.999996887207,2|0,0:2|0:0,0:0:0:0:
127,383,20250,2,0,P|143:334|154:285,1,101.999996887207,0|0,0:0|0:0,0:0:0:0:
177,162,20767,2,0,P|210:200|247:235,1,101.999996887207,0|2,0:0|0:2,0:0:0:0:
436,20,21457,6,0,L|425:79,1,50.9999984436036,2|0,0:2|0:0,0:0:0:0:
456,197,21802,2,0,L|411:157,1,50.9999984436036,2|0,0:2|0:0,0:0:0:0:
292,126,22147,2,0,L|349:106,1,50.9999984436036,2|0,0:2|0:0,0:0:0:0:
342,296,22491,5,6,3:2:0:0:
176,195,22836,1,0,0:0:0:0:
176,195,23009,2,0,P|170:163|160:133,1,63.7500024318696,2|0,0:2|0:0,0:0:0:0:
252,108,23354,2,0,P|257:139|267:169,1,63.7500024318696,0|0,0:0|0:0,0:0:0:0:
219,274,23698,2,0,P|169:236|109:249,1,127.500004863739,2|2,0:2|0:2,0:0:0:0:
0,59,24388,1,0,0:0:0:0:
0,59,24560,2,0,P|49:96|109:83,1,127.500004863739,2|0,0:2|0:0,0:0:0:0:
186,0,25078,6,0,P|193:63|209:124,1,127.500004863739,2|0,0:2|0:0,0:0:0:0:
266,201,25595,1,0,0:0:0:0:
266,201,25767,1,2,0:2:0:0:
378,8,26112,2,0,P|347:15|315:19,1,63.7500024318696,0|0,0:0|0:0,0:0:0:0:
301,114,26457,2,0,P|362:98|425:90,1,127.500004863739,2|2,0:2|0:2,0:0:0:0:
350,256,27147,1,0,0:0:0:0:
350,256,27319,2,0,P|346:224|338:193,1,63.7500024318696,2|0,0:2|0:0,0:0:0:0:
435,241,27664,2,0,P|427:210|423:178,1,63.7500024318696,2|0,0:2|0:0,0:0:0:0:
301,114,28009,6,0,B|240:132|240:132|208:190|208:190|128:213,1,191.250007295609,2|0,0:2|0:0,0:0:0:0:
0,14,28871,1,2,0:2:0:0:
0,13,29043,2,0,P|29:25|60:31,1,63.7500024318696,2|0,0:2|0:0,0:0:0:0:
166,0,29388,2,0,P|140:60|127:123,1,127.500004863739,2|0,0:2|0:0,0:0:0:0:
20,140,29905,2,0,P|59:191|108:235,1,127.500004863739,2|0,0:2|0:0,0:0:0:0:
96,331,30423,2,0,P|128:326|159:316,1,63.7500024318696,2|0,0:2|0:0,0:0:0:0:
284,191,30767,6,0,B|340:199|372:155|372:155|323:221|338:317|414:338|414:338|370:317|367:267,1,407.999987548829,2|0,0:2|0:0,0:0:0:0:
139,108,33526,6,0,B|102:90|84:52|84:52|86:95|65:129,1,159.375006079674,4|0,3:2|0:0,0:0:0:0:
47,229,34043,6,0,P|135:199|225:174,1,187.000005706787,0|0,3:2|0:0,0:0:0:0:
369,263,34560,6,0,B|406:245|423:207|423:207|422:250|442:284,1,159.375006079674,4|0,3:2|0:0,0:0:0:0:
461,384,35078,6,0,P|372:354|282:329,1,187.000005706787,0|0,3:2|0:0,0:0:0:0:
129,221,35595,6,0,P|181:227|229:180,1,114.749996498108,4|0,3:2|0:0,0:0:0:0:
225,173,35940,1,8,0:2:0:0:
67,147,36112,5,2,0:2:0:0:
67,147,36198,1,2,0:2:0:0:
67,147,36285,2,0,B|41:176|2:191|2:191|31:221|43:270,1,159.375006079674,4|0,3:2|0:0,0:0:0:0:
109,302,36802,6,0,B|174:320|174:320|201:366|201:366|280:387,1,187.000005706787,0|0,3:2|0:0,0:0:0:0:
468,279,37319,6,0,B|494:250|533:235|533:235|504:205|492:156,1,159.375006079674,4|0,3:2|0:0,0:0:0:0:
422,118,37836,6,0,B|357:136|357:136|330:182|330:182|251:203,1,187.000005706787,0|0,3:2|0:0,0:0:0:0:
70,117,38354,6,0,P|61:79|48:43,1,76.4999976654053,4|0,3:2|0:0,0:0:0:0:
251,103,38698,2,0,P|258:72|268:42,1,63.7500024318696,8|2,0:2|0:2,0:0:0:0:
163,12,38957,1,2,0:2:0:0:
155,19,39043,6,0,L|171:195,1,159.375006079674,6|0,3:2|0:0,0:0:0:0:
124,254,39560,6,0,B|172:271|187:318|187:318|195:260|238:233,1,187.000005706787,0|0,3:2|0:0,0:0:0:0:
364,74,40078,6,0,B|398:48|400:6|400:6|420:52|461:63,1,159.375006079674,4|0,3:2|0:0,0:0:0:0:
512,139,40595,6,0,P|419:149|327:166,1,187.000005706787,0|0,3:2|0:0,0:0:0:0:
166,27,41112,6,0,P|211:19|258:75,1,114.749996498108,4|0,3:2|0:0,0:0:0:0:
257,83,41457,1,8,0:2:0:0:
116,208,41629,5,2,0:2:0:0:
116,208,41716,1,2,0:2:0:0:
116,208,41802,2,0,B|122:150|88:112|88:112|114:138|149:136,1,159.375006079674,6|0,3:2|0:0,0:0:0:0:
219,205,42319,6,0,P|130:234|45:273,1,187.000005706787,0|0,3:2|0:0,0:0:0:0:
278,304,42836,6,0,B|330:292|374:332|374:332|348:306|350:271,1,159.375006079674,4|0,3:2|0:0,0:0:0:0:
349,201,43354,6,0,P|324:291|306:383,1,187.000005706787,0|0,3:2|0:0,0:0:0:0:
186,280,43871,5,6,3:2:0:0:
278,304,44043,1,2,0:2:0:0:
212,372,44216,5,10,0:2:0:0:
253,213,44388,1,2,0:2:0:0:
106,330,44560,6,0,P|74:321|14:315,1,76.4999976654053,4|2,3:2|0:2,0:0:0:0:
138,154,44905,2,0,P|101:150|64:139,1,76.4999976654053,2|0,0:2|3:2,0:0:0:0:
12,220,45250,2,0,L|163:251,1,152.999995330811,2|2,0:2|3:2,0:0:0:0:
219,317,45767,6,0,B|230:353|230:353|199:388,1,76.4999976654053,2|0,0:2|0:0,0:0:0:0:
162,251,46112,2,0,L|193:95,1,152.999995330811,2|2,3:2|0:2,0:0:0:0:
298,0,46629,2,0,P|263:13|225:20,1,76.4999976654053,0|2,3:2|0:2,0:0:0:0:
34,62,46974,2,0,P|72:69|107:82,1,76.4999976654053,0|0,3:2|0:0,0:0:0:0:
228,181,47319,5,0,3:2:0:0:
192,101,47491,1,2,0:2:0:0:
141,173,47664,1,2,0:2:0:0:
279,109,47836,1,2,3:2:0:0:
279,109,48009,2,0,P|315:120|352:127,1,76.4999976654053,2|0,0:2|0:0,0:0:0:0:
497,255,48354,5,2,3:2:0:0:
411,223,48526,2,0,P|365:225|346:290,1,114.749996498108,2|0,0:2|0:0,0:0:0:0:
333,301,48871,2,0,B|247:320|271:255|167:284,1,152.999995330811,2|2,3:2|0:2,0:0:0:0:
0,256,49388,2,0,P|-17:327|31:383,1,152.999995330811,2|2,3:2|3:2,0:0:0:0:
121,371,49905,5,2,0:2:0:0:
121,371,49991,1,2,0:2:0:0:
121,371,50078,2,0,P|96:298|84:223,1,152.999995330811,6|2,3:2|0:2,0:0:0:0:
0,124,50595,2,0,P|73:129|125:76,1,152.999995330811,2|2,3:2|0:2,0:0:0:0:
267,5,51112,5,0,3:2:0:0:
329,68,51285,2,0,B|344:126|344:126|309:193,1,114.749996498108,2|0,0:2|0:0,0:0:0:0:
310,186,51629,2,0,P|242:176|170:256,1,152.999995330811,0|2,3:2|0:2,0:0:0:0:
241,343,52147,2,0,P|249:305|262:269,1,76.4999976654053,0|2,3:2|0:2,0:0:0:0:
101,164,52491,2,0,P|92:201|79:237,1,76.4999976654053,0|2,3:2|0:2,0:0:0:0:
228,140,52836,5,4,3:2:0:0:
200,56,53009,2,0,P|160:9|105:46,1,114.749996498108,2|0,0:2|0:0,0:0:0:0:
120,39,53354,2,0,P|194:20|269:5,1,152.999995330811,0|0,3:2|0:0,0:0:0:0:
350,120,53871,2,0,P|406:131|461:145,1,114.749996498108,0|0,3:2|0:0,0:0:0:0:
472,153,54216,5,2,0:2:0:0:
463,57,54388,2,0,B|440:17|438:-16|438:-16|424:18|391:42,1,152.999995330811,0|2,3:2|0:2,0:0:0:0:
354,214,54905,2,0,P|396:222|437:233,1,76.4999976654053,0|2,3:2|0:2,0:0:0:0:
275,103,55250,2,0,P|312:110|349:119,1,76.4999976654053,0|2,3:2|0:2,0:0:0:0:
495,338,55595,6,0,P|457:330|420:321,1,76.4999976654053,6|0,3:2|0:0,0:0:0:0:
250,238,55940,2,0,P|240:275|233:312,1,76.4999976654053,2|2,0:2|3:2,0:0:0:0:
323,363,56285,2,0,P|334:287|354:214,1,152.999995330811,2|2,0:2|3:2,0:0:0:0:
287,48,56802,6,0,B|251:33|251:33|225:61,1,76.4999976654053,2|0,0:2|0:0,0:0:0:0:
200,150,57147,2,0,P|275:138|349:119,1,152.999995330811,2|2,3:2|0:2,0:0:0:0:
429,198,57664,2,0,P|391:204|354:213,1,76.4999976654053,0|2,3:2|0:2,0:0:0:0:
395,30,58009,2,0,P|418:59|445:86,1,76.4999976654053,0|0,3:2|0:0,0:0:0:0:
435,297,58354,6,0,P|397:303|360:312,1,76.4999976654053,4|0,3:2|0:0,0:0:0:0:
190,268,58698,2,0,P|227:262|264:252,1,76.4999976654053,2|0,0:2|3:2,0:0:0:0:
290,369,59043,2,0,P|252:375|215:384,1,76.4999976654053,2|0,0:2|0:0,0:0:0:0:
47,293,59388,5,2,3:2:0:0:
119,351,59560,1,2,0:2:0:0:
33,384,59733,1,2,0:2:0:0:
62,203,59905,2,0,P|46:128|39:52,1,152.999995330811,2|2,3:2|0:2,0:0:0:0:
161,160,60423,2,0,P|153:122|149:84,1,76.4999976654053,0|2,3:2|0:2,0:0:0:0:
133,260,60767,2,0,P|170:252|208:248,1,76.4999976654053,0|2,3:2|0:2,0:0:0:0:
357,137,61112,5,4,3:2:0:0:
303,315,61457,1,0,3:2:0:0:
241,138,61802,1,0,3:2:0:0:
394,245,62147,1,0,3:2:0:0:
424,32,62491,5,4,3:2:0:0:
301,218,62836,1,0,3:2:0:0:
512,155,63181,1,0,3:2:0:0:
299,28,63526,1,0,3:2:0:0:
394,245,63871,5,4,3:2:0:0:
416,162,64043,1,2,3:2:0:0:
479,260,64216,5,0,3:2:0:0:
418,151,64388,1,0,3:2:0:0:
335,308,64560,5,0,3:2:0:0:
420,140,64733,1,2,3:2:0:0:
512,342,64905,5,2,3:2:0:0:
422,129,65078,1,0,3:2:0:0:
177,15,66629,6,0,P|114:34|47:42,1,133.874995914459,6|0,3:2|0:0,0:0:0:0:
32,40,66974,1,10,0:2:0:0:
185,134,67147,1,2,0:2:0:0:
185,134,67233,1,2,0:2:0:0:
185,134,67319,2,0,P|140:140|98:154,1,89.2499972763062,2|2,0:2|3:2,0:0:0:0:
65,356,67664,2,0,P|119:328|113:252,1,133.874995914459,10|0,0:2|0:0,0:0:0:0:
101,251,68009,6,0,B|71:254|37:232|37:232|33:276|-3:308,1,133.874995914459,2|0,3:2|0:0,0:0:0:0:
0,309,68354,1,8,0:2:0:0:
200,348,68526,2,0,P|268:363|336:385,1,133.874995914459,2|0,3:2|0:0,0:0:0:0:
342,381,68871,1,0,3:2:0:0:
495,252,69043,2,0,P|504:209|480:172,1,89.2499972763062,10|2,0:2|0:2,0:0:0:0:
396,163,69302,1,2,0:2:0:0:
391,174,69388,6,0,P|400:244|420:316,1,133.874995914459,2|0,3:2|0:0,0:0:0:0:
423,318,69733,1,10,0:2:0:0:
296,193,69905,1,2,0:2:0:0:
296,193,69991,1,2,0:2:0:0:
296,193,70078,2,0,P|301:237|313:280,1,89.2499972763062,2|2,0:2|3:2,0:0:0:0:
481,172,70423,2,0,P|501:125|443:65,1,133.874995914459,10|0,0:2|0:0,0:0:0:0:
440,62,70767,6,0,P|396:73|352:79,1,89.2499972763062,2|0,3:2|0:0,0:0:0:0:
170,59,71112,1,12,0:2:0:0:
241,0,71285,2,0,B|274:30|274:30|257:83,1,89.2499972763062,2|0,3:2|0:0,0:0:0:0:
99,118,71629,2,0,B|66:88|66:88|83:35,1,89.2499972763062,4|10,3:2|0:2,0:0:0:0:
204,159,71974,5,2,0:2:0:0:
204,159,72060,1,2,0:2:0:0:
204,158,72147,2,0,P|192:205|183:252,1,95.6250036478044,6|0,3:2|0:0,0:0:0:0:
130,346,72491,6,0,P|189:284|274:296,1,178.499994552612,14|2,0:2|0:2,0:0:0:0:
435,193,73009,1,2,3:2:0:0:
373,334,73181,2,0,P|358:268|337:205,1,133.874995914459,10|0,0:2|0:0,0:0:0:0:
341,189,73526,6,0,B|265:212|287:142|178:185,1,133.874995914459,2|0,3:2|0:0,0:0:0:0:
198,167,73871,1,8,0:2:0:0:
98,311,74043,2,0,P|118:267|90:187,1,133.874995914459,2|0,3:2|0:0,0:0:0:0:
78,180,74388,1,0,3:2:0:0:
140,35,74560,2,0,P|110:70|56:67,1,89.2499972763062,10|2,0:2|0:2,0:0:0:0:
0,15,74819,1,2,0:2:0:0:
10,6,74905,6,0,L|158:39,1,133.874995914459,2|0,3:2|0:0,0:0:0:0:
155,30,75250,1,10,0:2:0:0:
263,151,75423,1,2,0:2:0:0:
263,151,75509,1,2,0:2:0:0:
263,151,75595,2,0,P|248:193|240:237,1,89.2499972763062,2|2,0:2|3:2,0:0:0:0:
109,384,75940,2,0,P|62:346|80:271,1,133.874995914459,10|0,0:2|0:0,0:0:0:0:
80,270,76285,6,0,P|140:298|205:314,1,133.874995914459,2|0,3:2|0:0,0:0:0:0:
226,309,76629,2,0,B|258:277|258:277|236:225,1,89.2499972763062,14|0,0:2|3:2,0:0:0:0:
153,116,76974,1,6,0:2:0:0:
296,161,77147,1,0,3:2:0:0:
151,208,77319,1,14,0:2:0:0:
241,86,77491,5,2,0:2:0:0:
241,86,77578,1,2,0:2:0:0:
241,86,77664,2,0,P|303:63|368:44,1,133.874995914459,6|0,3:2|0:0,0:0:0:0:
375,29,78009,1,10,0:2:0:0:
507,136,78181,1,2,0:2:0:0:
507,136,78267,1,2,0:2:0:0:
507,136,78354,2,0,B|533:100|533:100|506:49,1,89.2499972763062,2|2,0:2|3:2,0:0:0:0:
386,190,78698,2,0,P|406:253|418:319,1,133.874995914459,10|0,0:2|0:0,0:0:0:0:
414,333,79043,6,0,P|348:345|284:365,1,133.874995914459,2|0,3:2|0:0,0:0:0:0:
277,377,79388,1,8,0:2:0:0:
147,240,79560,2,0,P|212:227|276:207,1,133.874995914459,2|0,3:2|0:0,0:0:0:0:
284,196,79905,1,0,3:2:0:0:
185,338,80078,1,10,0:2:0:0:
67,191,80250,5,2,0:2:0:0:
67,191,80336,1,2,0:2:0:0:
67,191,80423,2,0,L|99:61,1,133.874995914459,2|0,3:2|0:0,0:0:0:0:
93,44,80767,1,10,0:2:0:0:
207,127,80940,1,2,0:2:0:0:
207,127,81026,1,2,0:2:0:0:
207,127,81112,2,0,L|294:105,1,89.2499972763062,2|2,0:2|3:2,0:0:0:0:
426,9,81457,2,0,P|476:38|465:110,1,133.874995914459,10|0,0:2|0:0,0:0:0:0:
456,118,81802,6,0,P|438:182|427:248,1,133.874995914459,2|0,3:2|0:0,0:0:0:0:
436,268,82147,1,8,0:2:0:0:
274,369,82319,1,2,3:2:0:0:
310,215,82491,2,0,P|321:258|338:299,1,89.2499972763062,6|0,0:2|3:2,0:0:0:0:
393,383,82836,1,14,0:2:0:0:
209,265,83009,5,2,0:2:0:0:
209,265,83095,1,2,0:2:0:0:
209,265,83181,2,0,P|222:219|228:171,1,95.6250036478044,6|0,3:2|0:0,0:0:0:0:
310,215,83526,6,0,B|252:196|252:196|198:219|198:219|124:197,1,178.499994552612,14|2,0:2|0:2,0:0:0:0:
0,88,84043,1,2,3:2:0:0:
122,13,84216,2,0,P|97:75|80:139,1,133.874995914459,10|0,0:2|0:0,0:0:0:0:
65,149,84560,6,0,P|45:194|77:273,1,133.874995914459,2|0,3:2|0:0,0:0:0:0:
86,279,84905,1,8,0:2:0:0:
224,252,85078,2,0,P|244:207|212:128,1,133.874995914459,2|0,3:2|0:0,0:0:0:0:
203,122,85423,1,0,3:2:0:0:
142,202,85595,1,10,0:2:0:0:
243,350,85767,5,2,0:2:0:0:
243,350,85854,1,2,0:2:0:0:
243,350,85940,2,0,P|309:358|378:381,1,133.874995914459,2|0,3:2|0:0,0:0:0:0:
387,374,86285,1,10,0:2:0:0:
327,257,86457,1,2,0:2:0:0:
327,257,86543,1,2,0:2:0:0:
327,257,86629,2,0,P|341:214|347:170,1,89.2499972763062,2|2,0:2|3:2,0:0:0:0:
488,43,86974,2,0,P|463:115|452:191,1,133.874995914459,10|0,0:2|0:0,0:0:0:0:
463,191,87319,5,2,0:2:0:0:
211,98,87664,6,0,P|245:105|299:64,1,95.6250036478044,2|0,0:2|0:0,0:0:0:0:
335,0,88009,2,0,P|311:25|320:93,1,95.6250036478044,2|0,0:2|0:0,0:0:0:0:
357,156,88354,2,0,P|346:123|283:96,1,95.6250036478044,2|0,3:2|0:0,0:0:0:0:
274,182,88698,6,0,B|295:230|262:257|251:250|218:285|253:347,1,159.375006079674,4|0,3:2|0:3,0:3:0:0:
307,380,89216,6,0,B|343:355|398:365|398:365|343:345|331:297,1,187.000005706787,0|0,3:2|0:0,0:0:0:0:
184,100,89733,6,0,B|149:123|108:119|108:119|146:139|165:174,1,159.375006079674,4|0,3:2|0:0,0:0:0:0:
228,249,90250,6,0,P|249:158|281:70,1,187.000005706787,0|0,3:2|0:0,0:0:0:0:
43,42,90767,6,0,P|26:113|0:182,1,114.749996498108,4|0,3:2|0:0,0:0:0:0:
5,164,91112,1,8,0:2:0:0:
125,273,91285,5,2,0:2:0:0:
125,273,91371,1,2,0:2:0:0:
125,273,91457,2,0,B|71:237|30:295|30:295|53:320|66:360,1,159.375006079674,6|0,3:2|0:0,0:0:0:0:
122,379,91974,6,0,B|184:362|184:362|213:311|213:311|302:290,1,187.000005706787,0|0,3:2|0:0,0:0:0:0:
429,161,92491,6,0,B|483:125|524:183|524:183|501:208|488:248,1,159.375006079674,4|0,3:2|0:0,0:0:0:0:
432,267,93009,6,0,B|370:250|370:250|341:199|341:199|251:178,1,187.000005706787,0|0,3:2|0:0,0:0:0:0:
0,191,93526,6,0,P|15:159|31:124,1,76.4999976654053,4|0,3:2|0:0,0:0:0:0:
196,222,93871,2,0,P|192:190|191:159,1,63.7500024318696,8|0,0:2|0:0,0:0:0:0:
82,244,94216,6,0,L|126:82,1,159.375006079674,4|0,3:2|0:0,0:0:0:0:
104,1,94733,6,0,B|132:36|124:90|124:90|143:43|192:25,1,187.000005706787,0|0,3:2|0:0,0:0:0:0:
379,136,95250,6,0,B|435:150|478:123|478:123|448:144|444:179,1,159.375006079674,4|0,3:2|0:0,0:0:0:0:
381,231,95767,6,0,P|402:140|413:47,1,187.000005706787,0|0,3:2|0:0,0:0:0:0:
226,121,96285,6,0,P|212:176|205:233,1,114.749996498108,4|0,3:2|0:0,0:0:0:0:
211,245,96629,1,8,0:2:0:0:
70,361,96802,5,2,0:2:0:0:
70,361,96888,1,2,0:2:0:0:
70,361,96974,2,0,B|48:312|81:285|92:292|125:257|90:195,1,159.375006079674,6|0,3:2|0:3,0:3:0:0:
0,174,97491,6,0,P|89:182|151:116,1,187.000005706787,0|0,3:2|0:0,0:0:0:0:
322,240,98009,6,0,P|379:227|452:307,1,159.375006079674,4|0,3:2|0:0,0:0:0:0:
467,384,98526,6,0,P|484:292|511:202,1,187.000005706787,0|0,3:2|0:0,0:0:0:0:
375,12,99043,6,0,B|343:34|343:34|367:94,1,76.4999976654053,4|0,3:2|0:0,0:0:0:0:
469,105,99388,2,0,B|496:85|496:85|482:36,1,63.7500024318696,8|0,0:2|0:0,0:0:0:0:
302,159,99733,5,6,3:2:0:0:
137,32,100078,1,0,0:0:0:0:
137,32,100250,2,0,P|100:68|40:54,1,101.999996887207,2|0,0:2|0:0,0:0:0:0:
194,209,100940,2,0,P|211:134|231:60,1,152.999995330811,2|0,0:2|0:0,0:0:0:0:
300,14,101629,2,0,P|326:31|361:32,1,50.9999984436036,0|2,0:0|0:2,0:0:0:0:
427,23,101974,1,0,0:0:0:0:
316,236,102319,6,0,P|307:185|291:137,1,101.999996887207,2|0,0:2|0:0,0:0:0:0:
483,198,103009,2,0,P|466:149|458:99,1,101.999996887207,2|0,0:2|0:0,0:0:0:0:
368,89,103698,2,0,P|388:162|404:237,1,152.999995330811,2|2,0:2|0:0,0:0:0:0:
390,322,104388,1,0,0:0:0:0:
390,322,104560,2,0,L|320:343,1,50.9999984436036,2|0,0:2|0:0,0:0:0:0:
267,302,104905,1,2,0:2:0:0:
476,384,105250,6,0,P|490:308|512:235,1,152.999995330811,2|0,0:2|0:0,0:0:0:0:
379,15,106112,1,0,0:0:0:0:
379,15,106285,2,0,P|372:49|362:82,1,50.9999984436036,2|0,0:2|0:0,0:0:0:0:
451,144,106629,2,0,P|409:138|358:189,1,101.999996887207,2|0,0:2|0:0,0:0:0:0:
299,114,107147,2,0,P|272:147|291:217,1,101.999996887207,2|0,0:2|0:0,0:0:0:0:
348,260,107664,2,0,L|401:276,1,50.9999984436036,2|0,0:2|0:0,0:0:0:0:
257,324,108009,6,0,P|207:335|159:352,1,101.999996887207,2|0,0:2|0:0,0:0:0:0:
67,384,108526,2,0,P|81:335|90:284,1,101.999996887207,0|0,0:0|0:0,0:0:0:0:
111,190,109043,2,0,P|146:226|184:260,1,101.999996887207,0|2,0:0|0:2,0:0:0:0:
189,30,109733,6,0,L|136:20,1,50.9999984436036,2|0,0:2|0:0,0:0:0:0:
243,113,110078,2,0,L|190:123,1,50.9999984436036,2|0,0:2|0:0,0:0:0:0:
336,9,110423,2,0,L|283:-1,1,50.9999984436036,2|0,0:2|0:0,0:0:0:0:
281,201,110767,5,4,3:2:0:0:
281,201,111112,2,0,P|321:188|336:102,1,127.500004863739,2|0,0:2|0:0,0:0:0:0:
336,9,111629,2,0,P|366:19|397:23,1,63.7500024318696,0|0,0:0|0:0,0:0:0:0:
243,113,111974,2,0,P|183:93|49:81,1,191.250007295609,2|0,0:2|0:0,0:0:0:0:
3,142,112664,2,0,P|-1:173|16:199,1,63.7500024318696,2|0,0:2|0:0,0:0:0:0:
85,243,113009,1,0,0:0:0:0:
0,384,113354,6,0,P|58:350|137:346,1,127.500004863739,2|0,0:2|0:0,0:0:0:0:
207,116,114043,2,0,P|149:150|70:154,1,127.500004863739,2|0,0:2|0:0,0:0:0:0:
37,93,114560,1,0,0:0:0:0:
36,93,114733,2,0,P|153:141|276:175,1,255.000009727478,2|0,0:2|0:0,0:0:0:0:
353,137,115595,2,0,P|371:111|365:74,1,63.7500024318696,2|0,0:2|0:0,0:0:0:0:
301,26,115940,2,0,P|283:52|289:89,1,63.7500024318696,2|0,0:2|0:0,0:0:0:0:
420,206,116285,6,0,P|330:240|243:278,1,191.250007295609,2|0,0:2|0:0,0:0:0:0:
35,102,117147,1,2,0:2:0:0:
34,102,117319,2,0,P|48:72|56:42,1,63.7500024318696,2|0,0:2|0:0,0:0:0:0:
158,45,117664,2,0,P|131:105|113:168,1,127.500004863739,2|0,0:2|0:0,0:0:0:0:
169,241,118181,2,0,P|234:234|298:217,1,127.500004863739,2|0,0:2|0:0,0:0:0:0:
333,133,118698,2,0,P|318:108|294:79,1,63.7500024318696,2|0,0:2|0:0,0:0:0:0:
218,135,119043,6,0,B|146:233|200:333|274:365|335:348|374:287|349:221|285:218,1,407.999987548829,2|0,0:2|0:0,0:0:0:0:
495,19,121802,6,0,B|441:32|441:32|420:82|420:82|354:99,1,159.375006079674,4|0,3:2|0:0,0:0:0:0:
288,56,122319,6,0,B|311:68|346:79|346:79|318:138|308:205,1,187.000005706787,0|0,3:2|0:0,0:0:0:0:
209,381,122836,6,0,B|155:368|155:368|134:318|134:318|68:301,1,159.375006079674,4|0,3:2|0:0,0:0:0:0:
2,344,123354,6,0,B|25:331|60:320|60:320|32:261|22:194,1,187.000005706787,0|0,3:2|0:0,0:0:0:0:
184,99,123871,6,0,P|142:141|77:133,1,114.749996498108,4|0,3:2|0:0,0:0:0:0:
77,130,124216,1,8,0:2:0:0:
178,5,124388,5,2,0:2:0:0:
178,5,124474,1,2,0:2:0:0:
178,5,124560,2,0,B|228:-9|250:26|242:36|273:73|339:45,1,159.375006079674,6|0,3:2|0:3,0:3:0:0:
395,91,125078,6,0,B|423:56|479:52|479:52|427:49|374:-18,1,187.000005706787,0|0,3:2|0:0,0:0:0:0:
294,216,125595,6,0,B|243:230|221:194|229:184|198:147|132:175,1,159.375006079674,4|0,3:2|0:3,0:3:0:0:
77,130,126112,6,0,B|49:165|-7:169|-7:169|45:172|98:239,1,187.000005706787,0|0,3:2|0:0,0:0:0:0:
240,340,126629,6,0,P|230:302|214:268,1,76.4999976654053,4|0,3:2|0:0,0:0:0:0:
367,155,126974,2,0,P|376:192|392:226,1,63.7500024318696,8|2,0:2|0:2,0:0:0:0:
450,284,127233,1,2,0:2:0:0:
456,278,127319,6,0,P|381:250|303:234,1,159.375006079674,6|0,3:2|0:0,0:0:0:0:
224,179,127836,6,0,B|170:135|213:71|213:71|258:73|270:108,1,187.000005706787,0|0,3:2|0:0,0:0:0:0:
119,307,128354,6,0,B|65:343|24:285|24:285|47:260|60:220,1,159.375006079674,4|0,3:2|0:0,0:0:0:0:
124,204,128871,6,0,P|151:278|171:390,1,187.000005706787,0|0,3:2|0:0,0:0:0:0:
224,179,129388,6,0,P|205:129|192:54,1,114.749996498108,4|0,3:2|0:0,0:0:0:0:
200,54,129733,1,8,0:2:0:0:
314,233,129905,5,2,0:2:0:0:
314,233,129991,1,2,0:2:0:0:
314,233,130078,2,0,P|237:222|182:275,1,159.375006079674,6|0,3:2|0:0,0:0:0:0:
85,292,130595,6,0,B|136:275|173:307|163:328|193:366|258:343,1,187.000005706787,0|0,3:2|0:0,0:0:0:0:
426,295,131112,6,0,P|436:218|383:163,1,159.375006079674,4|0,3:2|0:0,0:0:0:0:
367,67,131629,6,0,B|384:118|352:155|331:145|293:175|316:240,1,187.000005706787,0|0,3:2|0:0,0:0:0:0:
187,107,132147,5,4,3:2:0:0:
277,87,132319,1,0,0:0:0:0:
215,20,132491,5,8,0:2:0:0:
249,174,132664,1,0,0:0:0:0:
125,40,132836,6,0,P|87:32|50:22,1,76.4999976654053,4|0,3:2|0:0,0:0:0:0:
89,209,133181,2,0,P|52:198|14:191,1,76.4999976654053,2|0,0:2|3:2,0:0:0:0:
0,98,133526,2,0,L|174:140,1,152.999995330811,2|2,0:2|3:2,0:0:0:0:
308,212,134043,6,0,P|329:181|324:137,1,76.4999976654053,2|0,0:2|0:0,0:0:0:0:
248,75,134388,2,0,P|233:150|213:224,1,152.999995330811,2|2,3:2|0:2,0:0:0:0:
324,345,134905,2,0,P|295:319|268:292,1,76.4999976654053,0|2,3:2|0:2,0:0:0:0:
108,328,135250,2,0,P|144:315|181:305,1,76.4999976654053,0|0,3:2|0:0,0:0:0:0:
308,212,135595,5,0,3:2:0:0:
250,136,135767,1,2,0:2:0:0:
213,224,135940,1,2,0:2:0:0:
345,124,136112,1,2,3:2:0:0:
344,124,136285,2,0,P|350:86|362:49,1,76.4999976654053,2|0,0:2|0:0,0:0:0:0:
470,254,136629,5,2,3:2:0:0:
503,174,136802,2,0,P|460:164|400:206,1,114.749996498108,2|0,0:2|0:0,0:0:0:0:
389,201,137147,2,0,B|386:234|357:271|357:271|395:292|410:323,1,152.999995330811,2|2,3:2|0:2,0:0:0:0:
233,362,137664,2,0,B|236:329|265:292|265:292|227:271|212:240,1,152.999995330811,2|2,3:2|3:2,0:0:0:0:
108,97,138181,5,2,0:2:0:0:
108,97,138267,1,2,0:2:0:0:
108,97,138354,2,0,P|131:139|239:134,1,152.999995330811,6|2,3:2|0:2,0:0:0:0:
401,108,138871,2,0,P|378:66|270:71,1,152.999995330811,2|2,3:2|0:2,0:0:0:0:
191,223,139388,5,0,3:2:0:0:
283,225,139560,2,0,P|333:206|329:153,1,114.749996498108,2|0,0:2|0:0,0:0:0:0:
318,146,139905,2,0,P|336:220|350:295,1,152.999995330811,2|2,3:2|0:2,0:0:0:0:
507,264,140423,2,0,P|469:256|432:247,1,76.4999976654053,0|2,3:2|0:2,0:0:0:0:
330,384,140767,2,0,P|367:374|404:367,1,76.4999976654053,0|2,3:2|0:2,0:0:0:0:
205,177,141112,5,4,3:2:0:0:
163,255,141285,2,0,P|193:301|253:294,1,114.749996498108,2|0,0:2|0:0,0:0:0:0:
259,311,141629,2,0,P|277:226|303:155,1,152.999995330811,0|0,3:2|0:0,0:0:0:0:
149,54,142147,2,0,P|135:114|117:165,1,114.749996498108,0|0,3:2|0:0,0:0:0:0:
110,169,142491,5,2,0:2:0:0:
163,255,142664,2,0,B|186:313|130:354|130:354|104:310,1,152.999995330811,0|2,3:2|0:2,0:0:0:0:
226,186,143181,2,0,P|263:177|299:164,1,76.4999976654053,0|2,3:2|0:2,0:0:0:0:
429,274,143526,2,0,P|392:261|355:252,1,76.4999976654053,0|2,3:2|0:2,0:0:0:0:
161,116,143871,6,0,P|124:128|87:137,1,76.4999976654053,6|2,3:2|0:2,0:0:0:0:
134,292,144216,2,0,P|141:254|152:217,1,76.4999976654053,2|0,0:2|3:2,0:0:0:0:
0,180,144560,1,2,0:2:0:0:
0,180,144733,2,0,P|28:205|55:232,1,76.4999976654053,2|0,0:2|3:2,0:0:0:0:
215,365,145078,6,0,P|255:373|310:321,1,114.749996498108,2|0,0:2|0:0,0:0:0:0:
319,313,145423,2,0,B|312:280|282:247|282:247|314:216|323:157,1,152.999995330811,2|2,3:2|0:2,0:0:0:0:
463,225,145940,2,0,P|425:232|391:249,1,76.4999976654053,0|2,3:2|0:2,0:0:0:0:
245,106,146285,2,0,P|282:98|316:81,1,76.4999976654053,0|0,3:2|0:0,0:0:0:0:
119,0,146629,5,4,3:2:0:0:
136,86,146802,1,2,0:2:0:0:
203,28,146974,1,2,0:2:0:0:
52,58,147147,1,2,3:2:0:0:
52,58,147319,2,0,B|38:95|38:95|64:133,1,76.4999976654053,2|0,0:2|0:0,0:0:0:0:
222,257,147664,5,2,3:2:0:0:
254,158,147836,2,0,P|199:174|142:185,1,114.749996498108,2|0,0:2|0:0,0:0:0:0:
139,197,148181,2,0,P|101:204|64:215,1,76.4999976654053,2|2,3:2|0:2,0:0:0:0:
142,348,148526,1,2,0:2:0:0:
57,311,148698,2,0,P|38:315|19:319,2,38.2499988327027,0|2|2,3:2|0:2|0:2,0:0:0:0:
226,384,149043,2,0,P|263:374|302:366,1,76.4999976654053,2|2,3:2|0:2,0:0:0:0:
417,213,149388,5,6,3:2:0:0:
232,268,149733,1,0,3:2:0:0:
414,330,150078,1,0,3:2:0:0:
304,174,150423,1,0,3:2:0:0:
502,89,150767,5,4,3:2:0:0:
327,278,151112,1,0,3:2:0:0:
243,25,151457,1,0,3:2:0:0:
453,214,151802,1,0,3:2:0:0:
203,335,152147,5,4,3:2:0:0:
133,290,152319,1,2,3:2:0:0:
234,248,152491,5,0,3:2:0:0:
125,293,152664,1,0,3:2:0:0:
282,359,152836,5,0,3:2:0:0:
117,296,153009,1,2,3:2:0:0:
286,167,153181,5,2,3:2:0:0:
109,299,153354,1,0,3:2:0:0:
289,30,154905,6,0,P|353:26|400:72,1,133.874995914459,4|0,3:2|0:0,0:0:0:0:
412,90,155250,1,10,0:2:0:0:
296,212,155423,1,2,0:2:0:0:
296,212,155509,1,2,0:2:0:0:
296,211,155595,2,0,P|309:168|319:124,1,89.2499972763062,2|2,0:2|3:2,0:0:0:0:
442,281,155940,2,0,P|377:277|330:323,1,133.874995914459,10|0,0:2|0:0,0:0:0:0:
334,341,156285,6,0,P|269:324|203:310,1,133.874995914459,2|0,3:2|0:0,0:0:0:0:
190,317,156629,1,8,0:2:0:0:
107,169,156802,2,0,P|135:122|214:130,1,133.874995914459,2|0,3:2|0:0,0:0:0:0:
221,141,157147,1,0,3:2:0:0:
389,90,157319,2,0,P|415:55|405:13,1,89.2499972763062,10|2,0:2|0:2,0:3:0:0:
298,39,157578,1,2,0:2:0:0:
293,54,157664,6,0,P|310:118|321:184,1,133.874995914459,2|0,3:2|0:0,0:0:0:0:
325,197,158009,1,10,0:2:0:0:
241,345,158181,1,2,0:2:0:0:
241,345,158267,1,2,0:2:0:0:
241,345,158354,2,0,P|197:353|154:365,1,89.2499972763062,2|2,0:2|3:2,0:0:0:0:
0,261,158698,2,0,P|33:219|114:236,1,133.874995914459,10|0,0:2|0:0,0:0:0:0:
121,245,159043,6,0,P|138:203|148:160,1,89.2499972763062,2|0,3:2|0:0,0:0:0:0:
295,55,159388,1,12,0:2:0:0:
207,26,159560,2,0,B|189:66|189:66|225:108,1,89.2499972763062,2|0,3:2|0:0,0:0:0:0:
385,76,159905,2,0,B|403:36|403:36|367:-6,1,89.2499972763062,4|10,3:2|0:2,0:0:0:0:
315,158,160250,5,2,0:2:0:0:
315,158,160336,1,2,0:2:0:0:
315,158,160423,2,0,P|336:200|346:247,1,95.6250036478044,6|0,3:2|0:0,0:0:0:0:
302,333,160767,6,0,B|292:289|292:289|379:251|423:358,1,178.499994552612,14|2,0:2|0:2,0:0:0:0:
512,145,161285,1,2,3:2:0:0:
398,60,161457,2,0,P|418:123|433:188,1,133.874995914459,10|0,0:2|0:0,0:0:0:0:
439,201,161802,6,0,P|375:180|310:165,1,133.874995914459,2|0,3:2|0:0,0:0:0:0:
293,166,162147,1,8,0:2:0:0:
224,0,162319,2,0,P|203:63|188:128,1,133.874995914459,2|0,3:2|0:3,0:3:0:0:
189,146,162664,1,0,3:2:0:0:
63,230,162836,2,0,P|25:182|58:137,1,89.2499972763062,10|2,0:2|0:2,0:0:0:0:
86,90,163095,1,2,0:2:0:0:
93,100,163181,6,0,L|58:256,1,133.874995914459,2|0,3:2|0:0,0:0:0:0:
69,247,163526,1,8,0:2:0:0:
190,362,163698,1,2,0:2:0:0:
190,362,163785,1,2,0:2:0:0:
190,361,163871,2,0,P|231:345|275:335,1,89.2499972763062,2|2,0:2|3:2,0:0:0:0:
452,249,164216,2,0,P|409:201|328:229,1,133.874995914459,10|0,0:2|0:0,0:0:0:0:
334,228,164560,6,0,P|357:290|373:355,1,133.874995914459,2|0,3:2|0:0,0:0:0:0:
387,366,164905,2,0,P|433:373|467:349,1,89.2499972763062,12|2,0:2|3:2,0:0:0:0:
512,165,165250,1,4,0:2:0:0:
452,249,165423,1,0,3:2:0:0:
374,58,165595,1,14,0:2:0:0:
314,142,165767,5,2,0:2:0:0:
314,142,165854,1,2,0:2:0:0:
314,142,165940,2,0,P|248:126|182:117,1,133.874995914459,6|0,3:2|0:0,0:0:0:0:
170,110,166285,1,10,0:2:0:0:
275,239,166457,1,2,0:2:0:0:
275,239,166543,1,2,0:2:0:0:
275,239,166629,2,0,P|229:228|183:221,1,89.2499972763062,2|2,0:2|3:2,0:0:0:0:
209,19,166974,2,0,P|274:34|340:43,1,133.874995914459,10|0,0:2|0:0,0:0:0:0:
355,31,167319,6,0,P|403:56|391:144,1,133.874995914459,2|0,3:2|0:0,0:0:0:0:
392,144,167664,1,8,0:2:0:0:
508,259,167836,2,0,P|443:276|380:300,1,133.874995914459,2|0,3:2|0:0,0:0:0:0:
367,314,168181,1,0,3:2:0:0:
205,264,168354,1,10,0:2:0:0:
312,186,168526,5,2,0:2:0:0:
312,186,168612,1,2,0:2:0:0:
312,186,168698,2,0,P|292:250|278:315,1,133.874995914459,2|0,3:2|0:0,0:0:0:0:
278,337,169043,1,10,0:2:0:0:
106,287,169216,1,2,0:2:0:0:
106,287,169302,1,2,0:2:0:0:
106,287,169388,2,0,P|121:237|131:186,1,89.2499972763062,2|2,0:2|3:2,0:0:0:0:
268,40,169733,2,0,P|235:82|148:55,1,133.874995914459,10|0,0:2|0:0,0:0:0:0:
158,58,170078,6,0,B|133:42|121:7|121:7|95:35|46:39,1,133.874995914459,2|0,3:2|0:0,0:0:0:0:
46,30,170423,1,8,0:2:0:0:
129,200,170595,1,2,3:2:0:0:
0,152,170767,2,0,P|42:139|84:123,1,89.2499972763062,4|0,0:2|3:2,0:0:0:0:
43,246,171112,1,14,0:2:0:0:
233,179,171285,5,2,0:2:0:0:
233,179,171371,1,2,0:2:0:0:
233,178,171457,2,0,P|214:221|204:268,1,95.6250036478044,6|0,3:2|0:0,0:0:0:0:
149,332,171802,6,0,B|211:317|211:317|237:277|237:277|324:257,1,178.499994552612,14|2,0:2|0:2,0:0:0:0:
482,301,172319,1,2,3:2:0:0:
363,384,172491,2,0,P|382:319|394:254,1,133.874995914459,10|0,0:2|0:0,0:0:0:0:
409,245,172836,6,0,P|372:208|390:132,1,133.874995914459,2|0,3:2|0:0,0:0:0:0:
403,128,173181,1,8,0:2:0:0:
223,73,173354,2,0,P|236:22|311:0,1,133.874995914459,2|0,3:2|0:0,0:0:0:0:
321,9,173698,1,0,3:2:0:0:
256,193,173871,1,10,0:2:0:0:
121,106,174043,5,2,0:2:0:0:
121,106,174129,1,2,0:2:0:0:
121,106,174216,2,0,B|104:120|76:135|76:135|92:166|109:218,1,133.874995914459,2|0,3:2|0:0,0:0:0:0:
100,226,174560,1,10,0:2:0:0:
238,332,174733,1,2,0:2:0:0:
238,332,174819,1,2,0:2:0:0:
238,331,174905,2,0,P|278:314|322:302,1,89.2499972763062,2|2,0:2|3:2,0:0:0:0:
430,143,175250,2,0,P|479:183|471:247,1,133.874995914459,10|0,0:2|0:0,0:0:0:0:
473,261,175595,5,2,0:2:0:0:
215,139,175940,6,0,B|210:117|199:94|199:94|220:84|247:61,1,95.6250036478044,2|0,0:2|0:0,0:0:0:0:
316,46,176285,2,0,B|337:52|362:54|362:54|360:77|367:112,1,95.6250036478044,2|0,0:2|0:0,0:0:0:0:
345,180,176629,2,0,B|328:195|314:216|314:216|295:202|261:191,1,95.6250036478044,2|0,0:2|0:0,0:0:0:0:
293,123,176974,6,0,P|393:152|465:166,1,159.375006079674,4|0,3:2|0:0,0:0:0:0:
507,111,177491,6,0,B|535:43|471:4|471:4|439:28|434:71,1,187.000005706787,0|0,3:2|0:0,0:0:0:0:
329,280,178009,6,0,P|251:296|174:320,1,159.375006079674,4|0,3:2|0:0,0:0:0:0:
115,268,178526,6,0,B|86:200|150:161|150:161|182:185|187:228,1,187.000005706787,0|0,3:2|0:0,0:0:0:0:
402,372,179043,6,0,P|417:316|440:264,1,114.749996498108,4|0,3:2|0:0,0:0:0:0:
450,255,179388,1,8,0:2:0:0:
344,105,179560,5,2,0:2:0:0:
344,105,179647,1,2,0:2:0:0:
344,105,179733,2,0,B|298:143|247:144|247:144|282:144|305:166,1,159.375006079674,6|0,3:2|0:0,0:0:0:0:
242,245,180250,6,0,P|215:155|183:67,1,187.000005706787,0|0,3:2|0:0,0:0:0:0:
0,238,180768,6,0,B|46:276|97:277|97:277|62:277|39:299,1,159.375006079674,4|0,3:2|0:0,0:0:0:0:
102,378,181285,6,0,P|128:288|160:200,1,187.000005706787,0|0,3:2|0:0,0:0:0:0:
327,44,181802,6,0,P|365:41|402:32,1,76.4999976654053,4|0,3:2|0:0,0:0:0:0:
290,228,182147,2,0,P|326:238|354:256,1,63.7500024318696,8|0,0:2|0:0,0:0:0:0:
418,166,182491,6,0,L|266:121,1,159.375006079674,4|0,3:2|0:0,0:0:0:0:
204,63,183009,6,0,B|160:90|113:84|113:84|160:96|191:148,1,187.000005706787,0|0,3:2|0:0,0:0:0:0:
334,317,183526,6,0,B|370:294|409:299|409:299|370:289|344:246,1,159.375006079674,4|0,3:2|0:0,0:0:0:0:
273,220,184043,6,0,P|182:243|93:272,1,187.000005706787,0|0,3:2|0:0,0:0:0:0:
0,85,184560,6,0,P|54:73|97:108,1,114.749996498108,4|0,3:2|0:0,0:0:0:0:
101,123,184905,1,8,0:2:0:0:
252,0,185078,5,2,0:2:0:0:
252,0,185164,1,2,0:2:0:0:
252,0,185250,2,0,B|226:15|197:30|197:30|218:73|241:138,1,159.375006079674,6|0,3:2|0:0,0:0:0:0:
333,156,185767,6,0,P|244:143|187:212,1,187.000005706787,0|0,3:2|0:0,0:0:0:0:
358,384,186285,6,0,B|383:368|413:354|413:354|392:311|369:246,1,159.375006079674,4|0,3:2|0:0,0:0:0:0:
277,228,186802,6,0,P|365:240|422:171,1,187.000005706787,0|0,3:2|0:0,0:0:0:0:
284,0,187319,6,0,B|253:22|253:22|264:65,1,76.4999976654053,4|0,3:2|0:0,0:0:0:0:
341,91,187664,2,0,B|369:73|369:73|365:32,1,63.7500024318696,8|0,0:2|0:0,0:0:0:0:
272,146,188009,6,0,B|224:167|197:134|204:123|169:90|107:125,1,159.375006079674,4|0,3:2|0:3,0:3:0:0:
39,93,188526,6,0,B|74:122|126:116|126:116|69:143|67:210,1,187.000005706787,0|0,3:2|0:0,0:0:0:0:
215,317,189043,6,0,B|263:338|290:305|283:294|318:261|380:296,1,159.375006079674,4|0,3:2|0:3,0:3:0:0:
449,264,189560,6,0,B|414:293|361:287|361:287|419:315|421:381,1,187.000005706787,0|0,3:2|0:0,0:0:0:0:
506,177,190078,6,0,B|532:125|532:125|459:85,1,114.749996498108,4|0,3:2|0:0,0:0:0:0:
475,89,190423,1,8,0:2:0:0:
313,204,190595,5,2,0:2:0:0:
313,204,190681,1,2,0:2:0:0:
313,204,190767,2,0,B|256:224|256:224|237:262|237:262|175:285,1,159.375006079674,6|0,3:2|0:0,0:0:0:0:
124,339,191285,6,0,B|56:376|22:312|22:312|49:261|98:272,1,187.000005706787,0|0,3:2|0:0,0:0:0:0:
245,376,191802,6,0,B|302:356|302:356|321:318|321:318|383:295,1,159.375006079674,4|0,3:2|0:0,0:0:0:0:
422,233,192319,6,0,B|490:196|524:260|524:260|497:311|448:300,1,187.000005706787,0|0,3:2|0:0,0:0:0:0:
313,204,192836,6,0,P|306:166|292:130,1,76.4999976654053,4|0,3:2|0:0,0:0:0:0:
346,0,193181,2,0,P|352:37|366:67,1,63.7500024318696,8|0,0:2|0:0,0:0:0:0:
205,192,193526,6,0,B|165:204|148:242|148:242|157:201|130:145,1,159.375006079674,4|0,3:2|0:0,0:0:0:0:
117,68,194043,6,0,P|203:104|292:130,1,187.000005706787,0|0,3:2|0:0,0:0:0:0:
407,326,194560,6,0,B|447:338|464:376|464:376|455:335|482:279,1,159.375006079674,4|0,3:2|0:0,0:0:0:0:
495,202,195078,6,0,P|408:238|319:264,1,187.000005706787,0|0,3:2|0:0,0:0:0:0:
118,314,195595,6,0,P|136:351|219:339,1,114.749996498108,4|0,3:2|0:0,0:0:0:0:
213,342,195940,1,8,0:2:0:0:
90,200,196112,5,2,0:2:0:0:
90,200,196198,1,2,0:2:0:0:
90,200,196285,2,0,B|76:150|111:128|121:136|158:105|130:39,1,159.375006079674,6|0,3:2|0:3,0:3:0:0:
45,31,196802,6,0,B|87:42|87:42|174:6|174:6|230:22,1,187.000005706787,0|0,3:2|0:0,0:0:0:0:
410,128,197319,6,0,B|434:132|434:132|400:51|323:79,1,159.375006079674,4|0,3:2|0:0,0:0:0:0:
283,148,197836,6,0,B|303:209|303:209|286:262|286:262|308:337,1,187.000005706787,0|0,3:2|0:0,0:0:0:0:
491,353,198354,6,0,B|538:321|538:321|507:257,1,114.749996498108,4|0,3:2|0:0,0:0:0:0:
432,250,198698,6,0,B|386:278|386:278|417:340,1,101.999996887207,8|0,0:2|0:0,0:0:0:0:
