osu file format v14

[General]
AudioFilename: audio.mp3
AudioLeadIn: 0
PreviewTime: 32019
Countdown: 0
SampleSet: Soft
StackLeniency: 0.5
Mode: 0
LetterboxInBreaks: 0
WidescreenStoryboard: 1

[Editor]
Bookmarks: 26416
DistanceSpacing: 0.8
BeatDivisor: 4
GridSize: 4
TimelineZoom: 1

[Metadata]
Title:Walk This Way
TitleUnicode:Walk This Way
Artist:THE BEAT GARDEN
ArtistUnicode:THE BEAT GARDEN
Creator:Mishima Yurara
Version:wkyik's Hard
Source:神撃のバハムート VIRGIN SOUL
Tags:Rage of Bahamut Rizia kawaiwkyik cheesecake ioexception FFI VINXIS
BeatmapID:1363782
BeatmapSetID:642004

[Difficulty]
HPDrainRate:5
CircleSize:4
OverallDifficulty:6
ApproachRate:7
SliderMultiplier:1.6
SliderTickRate:1

[Events]
//Background and Video events
0,0,"not lucifer.png",0,0
Video,-75,"Encoded.flv"
//Break Periods
//Storyboard Layer 0 (Background)
//Storyboard Layer 1 (Fail)
//Storyboard Layer 2 (Pass)
//Storyboard Layer 3 (Foreground)
//Storyboard Sound Samples

[TimingPoints]
37,344.827586206897,4,2,1,30,1,0
37,-133.333333333333,4,2,1,30,0,0
11071,-133.333333333333,4,2,1,40,0,0
33140,-100,4,2,2,50,0,0
44174,-100,4,2,1,40,0,0
60726,-100,4,2,2,40,0,0
66243,-83.3333333333333,4,2,2,50,0,0
81416,-125,4,2,1,30,0,0
81761,-111.111111111111,4,2,1,35,0,0
82105,-100,4,2,1,35,0,0
82450,-90.9090909090909,4,2,1,40,0,0
82795,-83.3333333333333,4,2,2,50,0,0

[Colours]
Combo1 : 159,223,223
Combo2 : 223,159,159
Combo3 : 223,159,223
Combo4 : 190,180,205

[HitObjects]
20,128,37,6,0,L|208:112,1,180.000006866455,2|0,0:0|0:0,0:0:0:0:
148,284,1071,1,0,0:0:0:0:
148,284,1416,2,0,L|336:268,2,180.000006866455,2|0|0,0:0|0:0|0:0,0:0:0:0:
40,232,2795,6,0,P|16:188|40:52,2,180.000006866455,2|0|0,0:0|0:0|0:0,0:0:0:0:
124,144,4174,2,0,P|150:101|279:54,2,180.000006866455,2|0|0,0:0|0:0|0:0,0:0:0:0:
240,172,5554,2,0,P|290:173|395:261,2,180.000006866455,2|0|0,0:0|0:0|0:0,0:0:0:0:
156,256,6933,5,2,0:0:0:0:
304,360,7450,1,0,0:0:0:0:
436,240,7968,1,0,0:0:0:0:
356,148,8312,6,0,B|340:92|364:44|364:44|440:0,2,180.000006866455,2|0|0,0:0|0:0|0:0,0:0:0:0:
256,192,9692,12,4,11071,0:1:0:0:
140,116,11588,5,0,0:0:0:0:
140,116,12105,2,0,L|268:104,1,120.000004577637,0|2,0:0|0:0,0:0:0:0:
259,104,12968,2,0,P|288:152|260:280,1,180.000006866455,0|0,0:0|0:0,0:0:0:0:
144,364,13830,6,0,P|115:316|143:188,2,180.000006866455,2|0|0,0:0|0:0|0:0,0:0:0:0:
292,316,15209,2,0,L|424:324,1,120.000004577637,2|0,0:0|0:0,0:0:0:0:
488,332,15726,2,0,L|496:200,1,120.000004577637,0|0,0:0|0:0,0:0:0:0:
500,136,16243,1,0,0:0:0:0:
392,24,16588,6,0,P|348:64|216:48,1,180.000006866455,2|0,0:0|0:0,0:0:0:0:
164,24,17278,2,0,L|38:15,1,120.000004577637,0|0,0:0|0:0,0:0:0:0:
12,168,17968,2,0,L|203:154,2,180.000006866455,2|0|0,0:0|0:0|0:0,0:0:0:0:
53,320,19347,6,0,B|180:364|160:272|288:328,1,240.000009155274,2|0,0:0|0:0,0:0:0:0:
420,248,20381,1,0,0:0:0:0:
456,96,20726,2,0,P|424:64|344:64,1,120.000004577637,0|0,0:0|0:0,0:0:0:0:
256,184,21416,2,0,P|197:185|152:147,1,120.000004577637,0|0,0:0|0:0,0:0:0:0:
40,40,22105,5,4,0:1:0:0:
40,276,22623,2,0,P|40:336|108:336,1,120.000004577637,0|0,0:1|0:0,0:0:0:0:
244,332,23312,2,0,P|292:312|416:372,1,180.000006866455,0|0,0:0|0:0,0:0:0:0:
476,324,24002,1,0,0:0:0:0:
476,324,24174,2,0,L|488:192,1,120.000004577637,0|0,0:0|0:0,0:0:0:0:
480,128,24692,6,0,B|424:144|424:144|384:128|384:128|308:148,1,180.000006866455,0|0,0:0|0:0,0:0:0:0:
232,132,25381,2,0,L|240:64,1,60.0000022888184,0|0,0:0|0:0,0:0:0:0:
168,44,25726,2,0,L|160:103,1,60.0000022888184,0|0,0:0|0:0,0:0:0:0:
136,176,26071,2,0,P|104:196|0:208,1,120.000004577637,0|0,0:0|0:0,0:0:0:0:
4,288,26588,2,0,P|40:296|68:316,1,60.0000022888184,0|0,0:0|0:0,0:0:0:0:
208,360,27105,2,0,L|220:260,2,90.0000034332277,0|0|2,0:0|0:0|0:0,0:0:0:0:
452,220,28485,5,0,0:0:0:0:
452,220,28657,2,0,P|436:256|432:304,1,60.0000022888184,0|0,0:0|0:0,0:0:0:0:
512,168,29002,2,0,P|468:144|388:168,1,120.000004577637,2|0,0:0|0:0,0:0:0:0:
344,208,29519,2,0,P|286:222|233:196,1,120.000004577637,0|0,0:0|0:0,0:0:0:0:
200,128,30037,1,0,0:0:0:0:
256,192,30381,12,0,31761,0:0:0:0:
24,136,33140,6,0,B|92:92|92:92|196:112,1,160,6|0,0:0|0:0,0:0:0:0:
248,128,33657,2,0,B|325:142|325:142|393:98,1,160,2|0,0:0|0:0,0:0:0:0:
456,48,34174,2,0,P|496:84|484:196,1,160,6|0,0:0|0:0,0:0:0:0:
428,228,34692,2,0,P|415:304|465:363,1,160,2|0,0:0|0:0,0:0:0:0:
340,336,35209,2,0,L|256:324,1,80,6|0,0:0|0:0,0:0:0:0:
172,256,35554,2,0,L|256:244,1,80,8|0,0:0|0:0,0:0:0:0:
304,184,35899,6,0,P|328:132|272:36,1,160,6|0,0:0|0:0,0:0:0:0:
212,20,36416,2,0,P|145:60|72:36,1,160,2|0,0:0|0:0,0:0:0:0:
16,96,36933,2,0,P|32:171|100:208,1,160,6|0,0:0|0:0,0:0:0:0:
160,264,37450,1,2,0:0:0:0:
148,344,37623,2,0,L|316:356,2,160,0|6|8,0:0|0:0|0:0,0:0:0:0:
32,232,38657,6,0,B|44:160|44:160|28:140|28:140|40:64,1,160,6|0,0:0|0:0,0:0:0:0:
116,48,39174,2,0,B|104:120|104:120|120:140|120:140|108:216,1,160,2|0,0:0|0:0,0:0:0:0:
168,256,39692,2,0,L|336:240,1,160,6|0,0:0|0:0,0:0:0:0:
340,160,40209,2,0,L|180:175,1,160,2|0,0:0|0:0,0:0:0:0:
168,96,40726,2,0,P|192:72|248:64,1,80,6|0,0:0|0:0,0:0:0:0:
312,36,41071,1,8,0:0:0:0:
388,60,41243,1,0,0:0:0:0:
468,48,41416,6,0,P|480:88|488:224,1,160,6|0,0:0|0:0,0:0:0:0:
400,304,41933,2,0,P|388:264|380:128,1,160,2|0,0:0|0:0,0:0:0:0:
276,88,42450,2,0,P|280:129|265:264,1,160,6|0,0:0|0:0,0:0:0:0:
164,328,42967,2,0,P|159:286|174:151,1,160,2|0,0:0|0:0,0:0:0:0:
152,92,43485,2,0,P|112:76|60:88,1,80,2|0,0:0|0:0,0:0:0:0:
12,128,43830,2,0,P|-4:168|8:220,1,80,8|0,0:0|0:0,0:0:0:0:
36,276,44174,5,4,0:1:0:0:
172,360,44519,1,0,0:0:0:0:
324,308,44864,2,0,L|416:296,1,80,0|0,0:0|0:0,0:0:0:0:
460,240,45209,1,0,0:0:0:0:
428,168,45381,2,0,P|412:132|416:88,1,80,0|0,0:0|0:0,0:0:0:0:
396,16,45726,2,0,P|359:0|320:2,1,80,0|0,0:0|0:0,0:0:0:0:
252,44,46071,2,0,P|216:64|92:64,1,160,0|0,0:0|0:0,0:0:0:0:
28,32,46588,1,0,0:0:0:0:
24,192,46933,6,0,P|60:172|184:172,1,160,2|0,0:0|0:0,0:0:0:0:
236,224,47450,1,0,0:0:0:0:
268,300,47623,2,0,P|272:348|264:380,2,80,0|0|0,0:0|0:0|0:0,0:0:0:0:
188,292,48140,6,0,L|360:264,1,160,0|0,0:0|0:0,0:0:0:0:
424,292,48657,1,0,0:0:0:0:
464,224,48830,1,0,0:0:0:0:
464,224,49002,2,0,L|480:132,1,80,0|0,0:0|0:0,0:0:0:0:
396,60,49347,2,0,L|396:139,1,80,0|0,0:0|0:0,0:0:0:0:
304,32,49692,6,0,P|264:44|140:48,1,160,0|0,0:0|0:0,0:0:0:0:
96,144,50209,2,0,P|108:184|112:308,1,160,0|0,0:0|0:0,0:0:0:0:
208,352,50726,2,0,P|248:340|372:336,1,160,0|0,0:0|0:0,0:0:0:0:
416,240,51243,2,0,P|404:200|400:76,1,160,0|0,0:0|0:0,0:0:0:0:
256,192,51761,1,0,0:0:0:0:
256,192,52105,1,0,0:0:0:0:
256,192,52450,12,6,55209,0:0:0:0:
128,92,55554,5,0,0:0:0:0:
188,144,55726,1,0,0:0:0:0:
264,168,55899,2,0,P|312:172|424:132,1,160,0|0,0:0|0:0,0:0:0:0:
452,64,56416,2,0,P|436:24|384:0,1,80,0|0,0:0|0:0,0:0:0:0:
496,132,56761,2,0,P|488:184|496:232,1,80,0|0,0:0|0:0,0:0:0:0:
496,292,57105,1,0,0:0:0:0:
468,368,57278,2,0,P|400:352|304:348,1,160,0|0,0:0|0:0,0:0:0:0:
148,352,57968,6,0,P|100:360|8:292,1,160,2|0,0:0|0:0,0:0:0:0:
20,220,58485,1,0,0:0:0:0:
92,188,58657,2,0,P|120:136|108:32,1,160,0|0,0:0|0:0,0:0:0:0:
184,8,59174,1,0,0:0:0:0:
236,68,59347,1,0,0:0:0:0:
260,144,59519,2,0,P|291:194|387:235,2,160,0|0|0,0:0|0:0|0:0,0:0:0:0:
116,216,60554,1,0,0:0:0:0:
192,244,60726,6,0,L|204:332,1,80,2|0,0:0|0:0,0:0:0:0:
264,220,61071,2,0,L|276:308,1,80,2|0,0:0|0:0,0:0:0:0:
344,260,61416,6,0,L|356:172,1,80,2|0,0:0|0:0,0:0:0:0:
416,284,61761,2,0,L|428:196,1,80,2|0,0:0|0:0,0:0:0:0:
304,112,62105,6,0,L|216:100,1,80,2|0,0:0|0:0,0:0:0:0:
328,40,62450,2,0,L|240:28,1,80,2|0,0:0|0:0,0:0:0:0:
169,184,62795,6,0,L|257:172,1,80,2|0,0:0|0:0,0:0:0:0:
145,112,63140,2,0,L|233:100,1,80,2|0,0:0|0:0,0:0:0:0:
256,192,63485,12,0,64864,0:0:0:0:
40,92,66243,6,0,L|152:80,1,95.9999970703126,6|0,0:0|0:0,0:0:0:0:
188,140,66588,2,0,P|152:196|176:332,1,191.999994140625,8|0,0:0|0:0,0:0:0:0:
232,356,67105,1,2,0:0:0:0:
300,320,67278,2,0,P|340:296|484:312,1,191.999994140625,8|2,0:0|0:0,0:0:0:0:
500,236,67795,2,0,P|484:196|484:140,1,95.9999970703126,0|8,0:0|0:0,0:0:0:0:
500,68,68140,1,2,0:0:0:0:
352,32,68485,1,2,0:0:0:0:
292,80,68657,1,8,0:0:0:0:
216,92,68830,1,0,0:0:0:0:
140,80,69002,6,0,P|84:68|28:176,1,191.999994140625,2|8,0:0|0:0,0:0:0:0:
56,240,69519,1,0,0:0:0:0:
100,176,69692,2,0,L|216:160,1,95.9999970703126,0|2,0:0|0:0,0:0:0:0:
252,216,70037,1,8,0:0:0:0:
308,268,70209,1,0,0:0:0:0:
364,320,70381,2,0,L|480:304,1,95.9999970703126,2|0,0:0|0:0,0:0:0:0:
508,224,70726,2,0,L|492:108,1,95.9999970703126,8|2,0:0|0:0,0:0:0:0:
408,92,71071,2,0,L|292:108,1,95.9999970703126,0|2,0:0|0:0,0:0:0:0:
264,188,71416,2,0,L|280:304,1,95.9999970703126,8|0,0:0|0:0,0:0:0:0:
208,348,71761,6,0,P|156:368|36:296,1,191.999994140625,6|8,0:0|0:0,0:0:0:0:
28,236,72278,1,0,0:0:0:0:
64,88,72623,1,2,0:0:0:0:
64,164,72795,1,8,0:0:0:0:
108,228,72968,1,0,0:0:0:0:
180,252,73140,6,0,P|240:256|376:224,1,191.999994140625,2|8,0:0|0:0,0:0:0:0:
444,228,73657,2,0,P|351:202|256:203,1,191.999994140625,2|2,0:0|0:0,0:0:0:0:
188,244,74174,1,8,0:0:0:0:
256,280,74347,1,0,0:0:0:0:
256,203,74519,1,2,0:0:0:0:
256,48,74864,5,8,0:0:0:0:
184,72,75037,2,0,P|256:126|328:72,1,191.999994140625,0|2,0:0|0:0,0:0:0:0:
256,48,75554,1,8,0:0:0:0:
184,72,75726,2,0,P|136:92|40:12,1,191.999994140625,0|0,0:0|0:0,0:0:0:0:
100,164,76243,1,8,0:0:0:0:
100,164,76416,2,0,P|108:228|96:300,1,95.9999970703126,0|0,0:0|0:0,0:0:0:0:
88,364,76761,2,0,P|139:325|207:299,1,95.9999970703126,0|8,0:0|0:0,0:0:0:0:
272,272,77105,2,0,P|212:246|156:200,1,95.9999970703126,0|6,0:0|0:0,0:0:0:0:
400,364,77623,5,8,0:0:0:0:
400,364,77795,2,0,P|440:296|448:168,1,191.999994140625,0|2,0:0|0:0,0:0:0:0:
416,116,78312,1,8,0:0:0:0:
268,104,78657,1,2,0:0:0:0:
340,132,78830,1,0,0:0:0:0:
328,56,79002,1,8,0:0:0:0:
280,180,79174,2,0,P|248:240|128:288,1,191.999994140625,2|2,0:0|0:0,0:0:0:0:
128,364,79692,2,0,P|92:306|110:178,1,191.999994140625,8|2,0:0|0:0,0:0:0:0:
184,56,80381,5,8,0:0:0:0:
248,100,80554,2,0,P|316:116|416:52,1,191.999994140625,0|2,0:0|0:0,0:0:0:0:
480,92,81071,1,8,0:0:0:0:
452,164,81243,1,0,0:0:0:0:
460,244,81416,6,0,L|472:320,1,64,0|0,0:0|0:0,0:0:0:0:
388,252,81761,6,0,L|400:328,1,71.9999978027344,0|0,0:0|0:0,0:0:0:0:
316,260,82105,6,0,L|329:343,1,80,0|0,0:0|0:0,0:0:0:0:
244,268,82450,6,0,L|259:368,1,88.000002685547,0|0,0:0|0:0,0:0:0:0:
172,272,82795,6,0,B|28:256|28:256|100:236,1,191.999994140625,6|0,0:0|0:0,0:0:0:0:
132,192,83312,2,0,B|276:176|276:176|204:156,1,191.999994140625,2|0,0:0|0:0,0:0:0:0:
172,112,83830,2,0,B|28:96|28:96|100:76,1,191.999994140625,6|0,0:0|0:0,0:0:0:0:
108,16,84347,2,0,B|252:32|252:32|180:52,1,191.999994140625,2|0,0:0|0:0,0:0:0:0:
332,52,84864,2,0,L|440:40,1,95.9999970703126,2|0,0:0|0:0,0:0:0:0:
487,117,85209,2,0,L|392:128,1,95.9999970703126,8|0,0:0|0:0,0:0:0:0:
364,200,85554,6,0,B|352:324|352:324|284:364,1,191.999994140625,6|0,0:0|0:0,0:0:0:0:
216,360,86071,2,0,B|228:236|228:236|296:196,1,191.999994140625,2|0,0:0|0:0,0:0:0:0:
236,144,86588,2,0,L|16:160,1,191.999994140625,6|0,0:0|0:0,0:0:0:0:
20,84,87105,2,0,L|211:70,1,191.999994140625,2|0,0:0|0:0,0:0:0:0:
280,36,87623,2,0,P|328:28|392:56,1,95.9999970703126,2|0,0:0|0:0,0:0:0:0:
436,84,87968,2,0,P|466:121|474:190,1,95.9999970703126,8|0,0:0|0:0,0:0:0:0:
