osu file format v14

[General]
AudioFilename: audio.mp3
AudioLeadIn: 0
PreviewTime: 32019
Countdown: 0
SampleSet: Soft
StackLeniency: 0.5
Mode: 0
LetterboxInBreaks: 0
WidescreenStoryboard: 1

[Editor]
Bookmarks: 26416
DistanceSpacing: 2.4
BeatDivisor: 4
GridSize: 4
TimelineZoom: 1

[Metadata]
Title:Walk This Way
TitleUnicode:Walk This Way
Artist:THE BEAT GARDEN
ArtistUnicode:THE BEAT GARDEN
Creator:Mishima Yurara
Version:Reginleiv Recidive
Source:神撃のバハムート VIRGIN SOUL
Tags:Rage of Bahamut Rizia kawaiwkyik cheesecake ioexception FFI VINXIS
BeatmapID:1361637
BeatmapSetID:642004

[Difficulty]
HPDrainRate:6
CircleSize:4
OverallDifficulty:8.5
ApproachRate:9
SliderMultiplier:2.04
SliderTickRate:1

[Events]
//Background and Video events
0,0,"not lucifer.png",0,0
Video,-75,"Encoded.flv"
//Break Periods
//Storyboard Layer 0 (Background)
//Storyboard Layer 1 (Fail)
//Storyboard Layer 2 (Pass)
//Storyboard Layer 3 (Foreground)
//Storyboard Sound Samples

[TimingPoints]
37,344.827586206897,4,2,1,30,1,0
37,-250,4,2,1,30,0,0
11071,-250,4,2,1,40,0,0
17881,-250,4,2,1,5,0,0
17968,-250,4,2,1,40,0,0
32105,-200,4,2,1,20,0,0
32450,-125,4,2,1,20,0,0
33140,-200,4,2,2,50,0,0
33657,-125,4,2,2,50,0,0
34174,-200,4,2,2,50,0,0
34692,-125,4,2,2,50,0,0
35209,-100,4,2,2,50,0,0
35899,-125,4,2,2,50,0,0
36416,-90.909090909091,4,2,2,50,0,0
36933,-125,4,2,2,50,0,0
37450,-200,4,2,2,50,0,0
39174,-125,4,2,2,50,0,0
39692,-200,4,2,2,50,0,0
40209,-125,4,2,2,50,0,0
40726,-100,4,2,2,50,0,0
41416,-125,4,2,2,50,0,0
41933,-90.909090909091,4,2,2,50,0,0
42450,-125,4,2,2,50,0,0
42968,-200,4,2,2,50,0,0
44174,-200,4,2,1,35,0,0
55209,-166.666666666667,4,2,1,45,0,0
60726,-166.666666666667,4,2,2,45,0,0
63485,-133.333333333333,4,2,2,50,0,0
64174,-117.647058823529,4,2,2,55,0,0
65209,-200,4,2,1,55,0,0
65554,-131.578947368421,4,2,1,55,0,0
66243,-86.9565217391303,4,2,2,60,0,0
70899,-76.9230769230769,4,2,2,60,0,0
71243,-66.6666666666667,4,2,2,60,0,0
71761,-86.9565217391303,4,2,2,60,0,0
76243,-125,4,2,2,60,0,0
76588,-111.111111111111,4,2,2,60,0,0
77278,-86.9565217391303,4,2,2,60,0,0
81243,-125,4,2,1,45,0,0
82795,-83.3333333333333,4,2,2,60,0,0
84347,-125,4,2,2,60,0,0
84864,-107.52688172043,4,2,2,60,0,0
85209,-94.3396226415094,4,2,2,60,0,0
85554,-83.3333333333333,4,2,2,60,0,0
87105,-125,4,2,2,60,0,0
87623,-107.52688172043,4,2,2,60,0,0
87968,-94.3396226415094,4,2,2,60,0,0

[Colours]
Combo1 : 159,223,223
Combo2 : 223,159,159
Combo3 : 223,159,223
Combo4 : 190,180,205

[HitObjects]
100,154,37,6,0,P|101:94|127:39,2,122.4,2|0|0,0:0|0:0|0:0,0:0:0:0:
411,154,1416,2,0,P|410:94|384:39,2,122.4,2|0|0,0:0|0:0|0:0,0:0:0:0:
196,272,2795,6,0,L|66:282,2,122.4,2|0|0,0:0|0:0|0:0,0:0:0:0:
316,272,4174,2,0,L|446:282,2,122.4,2|0|0,0:0|0:0|0:0,0:0:0:0:
256,192,5554,5,2,0:0:0:0:
256,192,6071,1,0,0:0:0:0:
256,192,6588,1,0,0:0:0:0:
256,192,6933,5,2,0:0:0:0:
354,116,7450,2,0,L|486:129,1,122.4,0|0,0:0|0:0,0:0:0:0:
158,116,8312,6,0,L|26:129,1,122.4,2|0,0:0|0:0,0:0:0:0:
256,272,9347,2,0,L|256:96,1,163.2,0|0,0:0|0:0,0:0:0:0:
256,20,10381,1,0,0:0:0:0:
256,20,10554,1,0,0:0:0:0:
113,77,10899,1,0,0:0:0:0:
113,77,11071,6,0,L|121:165,1,81.6,4|0,0:1|0:0,0:0:0:0:
66,284,11588,2,0,P|84:263|99:251,1,40.8,0|0,0:0|0:0,0:0:0:0:
211,255,11933,2,0,P|193:234|178:222,1,40.8,0|0,0:0|0:0,0:0:0:0:
152,328,12278,1,0,0:0:0:0:
238,360,12450,6,0,P|292:350|324:328,1,81.6,2|0,0:0|0:0,0:0:0:0:
366,235,12968,1,0,0:0:0:0:
366,235,13140,1,0,0:0:0:0:
476,234,13312,2,0,L|475:293,1,40.8
289,186,13657,1,0,0:0:0:0:
289,186,13830,6,0,P|304:131|317:96,1,81.6,2|0,0:0|0:0,0:0:0:0:
190,231,14347,1,0,0:0:0:0:
190,231,14519,2,0,P|192:167|196:133,1,81.6,0|0,0:0|0:0,0:0:0:0:
236,42,15037,1,0,0:0:0:0:
236,42,15209,6,0,P|175:52|148:52,1,81.6,2|0,0:0|0:0,0:0:0:0:
113,136,15726,2,0,P|52:126|25:126,1,81.6,0|0,0:0|0:0,0:0:0:0:
32,125,16243,1,0,0:0:0:0:
449,82,16588,6,0,P|443:137|423:209,1,122.4,2|0,0:0|0:0,0:0:0:0:
342,351,17623,2,0,P|350:297|356:276,1,61.2
361,263,17968,6,0,P|300:272|233:258,2,122.4,2|0|0,0:0|0:0|0:0,0:0:0:0:
418,169,19347,5,2,0:0:0:0:
256,192,19433,12,0,21761,0:0:0:0:
198,67,22105,6,0,P|255:55|292:55,1,81.6,4|0,0:1|0:0,0:0:0:0:
373,149,22623,2,0,P|332:146|292:136,2,81.6,0|0|0,0:1|0:0|0:0,0:0:0:0:
474,121,23485,6,0,L|487:-3,1,122.4,2|0,0:0|0:0,0:0:0:0:
382,68,24174,2,0,P|373:118|373:153,1,81.6
310,229,24692,1,0,0:0:0:0:
310,229,24864,2,0,P|268:216|228:207,1,81.6,2|0,0:0|0:0,0:0:0:0:
153,262,25381,2,0,P|111:275|71:284,1,81.6,0|0,0:0|0:0,0:0:0:0:
14,184,25899,1,0,0:0:0:0:
85,125,26071,1,0,0:0:0:0:
85,125,26243,6,0,P|148:119|209:135,2,122.4,2|0|0,0:0|0:0|0:0,0:0:0:0:
215,221,27450,1,0,0:0:0:0:
215,221,27623,6,0,B|276:217|276:217|339:237,1,122.4,2|0,0:0|0:0,0:0:0:0:
417,114,28485,2,0,P|420:71|419:63,1,40.8
493,169,29002,6,0,P|476:235|477:307,1,122.4,2|0,0:0|0:0,0:0:0:0:
330,353,29864,2,0,P|325:333|322:313,2,40.8,0|0|0,0:0|0:0|0:0,0:0:0:0:
368,226,30381,5,2,0:0:0:0:
256,192,30468,12,0,31761,0:0:0:0:
169,85,32105,6,0,P|236:74|262:82,1,76.5,2|0,0:0|0:0,0:0:0:0:
348,268,32450,6,0,P|321:232|312:151,1,122.4,2|0,0:0|0:0,0:0:0:0:
357,61,32795,5,2,0:0:0:0:
176,237,32968,1,0,0:0:0:0:
404,344,33140,6,0,L|304:359,1,102,6|0,0:0|0:0,0:0:0:0:
176,237,33657,6,0,P|164:291|168:333,2,81.6,2|0|0,0:0|0:0|0:0,0:0:0:0:
411,171,34174,6,0,L|311:156,1,102,6|0,0:0|0:0,0:0:0:0:
176,237,34692,6,0,P|164:291|168:333,2,81.6,2|0|0,0:0|0:0|0:0,0:0:0:0:
310,155,35209,5,6,0:0:0:0:
263,300,35381,1,0,0:0:0:0:
189,111,35554,1,8,0:0:0:0:
356,245,35726,1,0,0:0:0:0:
156,241,35899,6,0,L|-11:233,1,163.2,6|0,0:0|0:0,0:0:0:0:
189,111,36416,5,2,0:0:0:0:
188,361,36588,1,0,0:0:0:0:
188,361,36761,1,0,0:0:0:0:
388,262,36933,6,0,P|407:192|402:72,1,163.2,6|0,0:0|0:0,0:0:0:0:
303,219,37450,5,2,0:0:0:0:
512,168,37623,1,0,0:0:0:0:
340,29,37795,1,0,0:0:0:0:
121,68,37968,1,6,0:0:0:0:
221,173,38140,1,0,0:0:0:0:
148,251,38312,2,0,P|152:298|156:325,1,51,8|0,0:0|0:0,0:0:0:0:
148,251,38657,6,0,P|95:212|69:167,1,102,6|0,0:0|0:0,0:0:0:0:
248,143,39174,6,0,L|355:133,2,81.6,2|0|0,0:0|0:0|0:0,0:0:0:0:
146,25,39692,6,0,P|93:64|67:109,1,102,6|0,0:0|0:0,0:0:0:0:
248,143,40209,6,0,L|355:133,2,81.6,2|0|0,0:0|0:0|0:0,0:0:0:0:
53,118,40726,5,6,0:0:0:0:
201,69,40899,1,0,0:0:0:0:
154,211,41071,1,8,0:0:0:0:
90,27,41243,1,0,0:0:0:0:
0,280,41416,6,0,L|169:302,1,163.2,6|0,0:0|0:0,0:0:0:0:
364,119,41933,5,2,0:0:0:0:
332,365,42105,1,0,0:0:0:0:
332,365,42278,1,0,0:0:0:0:
234,159,42450,6,0,L|72:180,1,163.2,6|0,0:0|0:0,0:0:0:0:
194,27,42968,5,2,0:0:0:0:
221,249,43140,1,0,0:0:0:0:
345,196,43312,1,0,0:0:0:0:
391,1,43485,1,2,0:0:0:0:
234,159,43657,1,0,0:0:0:0:
391,326,43830,2,0,L|457:336,1,51,8|0,0:0|0:0,0:0:0:0:
391,326,44174,5,4,0:1:0:0:
317,384,44347,1,0,0:0:0:0:
235,338,44519,2,0,L|131:356,1,102,0|0,0:0|0:0,0:0:0:0:
272,44,45209,1,0,0:0:0:0:
272,44,45381,2,0,P|270:89|248:162,1,102,0|0,0:0|0:0,0:0:0:0:
97,334,46071,2,0,B|47:344|47:344|0:325,1,102,0|0,0:0|0:0,0:0:0:0:
66,207,46588,2,0,L|54:278,1,51,0|0,0:0|0:0,0:0:0:0:
96,99,46933,5,2,0:0:0:0:
175,162,47105,1,0,0:0:0:0:
254,98,47278,2,0,L|320:111,1,51,0|0,0:0|0:0,0:0:0:0:
450,139,47623,2,0,L|399:129,1,51,0|0,0:0|0:0,0:0:0:0:
326,224,47968,1,0,0:0:0:0:
326,224,48140,6,0,P|319:290|318:348,1,102,0|0,0:0|0:0,0:0:0:0:
245,374,48657,2,0,P|234:338|232:313,1,51,0|0,0:0|0:0,0:0:0:0:
203,202,49002,2,0,L|110:217,1,76.5,0|0,0:0|0:0,0:0:0:0:
127,214,49347,1,0,0:0:0:0:
342,65,49519,6,0,P|352:130|353:179,1,102,0|0,0:0|0:0,0:0:0:0:
353,166,50037,1,0,0:0:0:0:
170,65,50209,2,0,P|160:130|159:179,1,102,0|0,0:0|0:0,0:0:0:0:
158,166,50727,1,0,0:0:0:0:
344,293,50899,6,0,L|456:308,1,102,0|0,0:0|0:0,0:0:0:0:
445,306,51416,1,0,0:0:0:0:
168,293,51588,2,0,L|56:308,1,102,0|0,0:0|0:0,0:0:0:0:
66,306,52105,1,0,0:0:0:0:
256,192,52278,1,0,0:0:0:0:
256,192,52450,6,0,L|256:80,1,102,2|0,0:0|0:0,0:0:0:0:
256,280,52968,2,0,L|256:382,1,102,0|0,0:0|0:0,0:0:0:0:
256,382,53485,1,0,0:0:0:0:
61,182,53830,5,2,0:0:0:0:
185,144,54002,2,0,P|234:150|295:133,1,102,0|2,0:0|0:0,0:0:0:0:
350,229,54519,2,0,P|368:212|382:190,1,51,0|2,0:0|0:0,0:0:0:0:
483,235,54864,2,0,P|492:191|491:167,1,51,0|0,0:0|0:0,0:0:0:0:
467,100,55209,5,6,0:0:0:0:
166,297,55554,6,0,L|77:289,1,61.1999981323243,0|0,0:0|0:0,0:0:0:0:
232,362,55899,2,0,B|291:347|291:347|352:352,1,122.399996264649,0|0,0:0|0:0,0:0:0:0:
306,250,56416,6,0,P|297:220|291:190,1,61.1999981323243,0|0,0:0|0:0,0:0:0:0:
385,198,56761,2,0,P|376:168|370:138,1,61.1999981323243,0|0,0:0|0:0,0:0:0:0:
413,54,57105,2,0,L|283:66,1,122.399996264649,0|0,0:0|0:0,0:0:0:0:
176,16,57623,1,0,0:0:0:0:
195,126,57795,1,0,0:0:0:0:
214,236,57968,5,2,0:0:0:0:
214,236,58312,2,0,P|157:255|137:255,1,61.1999981323243,0|0,0:0|0:0,0:0:0:0:
304,216,58657,2,0,L|446:235,1,122.399996264649,0|0,0:0|0:0,0:0:0:0:
487,174,59174,1,0,0:0:0:0:
473,355,59347,5,0,0:0:0:0:
473,355,59519,2,0,P|474:324|478:294,1,61.1999981323243,0|0,0:0|0:0,0:0:0:0:
481,113,59864,2,0,P|484:143|486:173,1,61.1999981323243,0|0,0:0|0:0,0:0:0:0:
275,209,60209,1,0,0:0:0:0:
275,209,60381,2,0,L|203:203,1,61.1999981323243,0|0,0:0|0:0,0:0:0:0:
23,151,60726,5,2,0:0:0:0:
340,82,61071,1,2,0:0:0:0:
221,343,61416,1,2,0:0:0:0:
156,58,61761,1,2,0:0:0:0:
403,205,62105,5,2,0:0:0:0:
120,243,62450,1,2,0:0:0:0:
300,51,62795,1,2,0:0:0:0:
249,368,63140,1,2,0:0:0:0:
23,151,63485,5,2,0:0:0:0:
179,96,63657,1,2,0:0:0:0:
327,174,63830,1,2,0:0:0:0:
480,111,64002,1,2,0:0:0:0:
376,330,64174,5,2,0:0:0:0:
359,38,64347,1,2,0:0:0:0:
172,196,64519,1,2,0:0:0:0:
458,226,64692,1,2,0:0:0:0:
458,226,65209,6,0,P|406:227|361:240,1,76.5,2|0,0:0|0:0,0:0:0:0:
179,293,65554,6,0,P|181:232|204:158,1,116.279998580566,2|0,0:0|0:0,0:0:0:0:
265,93,65899,5,0,0:0:0:0:
50,315,66071,1,2,0:1:0:0:
61,60,66243,6,0,P|118:50|177:50,1,117.30000223732,6|0,0:0|0:0,0:0:0:0:
358,106,66588,1,8,0:0:0:0:
50,315,66761,2,0,P|81:264|237:169,1,234.60000447464,0|2,0:0|0:0,0:0:0:0:
487,132,67278,1,8,0:0:0:0:
322,19,67450,1,0,0:0:0:0:
270,265,67623,6,0,B|262:405,1,117.30000223732,2|0,0:0|0:0,0:0:0:0:
231,51,67968,1,8,0:0:0:0:
129,117,68140,2,0,P|196:133|264:138,1,117.30000223732,2|0,0:0|0:0,0:0:0:0:
512,60,68485,2,0,P|453:66|396:80,1,117.30000223732,2|8,0:0|0:0,0:0:0:0:
216,238,68830,1,0,0:0:0:0:
356,306,69002,6,0,L|365:177,1,117.30000223732,2|0,0:0|0:0,0:0:0:0:
134,153,69347,2,0,L|125:24,1,117.30000223732,8|0,0:0|0:0,0:0:0:0:
125,36,69864,1,2,0:0:0:0:
237,233,70037,1,8,0:0:0:0:
16,186,70209,1,0,0:0:0:0:
371,122,70381,6,0,P|387:192|396:244,1,117.30000223732,2|0,0:0|0:0,0:0:0:0:
267,40,70726,1,8,0:0:0:0:
169,110,70899,6,0,P|148:197|160:308,1,198.899990895081,2|0,0:0|0:0,0:0:0:0:
371,122,71243,6,0,P|277:170|231:233,1,153.000005836487,2|8,0:0|0:0,0:0:0:0:
243,372,71588,1,0,0:0:0:0:
267,40,71761,6,0,L|150:24,1,117.30000223732,6|0,0:0|0:0,0:0:0:0:
83,158,72105,1,8,0:0:0:0:
456,127,72278,2,0,B|382:137|382:137|339:186|339:186|239:206,1,234.60000447464,0|2,0:0|0:0,0:0:0:0:
6,312,72795,1,8,0:0:0:0:
174,141,72968,1,0,0:0:0:0:
335,280,73140,6,0,P|398:299|463:310,1,117.30000223732,2|0,0:0|0:0,0:0:0:0:
219,341,73485,1,8,0:0:0:0:
361,84,73657,2,0,P|403:166|456:212,1,117.30000223732,2|0,0:0|0:0,0:0:0:0:
174,141,74002,2,0,P|151:195|115:240,1,117.30000223732,2|8,0:0|0:0,0:0:0:0:
241,24,74347,1,0,0:0:0:0:
325,249,74519,6,0,B|326:309|326:309|317:365,1,117.30000223732,2|0,0:0|0:0,0:0:0:0:
0,233,74864,2,0,B|60:232|60:232|116:240,1,117.30000223732,8|0,0:0|0:0,0:0:0:0:
116,240,75381,1,2,0:0:0:0:
376,138,75554,2,0,P|287:138|246:154,1,117.30000223732,8|0,0:0|0:0,0:0:0:0:
195,356,75899,6,0,P|224:283|220:229,1,117.30000223732,2|0,0:0|0:0,0:0:0:0:
171,36,76243,6,0,P|156:95|156:145,1,81.6,8|0,0:0|0:0,0:0:0:0:
390,110,76588,6,0,P|300:123|239:165,1,137.69999579773,0|0,0:0|0:0,0:0:0:0:
260,146,76933,1,8,0:0:0:0:
66,28,77105,1,0,0:0:0:0:
15,223,77278,6,0,P|12:282|33:354,1,117.30000223732,6|0,0:0|0:0,0:0:0:0:
165,373,77623,1,8,0:0:0:0:
216,69,77795,2,0,P|141:142|108:282,1,234.60000447464,0|2,0:0|0:0,0:0:0:0:
335,180,78312,1,8,0:0:0:0:
451,376,78485,1,0,0:0:0:0:
246,202,78657,6,0,L|128:194,1,117.30000223732,2|0,0:0|0:0,0:0:0:0:
240,343,79002,1,8,0:0:0:0:
348,64,79174,2,0,P|333:140|336:191,1,117.30000223732,2|0,0:0|0:0,0:0:0:0:
25,269,79519,2,0,P|24:210|11:153,1,117.30000223732,2|8,0:0|0:0,0:0:0:0:
171,68,79864,1,0,0:0:0:0:
245,132,80037,6,0,L|232:269,1,117.30000223732,2|0,0:0|0:0,0:0:0:0:
423,234,80381,2,0,L|411:117,1,117.30000223732,8|0,0:0|0:0,0:0:0:0:
411,117,80899,1,2,0:0:0:0:
233,273,81071,1,8,0:0:0:0:
396,24,81243,6,0,P|465:40|496:165,1,204
477,141,81761,6,0,P|455:202|382:228,1,122.4,0|0,0:0|0:0,0:0:0:0:
370,199,82105,6,0,P|327:168|340:101,1,122.4,0|0,0:0|0:0,0:0:0:0:
383,82,82450,6,0,P|398:81|448:132,1,81.6
361,320,82795,6,0,L|87:288,1,244.799992529297,6|0,0:0|0:0,0:0:0:0:
18,112,83312,1,2,0:0:0:0:
234,32,83485,1,0,0:0:0:0:
167,194,83657,1,0,0:0:0:0:
271,30,83830,6,0,L|363:262,1,244.799992529297,6|0,0:0|0:0,0:0:0:0:
140,177,84347,1,2,0:0:0:0:
129,381,84519,1,0,0:0:0:0:
0,195,84692,1,0,0:0:0:0:
166,44,84864,1,2,0:0:0:0:
166,44,85209,2,0,L|137:180,1,108.120000164978,8|0,0:0|0:0,0:0:0:0:
46,281,85554,6,0,L|292:313,1,244.799992529297,6|0,0:0|0:0,0:0:0:0:
494,246,86071,1,2,0:0:0:0:
347,90,86243,1,0,0:0:0:0:
391,217,86416,1,0,0:0:0:0:
291,29,86588,6,0,L|-1:85,1,244.799992529297,6|0,0:0|0:0,0:0:0:0:
391,217,87105,2,0,P|407:164|415:106,2,81.6,2|0|0,0:0|0:0|0:0,0:0:0:0:
101,300,87623,6,0,P|101:233|112:176,1,94.86000296727,2|0,0:0|0:0,0:0:0:0:
284,78,87968,6,0,P|247:187|243:318,1,216.240000329956,8|0,0:0|0:0,0:0:0:0:
