osu file format v14

[General]
AudioFilename: audio.mp3
AudioLeadIn: 0
PreviewTime: 32019
Countdown: 0
SampleSet: Soft
StackLeniency: 0.5
Mode: 0
LetterboxInBreaks: 0
WidescreenStoryboard: 1

[Editor]
DistanceSpacing: 2.6
BeatDivisor: 4
GridSize: 4
TimelineZoom: 1

[Metadata]
Title:Walk This Way
TitleUnicode:Walk This Way
Artist:THE BEAT GARDEN
ArtistUnicode:THE BEAT GARDEN
Creator:Mishima Yurara
Version:Insane
Source:神撃のバハムート VIRGIN SOUL
Tags:Rage of Bahamut Rizia kawaiwkyik cheesecake ioexception FFI VINXIS
BeatmapID:1508811
BeatmapSetID:642004

[Difficulty]
HPDrainRate:6
CircleSize:4
OverallDifficulty:8
ApproachRate:9
SliderMultiplier:1.83
SliderTickRate:2

[Events]
//Background and Video events
0,0,"not lucifer.png",0,0
Video,-75,"Encoded.flv"
//Break Periods
//Storyboard Layer 0 (Background)
//Storyboard Layer 1 (Fail)
//Storyboard Layer 2 (Pass)
//Storyboard Layer 3 (Foreground)
//Storyboard Sound Samples

[TimingPoints]
37,344.827586206897,4,2,1,30,1,0
37,-166.666666666667,4,2,1,30,0,0
11071,-166.666666666667,4,2,1,40,0,0
33140,-200,4,2,2,50,0,0
33657,-125,4,2,2,50,0,0
34174,-200,4,2,2,50,0,0
34692,-125,4,2,2,50,0,0
35209,-100,4,2,2,50,0,0
35899,-125,4,2,2,50,0,0
36416,-90.909090909091,4,2,2,50,0,0
36933,-125,4,2,2,50,0,0
37450,-200,4,2,2,50,0,0
39174,-125,4,2,2,50,0,0
39692,-200,4,2,2,50,0,0
40209,-125,4,2,2,50,0,0
40726,-100,4,2,2,50,0,0
41416,-125,4,2,2,50,0,0
41933,-90.909090909091,4,2,2,50,0,0
42450,-125,4,2,2,50,0,0
42968,-200,4,2,2,50,0,0
44174,-166.666666666667,4,2,1,35,0,0
55209,-166.666666666667,4,2,1,45,0,0
63485,-133.333333333333,4,2,2,50,0,0
64174,-117.647058823529,4,2,2,55,0,0
66243,-100,4,2,2,60,0,0
68657,-86.9565217391303,4,2,2,60,0,0
69002,-100,4,2,1,60,0,0
69347,-100,4,2,3,60,0,0
69519,-100,4,2,1,60,0,0
69864,-100,4,2,4,60,0,0
70037,-100,4,2,3,60,0,0
70209,-100,4,2,1,60,0,0
70726,-100,4,2,2,60,0,0
71761,-100,4,2,4,60,0,0
71933,-100,4,2,2,60,0,0
74519,-100,4,2,1,60,0,0
74864,-100,4,2,3,60,0,0
75037,-100,4,2,1,60,0,0
75381,-100,4,2,2,60,0,0
75726,-100,4,2,1,60,0,0
75899,-100,4,2,4,60,0,0
76071,-100,4,2,2,60,0,0
76416,-100,4,2,4,60,0,0
76502,-100,4,2,2,60,0,0
79692,-86.9565217391303,4,2,2,60,0,0
80037,-100,4,2,1,60,0,0
80381,-100,4,2,3,60,0,0
80554,-100,4,2,1,60,0,0
80899,-100,4,2,2,60,0,0
81243,-125,4,2,1,45,0,0
82795,-83.3333333333333,4,2,2,60,0,0

[Colours]
Combo1 : 159,223,223
Combo2 : 223,159,159
Combo3 : 223,159,223
Combo4 : 190,180,205

[HitObjects]
126,58,37,5,2,0:0:0:0:
210,86,554,1,0,0:0:0:0:
126,58,1071,1,0,0:0:0:0:
134,145,1416,5,2,0:0:0:0:
218,173,1933,1,0,0:0:0:0:
301,140,2450,1,0,0:0:0:0:
389,144,2795,5,2,0:0:0:0:
423,227,3312,1,0,0:0:0:0:
370,298,3830,1,0,0:0:0:0:
458,299,4174,5,2,0:0:0:0:
406,373,4692,1,0,0:0:0:0:
317,384,5209,1,0,0:0:0:0:
246,333,5554,5,2,0:0:0:0:
246,333,6071,1,0,0:0:0:0:
246,333,6588,1,0,0:0:0:0:
246,333,6933,5,2,0:0:0:0:
197,258,7450,1,0,0:0:0:0:
119,302,7968,1,0,0:0:0:0:
197,343,8312,5,2,0:0:0:0:
197,343,8830,1,0,0:0:0:0:
119,384,9347,2,0,B|108:319|135:278|135:278|160:242|148:171,1,219.59999329834,2|0,0:0|0:0,0:0:0:0:
67,14,10381,2,0,L|59:68,2,54.899998324585
142,93,10899,1,0,0:0:0:0:
219,46,11071,6,0,P|276:35|341:42,2,109.79999664917,4|0|0,0:1|0:0|0:0,0:0:0:0:
142,93,11933,2,0,P|140:141|146:165,1,54.899998324585
215,199,12278,6,0,P|272:210|337:203,1,109.79999664917,2|0,0:0|0:0,0:0:0:0:
74,265,12968,1,0,0:0:0:0:
74,265,13140,2,0,L|80:191,2,54.899998324585
141,147,13657,6,0,P|154:98|184:35,2,109.79999664917,2|0|0,0:0|0:0|0:0,0:0:0:0:
197,342,14692,1,0,0:0:0:0:
340,238,15037,6,0,P|389:214|442:200,1,109.79999664917,2|0,0:0|0:0,0:0:0:0:
202,345,15726,2,0,L|137:325,2,54.899998324585
38,266,16243,2,0,L|103:246,1,54.899998324585
187,249,16588,6,0,B|199:172|199:172|172:128|172:128|185:24,1,219.59999329834,2|0,0:0|0:0,0:0:0:0:
96,280,17623,2,0,P|121:318|162:343,1,82.3499974868775
150,338,17968,6,0,P|205:343|283:321,1,109.79999664917,2|0,0:0|0:0,0:0:0:0:
119,193,18485,2,0,P|65:181|10:186,1,109.79999664917
235,86,19002,2,0,P|228:112|220:138,1,54.899998324585
187,249,19347,6,0,B|217:226|248:226|248:226|280:249|291:324,1,164.699994973755,2|0,0:0|0:0,0:0:0:0:
88,62,20381,1,0,0:0:0:0:
91,65,21243,5,0,0:0:0:0:
91,65,21416,2,0,L|84:122,2,54.899998324585
155,183,21933,1,0,0:0:0:0:
229,125,22105,6,0,P|277:117|353:124,1,109.79999664917,4|0,0:1|0:0,0:0:0:0:
337,231,22623,2,0,P|282:234|228:226,1,109.79999664917
135,19,23312,6,0,L|155:183,1,164.699994973755,2|0,0:0|0:0,0:0:0:0:
93,259,24002,1,0,0:0:0:0:
93,259,24174,2,0,P|56:256|-4:200,1,109.79999664917
71,69,24692,6,0,P|147:57|253:25,1,164.699994973755,2|0,0:0|0:0,0:0:0:0:
319,66,25381,2,0,L|443:54,1,109.79999664917
499,118,25899,1,0,0:0:0:0:
422,176,26071,6,0,P|406:229|405:307,1,109.79999664917,2|0,0:0|0:0,0:0:0:0:
114,308,26761,1,0,0:0:0:0:
198,32,27105,2,0,P|214:85|215:163,1,109.79999664917
280,208,27623,6,0,L|296:386,1,164.699994973755,2|0,0:0|0:0,0:0:0:0:
131,194,28485,2,0,L|196:201,1,54.899998324585
185,199,29002,6,0,P|204:121|204:75,1,109.79999664917,2|0,0:0|0:0,0:0:0:0:
277,223,29519,2,0,P|281:277|296:330,1,109.79999664917
208,330,30037,2,0,L|214:391,1,54.899998324585
256,192,30381,5,2,0:0:0:0:
256,192,30468,12,2,31761,0:0:0:0:
69,120,33140,6,0,P|113:106|158:109,1,91.5,6|0,0:0|0:0,0:0:0:0:
198,207,33657,6,0,P|263:214|348:166,1,146.4,2|0,0:0|0:0,0:0:0:0:
373,90,34174,6,0,P|381:46|377:-11,1,91.5,6|0,0:0|0:0,0:0:0:0:
334,180,34692,6,0,P|321:241|322:344,1,146.4,2|0,0:0|0:0,0:0:0:0:
319,324,35209,6,0,L|202:332,1,91.5,6|0,0:0|0:0,0:0:0:0:
98,185,35554,2,0,L|215:192,1,91.5,8|0,0:0|0:0,0:0:0:0:
77,351,35899,6,0,P|10:324|21:236,1,146.4,6|0,0:0|0:0,0:0:0:0:
98,185,36416,6,0,P|121:127|45:16,1,201.300006143189,2|0,0:0|0:0,0:0:0:0:
98,185,36933,6,0,P|153:222|245:231,1,146.4,6|0,0:0|0:0,0:0:0:0:
304,192,37450,6,2,P|358:192|408:203,1,91.5,2|0,0:0|0:0,0:0:0:0:
457,265,37968,1,6,0:0:0:0:
457,265,38140,1,2,0:0:0:0:
452,21,38312,1,8,0:0:0:0:
452,21,38657,6,0,L|464:118,1,91.5,6|0,0:0|0:0,0:0:0:0:
397,210,39174,6,0,B|365:143|365:143|357:72,1,146.4,2|0,0:0|0:0,0:0:0:0:
270,191,39692,6,0,L|309:274,1,91.5,6|0,0:0|0:0,0:0:0:0:
208,294,40209,6,0,B|177:228|177:228|78:255,1,146.4,2|0,0:0|0:0,0:0:0:0:
0,361,40726,6,0,P|42:345|88:344,1,91.5,6|0,0:0|0:0,0:0:0:0:
210,134,41071,2,0,P|167:149|121:150,1,91.5,8|0,0:0|0:0,0:0:0:0:
300,54,41416,6,0,L|464:38,1,146.4,6|0,0:0|0:0,0:0:0:0:
512,170,41933,6,0,B|436:175|436:175|389:158|389:158|314:164,1,201.300006143189,2|0,0:0|0:0,0:0:0:0:
145,272,42450,6,0,L|309:256,1,146.4,6|0,0:0|0:0,0:0:0:0:
390,331,42968,6,0,B|368:309|368:309|472:294,1,137.25,2|6,0:0|0:0,0:0:0:0:
145,272,43830,1,8,0:0:0:0:
366,116,44174,5,4,0:1:0:0:
456,98,44347,1,0,0:0:0:0:
386,29,44519,2,0,P|331:22|277:31,1,109.79999664917
278,221,45209,1,0,0:0:0:0:
278,221,45381,6,0,P|332:227|386:218,2,109.79999664917,2|0|0,0:0|0:0|0:0,0:0:0:0:
106,158,46416,2,0,B|73:139|57:117|57:117|62:65|111:22,1,164.699994973755,0|2,0:0|0:0,0:0:0:0:
209,25,47105,5,0,0:0:0:0:
209,25,47278,2,0,L|268:30,1,54.899998324585
427,98,47623,2,0,L|368:103,1,54.899998324585
254,212,47968,1,0,0:0:0:0:
254,212,48140,6,0,L|273:99,1,109.79999664917,2|0,0:0|0:0,0:0:0:0:
343,23,48657,2,0,P|370:22|397:24,1,54.899998324585
272,103,49002,2,0,B|218:114|218:114|163:105,1,109.79999664917
56,92,49519,6,0,L|61:274,1,164.699994973755,2|0,0:0|0:0,0:0:0:0:
124,332,50209,2,0,P|186:327|238:303,1,109.79999664917
456,92,50899,6,0,L|451:274,1,164.699994973755,2|0,0:0|0:0,0:0:0:0:
388,332,51589,2,0,P|326:327|274:303,1,109.79999664917
456,92,52278,5,2,0:0:0:0:
182,135,52623,2,0,P|298:123|251:222,1,274.499991622925
19,332,53830,6,0,B|36:275|35:207|-15:176|-15:176|49:165|74:129|74:129|127:145|193:132,1,384.299988272095,2|0,0:0|0:0,0:0:0:0:
200,45,55209,5,4,0:1:0:0:
200,45,55554,2,0,L|325:57,2,109.79999664917
102,85,56416,6,0,P|102:113|106:140,1,54.899998324585,2|0,0:0|0:0,0:0:0:0:
23,191,56761,2,0,P|35:226|52:258,1,54.899998324585
135,322,57105,2,0,P|196:330|258:320,2,109.79999664917
35,352,57968,5,2,0:0:0:0:
35,352,58312,2,0,L|45:222,2,109.79999664917
159,360,59174,1,0,0:0:0:0:
211,258,59347,5,2,0:0:0:0:
280,322,59519,2,0,P|345:338|410:333,2,109.79999664917
99,190,60554,6,0,B|93:142|93:142|99:126|99:126|92:82,1,109.79999664917,2|0,0:0|0:0,0:0:0:0:
419,82,61243,2,0,B|413:126|413:126|419:142|419:142|413:190,1,109.79999664917,2|0,0:0|0:0,0:0:0:0:
233,343,61933,6,0,P|182:320|144:282,1,109.79999664917,2|0,0:0|0:0,0:0:0:0:
279,41,62623,2,0,P|330:64|368:102,1,109.79999664917,2|0,0:0|0:0,0:0:0:0:
149,304,63312,1,2,0:0:0:0:
149,304,63485,6,0,L|164:229,1,68.6250026178361,2|2,0:0|0:0,0:0:0:0:
149,80,63830,2,0,L|164:155,1,68.6250026178361,2|2,0:0|0:0,0:0:0:0:
220,361,64174,6,0,L|237:275,1,77.7750014834404,2|2,0:0|0:0,0:0:0:0:
220,23,64519,2,0,L|237:108,1,77.7750014834404,2|2,0:0|0:0,0:0:0:0:
235,99,66243,6,0,P|295:106|430:52,1,183,2|8,0:0|0:0,0:0:0:0:
116,165,66761,2,0,B|111:237|111:237|130:275|130:275|124:343,1,183,0|2,0:0|0:0,0:0:0:0:
195,212,67278,1,8,0:0:0:0:
309,291,67450,1,0,0:0:0:0:
390,241,67623,6,0,P|417:174|412:55,1,183,2|8,0:0|0:0,0:0:0:0:
309,291,68140,2,0,B|363:334|363:334|393:343|450:332|478:272,1,183,2|2,0:0|0:0,0:0:0:0:
270,181,68657,6,0,L|86:201,1,157.837503010511,8|0,0:0|0:0,0:0:0:0:
113,198,69002,6,0,P|146:135|141:299,1,640.5,2|0,1:2|0:0,0:0:0:0:
197,193,70381,6,0,P|251:184|202:252,1,183,2|8,1:2|0:0,0:0:0:0:
52,315,70899,2,0,P|36:258|42:201,1,91.5,2|0,0:0|0:0,0:0:0:0:
109,186,71243,1,2,0:0:0:0:
0,11,71416,1,8,0:0:0:0:
71,60,71588,6,0,P|165:82|278:60,1,183
496,131,72105,2,0,P|405:119|317:141,1,183,8|0,0:0|0:0,0:0:0:0:
263,213,72623,1,2,0:0:0:0:
317,377,72795,2,0,L|326:285,1,91.5,8|0,0:0|0:0,0:0:0:0:
198,136,73140,6,0,P|135:149|98:185,1,91.5,2|0,0:0|0:0,0:0:0:0:
41,378,73485,1,8,0:0:0:0:
39,125,73657,2,0,B|32:196|32:196|57:227|57:227|49:309,1,183,2|2,0:0|0:0,0:0:0:0:
257,331,74174,1,8,0:0:0:0:
224,235,74347,1,0,0:0:0:0:
224,235,74433,1,0,0:0:0:0:
224,235,74519,6,0,P|271:177|327:382,1,457.5,2|2,1:2|0:0,0:0:0:0:
191,376,75554,1,8,0:0:0:0:
290,265,75726,6,0,P|345:235|300:298,1,183,2|0,0:0|0:0,0:0:0:0:
191,376,76243,2,0,L|46:352,1,137.25,8|0,0:0|0:0,0:0:0:0:
59,356,76588,2,0,P|60:298|88:247,1,91.5,0|2,0:0|0:0,0:0:0:0:
165,164,76933,1,8,0:0:0:0:
82,53,77105,1,0,0:0:0:0:
253,130,77278,6,0,L|236:320,1,183,2|8,0:0|0:0,0:0:0:0:
100,235,77795,2,0,P|85:146|83:52,1,183,0|2,0:0|0:0,0:0:0:0:
227,11,78312,1,8,0:0:0:0:
346,84,78485,1,0,0:0:0:0:
442,52,78657,6,0,L|463:244,1,183,2|8,0:0|0:0,0:0:0:0:
221,296,79174,2,0,P|288:285|401:313,1,183,2|2,0:0|0:0,0:0:0:0:
344,186,79692,6,0,L|176:168,1,157.837503010511,8|0,0:0|0:0,0:0:0:0:
187,169,80037,6,0,P|206:130|287:301,1,457.5,2|2,1:2|0:0,0:0:0:0:
171,353,81071,1,8,0:0:0:0:
265,172,81243,6,0,P|313:170|257:201,1,146.4,2|0,0:0|0:0,0:0:0:0:
202,261,81761,2,0,L|115:248,1,73.2,2|0,0:0|0:0,0:0:0:0:
161,175,82105,2,0,L|92:120,1,73.2,2|0,0:0|0:0,0:0:0:0:
168,80,82450,2,0,L|135:-1,1,73.2,2|0,0:0|0:0,0:0:0:0:
454,110,82795,6,0,P|357:145|221:95,1,219.59999329834,6|0,0:0|0:0,0:0:0:0:
15,208,83312,2,0,P|119:178|221:214,1,219.59999329834,2|0,0:0|0:0,0:0:0:0:
454,110,83830,6,0,P|357:145|221:95,1,219.59999329834,6|0,0:0|0:0,0:0:0:0:
15,208,84347,2,0,P|119:178|221:214,1,219.59999329834,2|0,0:0|0:0,0:0:0:0:
276,304,84864,2,0,B|352:316|352:316|406:300|406:300|506:314,1,219.59999329834,2|8,0:0|0:0,0:0:0:0:
127,311,85381,1,0,0:0:0:0:
127,311,85468,1,0,0:0:0:0:
127,311,85554,6,0,L|173:78,1,219.59999329834,6|0,0:0|0:0,0:0:0:0:
296,14,86071,2,0,L|338:229,1,219.59999329834,2|0,0:0|0:0,0:0:0:0:
127,311,86588,6,0,L|173:78,1,219.59999329834,6|0,0:0|0:0,0:0:0:0:
296,14,87105,2,0,L|338:229,1,219.59999329834,2|0,0:0|0:0,0:0:0:0:
127,311,87623,2,0,P|90:249|96:185,1,109.79999664917,2|0,0:0|0:0,0:0:0:0:
191,7,87968,6,2,L|441:37,1,219.59999329834,8|0,0:0|0:0,0:1:0:0:
