osu file format v14

[General]
AudioFilename: audio.mp3
AudioLeadIn: 0
PreviewTime: 32019
Countdown: 0
SampleSet: Soft
StackLeniency: 0.5
Mode: 0
LetterboxInBreaks: 0
WidescreenStoryboard: 1

[Editor]
DistanceSpacing: 0.96
BeatDivisor: 2
GridSize: 4
TimelineZoom: 1.3

[Metadata]
Title:Walk This Way
TitleUnicode:Walk This Way
Artist:THE BEAT GARDEN
ArtistUnicode:THE BEAT GARDEN
Creator:Mishima Yurara
Version:IOException's Normal
Source:神撃のバハムート VIRGIN SOUL
Tags:Rage of Bahamut Rizia kawaiwkyik cheesecake ioexception FFI VINXIS
BeatmapID:1374034
BeatmapSetID:642004

[Difficulty]
HPDrainRate:3
CircleSize:3.5
OverallDifficulty:4
ApproachRate:4
SliderMultiplier:1
SliderTickRate:1

[Events]
//Background and Video events
0,0,"not lucifer.png",0,0
Video,-75,"Encoded.flv"
//Break Periods
//Storyboard Layer 0 (Background)
//Storyboard Layer 1 (Fail)
//Storyboard Layer 2 (Pass)
//Storyboard Layer 3 (Foreground)
//Storyboard Sound Samples

[TimingPoints]
37,344.827586206897,4,2,1,30,1,0
11071,-100,4,2,1,40,0,0
32105,-100,4,2,1,40,0,0
33140,-100,4,2,2,50,0,0
44174,-111.111111111111,4,2,1,40,0,0
49692,-111.111111111111,4,2,1,40,0,0
55209,-100,4,2,1,40,0,0
60726,-100,4,2,2,40,0,0
63485,-100,4,2,2,40,0,0
64174,-100,4,2,2,40,0,0
65209,-100,4,2,2,40,0,0
66243,-90.9090909090909,4,2,2,50,0,0
81243,-100,4,2,2,50,0,0
81416,-100,4,2,1,30,0,0
81761,-100,4,2,1,35,0,0
82450,-100,4,2,1,40,0,0
82795,-100,4,2,2,50,0,0

[Colours]
Combo1 : 159,223,223
Combo2 : 223,159,159
Combo3 : 223,159,223
Combo4 : 190,180,205

[HitObjects]
307,199,37,6,0,B|302:141|302:141|310:13,2,150,2|0|0,0:0|0:0|0:0,0:0:0:0:
213,164,1416,2,0,B|218:222|218:222|210:350,2,150,2|0|0,0:0|0:0|0:0,0:0:0:0:
153,83,2795,6,0,P|94:83|26:156,2,150,2|0|0,0:0|0:0|0:0,0:0:0:0:
253,80,4174,2,0,P|312:80|380:7,1,150,2|0,0:0|0:0,0:0:0:0:
469,138,5209,1,0,0:0:0:0:
469,138,5554,6,0,B|456:182|456:182|485:317,2,150,2|0|0,0:0|0:0|0:0,0:0:0:0:
401,64,6933,2,0,P|333:37|267:69,1,150,2|0,0:0|0:0,0:0:0:0:
153,180,7968,1,0,0:0:0:0:
153,180,8312,6,0,P|105:156|136:72,1,150,2|0,0:0|0:0,0:0:0:0:
274,98,9347,2,0,L|378:101,2,100,0|0|0,0:0|0:0|0:0,0:0:0:0:
299,194,10381,2,0,L|403:197,1,100,0|0,0:0|0:0,0:0:0:0:
359,289,11071,6,0,B|312:288|312:288|252:270|252:270|183:269,2,150,4|0|0,0:1|0:0|0:0,0:0:0:0:
327,383,12450,2,0,B|265:381|265:381|222:364,1,100,2|0,0:0|0:0,0:0:0:0:
139,323,13140,2,0,B|119:275|119:275|138:216,1,100,0|0,0:0|0:0,0:0:0:0:
223,184,13830,6,0,B|213:143|213:143|224:79|224:79|212:18,2,150,2|0|0,0:0|0:0|0:0,0:0:0:0:
299,247,15209,2,0,L|481:227,1,150,2|0,0:0|0:0,0:0:0:0:
497,223,15899,2,0,P|505:168|478:118,1,100,0|0,0:0|0:0,0:0:0:0:
414,60,16588,6,0,B|331:38|348:91|246:60,2,150,2|0|0,0:0|0:0|0:0,0:0:0:0:
400,159,17968,2,0,L|430:335,1,150,2|0,0:0|0:0,0:0:0:0:
279,343,19002,1,0,0:0:0:0:
279,343,19347,6,0,P|224:373|124:334,2,150,2|0|0,0:0|0:0|0:0,0:0:0:0:
205,275,20726,2,0,B|194:227|194:227|199:166,1,100,0|0,0:0|0:0,0:0:0:0:
271,107,21416,2,0,B|282:59|282:59|277:-2,1,100,0|0,0:0|0:0,0:0:0:0:
179,26,22105,6,0,L|21:43,2,150,4|0|0,0:1|0:1|0:0,0:0:0:0:
164,125,23485,2,0,L|40:138,1,100,0|0,0:0|0:0,0:0:0:0:
43,229,24174,2,0,P|30:278|64:336,1,100
135,363,24864,6,0,B|143:313|143:313|122:268|122:268|131:219,2,150
230,351,26243,2,0,P|237:294|200:238,1,100
267,251,26761,2,0,L|385:238,1,100
414,236,27278,1,0,0:0:0:0:
465,150,27623,6,0,P|477:94|369:4,1,200,2|0,0:0|0:0,0:0:0:0:
383,107,28657,1,0,0:0:0:0:
383,107,29002,2,0,B|341:115|341:115|278:103|278:103|218:113,2,150,2|0|0,0:0|0:0|0:0,0:0:0:0:
480,84,30381,6,0,B|514:146|514:146|475:243,2,150
416,5,31761,1,0,0:0:0:0:
350,80,32105,6,0,B|288:89|309:58|235:69,2,100
281,153,33140,6,0,P|216:149|164:78,1,150,6|2,0:0|0:0,0:0:0:0:
112,226,34174,2,0,L|123:383,1,150,6|2,0:0|0:0,0:0:0:0:
269,348,35209,2,0,L|261:247,1,100,6|8,0:0|0:0,0:0:0:0:
301,156,35899,6,0,P|364:131|444:162,1,150,6|2,0:0|0:0,0:0:0:0:
373,292,36933,2,0,L|206:317,1,150,6|2,0:0|0:0,0:0:0:0:
91,244,37968,2,0,P|71:197|95:136,1,100,6|8,0:0|0:0,0:0:0:0:
173,109,38657,6,0,P|229:103|288:31,1,150,6|2,0:0|0:0,0:0:0:0:
332,178,39692,2,0,L|321:335,1,150,6|2,0:0|0:0,0:0:0:0:
179,376,40726,2,0,L|186:275,1,100,6|8,0:0|0:0,0:0:0:0:
152,181,41416,6,0,P|95:143|10:157,1,150,6|2,0:0|0:0,0:0:0:0:
106,273,42450,2,0,P|178:284|240:245,1,150,6|2,0:0|0:0,0:0:0:0:
375,179,43485,2,0,P|422:167|467:187,1,100,2|8,0:0|0:0,0:0:0:0:
412,271,44174,5,4,0:1:0:0:
412,271,44519,2,0,B|424:317|424:317|414:373,2,89.9999972534181,0|0|0,0:0|0:0|0:0,0:0:0:0:
337,321,45554,2,0,L|193:336,2,134.999995880127,0|0|0,0:0|0:0|0:0,0:0:0:0:
328,231,46933,5,2,0:0:0:0:
328,231,47278,2,0,L|332:132,2,89.9999972534181,0|0|0,0:0|0:0|0:0,0:0:0:0:
415,251,48312,2,0,L|420:113,2,134.999995880127,0|0|0,0:0|0:0|0:0,0:0:0:0:
354,312,49692,6,0,P|306:338|216:305,2,134.999995880127,0|0|0,0:0|0:0|0:0,0:0:0:0:
332,228,51071,1,0,0:0:0:0:
332,228,51243,2,0,P|288:217|241:237,1,89.9999972534181,0|0,0:0|0:0,0:0:0:0:
205,249,51761,2,0,P|161:260|114:240,1,89.9999972534181
95,158,52450,6,0,B|83:112|83:112|112:15,2,134.999995880127
185,154,53830,1,0,0:0:0:0:
185,154,54002,2,0,L|284:148,1,89.9999972534181,0|0,0:0|0:0,0:0:0:0:
319,148,54519,2,0,L|317:202,1,44.999998626709
320,237,54864,1,0,0:0:0:0:
225,270,55209,6,0,B|182:285|182:285|131:265,1,100,6|0,0:0|0:0,0:0:0:0:
109,220,55726,2,0,L|126:321,1,100
133,368,56243,1,0,0:0:0:0:
133,368,56416,2,0,P|73:383|27:355,2,100,0|0|0,0:0|0:0|0:0,0:0:0:0:
171,336,57278,2,0,P|217:320|263:336,1,100
363,340,57968,6,0,B|377:291|377:291|359:236,1,100,2|0,0:0|0:0,0:0:0:0:
346,196,58485,2,0,B|332:147|332:147|350:92,1,100
381,63,59002,1,0,0:0:0:0:
381,63,59174,2,0,P|434:52|495:72,2,100,0|0|0,0:0|0:0|0:0,0:0:0:0:
328,50,60037,2,0,P|275:61|214:41,1,100,0|0,0:0|0:0,0:0:0:0:
137,29,60726,6,0,L|152:153,1,100,2|2,0:0|0:0,0:0:0:0:
121,229,61416,2,0,P|68:198|54:149,1,100,2|2,0:0|0:0,0:0:0:0:
149,128,62105,2,0,L|261:123,1,100,2|2,0:0|0:0,0:0:0:0:
339,71,62795,2,0,P|392:102|406:151,1,100,2|2,0:0|0:0,0:0:0:0:
256,192,63485,12,0,64864,0:0:0:0:
360,268,66243,5,6,0:0:0:0:
360,268,66588,2,0,B|264:285|294:225|168:256,1,165.000005035401,8|2,0:0|0:0,0:0:0:0:
157,288,67278,1,8,0:0:0:0:
56,232,67623,6,0,P|35:181|70:119,1,110.000003356934,2|8,0:0|0:0,0:0:0:0:
95,92,68140,2,0,P|154:81|214:118,1,110.000003356934,2|2,0:0|0:0,0:0:0:0:
235,144,68657,1,8,0:0:0:0:
348,131,69002,5,2,0:0:0:0:
348,131,69347,2,0,B|371:216|310:205|333:309,1,165.000005035401,8|2,0:0|0:0,0:0:0:0:
362,338,70037,1,8,0:0:0:0:
466,287,70381,6,0,P|493:230|477:176,1,110.000003356934,2|8,0:0|0:0,0:0:0:0:
451,138,70899,2,0,P|393:118|343:134,1,110.000003356934,2|2,0:0|0:0,0:0:0:0:
305,169,71416,2,0,L|235:168,1,55.0000016784668,8|0,0:0|0:0,0:0:0:0:
211,125,71761,5,6,0:0:0:0:
211,125,72105,2,0,B|122:152|136:90|28:130,1,165.000005035401,8|2,0:0|0:0,0:0:0:0:
7,162,72795,1,8,0:0:0:0:
98,230,73140,6,0,P|97:288|158:334,1,110.000003356934,2|8,0:0|0:0,0:0:0:0:
182,346,73657,2,0,P|241:340|280:291,1,110.000003356934,2|2,0:0|0:0,0:0:0:0:
295,251,74174,1,8,0:0:0:0:
189,206,74519,5,2,0:0:0:0:
189,206,74864,2,0,B|165:116|237:134|193:22,1,165.000005035401,8|2,0:0|0:0,0:0:0:0:
160,8,75554,1,8,0:0:0:0:
58,58,75899,6,0,P|43:114|78:168,1,110.000003356934,0|8,0:0|0:0,0:0:0:0:
96,206,76416,2,0,L|81:272,2,55.0000016784668,0|0|0,0:0|0:0|0:0,0:0:0:0:
137,166,76933,1,8,0:0:0:0:
220,244,77278,5,6,0:0:0:0:
220,244,77623,2,0,B|317:216|289:277|408:244,1,165.000005035401,8|2,0:0|0:0,0:0:0:0:
424,212,78312,1,8,0:0:0:0:
367,112,78657,6,0,P|359:57|298:21,1,110.000003356934,2|8,0:0|0:0,0:0:0:0:
263,17,79174,2,0,P|206:36|172:99,1,110.000003356934,2|2,0:0|0:0,0:0:0:0:
173,133,79691,1,8,0:0:0:0:
277,116,80037,6,0,B|285:232|253:214|262:338,1,220.000006713867,2|0,0:0|0:0,0:0:0:0:
299,371,80899,2,0,L|367:361,2,55.0000016784668,2|0|0,0:0|0:0|0:0,0:0:0:0:
58,199,82795,6,0,P|120:185|167:230,1,100,6|0,0:0|0:0,0:0:0:0:
184,236,83312,2,0,P|246:250|293:205,1,100,2|0,0:0|0:0,0:0:0:0:
319,210,83830,2,0,L|468:224,2,150,6|2|2,0:0|0:0|0:0,0:0:0:0:
247,145,85209,1,8,0:0:0:0:
173,83,85554,6,0,P|148:132|174:193,1,100,6|0,0:0|0:0,0:0:0:0:
174,218,86071,2,0,P|199:267|173:328,1,100,2|0,0:0|0:0,0:0:0:0:
148,334,86588,2,0,L|-15:350,2,150,6|2|2,0:0|0:0|0:0,0:0:0:0:
193,350,87795,1,0,0:0:0:0:
239,362,87968,2,0,L|288:357,1,50,8|0,0:0|0:0,0:0:0:0:
