osu file format v14

[General]
AudioFilename: audio.mp3
AudioLeadIn: 0
PreviewTime: 32019
Countdown: 0
SampleSet: Soft
StackLeniency: 0.5
Mode: 0
LetterboxInBreaks: 0
WidescreenStoryboard: 1

[Editor]
Bookmarks: 26416,71243
DistanceSpacing: 0.8
BeatDivisor: 8
GridSize: 4
TimelineZoom: 1.1

[Metadata]
Title:Walk This Way
TitleUnicode:Walk This Way
Artist:THE BEAT GARDEN
ArtistUnicode:THE BEAT GARDEN
Creator:Mishima Yurara
Version:Hyper
Source:神撃のバハムート VIRGIN SOUL
Tags:Rage of Bahamut Rizia kawaiwkyik cheesecake ioexception FFI VINXIS
BeatmapID:1366987
BeatmapSetID:642004

[Difficulty]
HPDrainRate:5
CircleSize:4
OverallDifficulty:6
ApproachRate:7
SliderMultiplier:1.71
SliderTickRate:1

[Events]
//Background and Video events
0,0,"not lucifer.png",0,0
Video,-75,"Encoded.flv"
//Break Periods
//Storyboard Layer 0 (Background)
//Storyboard Layer 1 (Fail)
//Storyboard Layer 2 (Pass)
//Storyboard Layer 3 (Foreground)
//Storyboard Sound Samples

[TimingPoints]
37,344.827586206897,4,2,1,30,1,0
37,-133.333333333333,4,2,1,30,0,0
33140,-100,4,2,2,30,0,0
44174,-100,4,2,1,30,0,0
60726,-100,4,2,2,30,0,0
66243,-83.3333333333333,4,2,2,30,0,0
81416,-125,4,2,1,30,0,0
81761,-111.111111111111,4,2,1,30,0,0
82105,-100,4,2,1,30,0,0
82450,-90.9090909090909,4,2,1,30,0,0
82795,-83.3333333333333,4,2,2,30,0,0

[Colours]
Combo1 : 159,223,223
Combo2 : 223,159,159
Combo3 : 223,159,223
Combo4 : 190,180,205

[HitObjects]
369,89,37,6,0,L|400:278,2,192.375007338524,2|0|0,0:0|0:0|0:0,0:0:0:0:
143,89,1416,2,0,L|111:278,2,192.375007338524,2|0|0,0:0|0:0|0:0,0:0:0:0:
243,37,2795,6,0,B|231:92|231:92|246:162|246:162|229:224,2,192.375007338524,2|0|0,0:0|0:0|0:0,0:0:0:0:
317,217,4174,2,0,B|329:162|329:162|314:92|314:92|330:29,2,192.375007338524,2|0|0,0:0|0:0|0:0,0:0:0:0:
198,306,5554,6,0,P|103:307|14:343,2,192.375007338524,2|0|0,0:0|0:0|0:0,0:0:0:0:
318,359,6933,2,0,P|413:358|502:322,2,192.375007338524,2|0|0,0:0|0:0|0:0,0:0:0:0:
263,259,8312,6,0,P|331:204|392:267,2,192.375007338524,2|0|2,0:0|0:0|0:0,0:0:0:0:
256,192,9433,12,0,10381,0:0:0:0:
162,98,11071,6,0,P|220:124|283:132,1,128.250004892349,4|0,0:1|0:0,0:0:0:0:
371,102,11588,2,0,L|497:122,1,128.250004892349,0|0,0:0|0:0,0:0:0:0:
493,207,12105,2,0,L|478:270,1,64.1250024461747,0|2,0:0|0:0,0:0:0:0:
391,327,12450,6,0,P|394:264|382:201,1,128.250004892349,0|0,0:0|0:0,0:0:0:0:
285,143,12968,1,0,0:0:0:0:
285,143,13140,2,0,L|221:152,1,64.1250024461747,0|0,0:0|0:0,0:0:0:0:
39,320,13657,6,0,L|165:301,2,128.250004892349,2|0|0,0:0|0:0|0:0,0:0:0:0:
177,174,14692,1,0,0:0:0:0:
30,39,15037,1,2,0:0:0:0:
30,39,15726,5,0,0:0:0:0:
30,39,15898,2,0,L|41:102,1,64.1250024461747,0|0,0:0|0:0,0:0:0:0:
89,174,16243,2,0,L|100:237,1,64.1250024461747,0|0,0:0|0:0,0:0:0:0:
148,309,16588,6,0,P|243:314|331:278,1,192.375007338524,2|0,0:0|0:0,0:0:0:0:
363,28,17623,1,0,0:0:0:0:
363,28,17968,6,0,P|399:116|392:211,2,192.375007338524,2|0|0,0:0|0:0|0:0,0:0:0:0:
179,19,19347,1,2,0:0:0:0:
256,192,19433,12,0,20726,0:0:0:0:
77,222,21243,5,0,0:0:0:0:
77,222,21416,1,0,0:0:0:0:
77,222,21588,2,0,L|94:94,1,128.250004892349,0|0,0:0|0:0,0:0:0:0:
196,41,22105,6,0,P|202:104|189:166,1,128.250004892349,4|0,0:1|0:0,0:0:0:0:
227,271,22623,2,0,P|286:247|349:241,2,128.250004892349,0|0|2,0:0|0:0|0:0,0:0:0:0:
116,295,23485,6,0,L|103:167,1,128.250004892349,0|0,0:0|0:0,0:0:0:0:
87,59,24002,1,0,0:0:0:0:
87,59,24174,1,0,0:0:0:0:
204,6,24519,1,0,0:0:0:0:
204,6,24692,6,0,P|294:36|388:25,1,192.375007338524,2|0,0:0|0:0,0:0:0:0:
510,55,25381,2,0,P|452:30|388:24,1,128.250004892349,0|0,0:0|0:0,0:0:0:0:
322,129,25899,1,0,0:0:0:0:
322,129,26071,6,0,L|339:256,1,128.250004892349,2|0,0:0|0:0,0:0:0:0:
189,341,26761,2,0,P|126:349|66:329,2,128.250004892349
263,302,27623,6,0,L|237:111,1,192.375007338524,2|0,0:0|0:0,0:0:0:0:
162,32,28485,1,0,0:0:0:0:
162,32,28657,1,0,0:0:0:0:
140,260,29002,6,0,L|125:132,1,128.250004892349,2|0,0:0|0:0,0:0:0:0:
48,113,29519,2,0,L|62:240,1,128.250004892349
5,295,30037,2,0,P|3:326|7:358,1,64.1250024461747,0|0,0:0|0:0,0:0:0:0:
87,372,30381,5,2,0:0:0:0:
256,192,30468,12,2,31761,0:0:0:0:
354,100,32105,6,0,L|344:227,2,128.250004892349,2|0|0,0:0|0:0|0:0,0:0:0:0:
401,24,32968,1,0,0:0:0:0:
484,65,33140,5,6,0:0:0:0:
256,192,33226,12,8,35554,0:0:0:0:
243,301,35899,6,0,P|381:79|135:169,1,684,6|0,0:0|0:0,0:0:0:0:
27,335,37623,1,0,0:0:0:0:
27,335,37795,2,0,L|46:165,1,171
57,61,38312,1,8,0:0:0:0:
166,38,38485,1,0,0:0:0:0:
236,125,38657,5,6,0:0:0:0:
256,192,38743,12,8,41071,0:0:0:0:
135,168,41416,6,0,P|380:78|245:302,1,684,6|0,0:0|0:0,0:0:0:0:
174,250,42968,2,0,P|96:281|37:342,1,171,2|0,0:0|0:0,0:0:0:0:
0,257,43485,2,0,L|22:87,1,171,6|8,0:0|0:0,0:0:0:0:
256,22,44174,6,0,L|271:106,1,85.5,4|0,0:1|0:0,0:0:0:0:
295,198,44519,2,0,P|379:183|461:206,1,171,0|0,0:0|0:0,0:0:0:0:
249,307,45209,1,0,0:0:0:0:
248,307,45381,6,0,P|167:328|83:315,1,171,2|0,0:0|0:0,0:0:0:0:
83,67,46071,2,0,P|166:54|248:76,1,171,0|0,0:0|0:0,0:0:0:0:
248,76,46588,1,0,0:0:0:0:
398,357,46933,6,0,L|382:272,1,85.5,2|0,0:0|0:0,0:0:0:0:
299,234,47278,2,0,L|314:149,1,85.5,0|0,0:0|0:0,0:0:0:0:
253,81,47623,2,0,L|168:95,2,85.5,0|0|0,0:0|0:0|0:0,0:0:0:0:
308,19,48140,6,0,P|387:48|472:47,1,171,2|0,0:0|0:0,0:0:0:0:
493,124,48657,2,0,L|469:206,1,85.5,0|0,0:0|0:0,0:0:0:0:
444,279,49002,1,0,0:0:0:0:
212,323,49347,1,0,0:0:0:0:
211,322,49519,6,0,P|129:228|133:103,1,256.5,2|0,0:0|0:0,0:0:0:0:
62,70,50209,2,0,P|40:153|0:228,1,171,0|0,0:0|0:0,0:0:0:0:
300,322,50899,6,0,P|382:228|378:103,1,256.5,2|0,0:0|0:0,0:0:0:0:
449,70,51588,2,0,P|471:153|512:228,1,171,0|0,0:0|0:0,0:0:0:0:
261,253,52278,6,0,B|266:185|266:185|251:143|251:143|255:85,1,171,2|0,0:0|0:0,0:0:0:0:
30,203,52968,2,0,B|34:261|34:261|19:303|19:303|24:371,1,171,0|0,0:0|0:0,0:0:0:0:
24,371,53485,1,0,0:0:0:0:
256,192,53830,12,4,55209,0:1:0:0:
231,64,55554,6,0,P|317:64|396:96,2,171,0|0|0,0:0|0:0|0:0,0:0:0:0:
155,99,56416,1,2,0:0:0:0:
96,319,56761,1,0,0:0:0:0:
313,253,57105,2,0,L|324:168,2,85.5,0|0|0,0:0|0:0|0:0,0:0:0:0:
303,347,57623,1,0,0:0:0:0:
155,98,57968,6,0,P|147:183|165:267,1,171,2|0,0:0|0:0,0:0:0:0:
206,355,58485,1,0,0:0:0:0:
303,347,58657,2,0,L|473:336,1,171,0|0,0:0|0:0,0:0:0:0:
465,241,59174,1,0,0:0:0:0:
450,145,59347,5,2,0:0:0:0:
438,51,59519,2,0,L|267:40,1,171,0|0,0:0|0:0,0:0:0:0:
206,355,60209,2,0,L|376:365,1,171,0|2,0:0|0:0,0:0:0:0:
460,365,60726,5,2,0:0:0:0:
359,222,61071,1,2,0:0:0:0:
473,91,61416,1,2,0:0:0:0:
453,265,61761,1,2,0:0:0:0:
289,323,62105,5,2,0:0:0:0:
158,207,62450,1,2,0:0:0:0:
222,45,62795,1,2,0:0:0:0:
58,106,63140,1,2,0:0:0:0:
30,252,63485,6,0,L|38:337,2,85.5,2|2|2,0:0|0:0|0:0,0:0:0:0:
151,197,64002,1,2,0:0:0:0:
151,197,64174,2,0,L|159:282,2,85.5,2|2|2,0:0|0:0|0:0,0:0:0:0:
272,142,64692,1,2,0:0:0:0:
272,141,65209,6,0,P|356:132|440:148,2,171,0|0|0,0:0|0:0|0:0,0:0:0:0:
151,197,66071,1,0,0:0:0:0:
71,123,66243,6,0,L|91:22,2,102.599996868897,2|0|8,0:0|0:0|0:0,0:0:0:0:
29,205,66761,2,0,B|49:268|49:268|7:300|7:300|8:362|47:367,1,205.199993737793,0|2,0:0|0:0,0:0:0:0:
127,331,67278,2,0,B|178:322|178:322|225:339,1,102.599996868897,8|0,0:0|0:0,0:0:0:0:
310,367,67623,6,0,L|512:334,1,205.199993737793,2|8,0:0|0:0,0:0:0:0:
497,240,68140,2,0,L|294:272,1,205.199993737793,2|2,0:0|0:0,0:0:0:0:
203,331,68657,2,0,P|183:283|175:233,1,102.599996868897,8|0,0:0|0:0,0:0:0:0:
103,192,69002,6,0,P|364:112|203:331,1,718.199978082276,6|0,0:2|0:0,0:0:0:0:
76,286,70381,6,0,P|4:335|77:384,1,205.199993737793,6|8,0:2|0:0,0:0:0:0:
202,330,70899,2,0,L|213:228,1,102.599996868897,2|0,0:0|0:0,0:0:0:0:
103,192,71243,2,0,L|91:90,1,102.599996868897,2|8,0:0|0:0,0:0:0:0:
244,123,71588,1,0,0:0:0:0:
356,1,71761,6,0,P|349:51|333:100,2,102.599996868897,0|0|8,0:0|0:0|0:0,0:0:0:0:
244,123,72278,2,0,B|151:103|153:195|52:162,1,205.199993737793,0|2,0:0|0:0,0:0:0:0:
0,76,72795,2,0,P|48:63|91:90,1,102.599996868897,8|0,0:0|0:0,0:0:0:0:
306,171,73140,6,0,L|264:371,1,205.199993737793,2|8,0:0|0:0,0:0:0:0:
168,354,73657,2,0,L|209:153,1,205.199993737793,2|2,0:0|0:0,0:0:0:0:
90,89,74174,2,0,P|47:62|-1:75,1,102.599996868897,8|0,0:0|0:0,0:0:0:0:
35,138,74519,6,0,P|79:338|202:175,1,512.999984344483,6|2,0:2|0:0,0:0:0:0:
161,76,75554,2,0,P|303:72|332:211,1,307.79999060669,4|0,0:0|0:0,0:0:0:0:
299,290,76243,6,0,L|503:280,2,205.199993737793,8|0|8,0:0|0:0|0:0,0:0:0:0:
197,339,77105,1,0,0:0:0:0:
102,278,77278,6,0,L|115:176,2,102.599996868897,2|0|8,0:0|0:0|0:0,0:0:0:0:
203,214,77795,2,0,B|212:142|212:142|183:95|183:95|193:17,1,205.199993737793,0|2,0:0|0:0,0:0:0:0:
353,22,78312,2,0,B|319:60|319:60|270:75,1,102.599996868897,8|0,0:0|0:0,0:0:0:0:
115,176,78657,6,0,L|142:379,1,205.199993737793,2|8,0:0|0:0,0:0:0:0:
225,359,79174,2,0,L|197:155,1,205.199993737793,2|2,0:0|0:0,0:0:0:0:
281,157,79692,2,0,P|327:136|377:121,1,102.599996868897,8|0,0:0|0:0,0:0:0:0:
458,186,80037,6,0,P|435:355|350:233,1,410.399987475586,6|0,0:2|0:0,0:0:0:0:
377,121,80899,2,0,P|314:109|264:141,2,102.599996868897,6|8|0,0:0|0:0|0:0,0:0:0:0:
443,199,81416,6,0,L|419:335,2,136.8,0|2|2,0:0|0:0|0:0,0:0:0:0:
451,39,82450,1,2,0:0:0:0:
298,157,82795,6,0,P|232:178|91:162,1,205.199993737793,6|0,0:0|0:0,0:0:0:0:
98,47,83312,2,0,P|198:30|297:55,1,205.199993737793,2|0,0:0|0:0,0:0:0:0:
298,157,83830,6,0,P|364:178|505:162,1,205.199993737793,6|0,0:0|0:0,0:0:0:0:
496,47,84347,2,0,P|395:30|296:55,1,205.199993737793,2|0,0:0|0:0,0:0:0:0:
298,157,84864,5,2,0:0:0:0:
115,343,85209,1,8,0:0:0:0:
298,55,85554,6,0,P|199:30|98:46,1,205.199993737793,6|0,0:0|0:0,0:0:0:0:
98,166,86071,2,0,P|198:182|297:157,1,205.199993737793,2|0,0:0|0:0,0:0:0:0:
298,55,86588,6,0,P|364:34|505:50,1,205.199993737793,6|0,0:0|0:0,0:0:0:0:
496,165,87105,2,0,P|395:181|296:156,1,205.199993737793,2|0,0:0|0:0,0:0:0:0:
298,55,87623,1,2,0:0:0:0:
219,224,87968,6,0,B|215:149|215:149|241:95|241:95|298:55,1,205.199993737793,8|0,0:0|0:0,0:0:0:0:
