osu file format v14

[General]
AudioFilename: audio.mp3
AudioLeadIn: 0
PreviewTime: 32019
Countdown: 0
SampleSet: Soft
StackLeniency: 0.5
Mode: 0
LetterboxInBreaks: 0
WidescreenStoryboard: 1

[Editor]
DistanceSpacing: 1
BeatDivisor: 4
GridSize: 4
TimelineZoom: 1

[Metadata]
Title:Walk This Way
TitleUnicode:Walk This Way
Artist:THE BEAT GARDEN
ArtistUnicode:THE BEAT GARDEN
Creator:Mishima Yurara
Version:Cheesecake's Easy
Source:神撃のバハムート VIRGIN SOUL
Tags:Rage of Bahamut Rizia kawaiwkyik cheesecake ioexception FFI VINXIS
BeatmapID:1362809
BeatmapSetID:642004

[Difficulty]
HPDrainRate:3
CircleSize:2.5
OverallDifficulty:3
ApproachRate:4
SliderMultiplier:0.9
SliderTickRate:1

[Events]
//Background and Video events
0,0,"not lucifer.png",0,0
Video,-75,"Encoded.flv"
//Break Periods
2,44374,53889
//Storyboard Layer 0 (Background)
//Storyboard Layer 1 (Fail)
//Storyboard Layer 2 (Pass)
//Storyboard Layer 3 (Foreground)
//Storyboard Sound Samples

[TimingPoints]
37,344.827586206897,4,2,1,30,1,0
11071,-100,4,2,1,40,0,0
32105,-100,4,2,1,20,0,0
33140,-100,4,2,2,50,0,0
44174,-100,4,2,1,35,0,0
55209,-100,4,2,1,45,0,0
60726,-100,4,2,2,45,0,0
63485,-100,4,2,2,50,0,0
64174,-100,4,2,2,55,0,0
65209,-100,4,2,1,55,0,0
66243,-100,4,2,2,60,0,0
81243,-100,4,2,1,45,0,0
82795,-100,4,2,2,60,0,0

[Colours]
Combo1 : 159,223,223
Combo2 : 223,159,159
Combo3 : 223,159,223
Combo4 : 190,180,205

[HitObjects]
270,150,37,6,0,P|344:154|412:149,2,135,2|0|0,0:0|0:0|0:0,0:0:0:0:
184,123,1416,2,0,P|110:119|42:124,2,135,2|0|0,0:0|0:0|0:0,0:0:0:0:
204,211,2795,6,0,P|202:281|206:363,2,135,2|0|0,0:0|0:0|0:0,0:0:0:0:
270,150,4174,2,0,P|272:80|268:-2,2,135,2|0|0,0:0|0:0|0:0,0:0:0:0:
339,207,5554,6,0,P|413:193|479:207,2,135,2|0|0,0:0|0:0|0:0,0:0:0:0:
255,238,6933,2,0,P|181:224|115:238,2,135,2|0|0,0:0|0:0|0:0,0:0:0:0:
324,296,8312,6,0,L|462:298,2,135,2|0|0,0:0|0:0|0:0,0:0:0:0:
63,225,10381,2,0,L|64:135,1,90,0|0,0:0|0:0,0:0:0:0:
138,84,11071,6,0,B|243:60|209:106|315:77,1,180,4|0,0:1|0:0,0:0:0:0:
401,52,12105,1,0,0:0:0:0:
467,112,12450,2,0,P|475:173|474:250,2,135,2|0|0,0:0|0:0|0:0,0:0:0:0:
401,52,13830,6,0,P|366:56|316:78,1,90,2|0,0:0|0:0,0:0:0:0:
251,140,14519,2,0,P|216:136|166:114,1,90,0|0,0:0|0:0,0:0:0:0:
91,63,15209,2,0,P|153:25|213:37,2,135,2|0|0,0:0|0:0|0:0,0:0:0:0:
23,122,16588,6,0,B|27:210|47:199|27:210|47:221|27:210|23:298,1,180,2|0,0:0|0:0,0:0:0:0:
107,332,17623,1,0,0:0:0:0:
185,287,17968,2,0,P|255:282|324:293,2,135,2|0|0,0:0|0:0|0:0,0:0:0:0:
108,242,19347,6,0,P|72:114|186:198,1,360,2|0,0:0|0:0,0:0:0:0:
310,328,21416,2,0,L|400:329,1,90,0|0,0:0|0:0,0:0:0:0:
476,281,22105,6,0,B|471:224|471:224|492:161|492:161|488:105,1,180,4|0,0:1|0:0,0:0:0:0:
412,55,23140,1,0,0:0:0:0:
324,78,23485,2,0,P|256:82|190:74,2,135,2|0|0,0:0|0:0|0:0,0:0:0:0:
387,142,24864,6,0,B|347:168|299:172|242:168,2,135,2|0|0,0:0|0:0|0:0,0:0:0:0:
459,88,26243,2,0,P|458:40|467:-3,2,90,2|0|0,0:0|0:0|0:0,0:0:0:0:
498,169,27278,1,0,0:0:0:0:
472,255,27623,6,0,B|360:270|388:310|416:270|304:255,1,180,2|0,0:0|0:0,0:0:0:0:
218,286,28657,1,0,0:0:0:0:
133,255,29002,2,0,P|66:247|-1:250,2,135,2|0|0,0:0|0:0|0:0,0:0:0:0:
202,195,30381,6,0,P|216:63|116:163,1,360,2|0,0:0|0:0,0:0:0:0:
133,255,32105,2,0,L|136:352,2,90,2|2|2,0:0|0:0|0:0,0:0:0:0:
202,195,33140,6,0,B|346:159|330:231|474:195,2,270,6|6|6,0:0|0:0|0:0,0:0:0:0:
133,255,35554,1,8,0:0:0:0:
46,279,35899,6,0,B|38:226|66:194|66:194|33:111|33:111|54:61|52:23,2,270,6|6|6,0:0|0:0|0:0,0:0:0:0:
111,343,38312,1,8,0:0:0:0:
198,318,38657,6,0,B|332:298|304:339|360:339|332:298|466:318,2,270,6|6|6,0:0|0:0|0:0,0:0:0:0:
133,255,41071,1,8,0:0:0:0:
157,167,41416,6,0,P|78:88|69:191,2,270,6|6|2,0:0|0:0|0:0,0:0:0:0:
133,255,43830,1,8,0:0:0:0:
46,279,44174,5,4,0:1:0:0:
179,132,55209,6,0,B|125:128|91:114|91:114|33:126,2,135,6|0|0,0:0|0:0|0:0,0:0:0:0:
239,198,56588,2,0,B|279:175|374:203,2,135
179,264,57968,6,0,B|143:275|118:263|118:263|90:267|90:267|60:264|26:268,2,135,2|0|0,0:0|0:0|0:0,0:0:0:0:
238,328,59347,2,0,B|270:318|308:320|308:320|340:340|371:332,2,135,0|0|0,0:0|0:0|0:0,0:0:0:0:
179,264,60726,6,0,L|182:170,1,90,2|2,0:0|0:0,0:0:0:0:
247,112,61416,2,0,L|341:115,1,90,2|2,0:0|0:0,0:0:0:0:
398,180,62105,2,0,L|395:274,1,90,2|2,0:0|0:0,0:0:0:0:
328,331,62795,2,0,L|234:328,1,90,2|2,0:0|0:0,0:0:0:0:
256,192,63485,12,0,64864,0:0:0:0:
442,240,66243,5,6,0:0:0:0:
374,180,66588,2,0,P|289:155|194:184,1,180,8|8,0:0|0:0,0:0:0:0:
121,218,67623,1,2,0:0:0:0:
70,143,67968,2,0,P|69:112|60:46,2,90,8|0|8,0:0|0:0|0:0,0:0:0:0:
30,224,69002,5,2,0:0:0:0:
121,218,69347,2,0,B|213:191|207:224|305:210,1,180,8|8,0:0|0:0,0:0:0:0:
387,192,70381,1,2,0:0:0:0:
461,141,70726,2,0,P|465:96|463:51,1,90,8|0,0:0|0:0,0:0:0:0:
386,4,71416,1,8,0:0:0:0:
300,32,71761,5,6,0:0:0:0:
273,117,72105,2,0,P|183:112|95:129,1,180,8|8,0:0|0:0,0:0:0:0:
56,210,73140,1,2,0:0:0:0:
95,290,73485,2,0,P|139:290|184:285,2,90,8|0|8,0:0|0:0|0:0,0:0:0:0:
6,283,74519,5,2,0:0:0:0:
55,210,74864,2,0,P|143:192|231:209,1,180,8|8,0:0|0:0,0:0:0:0:
281,283,75899,1,2,0:0:0:0:
368,263,76243,2,0,P|419:257|474:260,2,90,8|0|8,0:0|0:0|0:0,0:0:0:0:
341,348,77278,5,6,0:0:0:0:
280,283,77623,2,0,P|191:274|101:281,1,180,8|8,0:0|0:0,0:0:0:0:
16,311,78657,1,2,0:0:0:0:
34,222,79002,2,0,P|29:176|27:126,2,90,8|0|8,0:0|0:0|0:0,0:0:0:0:
102,281,80037,5,2,0:0:0:0:
167,219,80381,2,0,P|183:170|197:36,1,180,8|8,0:0|0:0,0:0:0:0:
107,30,81416,2,0,P|62:29|17:36,1,90,0|0,0:0|0:0,0:0:0:0:
6,125,82105,2,0,P|51:125|96:118,1,90
178,83,82795,6,0,B|267:68|267:68|313:76,2,135,6|2|6,0:0|0:0|0:0,0:0:0:0:
145,214,84347,1,2,0:0:0:0:
219,327,84864,2,0,L|308:312,1,90,2|8,0:0|0:0,0:0:0:0:
352,233,85554,6,0,B|336:167|336:167|350:86,2,135,6|2|6,0:0|0:0|0:0,0:0:0:0:
383,364,87105,1,2,0:0:0:0:
480,271,87623,1,2,0:0:0:0:
480,180,87968,6,0,L|480:82,1,90,8|0,0:0|0:0,0:0:0:0:
