osu file format v14

[General]
AudioFilename: audio.mp3
AudioLeadIn: 0
PreviewTime: 32019
Countdown: 0
SampleSet: Soft
StackLeniency: 0.5
Mode: 0
LetterboxInBreaks: 0
WidescreenStoryboard: 1

[Editor]
DistanceSpacing: 1
BeatDivisor: 4
GridSize: 4
TimelineZoom: 1.6

[Metadata]
Title:Walk This Way
TitleUnicode:Walk This Way
Artist:THE BEAT GARDEN
ArtistUnicode:THE BEAT GARDEN
Creator:Mishima Yurara
Version:Basic
Source:神撃のバハムート VIRGIN SOUL
Tags:Rage of Bahamut Rizia kawaiwkyik cheesecake ioexception FFI VINXIS
BeatmapID:1366985
BeatmapSetID:642004

[Difficulty]
HPDrainRate:3.5
CircleSize:3
OverallDifficulty:3.5
ApproachRate:4.3
SliderMultiplier:1
SliderTickRate:1

[Events]
//Background and Video events
0,0,"not lucifer.png",0,0
Video,-75,"Encoded.flv"
//Break Periods
2,44374,52547
//Storyboard Layer 0 (Background)
//Storyboard Layer 1 (Fail)
//Storyboard Layer 2 (Pass)
//Storyboard Layer 3 (Foreground)
//Storyboard Sound Samples

[TimingPoints]
37,344.827586206897,4,2,1,30,1,0
22105,-100,4,2,1,40,0,0
32105,-100,4,2,1,20,0,0
33140,-100,4,2,2,50,0,0
44174,-100,4,2,1,35,0,0
55209,-100,4,2,1,45,0,0
60726,-100,4,2,2,45,0,0
63485,-100,4,2,2,50,0,0
64174,-100,4,2,2,55,0,0
66243,-100,4,2,2,60,0,0
81243,-100,4,2,1,45,0,0
82795,-100,4,2,2,60,0,0

[Colours]
Combo1 : 159,223,223
Combo2 : 223,159,159
Combo3 : 223,159,223
Combo4 : 190,180,205

[HitObjects]
325,115,37,6,0,P|390:104|488:104,2,150,2|0|0,0:0|0:0|0:0,0:0:0:0:
234,158,1416,2,0,P|169:169|71:169,2,150,2|0|0,0:0|0:0|0:0,0:0:0:0:
319,209,2795,6,0,L|315:376,2,150,2|0|0,0:0|0:0|0:0,0:0:0:0:
234,158,4174,2,0,L|238:-9,2,150,2|0|0,0:0|0:0|0:0,0:0:0:0:
175,239,5554,5,2,0:0:0:0:
297,324,6071,1,0,0:0:0:0:
410,226,6588,1,0,0:0:0:0:
315,193,6933,5,2,0:0:0:0:
382,58,7450,1,0,0:0:0:0:
232,42,7968,1,0,0:0:0:0:
256,192,8312,12,0,10381,0:0:0:0:
284,63,11071,6,0,P|352:83|392:103,1,100,4|0,0:1|0:0,0:0:0:0:
407,136,11588,2,0,L|396:254,1,100
377,333,12278,1,2,0:0:0:0:
194,253,12968,2,0,L|122:245,2,50,0|0|0,0:0|0:0|0:0,0:0:0:0:
286,292,13657,6,0,L|302:178,2,100,2|0|0,0:0|0:0|0:0,0:0:0:0:
194,253,14692,1,0,0:0:0:0:
127,328,15037,2,0,L|10:342,1,100,2|0,0:0|0:0,0:0:0:0:
17,240,15726,2,0,L|-4:184,2,50,0|0|0,0:0|0:0|0:0,0:0:0:0:
65,251,16243,1,0,0:0:0:0:
130,175,16588,6,0,L|302:166,1,150,2|0,0:0|0:0,0:0:0:0:
429,169,17623,1,0,0:0:0:0:
352,235,17968,2,0,P|349:295|359:385,2,150,2|0|0,0:0|0:0|0:0,0:0:0:0:
429,169,19347,5,2,0:0:0:0:
256,192,19433,12,0,21243,0:0:0:0:
163,94,21933,6,0,P|241:117|327:117,1,150
354,97,22623,2,0,P|430:82|465:86,2,100,0|0|2,0:0|0:0|0:0,0:0:0:0:
183,201,24002,1,0,0:0:0:0:
183,201,24174,2,0,L|179:310,1,100
179,351,24692,6,0,P|128:343|32:365,1,150,2|0,0:0|0:0,0:0:0:0:
0,327,25381,2,0,L|18:214,1,100
29,179,25899,1,0,0:0:0:0:
38,130,26071,6,0,P|102:91|141:82,2,100,2|0|0,0:0|0:0|0:0,0:0:0:0:
123,182,27105,2,0,P|180:180|233:165,1,100
262,140,27623,6,0,L|251:311,1,150,2|0,0:0|0:0,0:0:0:0:
316,366,28485,2,0,L|369:360,1,50
458,326,29002,6,0,P|471:277|463:228,1,100,2|0,0:0|0:0,0:0:0:0:
433,188,29519,2,0,L|439:80,1,100
411,45,30037,2,0,L|348:51,1,50,0|0,0:0|0:0,0:0:0:0:
311,51,30381,5,2,0:0:0:0:
256,192,30468,12,2,31761,0:0:0:0:
295,335,32795,5,0,0:0:0:0:
256,241,33140,6,0,B|205:215|205:215|53:226|53:226|41:116|41:116|427:88,1,700,4|8,0:0|0:0,0:0:0:0:
494,155,35899,6,0,B|502:237|424:357|281:323|281:323|142:338|121:158|175:16,1,700,6|8,0:0|0:0,0:0:0:0:
288,32,38657,6,0,B|228:118|263:247|263:247|61:294|61:294|8:267|-1:207|-1:207|27:128|27:128|18:43,1,700,6|8,0:0|0:0,0:0:0:0:
116,31,41416,6,0,B|166:372|166:372|387:344|387:344|361:199,1,700,6|8,0:0|0:0,0:0:0:0:
347,114,44174,5,6,0:0:0:0:
144,301,53830,6,0,B|237:351|337:320|337:320|345:201|295:126,1,400,0|4,0:0|0:1,0:0:0:0:
267,31,55554,6,0,L|380:45,2,100,0|0|0,0:0|0:0|0:0,0:0:0:0:
216,33,56416,2,0,L|95:48,1,100,2|0,0:0|0:0,0:0:0:0:
125,144,57105,2,0,L|246:129,1,100,0|0,0:0|0:0,0:0:0:0:
274,123,57623,1,0,0:0:0:0:
370,147,57968,5,2,0:0:0:0:
428,228,58312,2,0,L|401:348,1,100,0|0,0:0|0:0,0:0:0:0:
309,353,59002,2,0,L|250:345,1,50,0|0,0:0|0:0,0:0:0:0:
211,330,59347,2,0,L|96:339,1,100,2|0,0:0|0:0,0:0:0:0:
62,325,59864,2,0,L|81:207,1,100,0|0,0:0|0:0,0:0:0:0:
117,81,60726,6,0,L|225:66,1,100,2|2,0:0|0:0,0:0:0:0:
248,162,61416,2,0,L|148:175,1,100,2|2,0:0|0:0,0:0:0:0:
179,269,62105,6,0,L|279:256,1,100,2|2,0:0|0:0,0:0:0:0:
310,350,62795,2,0,L|210:363,1,100,2|2,0:0|0:0,0:0:0:0:
256,192,63485,12,2,64692,0:0:0:0:
68,59,66243,6,0,P|141:51|177:66,1,100,2|8,0:0|0:0,0:0:0:0:
207,85,66761,2,0,L|193:201,1,100,0|2,0:0|0:0,0:0:0:0:
188,234,67278,1,8,0:0:0:0:
248,314,67623,6,0,P|304:321|370:309,1,100,2|8,0:0|0:0,0:0:0:0:
388,288,68140,2,0,P|399:250|403:174,1,100,2|2,0:0|0:0,0:0:0:0:
392,141,68657,1,8,0:0:0:0:
296,112,69002,6,0,P|223:96|322:201,1,400,6|6,0:2|0:2,0:0:0:0:
408,182,70726,1,8,0:0:0:0:
408,182,70899,2,0,L|396:299,1,100,2|2,0:0|0:0,0:0:0:0:
374,325,71416,1,8,0:0:0:0:
276,321,71761,6,0,P|228:318|166:333,1,100,2|8,0:0|0:0,0:0:0:0:
130,311,72278,2,0,L|141:202,1,100,0|2,0:0|0:0,0:0:0:0:
148,162,72795,1,8,0:0:0:0:
242,193,73140,6,0,P|329:194|359:182,1,100,2|8,0:0|0:0,0:0:0:0:
375,154,73657,2,0,P|386:89|379:38,1,100,2|2,0:0|0:0,0:0:0:0:
358,11,74174,1,8,0:0:0:0:
267,54,74519,6,0,P|211:107|387:269,1,400,6|0,0:2|0:0,0:0:0:0:
472,227,76243,2,0,L|475:113,2,100,8|0|8,0:0|0:0|0:0,0:0:0:0:
392,288,77278,6,0,P|319:295|282:316,1,100,2|8,0:0|0:0,0:0:0:0:
258,339,77795,2,0,L|154:333,1,100,0|2,0:0|0:0,0:0:0:0:
108,330,78312,1,8,0:0:0:0:
26,272,78657,6,0,P|35:222|57:178,1,100,2|8,0:0|0:0,0:0:0:0:
86,137,79174,2,0,P|76:87|54:43,1,100,2|2,0:0|0:0,0:0:0:0:
10,18,79692,1,8,0:0:0:0:
0,120,80037,6,0,P|34:260|182:134,1,400,6|0,0:2|0:0,0:0:0:0:
194,335,82795,6,0,P|281:304|304:289,1,100,6|0,0:0|0:0,0:0:0:0:
330,274,83312,2,0,P|389:203|402:179,1,100,2|0,0:0|0:0,0:0:0:0:
417,153,83830,2,0,P|433:62|432:34,1,100,6|0,0:0|0:0,0:0:0:0:
432,4,84347,1,2,0:0:0:0:
332,115,84864,2,0,L|226:120,1,100,2|8,0:0|0:0,0:0:0:0:
240,20,85554,6,0,P|153:51|130:66,1,100,6|0,0:0|0:0,0:0:0:0:
104,81,86071,2,0,P|44:151|31:175,1,100,2|0,0:0|0:0,0:0:0:0:
17,202,86589,2,0,P|0:292|1:320,1,100,6|0,0:0|0:0,0:0:0:0:
2,351,87106,1,2,0:0:0:0:
136,284,87623,2,0,L|256:292,1,100,2|8,0:0|0:0,0:0:0:0:
