osu file format v14

[General]
AudioFilename: audio.mp3
AudioLeadIn: 0
PreviewTime: 32019
Countdown: 0
SampleSet: Soft
StackLeniency: 0.5
Mode: 0
LetterboxInBreaks: 0
WidescreenStoryboard: 1

[Editor]
Bookmarks: 26416
DistanceSpacing: 2.6
BeatDivisor: 4
GridSize: 4
TimelineZoom: 1

[Metadata]
Title:Walk This Way
TitleUnicode:Walk This Way
Artist:THE BEAT GARDEN
ArtistUnicode:THE BEAT GARDEN
Creator:Mishima Yurara
Version:Another
Source:神撃のバハムート VIRGIN SOUL
Tags:Rage of Bahamut Rizia kawaiwkyik cheesecake ioexception FFI VINXIS
BeatmapID:1361193
BeatmapSetID:642004

[Difficulty]
HPDrainRate:6
CircleSize:4
OverallDifficulty:8
ApproachRate:9
SliderMultiplier:1.92
SliderTickRate:1

[Events]
//Background and Video events
0,0,"not lucifer.png",0,0
Video,-75,"Encoded.flv"
//Break Periods
//Storyboard Layer 0 (Background)
//Storyboard Layer 1 (Fail)
//Storyboard Layer 2 (Pass)
//Storyboard Layer 3 (Foreground)
//Storyboard Sound Samples

[TimingPoints]
37,344.827586206897,4,2,1,30,1,0
37,-250,4,2,1,30,0,0
11071,-250,4,2,1,40,0,0
32105,-200,4,2,1,20,0,0
32450,-125,4,2,1,20,0,0
33140,-200,4,2,2,50,0,0
33657,-125,4,2,2,50,0,0
34174,-200,4,2,2,50,0,0
34692,-125,4,2,2,50,0,0
35209,-100,4,2,2,50,0,0
35899,-125,4,2,2,50,0,0
36416,-90.909090909091,4,2,2,50,0,0
36933,-125,4,2,2,50,0,0
37450,-200,4,2,2,50,0,0
39174,-125,4,2,2,50,0,0
39692,-200,4,2,2,50,0,0
40209,-125,4,2,2,50,0,0
40726,-100,4,2,2,50,0,0
41416,-125,4,2,2,50,0,0
41933,-90.909090909091,4,2,2,50,0,0
42450,-125,4,2,2,50,0,0
42968,-200,4,2,2,50,0,0
44174,-200,4,2,1,35,0,0
55209,-166.666666666667,4,2,1,45,0,0
60726,-166.666666666667,4,2,2,45,0,0
63485,-133.333333333333,4,2,2,50,0,0
64174,-117.647058823529,4,2,2,55,0,0
65209,-200,4,2,1,55,0,0
65554,-131.578947368421,4,2,1,55,0,0
66243,-86.9565217391303,4,2,2,60,0,0
70899,-76.9230769230769,4,2,2,60,0,0
71243,-66.6666666666667,4,2,2,60,0,0
71761,-86.9565217391303,4,2,2,60,0,0
76243,-125,4,2,2,60,0,0
76588,-111.111111111111,4,2,2,60,0,0
77278,-86.9565217391303,4,2,2,60,0,0
81243,-125,4,2,1,45,0,0
82795,-83.3333333333333,4,2,2,60,0,0
84347,-125,4,2,2,60,0,0
84864,-107.52688172043,4,2,2,60,0,0
85209,-94.3396226415094,4,2,2,60,0,0
85554,-83.3333333333333,4,2,2,60,0,0
87105,-125,4,2,2,60,0,0
87623,-107.52688172043,4,2,2,60,0,0
87968,-94.3396226415094,4,2,2,60,0,0

[Colours]
Combo1 : 159,223,223
Combo2 : 223,159,159
Combo3 : 223,159,223
Combo4 : 190,180,205

[HitObjects]
143,85,37,5,2,0:0:0:0:
85,198,554,1,0,0:0:0:0:
143,85,1071,1,0,0:0:0:0:
143,85,1416,5,2,0:0:0:0:
85,198,1933,1,0,0:0:0:0:
253,36,2450,1,0,0:0:0:0:
253,36,2795,5,2,0:0:0:0:
373,80,3312,1,0,0:0:0:0:
445,186,3830,1,0,0:0:0:0:
445,186,4174,5,2,0:0:0:0:
366,286,4692,1,0,0:0:0:0:
473,357,5209,1,0,0:0:0:0:
402,250,5554,6,0,L|280:256,2,115.2,2|0|0,0:0|0:0|0:0,0:0:0:0:
402,250,6933,5,2,0:0:0:0:
314,157,7450,1,0,0:0:0:0:
197,210,7968,1,0,0:0:0:0:
120,311,8312,6,0,L|238:317,1,115.2,2|0,0:0|0:0,0:0:0:0:
427,223,9347,2,0,L|274:214,1,153.6
137,336,10381,1,0,0:0:0:0:
0,213,10726,1,0,0:0:0:0:
121,76,11071,6,0,L|201:78,1,76.8,4|0,0:1|0:0,0:0:0:0:
269,23,11588,2,0,L|345:25,1,76.8
351,137,12105,1,0,0:0:0:0:
351,137,12450,6,0,P|358:175|357:214,1,76.8,2|0,0:0|0:0,0:0:0:0:
275,79,12968,2,0,P|273:40|280:2,1,76.8
428,27,13485,1,0,0:0:0:0:
428,27,13830,6,0,B|445:61|445:61|446:98,1,76.8,2|0,0:0|0:0,0:0:0:0:
350,202,14347,2,0,B|333:168|333:168|331:130,1,76.8
499,245,14864,1,0,0:0:0:0:
499,245,15209,6,0,B|460:254|460:254|423:250,1,76.8,2|0,0:0|0:0,0:0:0:0:
215,307,15726,2,0,B|254:298|254:298|290:301,1,76.8
290,301,16243,1,0,0:0:0:0:
205,31,16588,6,0,L|128:39,1,76.8,2|0,0:0|0:0,0:0:0:0:
179,138,17105,2,0,L|102:146,1,76.8
102,146,17623,1,0,0:0:0:0:
333,138,17968,6,0,L|409:146,1,76.8,2|0,0:0|0:0,0:0:0:0:
307,31,18485,2,0,L|383:39,1,76.8
383,39,19003,1,0,0:0:0:0:
243,90,19347,6,0,B|238:130|238:130|247:166|247:166|241:211,2,115.2,2|0|0,0:0|0:0|0:0,0:0:0:0:
243,90,21071,6,0,B|238:130|238:130|247:166|247:166,2,76.8
399,166,22105,6,0,P|361:161|326:147,1,76.8,4|0,0:1|0:0,0:0:0:0:
383,301,22623,2,0,P|347:286|309:282,1,76.8,0|0,0:1|0:0,0:0:0:0:
244,204,23140,1,0,0:0:0:0:
313,71,23485,6,0,L|309:148,1,76.8,2|0,0:0|0:0,0:0:0:0:
178,259,24002,2,0,L|174:342,1,76.8
244,204,24519,1,0,0:0:0:0:
177,49,24864,6,0,L|254:51,1,76.8,2|0,0:0|0:0,0:0:0:0:
390,129,25381,2,0,L|313:131,1,76.8
244,204,25899,1,0,0:0:0:0:
162,134,26243,6,0,P|143:167|136:204,1,76.8,2|0,0:0|0:0,0:0:0:0:
326,274,26761,2,0,P|344:240|351:203,1,76.8
244,204,27278,1,0,0:0:0:0:
244,204,27623,6,0,L|251:86,2,115.2,2|0|0,0:0|0:0|0:0,0:0:0:0:
244,204,29002,6,0,L|236:321,2,115.2,2|0|0,0:0|0:0|0:0,0:0:0:0:
244,204,30381,5,2,0:0:0:0:
256,192,30468,12,0,31761,0:0:0:0:
151,64,32105,6,0,P|186:62|221:69,1,72,2|0,0:0|0:0,0:0:0:0:
275,155,32450,6,0,P|326:126|358:72,1,115.2,2|0,0:0|0:0,0:0:0:0:
435,52,32795,5,2,0:0:0:0:
435,52,32968,1,0,0:0:0:0:
366,351,33140,6,0,P|319:348|264:346,1,96,6|0,0:0|0:0,0:0:0:0:
115,224,33657,6,0,P|177:232|271:265,1,153.6,2|0,0:0|0:0,0:0:0:0:
98,336,34174,6,0,P|64:330|-15:310,1,96,6|0,0:0|0:0,0:0:0:0:
250,108,34692,6,0,P|259:184|262:260,1,153.6,2|0,0:0|0:0,0:0:0:0:
197,351,35209,5,6,0:0:0:0:
433,45,35554,2,0,L|440:127,1,48,8|0,0:0|0:0,0:0:0:0:
433,45,35899,6,0,B|360:78|360:78|355:152,1,153.6,6|0,0:0|0:0,0:0:0:0:
263,319,36416,6,0,L|278:84,1,211.200006445313,2|0,0:0|0:0,0:0:0:0:
192,193,36933,6,0,B|208:246|208:246|305:245,1,153.6,6|0,0:0|0:0,0:0:0:0:
276,108,37450,6,0,L|171:108,1,96,2|0,0:0|0:0,0:0:0:0:
44,111,37968,5,6,0:0:0:0:
435,299,38312,2,0,L|439:259,1,24,8|0,0:0|0:0,0:0:0:0:
435,299,38657,6,0,L|330:307,1,96,6|0,0:0|0:0,0:0:0:0:
163,303,39174,6,0,L|316:319,1,153.6,2|0,0:0|0:0,0:0:0:0:
388,323,39692,6,0,L|283:331,1,96,6|0,0:0|0:0,0:0:0:0:
116,327,40209,6,0,L|268:342,1,153.6,2|0,0:0|0:0,0:0:0:0:
475,352,40726,5,6,0:0:0:0:
81,127,41071,2,0,L|105:40,1,48,8|0,0:0|0:0,0:0:0:0:
80,127,41416,6,0,P|83:194|84:307,1,153.6,6|0,0:0|0:0,0:0:0:0:
199,92,41933,6,0,P|254:96|413:112,1,211.200006445313,2|0,0:0|0:0,0:0:0:0:
395,363,42450,6,0,P|321:313|264:268,1,153.6,6|0,0:0|0:0,0:0:0:0:
409,111,42968,6,0,P|396:157|381:203,1,96,2|0,0:0|0:0,0:0:0:0:
446,267,43485,5,2,0:0:0:0:
56,345,43830,2,0,L|62:315,1,24,8|0,0:0|0:0,0:0:0:0:
56,345,44174,6,0,P|102:355|150:357,1,96,4|0,0:1|0:0,0:0:0:0:
339,291,44692,2,0,P|386:292|433:303,1,96
237,316,45209,2,0,B|231:268|231:268|242:221,1,96
285,111,45726,5,0,0:0:0:0:
289,115,46071,1,0,0:0:0:0:
289,115,46243,2,0,L|237:120,1,48
172,171,46588,2,0,L|107:178,1,48
57,230,46933,6,0,B|43:276|43:276|49:323,1,96,2|0,0:0|0:0,0:0:0:0:
179,264,47450,2,0,B|185:216|185:216|171:170,1,96
141,365,47968,2,0,L|245:361,1,96
360,350,48485,5,0,0:0:0:0:
364,354,48830,1,0,0:0:0:0:
364,354,49002,2,0,L|371:289,1,48
337,206,49347,2,0,L|344:141,1,48
342,51,49692,6,0,L|239:57,1,96,2|0,0:0|0:0,0:0:0:0:
57,7,50209,2,0,L|160:13,1,96
168,207,50726,2,0,P|160:160|165:112,1,96
246,56,51243,5,0,0:0:0:0:
250,59,51588,1,0,0:0:0:0:
250,59,51761,2,0,L|306:60,1,48
478,126,52105,2,0,L|417:127,1,48
339,141,52450,6,0,P|329:187|325:235,1,96,2|0,0:0|0:0,0:0:0:0:
246,351,52968,2,0,P|242:303|231:256,1,96
170,187,53485,1,0,0:0:0:0:
170,187,53657,1,0,0:0:0:0:
172,36,53830,6,0,P|229:27|283:22,1,96,2|0,0:0|0:0,0:0:0:0:
369,50,54347,2,0,L|360:111,1,48,2|0,0:0|0:0,0:0:0:0:
366,282,54692,2,0,P|340:236|310:181,1,96,2|0,0:0|0:0,0:0:0:0:
221,111,55209,6,0,P|165:124|114:168,1,115.199996484375,6|0,0:0|0:0,0:0:0:0:
121,320,55726,2,0,P|166:355|221:368,1,115.199996484375
391,287,56243,2,0,L|506:301,1,115.199996484375
307,347,56761,5,0,0:0:0:0:
311,351,57105,1,0,0:0:0:0:
311,351,57278,2,0,L|315:288,1,57.5999982421876
274,185,57623,2,0,L|278:122,1,57.5999982421876
237,19,57968,6,0,L|111:29,1,115.199996484375,2|0,0:0|0:0,0:0:0:0:
200,110,58485,2,0,L|74:120,1,115.199996484375
13,197,59002,2,0,B|2:254|2:254|10:310,1,115.199996484375
102,375,59519,5,0,0:0:0:0:
106,378,59864,1,0,0:0:0:0:
106,378,60037,2,0,L|116:313,1,57.5999982421876
280,260,60381,2,0,L|270:195,1,57.5999982421876
278,347,60726,6,0,P|306:351|335:352,1,57.5999982421876,2|0,0:0|0:0,0:0:0:0:
499,174,61071,2,0,P|470:174|441:179,1,57.5999982421876,2|0,0:0|0:0,0:0:0:0:
475,371,61416,2,0,P|479:342|480:313,1,57.5999982421876,2|0,0:0|0:0,0:0:0:0:
301,150,61761,2,0,P|301:178|306:207,1,57.5999982421876,2|0,0:0|0:0,0:0:0:0:
37,371,62105,6,0,P|32:342|31:313,1,57.5999982421876,2|0,0:0|0:0,0:0:0:0:
211,150,62450,2,0,P|210:178|205:207,1,57.5999982421876,2|0,0:0|0:0,0:0:0:0:
13,174,62795,2,0,P|41:174|70:179,1,57.5999982421876,2|0,0:0|0:0,0:0:0:0:
234,347,63140,2,0,P|205:351|176:352,1,57.5999982421876,2|0,0:0|0:0,0:0:0:0:
20,49,63485,5,2,0:0:0:0:
142,22,63657,1,2,0:0:0:0:
263,49,63830,1,2,0:0:0:0:
384,22,64002,1,2,0:0:0:0:
506,49,64174,6,0,L|496:140,1,81.6000015563965,2|2,0:0|0:0,0:0:0:0:
507,371,64519,2,0,L|498:289,1,81.6000015563965,2|2,0:0|0:0,0:0:0:0:
85,232,65209,6,0,P|118:218|153:210,1,72,2|0,0:0|0:0,0:0:0:0:
241,265,65554,6,0,P|291:273|327:326,1,109.439998664063,2|0,0:0|0:0,0:0:0:0:
437,181,65899,5,2,0:1:0:0:
437,181,66071,1,2,0:1:0:0:
153,209,66243,6,0,P|236:239|371:218,1,220.800004211426,6|8,0:0|0:0,0:0:0:0:
211,334,66761,2,0,P|128:304|-7:325,1,220.800004211426,0|2,0:0|0:0,0:0:0:0:
62,154,67278,1,8,0:0:0:0:
24,67,67450,1,0,0:0:0:0:
114,78,67623,6,0,P|193:111|240:111,1,110.400002105713,2|0,0:0|0:0,0:0:0:0:
430,81,67968,1,8,0:0:0:0:
495,135,68140,2,0,L|482:362,1,220.800004211426,2|2,0:0|0:0,0:0:0:0:
209,148,68657,1,8,0:0:0:0:
323,198,68830,1,0,0:0:0:0:
254,262,69002,6,0,L|261:383,1,110.400002105713,2|0,0:0|0:0,0:0:0:0:
102,162,69347,2,0,P|154:146|209:148,1,110.400002105713,8|0,0:0|0:0,0:0:0:0:
210,149,69864,1,2,0:0:0:0:
122,312,70037,2,0,P|69:327|14:325,1,110.400002105713,8|0,0:0|0:0,0:0:0:0:
0,189,70381,6,0,L|45:27,1,165.600003158569,2|0,0:0|0:0,0:0:0:0:
53,8,70726,1,8,0:0:0:0:
210,149,70899,6,0,P|270:165|389:120,1,187.199991430664,2|0,0:0|0:0,0:0:0:0:
431,228,71243,6,0,P|471:176|495:99,1,144.000005493164,2|8,0:0|0:0,0:0:0:0:
454,1,71588,1,0,0:0:0:0:
294,320,71761,6,0,B|371:301|371:301|425:324|425:324|514:301,1,220.800004211426,6|8,0:0|0:0,0:0:0:0:
211,322,72278,2,0,B|134:303|134:303|80:326|80:326|-9:303,1,220.800004211426,0|2,0:0|0:0,0:0:0:0:
282,101,72795,1,8,0:0:0:0:
256,199,72968,1,0,0:0:0:0:
189,124,73140,6,0,L|212:4,1,110.400002105713,2|0,0:0|0:0,0:0:0:0:
357,215,73485,1,8,0:0:0:0:
414,294,73657,2,0,P|384:333|219:365,1,220.800004211426,2|2,0:0|0:0,0:0:0:0:
34,227,74174,1,8,0:0:0:0:
171,143,74347,1,0,0:0:0:0:
245,210,74519,6,0,L|356:214,1,110.400002105713,2|0,0:0|0:0,0:0:0:0:
224,367,74864,2,0,P|176:354|122:305,1,110.400002105713,8|0,0:0|0:0,0:0:0:0:
129,316,75381,1,2,0:0:0:0:
414,294,75554,2,0,P|455:258|508:243,1,110.400002105713,8|0,0:0|0:0,0:0:0:0:
313,318,75899,6,0,P|324:257|367:156,1,165.600003158569,2|0,0:0|0:0,0:0:0:0:
378,143,76243,6,0,P|308:159|259:157,1,115.2,8|0,0:0|0:0,0:0:0:0:
179,210,76588,6,0,P|139:185|100:151,1,86.3999973632813,0|2,0:0|0:0,0:0:0:0:
168,16,76933,5,8,0:0:0:0:
168,16,77105,1,0,0:0:0:0:
378,143,77278,6,0,B|407:364,1,220.800004211426,6|8,0:0|0:0,0:0:0:0:
240,226,77795,6,0,B|268:7,1,220.800004211426,0|2,0:0|0:0,0:0:0:0:
246,372,78312,1,8,0:0:0:0:
176,318,78485,1,0,0:0:0:0:
108,374,78657,6,0,L|-4:352,1,110.400002105713,2|0,0:0|0:0,0:0:0:0:
123,63,79002,1,8,0:0:0:0:
196,102,79174,2,0,P|204:211|175:317,1,220.800004211426,2|2,0:0|0:0,0:0:0:0:
481,319,79692,1,8,0:0:0:0:
316,257,79864,1,0,0:0:0:0:
367,179,80037,6,0,P|394:154|456:109,1,110.400002105713,2|0,0:0|0:0,0:0:0:0:
282,345,80381,2,0,P|236:331|174:317,1,110.400002105713,8|0,0:0|0:0,0:0:0:0:
175,317,80899,1,2,0:0:0:0:
61,159,81071,2,0,P|107:173|169:187,1,110.400002105713,8|0,0:0|0:0,0:0:0:0:
256,192,81330,12,0,82450,0:0:0:0:
512,202,82795,6,0,P|407:247|294:235,1,230.39999296875,6|0,0:0|0:0,0:0:0:0:
61,109,83312,2,0,P|165:63|278:75,1,230.39999296875,2|0,0:0|0:0,0:0:0:0:
122,375,83830,1,6,0:0:0:0:
122,375,84347,6,0,L|127:296,2,76.8,2|0|0,0:0|0:0|0:0,0:0:0:0:
235,278,84864,6,0,L|228:180,1,89.2800027927247,2|0,0:0|0:0,0:0:0:0:
278,75,85209,5,8,0:0:0:0:
490,313,85381,1,0,0:0:0:0:
490,313,85468,1,0,0:0:0:0:
490,313,85554,6,0,L|256:366,1,230.39999296875,6|0,0:0|0:0,0:0:0:0:
118,15,86071,2,0,L|343:66,1,230.39999296875,2|0,0:0|0:0,0:0:0:0:
36,236,86588,1,6,0:0:0:0:
35,236,87105,6,0,P|71:221|109:215,2,76.8,2|0|0,0:0|0:0|0:0,0:0:0:0:
172,286,87623,6,0,P|207:300|270:307,1,89.2800027927247,2|0,0:0|0:0,0:0:0:0:
326,240,87968,6,2,P|363:233|490:123,1,203.520000310547,8|0,0:0|0:0,0:1:0:0:
