osu file format v14

[General]
AudioFilename: audio.mp3
AudioLeadIn: 0
PreviewTime: 131688
Countdown: 0
SampleSet: Soft
StackLeniency: 0.7
Mode: 3
LetterboxInBreaks: 0
SpecialStyle: 0
WidescreenStoryboard: 1

[Editor]
DistanceSpacing: 1
BeatDivisor: 4
GridSize: 4
TimelineZoom: 2.999998

[Metadata]
Title:AMAZING BREAK
TitleUnicode:AMAZING BREAK
Artist:TERRASPEX
ArtistUnicode:TERRASPEX
Creator:iParacosm
Version:TERRA
Source:TERRA FORMARS
Tags:anime japanese rock jrock chordjack
BeatmapID:4557001
BeatmapSetID:2160957

[Difficulty]
HPDrainRate:9
CircleSize:4
OverallDifficulty:8
ApproachRate:5
SliderMultiplier:1.4
SliderTickRate:1

[Events]
//Background and Video events
0,0,"terra_formars_akari_hizamaru_by_junior3_d7kneln-pre.jpg",0,0
//Break Periods
//Storyboard Layer 0 (Background)
//Storyboard Layer 1 (Fail)
//Storyboard Layer 2 (Pass)
//Storyboard Layer 3 (Foreground)
//Storyboard Layer 4 (Overlay)
//Storyboard Sound Samples

[TimingPoints]
386,413.793103448276,4,2,1,80,1,0
386,-94.3396226415094,4,2,1,80,0,0
14041,392.156862745098,4,2,1,80,1,0
14041,-100,4,2,1,80,0,0
34433,-100,4,2,1,80,0,0
59531,-100,4,2,1,80,0,1
78354,-100,4,2,1,80,0,0
106590,-100,4,2,1,80,0,0
132472,392.156862745098,4,2,1,80,1,1
132472,-100,4,2,1,80,0,1
150511,-100,4,2,1,80,0,0
157000,355.029585798817,4,2,1,80,1,0
157000,-109.89010989011,4,2,1,80,0,0
157177,392.156862745098,4,2,1,80,1,0
157177,-100,4,2,1,80,0,0
157569,392.156862745098,4,2,1,80,1,0
157569,-100,4,2,1,80,0,0
161491,392.156862745098,4,2,1,80,1,1
161491,-100,4,2,1,80,0,0
177177,-100,4,2,1,80,0,0
190510,392.156862745098,4,2,1,80,1,1
190510,-100,4,2,1,80,0,1
194405,392.156862745098,4,2,1,80,1,1
194405,-100,4,2,1,80,0,1
215581,-100,4,2,1,80,0,0

[HitObjects]
64,192,799,5,0,0:0:0:0:
320,192,799,1,0,0:0:0:0:
448,192,799,1,0,0:0:0:0:
192,192,868,1,0,0:0:0:0:
320,192,937,1,0,0:0:0:0:
192,192,1006,1,0,0:0:0:0:
448,192,1075,1,0,0:0:0:0:
192,192,1144,1,0,0:0:0:0:
320,192,1213,1,0,0:0:0:0:
64,192,1282,1,0,0:0:0:0:
320,192,1351,1,0,0:0:0:0:
192,192,1420,1,0,0:0:0:0:
320,192,1523,1,0,0:0:0:0:
192,192,1627,1,0,0:0:0:0:
448,192,1627,1,0,0:0:0:0:
64,192,1627,1,0,0:0:0:0:
320,192,1765,1,0,0:0:0:0:
64,192,1765,1,0,0:0:0:0:
192,192,1903,1,0,0:0:0:0:
448,192,1903,1,0,0:0:0:0:
320,192,2041,1,0,0:0:0:0:
64,192,2041,1,0,0:0:0:0:
192,192,2179,1,0,0:0:0:0:
320,192,2179,1,0,0:0:0:0:
448,192,2317,1,0,0:0:0:0:
64,192,2317,1,0,0:0:0:0:
64,192,2454,128,0,2868:0:0:0:0:
192,192,2454,128,0,2765:0:0:0:0:
320,192,2454,128,0,2661:0:0:0:0:
448,192,3075,1,0,0:0:0:0:
192,192,3075,1,0,0:0:0:0:
192,192,3179,1,0,0:0:0:0:
320,192,3282,1,0,0:0:0:0:
448,192,3282,1,0,0:0:0:0:
64,192,3282,1,0,0:0:0:0:
448,192,4110,5,0,0:0:0:0:
192,192,4110,1,0,0:0:0:0:
64,192,4110,1,0,0:0:0:0:
320,192,4179,1,0,0:0:0:0:
192,192,4248,1,0,0:0:0:0:
320,192,4317,1,0,0:0:0:0:
64,192,4386,1,0,0:0:0:0:
320,192,4454,1,0,0:0:0:0:
192,192,4523,1,0,0:0:0:0:
448,192,4592,1,0,0:0:0:0:
192,192,4661,1,0,0:0:0:0:
320,192,4730,1,0,0:0:0:0:
192,192,4834,1,0,0:0:0:0:
320,192,4937,1,0,0:0:0:0:
64,192,4937,1,0,0:0:0:0:
448,192,4937,1,0,0:0:0:0:
64,192,5075,1,0,0:0:0:0:
448,192,5075,1,0,0:0:0:0:
320,192,5213,1,0,0:0:0:0:
192,192,5213,1,0,0:0:0:0:
192,192,5351,1,0,0:0:0:0:
320,192,5351,1,0,0:0:0:0:
448,192,5489,1,0,0:0:0:0:
64,192,5489,1,0,0:0:0:0:
64,192,5627,1,0,0:0:0:0:
448,192,5627,1,0,0:0:0:0:
448,192,5765,128,0,6179:0:0:0:0:
320,192,5765,128,0,6075:0:0:0:0:
192,192,5765,128,0,5972:0:0:0:0:
320,192,6386,1,0,0:0:0:0:
64,192,6386,1,0,0:0:0:0:
320,192,6489,1,0,0:0:0:0:
192,192,6592,1,0,0:0:0:0:
64,192,6592,1,0,0:0:0:0:
448,192,6592,1,0,0:0:0:0:
320,192,6799,1,0,0:0:0:0:
448,192,6799,1,0,0:0:0:0:
192,192,6903,1,0,0:0:0:0:
64,192,6903,1,0,0:0:0:0:
320,192,7006,128,0,7213:0:0:0:0:
448,192,7006,128,0,7213:0:0:0:0:
64,192,7006,128,0,7213:0:0:0:0:
64,192,7420,1,0,0:0:0:0:
448,192,7420,1,0,0:0:0:0:
192,192,7420,1,0,0:0:0:0:
320,192,7558,1,0,0:0:0:0:
64,192,7558,1,0,0:0:0:0:
320,192,7696,1,0,0:0:0:0:
64,192,7696,1,0,0:0:0:0:
192,192,7834,1,0,0:0:0:0:
320,192,7834,1,0,0:0:0:0:
448,192,7834,1,0,0:0:0:0:
64,192,7972,1,0,0:0:0:0:
448,192,7972,1,0,0:0:0:0:
192,192,8110,1,0,0:0:0:0:
64,192,8110,1,0,0:0:0:0:
192,192,8248,1,0,0:0:0:0:
64,192,8248,1,0,0:0:0:0:
448,192,8248,1,0,0:0:0:0:
320,192,8248,1,0,0:0:0:0:
448,192,8386,1,0,0:0:0:0:
320,192,8386,1,0,0:0:0:0:
448,192,8523,1,0,0:0:0:0:
64,192,8523,1,0,0:0:0:0:
64,192,8661,1,0,0:0:0:0:
320,192,8661,1,0,0:0:0:0:
448,192,8661,1,0,0:0:0:0:
192,192,8661,1,0,0:0:0:0:
192,192,8799,1,0,0:0:0:0:
320,192,8799,1,0,0:0:0:0:
448,192,8937,1,0,0:0:0:0:
64,192,8937,1,0,0:0:0:0:
64,192,9075,1,0,0:0:0:0:
192,192,9075,1,0,0:0:0:0:
320,192,9075,1,0,0:0:0:0:
448,192,9075,1,0,0:0:0:0:
64,192,9213,1,0,0:0:0:0:
192,192,9213,1,0,0:0:0:0:
448,192,9351,1,0,0:0:0:0:
192,192,9351,1,0,0:0:0:0:
320,192,9489,1,0,0:0:0:0:
448,192,9489,1,0,0:0:0:0:
64,192,9489,1,0,0:0:0:0:
192,192,9489,1,0,0:0:0:0:
320,192,9627,1,0,0:0:0:0:
64,192,9627,1,0,0:0:0:0:
192,192,9765,1,0,0:0:0:0:
448,192,9765,1,0,0:0:0:0:
192,192,9903,1,0,0:0:0:0:
320,192,9903,1,0,0:0:0:0:
448,192,9903,1,0,0:0:0:0:
64,192,9903,1,0,0:0:0:0:
320,192,10041,1,0,0:0:0:0:
448,192,10041,1,0,0:0:0:0:
192,192,10179,1,0,0:0:0:0:
320,192,10179,1,0,0:0:0:0:
448,192,10317,1,0,0:0:0:0:
320,192,10317,1,0,0:0:0:0:
192,192,10317,1,0,0:0:0:0:
64,192,10317,1,0,0:0:0:0:
64,192,10454,1,0,0:0:0:0:
192,192,10454,1,0,0:0:0:0:
192,192,10592,1,0,0:0:0:0:
320,192,10592,1,0,0:0:0:0:
192,192,10730,128,0,13834:0:0:0:0:
320,192,10730,128,0,11351:0:0:0:0:
448,192,10730,128,0,11144:0:0:0:0:
64,192,10730,128,0,14041:0:0:0:0:
448,192,11454,1,0,0:0:0:0:
320,192,11558,128,0,13627:0:0:0:0:
448,192,14041,1,0,0:0:0:0:
320,192,14041,1,0,0:0:0:0:
448,192,14139,1,0,0:0:0:0:
192,192,14139,1,0,0:0:0:0:
448,192,14237,1,0,0:0:0:0:
64,192,14237,1,0,0:0:0:0:
192,192,14335,1,0,0:0:0:0:
320,192,14433,1,0,0:0:0:0:
64,192,14433,1,0,0:0:0:0:
192,192,14531,1,0,0:0:0:0:
448,192,14629,1,0,0:0:0:0:
320,192,14629,1,0,0:0:0:0:
448,192,14727,1,0,0:0:0:0:
192,192,14727,1,0,0:0:0:0:
448,192,14825,1,0,0:0:0:0:
64,192,14825,1,0,0:0:0:0:
320,192,14923,1,0,0:0:0:0:
448,192,15021,1,0,0:0:0:0:
64,192,15021,1,0,0:0:0:0:
192,192,15119,1,0,0:0:0:0:
64,192,15217,1,0,0:0:0:0:
448,192,15217,1,0,0:0:0:0:
320,192,15217,1,0,0:0:0:0:
320,192,15315,1,0,0:0:0:0:
64,192,15413,1,0,0:0:0:0:
192,192,15413,1,0,0:0:0:0:
448,192,15413,1,0,0:0:0:0:
448,192,15511,1,0,0:0:0:0:
192,192,15609,1,0,0:0:0:0:
64,192,15609,1,0,0:0:0:0:
64,192,15707,1,0,0:0:0:0:
320,192,15707,1,0,0:0:0:0:
64,192,15805,1,0,0:0:0:0:
448,192,15805,1,0,0:0:0:0:
320,192,15903,1,0,0:0:0:0:
192,192,16001,1,0,0:0:0:0:
448,192,16001,1,0,0:0:0:0:
320,192,16099,1,0,0:0:0:0:
64,192,16197,1,0,0:0:0:0:
192,192,16197,1,0,0:0:0:0:
64,192,16295,1,0,0:0:0:0:
320,192,16295,1,0,0:0:0:0:
64,192,16393,1,0,0:0:0:0:
448,192,16393,1,0,0:0:0:0:
192,192,16491,1,0,0:0:0:0:
64,192,16590,1,0,0:0:0:0:
448,192,16590,1,0,0:0:0:0:
320,192,16688,1,0,0:0:0:0:
448,192,16786,1,0,0:0:0:0:
64,192,16786,1,0,0:0:0:0:
192,192,16786,1,0,0:0:0:0:
320,192,16884,1,0,0:0:0:0:
448,192,16884,1,0,0:0:0:0:
192,192,16982,1,0,0:0:0:0:
320,192,16982,1,0,0:0:0:0:
192,192,17080,1,0,0:0:0:0:
64,192,17080,1,0,0:0:0:0:
64,192,17178,1,0,0:0:0:0:
320,192,17178,1,0,0:0:0:0:
448,192,17178,1,0,0:0:0:0:
448,192,17276,1,0,0:0:0:0:
192,192,17276,1,0,0:0:0:0:
192,192,17374,1,0,0:0:0:0:
64,192,17374,1,0,0:0:0:0:
192,192,17472,1,0,0:0:0:0:
320,192,17472,1,0,0:0:0:0:
64,192,17570,1,0,0:0:0:0:
320,192,17570,1,0,0:0:0:0:
448,192,17570,1,0,0:0:0:0:
448,192,17668,1,0,0:0:0:0:
64,192,17668,1,0,0:0:0:0:
192,192,17668,1,0,0:0:0:0:
320,192,17766,1,0,0:0:0:0:
192,192,17864,1,0,0:0:0:0:
64,192,17864,1,0,0:0:0:0:
448,192,17864,1,0,0:0:0:0:
320,192,17962,1,0,0:0:0:0:
448,192,17962,1,0,0:0:0:0:
64,192,17962,1,0,0:0:0:0:
192,192,18060,1,0,0:0:0:0:
64,192,18158,1,0,0:0:0:0:
320,192,18158,1,0,0:0:0:0:
448,192,18158,1,0,0:0:0:0:
192,192,18256,1,0,0:0:0:0:
64,192,18256,1,0,0:0:0:0:
448,192,18256,1,0,0:0:0:0:
320,192,18354,1,0,0:0:0:0:
192,192,18354,1,0,0:0:0:0:
448,192,18452,1,0,0:0:0:0:
320,192,18452,1,0,0:0:0:0:
64,192,18550,1,0,0:0:0:0:
192,192,18550,1,0,0:0:0:0:
320,192,18648,1,0,0:0:0:0:
448,192,18648,1,0,0:0:0:0:
320,192,18746,1,0,0:0:0:0:
448,192,18746,1,0,0:0:0:0:
64,192,18746,1,0,0:0:0:0:
192,192,18746,1,0,0:0:0:0:
192,192,18844,1,0,0:0:0:0:
64,192,18844,1,0,0:0:0:0:
320,192,18942,1,0,0:0:0:0:
448,192,18942,1,0,0:0:0:0:
192,192,19041,1,0,0:0:0:0:
64,192,19041,1,0,0:0:0:0:
64,192,19139,1,0,0:0:0:0:
192,192,19139,1,0,0:0:0:0:
448,192,19139,1,0,0:0:0:0:
320,192,19139,1,0,0:0:0:0:
448,192,19237,1,0,0:0:0:0:
320,192,19237,1,0,0:0:0:0:
64,192,19335,1,0,0:0:0:0:
192,192,19335,1,0,0:0:0:0:
320,192,19335,1,0,0:0:0:0:
448,192,19335,1,0,0:0:0:0:
64,192,19433,1,0,0:0:0:0:
192,192,19433,1,0,0:0:0:0:
64,192,19531,1,0,0:0:0:0:
192,192,19531,1,0,0:0:0:0:
320,192,19531,1,0,0:0:0:0:
448,192,19531,1,0,0:0:0:0:
320,192,19629,1,0,0:0:0:0:
448,192,19629,1,0,0:0:0:0:
192,192,19727,1,0,0:0:0:0:
64,192,19727,1,0,0:0:0:0:
320,192,19825,1,0,0:0:0:0:
448,192,19825,1,0,0:0:0:0:
64,192,19923,128,0,20119:0:0:0:0:
192,192,19923,128,0,20119:0:0:0:0:
320,192,19923,128,0,20119:0:0:0:0:
448,192,19923,128,0,20119:0:0:0:0:
64,192,20315,1,0,0:0:0:0:
448,192,20315,1,0,0:0:0:0:
192,192,20315,1,0,0:0:0:0:
320,192,20413,1,0,0:0:0:0:
192,192,20413,1,0,0:0:0:0:
448,192,20511,1,0,0:0:0:0:
64,192,20511,1,0,0:0:0:0:
320,192,20609,1,0,0:0:0:0:
192,192,20609,1,0,0:0:0:0:
64,192,20707,1,0,0:0:0:0:
448,192,20707,1,0,0:0:0:0:
320,192,20707,1,0,0:0:0:0:
192,192,20805,1,0,0:0:0:0:
320,192,20903,1,0,0:0:0:0:
448,192,20903,1,0,0:0:0:0:
192,192,21001,1,0,0:0:0:0:
448,192,21001,1,0,0:0:0:0:
64,192,21001,1,0,0:0:0:0:
320,192,21099,1,0,0:0:0:0:
64,192,21099,1,0,0:0:0:0:
192,192,21197,1,0,0:0:0:0:
448,192,21197,1,0,0:0:0:0:
320,192,21295,1,0,0:0:0:0:
64,192,21295,1,0,0:0:0:0:
192,192,21393,1,0,0:0:0:0:
320,192,21491,1,0,0:0:0:0:
448,192,21491,1,0,0:0:0:0:
64,192,21491,1,0,0:0:0:0:
192,192,21590,1,0,0:0:0:0:
448,192,21590,1,0,0:0:0:0:
320,192,21688,1,0,0:0:0:0:
192,192,21688,1,0,0:0:0:0:
64,192,21786,1,0,0:0:0:0:
320,192,21786,1,0,0:0:0:0:
192,192,21884,1,0,0:0:0:0:
64,192,21884,1,0,0:0:0:0:
448,192,21884,1,0,0:0:0:0:
320,192,21982,1,0,0:0:0:0:
192,192,21982,1,0,0:0:0:0:
64,192,22080,1,0,0:0:0:0:
448,192,22080,1,0,0:0:0:0:
320,192,22178,1,0,0:0:0:0:
192,192,22178,1,0,0:0:0:0:
64,192,22276,1,0,0:0:0:0:
448,192,22276,1,0,0:0:0:0:
320,192,22276,1,0,0:0:0:0:
192,192,22374,1,0,0:0:0:0:
64,192,22374,1,0,0:0:0:0:
320,192,22472,1,0,0:0:0:0:
448,192,22472,1,0,0:0:0:0:
64,192,22570,1,0,0:0:0:0:
192,192,22570,1,0,0:0:0:0:
448,192,22570,1,0,0:0:0:0:
320,192,22668,1,0,0:0:0:0:
192,192,22766,1,0,0:0:0:0:
64,192,22766,1,0,0:0:0:0:
64,192,22864,1,0,0:0:0:0:
320,192,22864,1,0,0:0:0:0:
448,192,22864,1,0,0:0:0:0:
192,192,22962,1,0,0:0:0:0:
448,192,23060,1,0,0:0:0:0:
64,192,23060,1,0,0:0:0:0:
320,192,23060,1,0,0:0:0:0:
192,192,23158,1,0,0:0:0:0:
320,192,23158,1,0,0:0:0:0:
64,192,23256,1,0,0:0:0:0:
448,192,23256,1,0,0:0:0:0:
192,192,23354,1,0,0:0:0:0:
320,192,23354,1,0,0:0:0:0:
448,192,23452,1,0,0:0:0:0:
64,192,23452,1,0,0:0:0:0:
192,192,23452,1,0,0:0:0:0:
320,192,23550,1,0,0:0:0:0:
192,192,23648,1,0,0:0:0:0:
64,192,23648,1,0,0:0:0:0:
320,192,23746,1,0,0:0:0:0:
64,192,23746,1,0,0:0:0:0:
448,192,23746,1,0,0:0:0:0:
192,192,23844,1,0,0:0:0:0:
448,192,23844,1,0,0:0:0:0:
320,192,23942,1,0,0:0:0:0:
64,192,23942,1,0,0:0:0:0:
192,192,24041,1,0,0:0:0:0:
448,192,24041,1,0,0:0:0:0:
320,192,24139,1,0,0:0:0:0:
192,192,24237,1,0,0:0:0:0:
64,192,24237,1,0,0:0:0:0:
448,192,24237,1,0,0:0:0:0:
320,192,24335,1,0,0:0:0:0:
64,192,24335,1,0,0:0:0:0:
192,192,24433,1,0,0:0:0:0:
320,192,24433,1,0,0:0:0:0:
448,192,24531,1,0,0:0:0:0:
192,192,24531,1,0,0:0:0:0:
320,192,24629,1,0,0:0:0:0:
448,192,24629,1,0,0:0:0:0:
64,192,24629,1,0,0:0:0:0:
192,192,24727,1,0,0:0:0:0:
320,192,24727,1,0,0:0:0:0:
448,192,24825,1,0,0:0:0:0:
64,192,24825,1,0,0:0:0:0:
192,192,24923,1,0,0:0:0:0:
320,192,24923,1,0,0:0:0:0:
448,192,25021,1,0,0:0:0:0:
64,192,25021,1,0,0:0:0:0:
192,192,25021,1,0,0:0:0:0:
320,192,25119,1,0,0:0:0:0:
64,192,25119,1,0,0:0:0:0:
192,192,25217,1,0,0:0:0:0:
320,192,25217,1,0,0:0:0:0:
192,192,25315,1,0,0:0:0:0:
448,192,25315,1,0,0:0:0:0:
320,192,25413,1,0,0:0:0:0:
448,192,25413,1,0,0:0:0:0:
64,192,25413,1,0,0:0:0:0:
192,192,25511,1,0,0:0:0:0:
64,192,25511,1,0,0:0:0:0:
448,192,25609,1,0,0:0:0:0:
320,192,25609,1,0,0:0:0:0:
192,192,25707,1,0,0:0:0:0:
64,192,25707,1,0,0:0:0:0:
320,192,25805,1,0,0:0:0:0:
448,192,25805,1,0,0:0:0:0:
64,192,25805,1,0,0:0:0:0:
192,192,25903,1,0,0:0:0:0:
320,192,25903,1,0,0:0:0:0:
448,192,26001,1,0,0:0:0:0:
192,192,26001,1,0,0:0:0:0:
320,192,26099,1,0,0:0:0:0:
64,192,26099,1,0,0:0:0:0:
192,192,26197,1,0,0:0:0:0:
64,192,26197,1,0,0:0:0:0:
448,192,26197,1,0,0:0:0:0:
320,192,26295,1,0,0:0:0:0:
448,192,26295,1,0,0:0:0:0:
192,192,26393,1,0,0:0:0:0:
64,192,26393,1,0,0:0:0:0:
320,192,26491,1,0,0:0:0:0:
448,192,26491,1,0,0:0:0:0:
64,192,26590,1,0,0:0:0:0:
448,192,26590,1,0,0:0:0:0:
192,192,26590,1,0,0:0:0:0:
320,192,26688,1,0,0:0:0:0:
192,192,26688,1,0,0:0:0:0:
448,192,26786,1,0,0:0:0:0:
64,192,26786,1,0,0:0:0:0:
320,192,26884,1,0,0:0:0:0:
192,192,26884,1,0,0:0:0:0:
64,192,26982,1,0,0:0:0:0:
448,192,26982,1,0,0:0:0:0:
320,192,26982,1,0,0:0:0:0:
192,192,27080,1,0,0:0:0:0:
320,192,27178,1,0,0:0:0:0:
448,192,27178,1,0,0:0:0:0:
192,192,27276,1,0,0:0:0:0:
448,192,27276,1,0,0:0:0:0:
64,192,27276,1,0,0:0:0:0:
320,192,27374,1,0,0:0:0:0:
64,192,27374,1,0,0:0:0:0:
192,192,27472,1,0,0:0:0:0:
448,192,27472,1,0,0:0:0:0:
320,192,27570,1,0,0:0:0:0:
64,192,27570,1,0,0:0:0:0:
192,192,27668,1,0,0:0:0:0:
320,192,27766,1,0,0:0:0:0:
448,192,27766,1,0,0:0:0:0:
64,192,27766,1,0,0:0:0:0:
192,192,27864,1,0,0:0:0:0:
448,192,27864,1,0,0:0:0:0:
320,192,27962,1,0,0:0:0:0:
192,192,27962,1,0,0:0:0:0:
64,192,28060,1,0,0:0:0:0:
320,192,28060,1,0,0:0:0:0:
192,192,28158,1,0,0:0:0:0:
64,192,28158,1,0,0:0:0:0:
448,192,28158,1,0,0:0:0:0:
320,192,28256,1,0,0:0:0:0:
192,192,28256,1,0,0:0:0:0:
64,192,28354,1,0,0:0:0:0:
448,192,28354,1,0,0:0:0:0:
320,192,28452,1,0,0:0:0:0:
192,192,28452,1,0,0:0:0:0:
64,192,28550,1,0,0:0:0:0:
448,192,28550,1,0,0:0:0:0:
320,192,28550,1,0,0:0:0:0:
192,192,28648,1,0,0:0:0:0:
64,192,28648,1,0,0:0:0:0:
320,192,28746,1,0,0:0:0:0:
448,192,28746,1,0,0:0:0:0:
64,192,28844,1,0,0:0:0:0:
192,192,28844,1,0,0:0:0:0:
448,192,28844,1,0,0:0:0:0:
320,192,28942,1,0,0:0:0:0:
192,192,29041,1,0,0:0:0:0:
64,192,29041,1,0,0:0:0:0:
64,192,29139,1,0,0:0:0:0:
320,192,29139,1,0,0:0:0:0:
448,192,29139,1,0,0:0:0:0:
192,192,29237,1,0,0:0:0:0:
448,192,29335,1,0,0:0:0:0:
64,192,29335,1,0,0:0:0:0:
320,192,29335,1,0,0:0:0:0:
192,192,29433,1,0,0:0:0:0:
320,192,29433,1,0,0:0:0:0:
64,192,29531,1,0,0:0:0:0:
448,192,29531,1,0,0:0:0:0:
192,192,29629,1,0,0:0:0:0:
320,192,29629,1,0,0:0:0:0:
448,192,29727,1,0,0:0:0:0:
64,192,29727,1,0,0:0:0:0:
192,192,29727,1,0,0:0:0:0:
320,192,29825,1,0,0:0:0:0:
192,192,29923,1,0,0:0:0:0:
64,192,29923,1,0,0:0:0:0:
320,192,30021,1,0,0:0:0:0:
64,192,30021,1,0,0:0:0:0:
448,192,30021,1,0,0:0:0:0:
192,192,30119,1,0,0:0:0:0:
448,192,30119,1,0,0:0:0:0:
320,192,30217,1,0,0:0:0:0:
64,192,30217,1,0,0:0:0:0:
192,192,30315,1,0,0:0:0:0:
448,192,30315,1,0,0:0:0:0:
320,192,30413,1,0,0:0:0:0:
192,192,30511,1,0,0:0:0:0:
64,192,30511,1,0,0:0:0:0:
448,192,30511,1,0,0:0:0:0:
320,192,30609,1,0,0:0:0:0:
64,192,30609,1,0,0:0:0:0:
192,192,30707,1,0,0:0:0:0:
320,192,30707,1,0,0:0:0:0:
448,192,30805,1,0,0:0:0:0:
192,192,30805,1,0,0:0:0:0:
320,192,30903,1,0,0:0:0:0:
448,192,30903,1,0,0:0:0:0:
64,192,30903,1,0,0:0:0:0:
192,192,31001,1,0,0:0:0:0:
320,192,31001,1,0,0:0:0:0:
448,192,31099,1,0,0:0:0:0:
64,192,31099,1,0,0:0:0:0:
192,192,31197,1,0,0:0:0:0:
320,192,31197,1,0,0:0:0:0:
448,192,31295,1,0,0:0:0:0:
64,192,31295,1,0,0:0:0:0:
192,192,31295,1,0,0:0:0:0:
320,192,31393,1,0,0:0:0:0:
64,192,31393,1,0,0:0:0:0:
192,192,31491,1,0,0:0:0:0:
320,192,31491,1,0,0:0:0:0:
192,192,31590,1,0,0:0:0:0:
448,192,31590,1,0,0:0:0:0:
320,192,31688,1,0,0:0:0:0:
448,192,31688,1,0,0:0:0:0:
64,192,31688,1,0,0:0:0:0:
192,192,31786,1,0,0:0:0:0:
64,192,31786,1,0,0:0:0:0:
448,192,31884,1,0,0:0:0:0:
320,192,31884,1,0,0:0:0:0:
192,192,31982,1,0,0:0:0:0:
64,192,31982,1,0,0:0:0:0:
320,192,32080,1,0,0:0:0:0:
448,192,32080,1,0,0:0:0:0:
64,192,32080,1,0,0:0:0:0:
192,192,32178,1,0,0:0:0:0:
320,192,32178,1,0,0:0:0:0:
448,192,32276,1,0,0:0:0:0:
192,192,32276,1,0,0:0:0:0:
320,192,32374,1,0,0:0:0:0:
64,192,32374,1,0,0:0:0:0:
192,192,32472,1,0,0:0:0:0:
448,192,32472,1,0,0:0:0:0:
320,192,32570,1,0,0:0:0:0:
192,192,32570,1,0,0:0:0:0:
448,192,32668,1,0,0:0:0:0:
64,192,32668,1,0,0:0:0:0:
320,192,32766,1,0,0:0:0:0:
192,192,32766,1,0,0:0:0:0:
192,192,32864,1,0,0:0:0:0:
448,192,32864,1,0,0:0:0:0:
64,192,32864,128,0,32962:0:0:0:0:
320,192,33060,128,0,33158:0:0:0:0:
192,192,33158,128,0,33256:0:0:0:0:
448,192,33256,128,0,33354:0:0:0:0:
64,192,33354,128,0,33452:0:0:0:0:
320,192,33452,128,0,33550:0:0:0:0:
192,192,33550,128,0,33648:0:0:0:0:
448,192,33648,128,0,33746:0:0:0:0:
64,192,33746,128,0,33844:0:0:0:0:
320,192,33844,128,0,33942:0:0:0:0:
192,192,33942,128,0,34041:0:0:0:0:
64,192,34041,128,0,34139:0:0:0:0:
192,192,34237,1,0,0:0:0:0:
320,192,34237,1,0,0:0:0:0:
64,192,34433,1,0,0:0:0:0:
320,192,34433,1,0,0:0:0:0:
448,192,34433,1,0,0:0:0:0:
320,192,34531,1,0,0:0:0:0:
64,192,34629,1,0,0:0:0:0:
448,192,34629,1,0,0:0:0:0:
192,192,34727,1,0,0:0:0:0:
448,192,34727,1,0,0:0:0:0:
192,192,34825,1,0,0:0:0:0:
64,192,34825,1,0,0:0:0:0:
320,192,34825,1,0,0:0:0:0:
64,192,34923,1,0,0:0:0:0:
192,192,35021,1,0,0:0:0:0:
448,192,35021,1,0,0:0:0:0:
64,192,35119,1,0,0:0:0:0:
320,192,35119,1,0,0:0:0:0:
448,192,35119,1,0,0:0:0:0:
64,192,35217,1,0,0:0:0:0:
192,192,35217,1,0,0:0:0:0:
320,192,35315,1,0,0:0:0:0:
192,192,35315,1,0,0:0:0:0:
64,192,35413,1,0,0:0:0:0:
448,192,35413,1,0,0:0:0:0:
192,192,35511,1,0,0:0:0:0:
320,192,35511,1,0,0:0:0:0:
320,192,35609,1,0,0:0:0:0:
448,192,35609,1,0,0:0:0:0:
64,192,35609,1,0,0:0:0:0:
192,192,35707,1,0,0:0:0:0:
64,192,35707,1,0,0:0:0:0:
320,192,35805,1,0,0:0:0:0:
448,192,35805,1,0,0:0:0:0:
320,192,35903,1,0,0:0:0:0:
448,192,35903,1,0,0:0:0:0:
448,192,36001,1,0,0:0:0:0:
192,192,36001,1,0,0:0:0:0:
64,192,36001,1,0,0:0:0:0:
192,192,36099,1,0,0:0:0:0:
320,192,36197,1,0,0:0:0:0:
64,192,36197,1,0,0:0:0:0:
320,192,36295,1,0,0:0:0:0:
192,192,36295,1,0,0:0:0:0:
192,192,36393,1,0,0:0:0:0:
64,192,36393,1,0,0:0:0:0:
448,192,36393,1,0,0:0:0:0:
448,192,36491,1,0,0:0:0:0:
320,192,36590,1,0,0:0:0:0:
192,192,36590,1,0,0:0:0:0:
64,192,36688,1,0,0:0:0:0:
320,192,36688,1,0,0:0:0:0:
192,192,36786,1,0,0:0:0:0:
64,192,36786,1,0,0:0:0:0:
448,192,36786,1,0,0:0:0:0:
320,192,36884,1,0,0:0:0:0:
448,192,36884,1,0,0:0:0:0:
192,192,36982,1,0,0:0:0:0:
64,192,36982,1,0,0:0:0:0:
64,192,37080,1,0,0:0:0:0:
192,192,37080,1,0,0:0:0:0:
64,192,37178,1,0,0:0:0:0:
320,192,37178,1,0,0:0:0:0:
448,192,37178,1,0,0:0:0:0:
192,192,37276,1,0,0:0:0:0:
64,192,37374,1,0,0:0:0:0:
320,192,37374,1,0,0:0:0:0:
192,192,37472,1,0,0:0:0:0:
320,192,37472,1,0,0:0:0:0:
192,192,37570,1,0,0:0:0:0:
64,192,37570,1,0,0:0:0:0:
448,192,37570,1,0,0:0:0:0:
320,192,37668,1,0,0:0:0:0:
448,192,37668,1,0,0:0:0:0:
320,192,37766,1,0,0:0:0:0:
192,192,37766,1,0,0:0:0:0:
192,192,37864,1,0,0:0:0:0:
64,192,37864,1,0,0:0:0:0:
64,192,37962,1,0,0:0:0:0:
320,192,37962,1,0,0:0:0:0:
448,192,37962,1,0,0:0:0:0:
448,192,38060,1,0,0:0:0:0:
64,192,38158,1,0,0:0:0:0:
192,192,38158,1,0,0:0:0:0:
192,192,38256,1,0,0:0:0:0:
320,192,38256,1,0,0:0:0:0:
448,192,38354,1,0,0:0:0:0:
64,192,38354,1,0,0:0:0:0:
320,192,38354,1,0,0:0:0:0:
192,192,38452,1,0,0:0:0:0:
448,192,38452,1,0,0:0:0:0:
320,192,38550,1,0,0:0:0:0:
192,192,38550,1,0,0:0:0:0:
320,192,38648,1,0,0:0:0:0:
192,192,38746,1,0,0:0:0:0:
64,192,38746,1,0,0:0:0:0:
448,192,38746,1,0,0:0:0:0:
64,192,38844,1,0,0:0:0:0:
192,192,38942,1,0,0:0:0:0:
448,192,38942,1,0,0:0:0:0:
320,192,39041,1,0,0:0:0:0:
192,192,39041,1,0,0:0:0:0:
64,192,39139,1,0,0:0:0:0:
320,192,39139,1,0,0:0:0:0:
448,192,39139,1,0,0:0:0:0:
448,192,39237,1,0,0:0:0:0:
320,192,39335,1,0,0:0:0:0:
64,192,39335,1,0,0:0:0:0:
192,192,39433,1,0,0:0:0:0:
320,192,39433,1,0,0:0:0:0:
192,192,39531,1,0,0:0:0:0:
64,192,39531,1,0,0:0:0:0:
448,192,39531,1,0,0:0:0:0:
64,192,39629,1,0,0:0:0:0:
320,192,39629,1,0,0:0:0:0:
192,192,39727,1,0,0:0:0:0:
448,192,39727,1,0,0:0:0:0:
320,192,39825,1,0,0:0:0:0:
448,192,39825,1,0,0:0:0:0:
64,192,39825,1,0,0:0:0:0:
192,192,39923,1,0,0:0:0:0:
64,192,39923,1,0,0:0:0:0:
192,192,40021,1,0,0:0:0:0:
320,192,40021,1,0,0:0:0:0:
448,192,40119,1,0,0:0:0:0:
64,192,40119,1,0,0:0:0:0:
448,192,40217,1,0,0:0:0:0:
192,192,40217,1,0,0:0:0:0:
320,192,40315,1,0,0:0:0:0:
64,192,40315,1,0,0:0:0:0:
192,192,40315,1,0,0:0:0:0:
64,192,40413,1,0,0:0:0:0:
320,192,40511,1,0,0:0:0:0:
192,192,40511,1,0,0:0:0:0:
192,192,40609,1,0,0:0:0:0:
448,192,40609,1,0,0:0:0:0:
64,192,40707,1,0,0:0:0:0:
448,192,40707,1,0,0:0:0:0:
320,192,40707,1,0,0:0:0:0:
192,192,40805,1,0,0:0:0:0:
64,192,40805,1,0,0:0:0:0:
448,192,40903,1,0,0:0:0:0:
320,192,40903,1,0,0:0:0:0:
320,192,41001,1,0,0:0:0:0:
192,192,41001,1,0,0:0:0:0:
448,192,41099,1,0,0:0:0:0:
192,192,41099,1,0,0:0:0:0:
64,192,41099,1,0,0:0:0:0:
448,192,41197,1,0,0:0:0:0:
64,192,41295,1,0,0:0:0:0:
320,192,41295,1,0,0:0:0:0:
192,192,41393,1,0,0:0:0:0:
64,192,41393,1,0,0:0:0:0:
192,192,41491,1,0,0:0:0:0:
320,192,41491,1,0,0:0:0:0:
448,192,41491,1,0,0:0:0:0:
320,192,41590,1,0,0:0:0:0:
64,192,41688,1,0,0:0:0:0:
448,192,41688,1,0,0:0:0:0:
192,192,41786,1,0,0:0:0:0:
448,192,41786,1,0,0:0:0:0:
320,192,41884,1,0,0:0:0:0:
192,192,41884,1,0,0:0:0:0:
64,192,41884,1,0,0:0:0:0:
64,192,41982,1,0,0:0:0:0:
192,192,42080,1,0,0:0:0:0:
320,192,42080,1,0,0:0:0:0:
448,192,42080,1,0,0:0:0:0:
448,192,42178,1,0,0:0:0:0:
320,192,42276,1,0,0:0:0:0:
192,192,42276,1,0,0:0:0:0:
64,192,42276,1,0,0:0:0:0:
64,192,42374,1,0,0:0:0:0:
448,192,42472,1,0,0:0:0:0:
320,192,42472,1,0,0:0:0:0:
192,192,42570,1,0,0:0:0:0:
448,192,42570,1,0,0:0:0:0:
320,192,42668,1,0,0:0:0:0:
192,192,42668,1,0,0:0:0:0:
64,192,42668,1,0,0:0:0:0:
320,192,42766,1,0,0:0:0:0:
64,192,42864,1,0,0:0:0:0:
448,192,42864,1,0,0:0:0:0:
192,192,42962,1,0,0:0:0:0:
320,192,42962,1,0,0:0:0:0:
192,192,43060,1,0,0:0:0:0:
64,192,43060,1,0,0:0:0:0:
448,192,43060,1,0,0:0:0:0:
320,192,43158,1,0,0:0:0:0:
448,192,43158,1,0,0:0:0:0:
448,192,43256,1,0,0:0:0:0:
320,192,43256,1,0,0:0:0:0:
192,192,43354,1,0,0:0:0:0:
64,192,43354,1,0,0:0:0:0:
64,192,43452,1,0,0:0:0:0:
320,192,43452,1,0,0:0:0:0:
448,192,43452,1,0,0:0:0:0:
320,192,43550,1,0,0:0:0:0:
192,192,43648,1,0,0:0:0:0:
64,192,43648,1,0,0:0:0:0:
448,192,43648,1,0,0:0:0:0:
192,192,43746,1,0,0:0:0:0:
320,192,43844,1,0,0:0:0:0:
448,192,43844,1,0,0:0:0:0:
64,192,43844,1,0,0:0:0:0:
192,192,43942,1,0,0:0:0:0:
64,192,43942,1,0,0:0:0:0:
192,192,44041,1,0,0:0:0:0:
320,192,44041,1,0,0:0:0:0:
320,192,44139,1,0,0:0:0:0:
448,192,44139,1,0,0:0:0:0:
448,192,44237,1,0,0:0:0:0:
192,192,44237,1,0,0:0:0:0:
64,192,44237,1,0,0:0:0:0:
64,192,44335,1,0,0:0:0:0:
320,192,44433,1,0,0:0:0:0:
448,192,44433,1,0,0:0:0:0:
320,192,44531,1,0,0:0:0:0:
192,192,44531,1,0,0:0:0:0:
64,192,44629,1,0,0:0:0:0:
192,192,44629,1,0,0:0:0:0:
448,192,44629,1,0,0:0:0:0:
64,192,44727,1,0,0:0:0:0:
320,192,44727,1,0,0:0:0:0:
320,192,44825,1,0,0:0:0:0:
192,192,44825,1,0,0:0:0:0:
192,192,44923,1,0,0:0:0:0:
448,192,44923,1,0,0:0:0:0:
64,192,45021,1,0,0:0:0:0:
320,192,45021,1,0,0:0:0:0:
448,192,45021,1,0,0:0:0:0:
64,192,45119,1,0,0:0:0:0:
320,192,45217,1,0,0:0:0:0:
192,192,45217,1,0,0:0:0:0:
192,192,45315,1,0,0:0:0:0:
448,192,45315,1,0,0:0:0:0:
64,192,45413,1,0,0:0:0:0:
448,192,45413,1,0,0:0:0:0:
320,192,45413,1,0,0:0:0:0:
320,192,45511,1,0,0:0:0:0:
192,192,45609,1,0,0:0:0:0:
64,192,45609,1,0,0:0:0:0:
192,192,45707,1,0,0:0:0:0:
320,192,45707,1,0,0:0:0:0:
64,192,45805,1,0,0:0:0:0:
320,192,45805,1,0,0:0:0:0:
448,192,45805,1,0,0:0:0:0:
192,192,45903,1,0,0:0:0:0:
448,192,45903,1,0,0:0:0:0:
320,192,46001,1,0,0:0:0:0:
192,192,46001,1,0,0:0:0:0:
64,192,46001,1,0,0:0:0:0:
448,192,46099,1,0,0:0:0:0:
64,192,46099,1,0,0:0:0:0:
192,192,46197,1,0,0:0:0:0:
448,192,46197,1,0,0:0:0:0:
320,192,46295,1,0,0:0:0:0:
192,192,46295,1,0,0:0:0:0:
64,192,46393,1,0,0:0:0:0:
320,192,46393,1,0,0:0:0:0:
448,192,46393,1,0,0:0:0:0:
192,192,46491,1,0,0:0:0:0:
64,192,46491,1,0,0:0:0:0:
448,192,46491,1,0,0:0:0:0:
192,192,46590,1,0,0:0:0:0:
64,192,46590,1,0,0:0:0:0:
320,192,46590,1,0,0:0:0:0:
448,192,46688,1,0,0:0:0:0:
320,192,46688,1,0,0:0:0:0:
192,192,46786,1,0,0:0:0:0:
448,192,46786,1,0,0:0:0:0:
64,192,46786,1,0,0:0:0:0:
320,192,46884,1,0,0:0:0:0:
192,192,46884,1,0,0:0:0:0:
448,192,46982,1,0,0:0:0:0:
320,192,46982,1,0,0:0:0:0:
64,192,46982,1,0,0:0:0:0:
448,192,47276,1,0,0:0:0:0:
192,192,47374,1,0,0:0:0:0:
320,192,47570,1,0,0:0:0:0:
64,192,47668,1,0,0:0:0:0:
320,192,47766,128,0,47962:0:0:0:0:
448,192,47766,128,0,47962:0:0:0:0:
192,192,48060,1,0,0:0:0:0:
320,192,48158,1,0,0:0:0:0:
64,192,48256,1,0,0:0:0:0:
192,192,48354,1,0,0:0:0:0:
448,192,48452,1,0,0:0:0:0:
192,192,48550,128,0,48746:0:0:0:0:
64,192,48550,128,0,48746:0:0:0:0:
320,192,48746,1,0,0:0:0:0:
192,192,48844,1,0,0:0:0:0:
448,192,48942,1,0,0:0:0:0:
64,192,49041,1,0,0:0:0:0:
320,192,49139,1,0,0:0:0:0:
192,192,49237,1,0,0:0:0:0:
64,192,49335,1,0,0:0:0:0:
448,192,49335,1,0,0:0:0:0:
320,192,49400,1,0,0:0:0:0:
192,192,49465,1,0,0:0:0:0:
320,192,49531,1,0,0:0:0:0:
64,192,49596,1,0,0:0:0:0:
320,192,49661,1,0,0:0:0:0:
192,192,49727,1,0,0:0:0:0:
448,192,49727,1,0,0:0:0:0:
64,192,49923,1,0,0:0:0:0:
320,192,49923,1,0,0:0:0:0:
64,192,50021,1,0,0:0:0:0:
448,192,50119,1,0,0:0:0:0:
320,192,50119,1,0,0:0:0:0:
192,192,50119,1,0,0:0:0:0:
448,192,50315,1,0,0:0:0:0:
64,192,50315,1,0,0:0:0:0:
192,192,50380,1,0,0:0:0:0:
320,192,50446,1,0,0:0:0:0:
192,192,50511,1,0,0:0:0:0:
448,192,50576,1,0,0:0:0:0:
192,192,50642,1,0,0:0:0:0:
320,192,50707,1,0,0:0:0:0:
64,192,50707,1,0,0:0:0:0:
448,192,50903,1,0,0:0:0:0:
64,192,50903,1,0,0:0:0:0:
192,192,51001,1,0,0:0:0:0:
320,192,51099,1,0,0:0:0:0:
64,192,51099,1,0,0:0:0:0:
320,192,51197,1,0,0:0:0:0:
192,192,51197,1,0,0:0:0:0:
192,192,51295,1,0,0:0:0:0:
64,192,51295,1,0,0:0:0:0:
448,192,51295,1,0,0:0:0:0:
320,192,51393,1,0,0:0:0:0:
64,192,51491,1,0,0:0:0:0:
448,192,51491,1,0,0:0:0:0:
192,192,51491,1,0,0:0:0:0:
320,192,51590,1,0,0:0:0:0:
448,192,51590,1,0,0:0:0:0:
64,192,51590,1,0,0:0:0:0:
192,192,51688,1,0,0:0:0:0:
320,192,51688,1,0,0:0:0:0:
192,192,51786,1,0,0:0:0:0:
64,192,51786,1,0,0:0:0:0:
64,192,51884,1,0,0:0:0:0:
320,192,51884,1,0,0:0:0:0:
448,192,51884,1,0,0:0:0:0:
192,192,51982,1,0,0:0:0:0:
320,192,51982,1,0,0:0:0:0:
448,192,52080,1,0,0:0:0:0:
320,192,52080,1,0,0:0:0:0:
192,192,52178,1,0,0:0:0:0:
64,192,52178,1,0,0:0:0:0:
448,192,52178,1,0,0:0:0:0:
320,192,52276,1,0,0:0:0:0:
64,192,52276,1,0,0:0:0:0:
192,192,52374,1,0,0:0:0:0:
448,192,52374,1,0,0:0:0:0:
64,192,52472,1,0,0:0:0:0:
320,192,52472,1,0,0:0:0:0:
448,192,52472,1,0,0:0:0:0:
320,192,52570,1,0,0:0:0:0:
192,192,52570,1,0,0:0:0:0:
192,192,52668,1,0,0:0:0:0:
448,192,52668,1,0,0:0:0:0:
320,192,52766,1,0,0:0:0:0:
64,192,52766,1,0,0:0:0:0:
64,192,52864,1,0,0:0:0:0:
448,192,52864,1,0,0:0:0:0:
192,192,52864,1,0,0:0:0:0:
192,192,52962,1,0,0:0:0:0:
320,192,53060,1,0,0:0:0:0:
448,192,53060,1,0,0:0:0:0:
64,192,53158,1,0,0:0:0:0:
320,192,53158,1,0,0:0:0:0:
192,192,53256,1,0,0:0:0:0:
64,192,53256,1,0,0:0:0:0:
448,192,53256,1,0,0:0:0:0:
320,192,53354,1,0,0:0:0:0:
448,192,53354,1,0,0:0:0:0:
320,192,53452,1,0,0:0:0:0:
192,192,53452,1,0,0:0:0:0:
192,192,53550,1,0,0:0:0:0:
64,192,53550,1,0,0:0:0:0:
320,192,53648,1,0,0:0:0:0:
448,192,53648,1,0,0:0:0:0:
320,192,53746,1,0,0:0:0:0:
192,192,53844,1,0,0:0:0:0:
64,192,53844,1,0,0:0:0:0:
448,192,53844,1,0,0:0:0:0:
192,192,53942,1,0,0:0:0:0:
320,192,54041,1,0,0:0:0:0:
448,192,54041,1,0,0:0:0:0:
64,192,54041,1,0,0:0:0:0:
192,192,54139,1,0,0:0:0:0:
320,192,54139,1,0,0:0:0:0:
448,192,54237,1,0,0:0:0:0:
64,192,54237,1,0,0:0:0:0:
320,192,54237,1,0,0:0:0:0:
192,192,54335,1,0,0:0:0:0:
64,192,54335,1,0,0:0:0:0:
192,192,54433,1,0,0:0:0:0:
320,192,54433,1,0,0:0:0:0:
320,192,54531,1,0,0:0:0:0:
448,192,54531,1,0,0:0:0:0:
448,192,54629,1,0,0:0:0:0:
192,192,54629,1,0,0:0:0:0:
64,192,54629,1,0,0:0:0:0:
192,192,54727,1,0,0:0:0:0:
320,192,54825,1,0,0:0:0:0:
448,192,54825,1,0,0:0:0:0:
64,192,54825,1,0,0:0:0:0:
320,192,54923,1,0,0:0:0:0:
192,192,55021,1,0,0:0:0:0:
448,192,55021,1,0,0:0:0:0:
320,192,55119,1,0,0:0:0:0:
192,192,55119,1,0,0:0:0:0:
64,192,55217,1,0,0:0:0:0:
320,192,55217,1,0,0:0:0:0:
448,192,55217,1,0,0:0:0:0:
64,192,55315,1,0,0:0:0:0:
192,192,55413,1,0,0:0:0:0:
448,192,55413,1,0,0:0:0:0:
320,192,55511,1,0,0:0:0:0:
192,192,55511,1,0,0:0:0:0:
64,192,55609,1,0,0:0:0:0:
320,192,55609,1,0,0:0:0:0:
448,192,55609,1,0,0:0:0:0:
192,192,55707,1,0,0:0:0:0:
448,192,55707,1,0,0:0:0:0:
320,192,55805,1,0,0:0:0:0:
192,192,55805,1,0,0:0:0:0:
64,192,55805,1,0,0:0:0:0:
448,192,55903,1,0,0:0:0:0:
64,192,55903,1,0,0:0:0:0:
192,192,56001,1,0,0:0:0:0:
320,192,56001,1,0,0:0:0:0:
192,192,56099,1,0,0:0:0:0:
448,192,56099,1,0,0:0:0:0:
320,192,56197,1,0,0:0:0:0:
448,192,56197,1,0,0:0:0:0:
64,192,56197,1,0,0:0:0:0:
320,192,56295,1,0,0:0:0:0:
192,192,56295,1,0,0:0:0:0:
192,192,56393,1,0,0:0:0:0:
64,192,56393,1,0,0:0:0:0:
448,192,56393,1,0,0:0:0:0:
64,192,56491,1,0,0:0:0:0:
320,192,56491,1,0,0:0:0:0:
192,192,56590,1,0,0:0:0:0:
320,192,56590,1,0,0:0:0:0:
448,192,56688,1,0,0:0:0:0:
192,192,56688,1,0,0:0:0:0:
320,192,56786,1,0,0:0:0:0:
448,192,56786,1,0,0:0:0:0:
64,192,56786,1,0,0:0:0:0:
320,192,56884,1,0,0:0:0:0:
448,192,56982,1,0,0:0:0:0:
192,192,56982,1,0,0:0:0:0:
64,192,56982,1,0,0:0:0:0:
320,192,57080,1,0,0:0:0:0:
192,192,57080,1,0,0:0:0:0:
320,192,57178,1,0,0:0:0:0:
64,192,57178,1,0,0:0:0:0:
448,192,57178,1,0,0:0:0:0:
448,192,57276,1,0,0:0:0:0:
320,192,57374,1,0,0:0:0:0:
192,192,57374,1,0,0:0:0:0:
192,192,57472,1,0,0:0:0:0:
64,192,57472,1,0,0:0:0:0:
448,192,57472,1,0,0:0:0:0:
320,192,57570,1,0,0:0:0:0:
64,192,57570,1,0,0:0:0:0:
192,192,57668,1,0,0:0:0:0:
320,192,57668,1,0,0:0:0:0:
192,192,57766,1,0,0:0:0:0:
64,192,57766,1,0,0:0:0:0:
320,192,57864,1,0,0:0:0:0:
448,192,57864,1,0,0:0:0:0:
192,192,57962,1,0,0:0:0:0:
320,192,57962,1,0,0:0:0:0:
448,192,57962,1,0,0:0:0:0:
64,192,57962,1,0,0:0:0:0:
192,192,58060,1,0,0:0:0:0:
64,192,58060,1,0,0:0:0:0:
320,192,58158,1,0,0:0:0:0:
448,192,58158,1,0,0:0:0:0:
64,192,58256,1,0,0:0:0:0:
192,192,58256,1,0,0:0:0:0:
448,192,58256,1,0,0:0:0:0:
320,192,58256,1,0,0:0:0:0:
192,192,58354,1,0,0:0:0:0:
64,192,58354,1,0,0:0:0:0:
320,192,58452,1,0,0:0:0:0:
448,192,58452,1,0,0:0:0:0:
448,192,58550,1,0,0:0:0:0:
320,192,58550,1,0,0:0:0:0:
64,192,58550,1,0,0:0:0:0:
192,192,58550,1,0,0:0:0:0:
192,192,58648,1,0,0:0:0:0:
64,192,58648,1,0,0:0:0:0:
64,192,58746,1,0,0:0:0:0:
192,192,58746,1,0,0:0:0:0:
320,192,58746,1,0,0:0:0:0:
448,192,58746,1,0,0:0:0:0:
64,192,59139,5,0,0:0:0:0:
320,192,59139,1,0,0:0:0:0:
448,192,59139,1,0,0:0:0:0:
320,192,59237,1,0,0:0:0:0:
192,192,59335,1,0,0:0:0:0:
64,192,59335,1,0,0:0:0:0:
448,192,59335,1,0,0:0:0:0:
192,192,59433,1,0,0:0:0:0:
320,192,59531,1,0,0:0:0:0:
448,192,59531,1,0,0:0:0:0:
64,192,59531,1,0,0:0:0:0:
192,192,59629,1,0,0:0:0:0:
448,192,59629,1,0,0:0:0:0:
320,192,59727,1,0,0:0:0:0:
192,192,59727,1,0,0:0:0:0:
320,192,59825,1,0,0:0:0:0:
64,192,59825,1,0,0:0:0:0:
448,192,59923,1,0,0:0:0:0:
192,192,59923,1,0,0:0:0:0:
320,192,60021,1,0,0:0:0:0:
192,192,60021,1,0,0:0:0:0:
448,192,60119,1,0,0:0:0:0:
64,192,60119,1,0,0:0:0:0:
192,192,60217,1,0,0:0:0:0:
320,192,60217,1,0,0:0:0:0:
320,192,60315,1,0,0:0:0:0:
64,192,60315,1,0,0:0:0:0:
448,192,60315,1,0,0:0:0:0:
448,192,60413,1,0,0:0:0:0:
192,192,60413,1,0,0:0:0:0:
320,192,60511,1,0,0:0:0:0:
64,192,60511,1,0,0:0:0:0:
320,192,60609,1,0,0:0:0:0:
192,192,60609,1,0,0:0:0:0:
448,192,60707,1,0,0:0:0:0:
192,192,60707,1,0,0:0:0:0:
448,192,60805,1,0,0:0:0:0:
64,192,60805,1,0,0:0:0:0:
320,192,60903,1,0,0:0:0:0:
192,192,60903,1,0,0:0:0:0:
320,192,61001,1,0,0:0:0:0:
64,192,61001,1,0,0:0:0:0:
192,192,61099,1,0,0:0:0:0:
64,192,61099,1,0,0:0:0:0:
448,192,61099,1,0,0:0:0:0:
320,192,61197,1,0,0:0:0:0:
192,192,61197,1,0,0:0:0:0:
320,192,61295,1,0,0:0:0:0:
448,192,61295,1,0,0:0:0:0:
192,192,61393,1,0,0:0:0:0:
64,192,61393,1,0,0:0:0:0:
64,192,61491,1,0,0:0:0:0:
192,192,61491,1,0,0:0:0:0:
448,192,61491,1,0,0:0:0:0:
64,192,61590,1,0,0:0:0:0:
320,192,61590,1,0,0:0:0:0:
320,192,61688,1,0,0:0:0:0:
448,192,61688,1,0,0:0:0:0:
192,192,61786,1,0,0:0:0:0:
64,192,61786,1,0,0:0:0:0:
64,192,61884,1,0,0:0:0:0:
320,192,61884,1,0,0:0:0:0:
448,192,61884,1,0,0:0:0:0:
192,192,61982,1,0,0:0:0:0:
448,192,61982,1,0,0:0:0:0:
320,192,62080,1,0,0:0:0:0:
64,192,62080,1,0,0:0:0:0:
64,192,62178,1,0,0:0:0:0:
448,192,62178,1,0,0:0:0:0:
192,192,62276,1,0,0:0:0:0:
320,192,62276,1,0,0:0:0:0:
320,192,62374,1,0,0:0:0:0:
64,192,62374,1,0,0:0:0:0:
448,192,62472,1,0,0:0:0:0:
192,192,62472,1,0,0:0:0:0:
64,192,62570,1,0,0:0:0:0:
320,192,62570,1,0,0:0:0:0:
64,192,62668,1,0,0:0:0:0:
192,192,62668,1,0,0:0:0:0:
448,192,62668,1,0,0:0:0:0:
192,192,62766,1,0,0:0:0:0:
64,192,62864,1,0,0:0:0:0:
320,192,62864,1,0,0:0:0:0:
448,192,62864,1,0,0:0:0:0:
448,192,62962,1,0,0:0:0:0:
192,192,62962,1,0,0:0:0:0:
64,192,62962,1,0,0:0:0:0:
320,192,63060,1,0,0:0:0:0:
192,192,63158,1,0,0:0:0:0:
448,192,63256,1,0,0:0:0:0:
64,192,63256,1,0,0:0:0:0:
320,192,63256,1,0,0:0:0:0:
192,192,63354,1,0,0:0:0:0:
448,192,63452,1,0,0:0:0:0:
64,192,63452,1,0,0:0:0:0:
320,192,63452,1,0,0:0:0:0:
320,192,63550,1,0,0:0:0:0:
448,192,63648,1,0,0:0:0:0:
64,192,63648,1,0,0:0:0:0:
192,192,63648,1,0,0:0:0:0:
64,192,63746,1,0,0:0:0:0:
448,192,63746,1,0,0:0:0:0:
320,192,63746,1,0,0:0:0:0:
192,192,63844,1,0,0:0:0:0:
320,192,63844,1,0,0:0:0:0:
192,192,63942,1,0,0:0:0:0:
448,192,63942,1,0,0:0:0:0:
320,192,64040,1,0,0:0:0:0:
64,192,64040,1,0,0:0:0:0:
448,192,64139,1,0,0:0:0:0:
192,192,64139,1,0,0:0:0:0:
192,192,64237,1,0,0:0:0:0:
320,192,64237,1,0,0:0:0:0:
448,192,64237,1,0,0:0:0:0:
64,192,64237,1,0,0:0:0:0:
320,192,64335,1,0,0:0:0:0:
192,192,64433,1,0,0:0:0:0:
320,192,64531,1,0,0:0:0:0:
448,192,64531,1,0,0:0:0:0:
64,192,64629,1,0,0:0:0:0:
192,192,64629,1,0,0:0:0:0:
320,192,64629,1,0,0:0:0:0:
448,192,64629,1,0,0:0:0:0:
192,192,64727,1,0,0:0:0:0:
320,192,64825,1,0,0:0:0:0:
64,192,64923,1,0,0:0:0:0:
192,192,64923,1,0,0:0:0:0:
192,192,65021,1,0,0:0:0:0:
320,192,65021,1,0,0:0:0:0:
448,192,65021,1,0,0:0:0:0:
64,192,65021,1,0,0:0:0:0:
320,192,65119,1,0,0:0:0:0:
192,192,65217,1,0,0:0:0:0:
448,192,65315,1,0,0:0:0:0:
320,192,65315,1,0,0:0:0:0:
448,192,65413,1,0,0:0:0:0:
320,192,65413,1,0,0:0:0:0:
192,192,65413,1,0,0:0:0:0:
64,192,65413,1,0,0:0:0:0:
64,192,65511,1,0,0:0:0:0:
192,192,65511,1,0,0:0:0:0:
64,192,65609,1,0,0:0:0:0:
192,192,65609,1,0,0:0:0:0:
64,192,65707,1,0,0:0:0:0:
192,192,65707,1,0,0:0:0:0:
64,192,65805,1,0,0:0:0:0:
320,192,65805,1,0,0:0:0:0:
448,192,65805,1,0,0:0:0:0:
192,192,65903,1,0,0:0:0:0:
448,192,65903,1,0,0:0:0:0:
320,192,66001,1,0,0:0:0:0:
192,192,66001,1,0,0:0:0:0:
320,192,66099,1,0,0:0:0:0:
64,192,66099,1,0,0:0:0:0:
448,192,66197,1,0,0:0:0:0:
192,192,66197,1,0,0:0:0:0:
448,192,66295,1,0,0:0:0:0:
320,192,66295,1,0,0:0:0:0:
192,192,66393,1,0,0:0:0:0:
64,192,66393,1,0,0:0:0:0:
64,192,66491,1,0,0:0:0:0:
320,192,66491,1,0,0:0:0:0:
192,192,66590,1,0,0:0:0:0:
320,192,66590,1,0,0:0:0:0:
448,192,66590,1,0,0:0:0:0:
64,192,66688,1,0,0:0:0:0:
448,192,66688,1,0,0:0:0:0:
192,192,66786,1,0,0:0:0:0:
320,192,66786,1,0,0:0:0:0:
64,192,66884,1,0,0:0:0:0:
192,192,66884,1,0,0:0:0:0:
64,192,66982,1,0,0:0:0:0:
320,192,66982,1,0,0:0:0:0:
448,192,66982,1,0,0:0:0:0:
448,192,67080,1,0,0:0:0:0:
192,192,67080,1,0,0:0:0:0:
320,192,67178,1,0,0:0:0:0:
64,192,67178,1,0,0:0:0:0:
192,192,67276,1,0,0:0:0:0:
448,192,67276,1,0,0:0:0:0:
320,192,67374,1,0,0:0:0:0:
192,192,67374,1,0,0:0:0:0:
64,192,67374,1,0,0:0:0:0:
64,192,67472,1,0,0:0:0:0:
448,192,67472,1,0,0:0:0:0:
192,192,67570,1,0,0:0:0:0:
320,192,67570,1,0,0:0:0:0:
448,192,67570,1,0,0:0:0:0:
64,192,67668,1,0,0:0:0:0:
192,192,67668,1,0,0:0:0:0:
320,192,67766,1,0,0:0:0:0:
448,192,67766,1,0,0:0:0:0:
64,192,67766,1,0,0:0:0:0:
448,192,67864,1,0,0:0:0:0:
320,192,67864,1,0,0:0:0:0:
64,192,67962,1,0,0:0:0:0:
192,192,67962,1,0,0:0:0:0:
448,192,67962,1,0,0:0:0:0:
192,192,68060,1,0,0:0:0:0:
64,192,68060,1,0,0:0:0:0:
448,192,68158,1,0,0:0:0:0:
320,192,68158,1,0,0:0:0:0:
64,192,68158,1,0,0:0:0:0:
448,192,68256,1,0,0:0:0:0:
192,192,68256,1,0,0:0:0:0:
320,192,68354,1,0,0:0:0:0:
192,192,68354,1,0,0:0:0:0:
448,192,68452,1,0,0:0:0:0:
64,192,68452,1,0,0:0:0:0:
448,192,68550,1,0,0:0:0:0:
192,192,68550,1,0,0:0:0:0:
320,192,68648,1,0,0:0:0:0:
64,192,68648,1,0,0:0:0:0:
448,192,68746,1,0,0:0:0:0:
64,192,68746,1,0,0:0:0:0:
192,192,68844,1,0,0:0:0:0:
320,192,68844,1,0,0:0:0:0:
192,192,68942,1,0,0:0:0:0:
64,192,68942,1,0,0:0:0:0:
448,192,68942,1,0,0:0:0:0:
320,192,69041,1,0,0:0:0:0:
64,192,69041,1,0,0:0:0:0:
448,192,69139,1,0,0:0:0:0:
192,192,69139,1,0,0:0:0:0:
320,192,69237,1,0,0:0:0:0:
448,192,69237,1,0,0:0:0:0:
64,192,69237,1,0,0:0:0:0:
192,192,69335,1,0,0:0:0:0:
64,192,69335,1,0,0:0:0:0:
192,192,69433,1,0,0:0:0:0:
320,192,69433,1,0,0:0:0:0:
448,192,69531,1,0,0:0:0:0:
320,192,69531,1,0,0:0:0:0:
64,192,69531,1,0,0:0:0:0:
448,192,69629,1,0,0:0:0:0:
192,192,69629,1,0,0:0:0:0:
320,192,69727,1,0,0:0:0:0:
192,192,69727,1,0,0:0:0:0:
64,192,69727,1,0,0:0:0:0:
448,192,69825,1,0,0:0:0:0:
64,192,69825,1,0,0:0:0:0:
320,192,69923,1,0,0:0:0:0:
192,192,69923,1,0,0:0:0:0:
320,192,70021,1,0,0:0:0:0:
64,192,70021,1,0,0:0:0:0:
192,192,70119,1,0,0:0:0:0:
448,192,70119,1,0,0:0:0:0:
64,192,70119,1,0,0:0:0:0:
192,192,70217,1,0,0:0:0:0:
320,192,70217,1,0,0:0:0:0:
64,192,70315,1,0,0:0:0:0:
448,192,70315,1,0,0:0:0:0:
320,192,70315,1,0,0:0:0:0:
192,192,70413,1,0,0:0:0:0:
448,192,70511,1,0,0:0:0:0:
320,192,70511,1,0,0:0:0:0:
192,192,70511,1,0,0:0:0:0:
64,192,70511,1,0,0:0:0:0:
448,192,70609,1,0,0:0:0:0:
192,192,70707,1,0,0:0:0:0:
64,192,70707,1,0,0:0:0:0:
448,192,70805,1,0,0:0:0:0:
320,192,70805,1,0,0:0:0:0:
192,192,70805,1,0,0:0:0:0:
64,192,70805,1,0,0:0:0:0:
448,192,70903,1,0,0:0:0:0:
320,192,70903,1,0,0:0:0:0:
64,192,71001,1,0,0:0:0:0:
192,192,71099,1,0,0:0:0:0:
448,192,71099,1,0,0:0:0:0:
320,192,71099,1,0,0:0:0:0:
64,192,71099,1,0,0:0:0:0:
192,192,71197,1,0,0:0:0:0:
64,192,71295,1,0,0:0:0:0:
320,192,71295,1,0,0:0:0:0:
448,192,71295,1,0,0:0:0:0:
320,192,71393,1,0,0:0:0:0:
448,192,71393,1,0,0:0:0:0:
448,192,71491,1,0,0:0:0:0:
192,192,71491,1,0,0:0:0:0:
64,192,71491,1,0,0:0:0:0:
192,192,71590,1,0,0:0:0:0:
64,192,71688,1,0,0:0:0:0:
320,192,71688,1,0,0:0:0:0:
320,192,71786,1,0,0:0:0:0:
448,192,71786,1,0,0:0:0:0:
448,192,71884,1,0,0:0:0:0:
192,192,71884,1,0,0:0:0:0:
64,192,71982,1,0,0:0:0:0:
320,192,71982,1,0,0:0:0:0:
192,192,72080,1,0,0:0:0:0:
64,192,72080,1,0,0:0:0:0:
448,192,72080,1,0,0:0:0:0:
320,192,72178,1,0,0:0:0:0:
448,192,72178,1,0,0:0:0:0:
64,192,72276,1,0,0:0:0:0:
192,192,72276,1,0,0:0:0:0:
64,192,72374,1,0,0:0:0:0:
320,192,72374,1,0,0:0:0:0:
448,192,72472,1,0,0:0:0:0:
192,192,72472,1,0,0:0:0:0:
192,192,72570,1,0,0:0:0:0:
320,192,72570,1,0,0:0:0:0:
64,192,72668,1,0,0:0:0:0:
448,192,72668,1,0,0:0:0:0:
448,192,72766,1,0,0:0:0:0:
192,192,72766,1,0,0:0:0:0:
320,192,72864,1,0,0:0:0:0:
192,192,72864,1,0,0:0:0:0:
64,192,72864,1,0,0:0:0:0:
448,192,72962,1,0,0:0:0:0:
320,192,72962,1,0,0:0:0:0:
192,192,73060,1,0,0:0:0:0:
64,192,73060,1,0,0:0:0:0:
320,192,73158,1,0,0:0:0:0:
448,192,73158,1,0,0:0:0:0:
64,192,73158,1,0,0:0:0:0:
192,192,73256,1,0,0:0:0:0:
448,192,73256,1,0,0:0:0:0:
64,192,73354,1,0,0:0:0:0:
320,192,73354,1,0,0:0:0:0:
192,192,73452,1,0,0:0:0:0:
64,192,73452,1,0,0:0:0:0:
448,192,73452,1,0,0:0:0:0:
320,192,73550,1,0,0:0:0:0:
192,192,73648,1,0,0:0:0:0:
64,192,73648,1,0,0:0:0:0:
448,192,73648,1,0,0:0:0:0:
320,192,73746,1,0,0:0:0:0:
192,192,73746,1,0,0:0:0:0:
448,192,73844,1,0,0:0:0:0:
64,192,73844,1,0,0:0:0:0:
448,192,73942,1,0,0:0:0:0:
192,192,73942,1,0,0:0:0:0:
320,192,74041,1,0,0:0:0:0:
64,192,74041,1,0,0:0:0:0:
320,192,74139,1,0,0:0:0:0:
192,192,74139,1,0,0:0:0:0:
448,192,74237,1,0,0:0:0:0:
64,192,74237,1,0,0:0:0:0:
64,192,74335,1,0,0:0:0:0:
320,192,74335,1,0,0:0:0:0:
192,192,74433,1,0,0:0:0:0:
448,192,74433,1,0,0:0:0:0:
320,192,74433,1,0,0:0:0:0:
192,192,74531,1,0,0:0:0:0:
448,192,74531,1,0,0:0:0:0:
320,192,74629,1,0,0:0:0:0:
64,192,74629,1,0,0:0:0:0:
192,192,74727,1,0,0:0:0:0:
320,192,74727,1,0,0:0:0:0:
192,192,74825,1,0,0:0:0:0:
64,192,74825,1,0,0:0:0:0:
448,192,74825,1,0,0:0:0:0:
320,192,74923,1,0,0:0:0:0:
64,192,74923,1,0,0:0:0:0:
448,192,75021,1,0,0:0:0:0:
192,192,75021,1,0,0:0:0:0:
320,192,75119,1,0,0:0:0:0:
192,192,75119,1,0,0:0:0:0:
64,192,75217,1,0,0:0:0:0:
448,192,75217,1,0,0:0:0:0:
320,192,75217,1,0,0:0:0:0:
192,192,75315,1,0,0:0:0:0:
64,192,75315,1,0,0:0:0:0:
64,192,75413,1,0,0:0:0:0:
192,192,75413,1,0,0:0:0:0:
192,192,75511,1,0,0:0:0:0:
64,192,75511,1,0,0:0:0:0:
448,192,75609,1,0,0:0:0:0:
320,192,75609,1,0,0:0:0:0:
448,192,75707,1,0,0:0:0:0:
64,192,75707,1,0,0:0:0:0:
320,192,75805,1,0,0:0:0:0:
192,192,75805,1,0,0:0:0:0:
64,192,75805,1,0,0:0:0:0:
448,192,75903,1,0,0:0:0:0:
192,192,75903,1,0,0:0:0:0:
448,192,76001,1,0,0:0:0:0:
320,192,76001,1,0,0:0:0:0:
64,192,76001,1,0,0:0:0:0:
192,192,76099,1,0,0:0:0:0:
320,192,76099,1,0,0:0:0:0:
64,192,76197,1,0,0:0:0:0:
192,192,76197,1,0,0:0:0:0:
320,192,76295,1,0,0:0:0:0:
448,192,76295,1,0,0:0:0:0:
320,192,76393,1,0,0:0:0:0:
448,192,76393,1,0,0:0:0:0:
320,192,76491,1,0,0:0:0:0:
448,192,76491,1,0,0:0:0:0:
192,192,76590,1,0,0:0:0:0:
64,192,76590,1,0,0:0:0:0:
448,192,76590,1,0,0:0:0:0:
192,192,76688,1,0,0:0:0:0:
64,192,76786,1,0,0:0:0:0:
320,192,76786,1,0,0:0:0:0:
448,192,76786,1,0,0:0:0:0:
448,192,76884,1,0,0:0:0:0:
192,192,76884,1,0,0:0:0:0:
64,192,76982,1,0,0:0:0:0:
320,192,76982,1,0,0:0:0:0:
192,192,76982,1,0,0:0:0:0:
448,192,77080,1,0,0:0:0:0:
64,192,77080,1,0,0:0:0:0:
320,192,77080,1,0,0:0:0:0:
192,192,77178,1,0,0:0:0:0:
448,192,77178,1,0,0:0:0:0:
64,192,77178,1,0,0:0:0:0:
320,192,77276,1,0,0:0:0:0:
192,192,77276,1,0,0:0:0:0:
64,192,77374,1,0,0:0:0:0:
320,192,77374,1,0,0:0:0:0:
192,192,77472,1,0,0:0:0:0:
448,192,77472,1,0,0:0:0:0:
192,192,77570,1,0,0:0:0:0:
64,192,77570,1,0,0:0:0:0:
320,192,77570,1,0,0:0:0:0:
448,192,77668,1,0,0:0:0:0:
64,192,77668,1,0,0:0:0:0:
448,192,77766,1,0,0:0:0:0:
320,192,77766,1,0,0:0:0:0:
192,192,77864,1,0,0:0:0:0:
320,192,77864,1,0,0:0:0:0:
448,192,77962,1,0,0:0:0:0:
64,192,77962,1,0,0:0:0:0:
448,192,78060,1,0,0:0:0:0:
192,192,78060,1,0,0:0:0:0:
320,192,78158,1,0,0:0:0:0:
192,192,78158,1,0,0:0:0:0:
64,192,78256,1,0,0:0:0:0:
320,192,78256,1,0,0:0:0:0:
192,192,78354,1,0,0:0:0:0:
64,192,78354,1,0,0:0:0:0:
448,192,78354,1,0,0:0:0:0:
320,192,78452,1,0,0:0:0:0:
320,192,78550,1,0,0:0:0:0:
448,192,78550,1,0,0:0:0:0:
192,192,78648,1,0,0:0:0:0:
320,192,78746,1,0,0:0:0:0:
448,192,78746,1,0,0:0:0:0:
64,192,78746,1,0,0:0:0:0:
192,192,78844,1,0,0:0:0:0:
448,192,78844,1,0,0:0:0:0:
192,192,78942,1,0,0:0:0:0:
64,192,78942,1,0,0:0:0:0:
320,192,79041,1,0,0:0:0:0:
64,192,79139,1,0,0:0:0:0:
192,192,79139,1,0,0:0:0:0:
448,192,79139,1,0,0:0:0:0:
320,192,79237,1,0,0:0:0:0:
64,192,79237,1,0,0:0:0:0:
320,192,79335,1,0,0:0:0:0:
448,192,79335,1,0,0:0:0:0:
192,192,79433,1,0,0:0:0:0:
320,192,79531,1,0,0:0:0:0:
448,192,79531,1,0,0:0:0:0:
64,192,79531,1,0,0:0:0:0:
192,192,79629,1,0,0:0:0:0:
448,192,79629,1,0,0:0:0:0:
192,192,79727,1,0,0:0:0:0:
64,192,79727,1,0,0:0:0:0:
320,192,79825,1,0,0:0:0:0:
192,192,79923,1,0,0:0:0:0:
64,192,79923,1,0,0:0:0:0:
448,192,79923,1,0,0:0:0:0:
320,192,80021,1,0,0:0:0:0:
64,192,80021,1,0,0:0:0:0:
320,192,80119,1,0,0:0:0:0:
448,192,80119,1,0,0:0:0:0:
192,192,80217,1,0,0:0:0:0:
448,192,80315,1,0,0:0:0:0:
320,192,80315,1,0,0:0:0:0:
64,192,80315,1,0,0:0:0:0:
192,192,80413,1,0,0:0:0:0:
448,192,80413,1,0,0:0:0:0:
192,192,80511,1,0,0:0:0:0:
64,192,80511,1,0,0:0:0:0:
320,192,80609,1,0,0:0:0:0:
448,192,80707,1,0,0:0:0:0:
64,192,80707,1,0,0:0:0:0:
192,192,80707,1,0,0:0:0:0:
320,192,80805,1,0,0:0:0:0:
64,192,80805,1,0,0:0:0:0:
448,192,80903,1,0,0:0:0:0:
320,192,80903,1,0,0:0:0:0:
192,192,81001,1,0,0:0:0:0:
64,192,81099,1,0,0:0:0:0:
448,192,81099,1,0,0:0:0:0:
320,192,81099,1,0,0:0:0:0:
448,192,81197,1,0,0:0:0:0:
192,192,81197,1,0,0:0:0:0:
64,192,81295,1,0,0:0:0:0:
192,192,81295,1,0,0:0:0:0:
320,192,81393,1,0,0:0:0:0:
448,192,81491,1,0,0:0:0:0:
192,192,81491,1,0,0:0:0:0:
64,192,81491,1,0,0:0:0:0:
64,192,81590,1,0,0:0:0:0:
320,192,81590,1,0,0:0:0:0:
320,192,81688,1,0,0:0:0:0:
448,192,81688,1,0,0:0:0:0:
192,192,81786,1,0,0:0:0:0:
64,192,81884,1,0,0:0:0:0:
448,192,81884,1,0,0:0:0:0:
320,192,81884,1,0,0:0:0:0:
448,192,81982,1,0,0:0:0:0:
192,192,81982,1,0,0:0:0:0:
64,192,82080,1,0,0:0:0:0:
192,192,82080,1,0,0:0:0:0:
320,192,82178,1,0,0:0:0:0:
448,192,82276,1,0,0:0:0:0:
192,192,82276,1,0,0:0:0:0:
64,192,82276,1,0,0:0:0:0:
64,192,82374,1,0,0:0:0:0:
320,192,82374,1,0,0:0:0:0:
320,192,82472,1,0,0:0:0:0:
448,192,82472,1,0,0:0:0:0:
192,192,82570,1,0,0:0:0:0:
320,192,82668,1,0,0:0:0:0:
448,192,82668,1,0,0:0:0:0:
64,192,82668,1,0,0:0:0:0:
192,192,82766,1,0,0:0:0:0:
448,192,82766,1,0,0:0:0:0:
192,192,82864,1,0,0:0:0:0:
64,192,82864,1,0,0:0:0:0:
320,192,82962,1,0,0:0:0:0:
64,192,83060,1,0,0:0:0:0:
192,192,83060,1,0,0:0:0:0:
448,192,83060,1,0,0:0:0:0:
320,192,83158,1,0,0:0:0:0:
64,192,83158,1,0,0:0:0:0:
448,192,83256,1,0,0:0:0:0:
320,192,83256,1,0,0:0:0:0:
192,192,83354,1,0,0:0:0:0:
64,192,83452,1,0,0:0:0:0:
448,192,83452,1,0,0:0:0:0:
320,192,83452,1,0,0:0:0:0:
448,192,83550,1,0,0:0:0:0:
192,192,83550,1,0,0:0:0:0:
64,192,83648,1,0,0:0:0:0:
192,192,83648,1,0,0:0:0:0:
320,192,83746,1,0,0:0:0:0:
448,192,83844,1,0,0:0:0:0:
192,192,83844,1,0,0:0:0:0:
64,192,83844,1,0,0:0:0:0:
64,192,83942,1,0,0:0:0:0:
320,192,83942,1,0,0:0:0:0:
320,192,84041,1,0,0:0:0:0:
448,192,84041,1,0,0:0:0:0:
192,192,84139,1,0,0:0:0:0:
448,192,84237,1,0,0:0:0:0:
64,192,84237,1,0,0:0:0:0:
320,192,84237,1,0,0:0:0:0:
320,192,84335,1,0,0:0:0:0:
448,192,84433,1,0,0:0:0:0:
64,192,84433,1,0,0:0:0:0:
192,192,84433,1,0,0:0:0:0:
192,192,84531,1,0,0:0:0:0:
448,192,84629,1,0,0:0:0:0:
64,192,84629,1,0,0:0:0:0:
320,192,84678,1,0,0:0:0:0:
192,192,84727,1,0,0:0:0:0:
64,192,84776,1,0,0:0:0:0:
448,192,84825,1,0,0:0:0:0:
320,192,84825,1,0,0:0:0:0:
192,192,84874,1,0,0:0:0:0:
64,192,84923,1,0,0:0:0:0:
448,192,84972,1,0,0:0:0:0:
192,192,85021,1,0,0:0:0:0:
320,192,85021,1,0,0:0:0:0:
64,192,85070,1,0,0:0:0:0:
448,192,85119,1,0,0:0:0:0:
320,192,85168,1,0,0:0:0:0:
64,192,85217,1,0,0:0:0:0:
192,192,85217,1,0,0:0:0:0:
448,192,85266,1,0,0:0:0:0:
320,192,85315,1,0,0:0:0:0:
192,192,85364,1,0,0:0:0:0:
448,192,85413,1,0,0:0:0:0:
64,192,85413,1,0,0:0:0:0:
192,192,85462,1,0,0:0:0:0:
320,192,85511,1,0,0:0:0:0:
448,192,85560,1,0,0:0:0:0:
64,192,85609,1,0,0:0:0:0:
192,192,85609,1,0,0:0:0:0:
320,192,85658,1,0,0:0:0:0:
448,192,85707,1,0,0:0:0:0:
64,192,85756,1,0,0:0:0:0:
320,192,85805,1,0,0:0:0:0:
192,192,85805,1,0,0:0:0:0:
448,192,85854,1,0,0:0:0:0:
64,192,85903,1,0,0:0:0:0:
192,192,85952,1,0,0:0:0:0:
448,192,86001,1,0,0:0:0:0:
320,192,86001,1,0,0:0:0:0:
64,192,86050,1,0,0:0:0:0:
192,192,86099,1,0,0:0:0:0:
320,192,86148,1,0,0:0:0:0:
64,192,86197,1,0,0:0:0:0:
448,192,86197,1,0,0:0:0:0:
320,192,86246,1,0,0:0:0:0:
192,192,86295,1,0,0:0:0:0:
64,192,86344,1,0,0:0:0:0:
320,192,86393,1,0,0:0:0:0:
448,192,86393,1,0,0:0:0:0:
192,192,86442,1,0,0:0:0:0:
64,192,86491,1,0,0:0:0:0:
448,192,86541,1,0,0:0:0:0:
192,192,86590,1,0,0:0:0:0:
320,192,86590,1,0,0:0:0:0:
64,192,86639,1,0,0:0:0:0:
448,192,86688,1,0,0:0:0:0:
320,192,86737,1,0,0:0:0:0:
64,192,86786,1,0,0:0:0:0:
192,192,86786,1,0,0:0:0:0:
448,192,86835,1,0,0:0:0:0:
320,192,86884,1,0,0:0:0:0:
192,192,86933,1,0,0:0:0:0:
448,192,86982,1,0,0:0:0:0:
64,192,86982,1,0,0:0:0:0:
320,192,87031,1,0,0:0:0:0:
192,192,87080,1,0,0:0:0:0:
64,192,87129,1,0,0:0:0:0:
320,192,87178,1,0,0:0:0:0:
448,192,87178,1,0,0:0:0:0:
192,192,87227,1,0,0:0:0:0:
64,192,87276,1,0,0:0:0:0:
448,192,87325,1,0,0:0:0:0:
192,192,87374,1,0,0:0:0:0:
320,192,87374,1,0,0:0:0:0:
64,192,87423,1,0,0:0:0:0:
448,192,87472,1,0,0:0:0:0:
320,192,87521,1,0,0:0:0:0:
64,192,87570,1,0,0:0:0:0:
192,192,87570,1,0,0:0:0:0:
448,192,87619,1,0,0:0:0:0:
320,192,87668,1,0,0:0:0:0:
192,192,87717,1,0,0:0:0:0:
448,192,87766,1,0,0:0:0:0:
64,192,87766,1,0,0:0:0:0:
192,192,87815,1,0,0:0:0:0:
320,192,87864,1,0,0:0:0:0:
448,192,87913,1,0,0:0:0:0:
192,192,87962,1,0,0:0:0:0:
64,192,87962,1,0,0:0:0:0:
320,192,88011,1,0,0:0:0:0:
448,192,88060,1,0,0:0:0:0:
64,192,88109,1,0,0:0:0:0:
320,192,88158,1,0,0:0:0:0:
192,192,88158,1,0,0:0:0:0:
448,192,88207,1,0,0:0:0:0:
64,192,88256,1,0,0:0:0:0:
192,192,88305,1,0,0:0:0:0:
448,192,88354,1,0,0:0:0:0:
320,192,88354,1,0,0:0:0:0:
448,192,88452,1,0,0:0:0:0:
64,192,88452,1,0,0:0:0:0:
192,192,88452,1,0,0:0:0:0:
64,192,88550,1,0,0:0:0:0:
320,192,88550,1,0,0:0:0:0:
192,192,88648,1,0,0:0:0:0:
320,192,88648,1,0,0:0:0:0:
448,192,88746,1,0,0:0:0:0:
192,192,88746,1,0,0:0:0:0:
64,192,88844,1,0,0:0:0:0:
320,192,88844,1,0,0:0:0:0:
64,192,88942,1,0,0:0:0:0:
448,192,88942,1,0,0:0:0:0:
192,192,88942,1,0,0:0:0:0:
320,192,89041,1,0,0:0:0:0:
64,192,89139,1,0,0:0:0:0:
448,192,89237,1,0,0:0:0:0:
192,192,89335,128,0,89433:0:0:0:0:
448,192,89433,128,0,89531:0:0:0:0:
64,192,89531,128,0,89629:0:0:0:0:
320,192,89629,128,0,89727:0:0:0:0:
192,192,89727,128,0,89825:0:0:0:0:
448,192,89825,128,0,89923:0:0:0:0:
320,192,89923,128,0,90021:0:0:0:0:
64,192,90021,128,0,90119:0:0:0:0:
448,192,90119,128,0,90217:0:0:0:0:
192,192,90217,128,0,90315:0:0:0:0:
320,192,90315,128,0,90413:0:0:0:0:
448,192,90413,128,0,90511:0:0:0:0:
64,192,90511,128,0,90805:0:0:0:0:
192,192,90511,128,0,90805:0:0:0:0:
320,192,90511,128,0,90707:0:0:0:0:
320,192,90903,1,0,0:0:0:0:
448,192,90903,1,0,0:0:0:0:
64,192,90903,1,0,0:0:0:0:
192,192,90903,1,0,0:0:0:0:
320,192,91001,1,0,0:0:0:0:
448,192,91001,1,0,0:0:0:0:
192,192,91099,1,0,0:0:0:0:
64,192,91099,1,0,0:0:0:0:
64,192,91197,1,0,0:0:0:0:
192,192,91197,1,0,0:0:0:0:
448,192,91295,1,0,0:0:0:0:
320,192,91295,1,0,0:0:0:0:
448,192,91393,1,0,0:0:0:0:
64,192,91393,1,0,0:0:0:0:
192,192,91393,1,0,0:0:0:0:
192,192,91491,1,0,0:0:0:0:
64,192,91491,1,0,0:0:0:0:
320,192,91590,1,0,0:0:0:0:
448,192,91590,1,0,0:0:0:0:
448,192,91688,1,0,0:0:0:0:
320,192,91688,1,0,0:0:0:0:
192,192,91688,1,0,0:0:0:0:
64,192,91688,1,0,0:0:0:0:
192,192,91786,1,0,0:0:0:0:
64,192,91786,1,0,0:0:0:0:
320,192,91884,1,0,0:0:0:0:
448,192,91884,1,0,0:0:0:0:
192,192,91933,1,0,0:0:0:0:
64,192,91982,1,0,0:0:0:0:
448,192,92031,1,0,0:0:0:0:
320,192,92080,1,0,0:0:0:0:
192,192,92080,1,0,0:0:0:0:
64,192,92129,1,0,0:0:0:0:
448,192,92178,1,0,0:0:0:0:
320,192,92227,1,0,0:0:0:0:
192,192,92276,1,0,0:0:0:0:
64,192,92276,1,0,0:0:0:0:
448,192,92325,1,0,0:0:0:0:
320,192,92374,1,0,0:0:0:0:
192,192,92423,1,0,0:0:0:0:
64,192,92472,1,0,0:0:0:0:
448,192,92472,1,0,0:0:0:0:
320,192,92521,1,0,0:0:0:0:
192,192,92570,1,0,0:0:0:0:
64,192,92619,1,0,0:0:0:0:
320,192,92668,1,0,0:0:0:0:
448,192,92668,1,0,0:0:0:0:
192,192,92766,1,0,0:0:0:0:
64,192,92766,1,0,0:0:0:0:
64,192,92864,1,0,0:0:0:0:
192,192,92864,1,0,0:0:0:0:
320,192,92864,1,0,0:0:0:0:
448,192,92864,1,0,0:0:0:0:
448,192,92962,1,0,0:0:0:0:
320,192,92962,1,0,0:0:0:0:
192,192,93060,1,0,0:0:0:0:
64,192,93060,1,0,0:0:0:0:
320,192,93109,1,0,0:0:0:0:
448,192,93158,1,0,0:0:0:0:
64,192,93207,1,0,0:0:0:0:
192,192,93256,1,0,0:0:0:0:
320,192,93256,1,0,0:0:0:0:
448,192,93305,1,0,0:0:0:0:
64,192,93354,1,0,0:0:0:0:
192,192,93403,1,0,0:0:0:0:
320,192,93452,1,0,0:0:0:0:
448,192,93452,1,0,0:0:0:0:
192,192,93550,1,0,0:0:0:0:
64,192,93550,1,0,0:0:0:0:
64,192,93648,1,0,0:0:0:0:
192,192,93648,1,0,0:0:0:0:
320,192,93648,1,0,0:0:0:0:
448,192,93648,1,0,0:0:0:0:
448,192,93746,1,0,0:0:0:0:
320,192,93746,1,0,0:0:0:0:
192,192,93844,1,0,0:0:0:0:
64,192,93844,1,0,0:0:0:0:
448,192,93893,1,0,0:0:0:0:
320,192,93942,1,0,0:0:0:0:
192,192,93991,1,0,0:0:0:0:
64,192,94041,1,0,0:0:0:0:
448,192,94041,1,0,0:0:0:0:
192,192,94090,1,0,0:0:0:0:
320,192,94139,1,0,0:0:0:0:
448,192,94188,1,0,0:0:0:0:
64,192,94237,1,0,0:0:0:0:
192,192,94237,1,0,0:0:0:0:
320,192,94286,1,0,0:0:0:0:
448,192,94335,1,0,0:0:0:0:
64,192,94384,1,0,0:0:0:0:
192,192,94433,1,0,0:0:0:0:
320,192,94433,1,0,0:0:0:0:
448,192,94482,1,0,0:0:0:0:
64,192,94531,1,0,0:0:0:0:
192,192,94580,1,0,0:0:0:0:
320,192,94629,1,0,0:0:0:0:
448,192,94629,1,0,0:0:0:0:
192,192,94727,1,0,0:0:0:0:
64,192,94727,1,0,0:0:0:0:
64,192,94825,1,0,0:0:0:0:
320,192,94825,1,0,0:0:0:0:
448,192,94825,1,0,0:0:0:0:
192,192,94825,1,0,0:0:0:0:
320,192,94923,1,0,0:0:0:0:
448,192,94923,1,0,0:0:0:0:
192,192,95021,1,0,0:0:0:0:
64,192,95021,1,0,0:0:0:0:
320,192,95070,1,0,0:0:0:0:
448,192,95119,1,0,0:0:0:0:
64,192,95168,1,0,0:0:0:0:
320,192,95217,1,0,0:0:0:0:
192,192,95217,1,0,0:0:0:0:
448,192,95266,1,0,0:0:0:0:
64,192,95315,1,0,0:0:0:0:
192,192,95364,1,0,0:0:0:0:
448,192,95413,1,0,0:0:0:0:
320,192,95413,1,0,0:0:0:0:
64,192,95462,1,0,0:0:0:0:
192,192,95511,1,0,0:0:0:0:
320,192,95560,1,0,0:0:0:0:
448,192,95609,1,0,0:0:0:0:
64,192,95609,1,0,0:0:0:0:
320,192,95658,1,0,0:0:0:0:
192,192,95707,1,0,0:0:0:0:
64,192,95756,1,0,0:0:0:0:
320,192,95805,1,0,0:0:0:0:
448,192,95805,1,0,0:0:0:0:
64,192,95903,1,0,0:0:0:0:
192,192,95903,1,0,0:0:0:0:
64,192,96001,1,0,0:0:0:0:
192,192,96001,1,0,0:0:0:0:
320,192,96001,1,0,0:0:0:0:
448,192,96001,1,0,0:0:0:0:
448,192,96099,1,0,0:0:0:0:
320,192,96099,1,0,0:0:0:0:
192,192,96197,1,0,0:0:0:0:
64,192,96197,1,0,0:0:0:0:
320,192,96295,1,0,0:0:0:0:
448,192,96295,1,0,0:0:0:0:
64,192,96393,1,0,0:0:0:0:
192,192,96393,1,0,0:0:0:0:
448,192,96491,1,0,0:0:0:0:
64,192,96491,1,0,0:0:0:0:
448,192,96590,1,0,0:0:0:0:
320,192,96590,1,0,0:0:0:0:
192,192,96688,1,0,0:0:0:0:
64,192,96688,1,0,0:0:0:0:
448,192,96786,1,0,0:0:0:0:
320,192,96786,1,0,0:0:0:0:
192,192,96786,1,0,0:0:0:0:
64,192,96786,1,0,0:0:0:0:
320,192,96884,1,0,0:0:0:0:
448,192,96884,1,0,0:0:0:0:
192,192,96982,1,0,0:0:0:0:
64,192,96982,1,0,0:0:0:0:
320,192,97080,1,0,0:0:0:0:
448,192,97080,1,0,0:0:0:0:
448,192,97178,1,0,0:0:0:0:
320,192,97178,1,0,0:0:0:0:
192,192,97178,1,0,0:0:0:0:
64,192,97178,1,0,0:0:0:0:
64,192,97276,1,0,0:0:0:0:
192,192,97276,1,0,0:0:0:0:
448,192,97374,1,0,0:0:0:0:
320,192,97374,1,0,0:0:0:0:
192,192,97423,1,0,0:0:0:0:
64,192,97472,1,0,0:0:0:0:
448,192,97521,1,0,0:0:0:0:
320,192,97570,1,0,0:0:0:0:
192,192,97570,1,0,0:0:0:0:
64,192,97619,1,0,0:0:0:0:
448,192,97668,1,0,0:0:0:0:
320,192,97717,1,0,0:0:0:0:
192,192,97766,1,0,0:0:0:0:
64,192,97766,1,0,0:0:0:0:
448,192,97815,1,0,0:0:0:0:
320,192,97864,1,0,0:0:0:0:
192,192,97913,1,0,0:0:0:0:
64,192,97962,1,0,0:0:0:0:
448,192,97962,1,0,0:0:0:0:
192,192,98011,1,0,0:0:0:0:
320,192,98060,1,0,0:0:0:0:
448,192,98109,1,0,0:0:0:0:
64,192,98158,1,0,0:0:0:0:
192,192,98158,1,0,0:0:0:0:
320,192,98207,1,0,0:0:0:0:
448,192,98256,1,0,0:0:0:0:
64,192,98305,1,0,0:0:0:0:
192,192,98354,1,0,0:0:0:0:
320,192,98354,1,0,0:0:0:0:
448,192,98403,1,0,0:0:0:0:
64,192,98452,1,0,0:0:0:0:
192,192,98501,1,0,0:0:0:0:
320,192,98550,1,0,0:0:0:0:
448,192,98550,1,0,0:0:0:0:
64,192,98599,1,0,0:0:0:0:
192,192,98648,1,0,0:0:0:0:
320,192,98697,1,0,0:0:0:0:
448,192,98746,1,0,0:0:0:0:
64,192,98746,1,0,0:0:0:0:
320,192,98795,1,0,0:0:0:0:
192,192,98844,1,0,0:0:0:0:
64,192,98893,1,0,0:0:0:0:
448,192,98942,1,0,0:0:0:0:
320,192,98942,1,0,0:0:0:0:
192,192,98991,1,0,0:0:0:0:
64,192,99041,1,0,0:0:0:0:
448,192,99090,1,0,0:0:0:0:
320,192,99139,1,0,0:0:0:0:
192,192,99139,1,0,0:0:0:0:
64,192,99188,1,0,0:0:0:0:
448,192,99237,1,0,0:0:0:0:
320,192,99286,1,0,0:0:0:0:
192,192,99335,1,0,0:0:0:0:
64,192,99335,1,0,0:0:0:0:
448,192,99384,1,0,0:0:0:0:
320,192,99433,1,0,0:0:0:0:
192,192,99482,1,0,0:0:0:0:
64,192,99531,1,0,0:0:0:0:
448,192,99531,1,0,0:0:0:0:
320,192,99580,1,0,0:0:0:0:
192,192,99629,1,0,0:0:0:0:
64,192,99678,1,0,0:0:0:0:
448,192,99727,1,0,0:0:0:0:
320,192,99727,1,0,0:0:0:0:
64,192,99825,1,0,0:0:0:0:
192,192,99825,1,0,0:0:0:0:
448,192,99923,1,0,0:0:0:0:
320,192,99923,1,0,0:0:0:0:
64,192,99923,1,0,0:0:0:0:
192,192,100021,1,0,0:0:0:0:
320,192,100119,1,0,0:0:0:0:
64,192,100119,1,0,0:0:0:0:
192,192,100217,1,0,0:0:0:0:
320,192,100217,1,0,0:0:0:0:
192,192,100315,1,0,0:0:0:0:
64,192,100315,1,0,0:0:0:0:
448,192,100315,1,0,0:0:0:0:
320,192,100413,1,0,0:0:0:0:
448,192,100511,1,0,0:0:0:0:
64,192,100511,1,0,0:0:0:0:
192,192,100609,1,0,0:0:0:0:
448,192,100609,1,0,0:0:0:0:
192,192,100707,1,0,0:0:0:0:
64,192,100707,1,0,0:0:0:0:
320,192,100707,1,0,0:0:0:0:
320,192,100805,1,0,0:0:0:0:
64,192,100903,1,0,0:0:0:0:
192,192,100903,1,0,0:0:0:0:
192,192,101001,1,0,0:0:0:0:
320,192,101001,1,0,0:0:0:0:
448,192,101001,1,0,0:0:0:0:
320,192,101099,1,0,0:0:0:0:
448,192,101099,1,0,0:0:0:0:
64,192,101197,1,0,0:0:0:0:
192,192,101197,1,0,0:0:0:0:
320,192,101295,1,0,0:0:0:0:
192,192,101295,1,0,0:0:0:0:
64,192,101295,1,0,0:0:0:0:
448,192,101393,1,0,0:0:0:0:
320,192,101393,1,0,0:0:0:0:
192,192,101393,1,0,0:0:0:0:
64,192,101491,1,0,0:0:0:0:
320,192,101491,1,0,0:0:0:0:
448,192,101491,1,0,0:0:0:0:
64,192,101590,1,0,0:0:0:0:
192,192,101590,1,0,0:0:0:0:
320,192,101688,1,0,0:0:0:0:
448,192,101688,1,0,0:0:0:0:
192,192,101786,1,0,0:0:0:0:
320,192,101786,1,0,0:0:0:0:
192,192,101884,1,0,0:0:0:0:
448,192,101884,1,0,0:0:0:0:
64,192,101884,128,0,101982:0:0:0:0:
320,192,101982,128,0,102080:0:0:0:0:
192,192,102080,128,0,102178:0:0:0:0:
448,192,102178,128,0,102276:0:0:0:0:
64,192,102276,128,0,102374:0:0:0:0:
320,192,102374,128,0,102472:0:0:0:0:
192,192,102472,128,0,102570:0:0:0:0:
448,192,102570,128,0,102668:0:0:0:0:
320,192,102668,1,0,0:0:0:0:
192,192,102668,1,0,0:0:0:0:
64,192,102668,1,0,0:0:0:0:
192,192,102766,1,0,0:0:0:0:
64,192,102766,1,0,0:0:0:0:
448,192,102766,1,0,0:0:0:0:
448,192,102864,1,0,0:0:0:0:
64,192,102864,1,0,0:0:0:0:
320,192,102864,1,0,0:0:0:0:
448,192,102962,1,0,0:0:0:0:
192,192,102962,1,0,0:0:0:0:
320,192,102962,1,0,0:0:0:0:
64,192,103060,1,0,0:0:0:0:
192,192,103060,1,0,0:0:0:0:
320,192,103060,1,0,0:0:0:0:
448,192,103158,1,0,0:0:0:0:
64,192,103256,1,0,0:0:0:0:
320,192,103354,1,0,0:0:0:0:
192,192,103452,1,0,0:0:0:0:
64,192,103452,1,0,0:0:0:0:
448,192,103452,1,0,0:0:0:0:
192,192,103550,1,0,0:0:0:0:
64,192,103550,1,0,0:0:0:0:
320,192,103648,1,0,0:0:0:0:
448,192,103648,1,0,0:0:0:0:
192,192,103746,1,0,0:0:0:0:
64,192,103746,1,0,0:0:0:0:
448,192,103746,1,0,0:0:0:0:
192,192,103844,1,0,0:0:0:0:
64,192,103844,1,0,0:0:0:0:
320,192,103942,1,0,0:0:0:0:
448,192,103942,1,0,0:0:0:0:
192,192,104041,1,0,0:0:0:0:
64,192,104041,1,0,0:0:0:0:
448,192,104041,1,0,0:0:0:0:
192,192,104139,1,0,0:0:0:0:
320,192,104139,1,0,0:0:0:0:
320,192,104237,1,0,0:0:0:0:
448,192,104237,1,0,0:0:0:0:
448,192,104335,1,0,0:0:0:0:
192,192,104335,1,0,0:0:0:0:
64,192,104335,1,0,0:0:0:0:
320,192,104433,1,0,0:0:0:0:
192,192,104433,1,0,0:0:0:0:
320,192,104531,1,0,0:0:0:0:
448,192,104531,1,0,0:0:0:0:
448,192,104629,1,0,0:0:0:0:
192,192,104629,1,0,0:0:0:0:
64,192,104629,1,0,0:0:0:0:
320,192,104678,1,0,0:0:0:0:
64,192,104727,1,0,0:0:0:0:
192,192,104776,1,0,0:0:0:0:
448,192,104825,1,0,0:0:0:0:
64,192,104874,1,0,0:0:0:0:
320,192,104923,1,0,0:0:0:0:
448,192,104972,1,0,0:0:0:0:
192,192,105021,128,0,106197:0:0:0:0:
64,192,105021,128,0,106197:0:0:0:0:
448,192,106590,1,0,0:0:0:0:
192,192,106590,1,0,0:0:0:0:
64,192,106590,1,0,0:0:0:0:
192,192,106688,1,0,0:0:0:0:
448,192,106786,1,0,0:0:0:0:
64,192,106786,1,0,0:0:0:0:
320,192,106884,1,0,0:0:0:0:
64,192,106884,1,0,0:0:0:0:
320,192,106982,1,0,0:0:0:0:
448,192,106982,1,0,0:0:0:0:
192,192,106982,1,0,0:0:0:0:
192,192,107080,1,0,0:0:0:0:
64,192,107080,1,0,0:0:0:0:
448,192,107178,1,0,0:0:0:0:
320,192,107178,1,0,0:0:0:0:
192,192,107276,1,0,0:0:0:0:
64,192,107276,1,0,0:0:0:0:
448,192,107374,1,0,0:0:0:0:
320,192,107374,1,0,0:0:0:0:
192,192,107374,1,0,0:0:0:0:
64,192,107374,1,0,0:0:0:0:
320,192,107472,1,0,0:0:0:0:
448,192,107472,1,0,0:0:0:0:
64,192,107570,1,0,0:0:0:0:
192,192,107570,1,0,0:0:0:0:
64,192,107668,1,0,0:0:0:0:
320,192,107668,1,0,0:0:0:0:
192,192,107766,1,0,0:0:0:0:
448,192,107766,1,0,0:0:0:0:
320,192,107766,1,0,0:0:0:0:
448,192,107864,1,0,0:0:0:0:
64,192,107864,1,0,0:0:0:0:
192,192,107962,1,0,0:0:0:0:
320,192,107962,1,0,0:0:0:0:
192,192,108060,1,0,0:0:0:0:
64,192,108060,1,0,0:0:0:0:
64,192,108158,1,0,0:0:0:0:
320,192,108158,1,0,0:0:0:0:
448,192,108158,1,0,0:0:0:0:
192,192,108256,1,0,0:0:0:0:
448,192,108256,1,0,0:0:0:0:
192,192,108354,1,0,0:0:0:0:
64,192,108354,1,0,0:0:0:0:
320,192,108452,1,0,0:0:0:0:
448,192,108452,1,0,0:0:0:0:
320,192,108550,1,0,0:0:0:0:
448,192,108550,1,0,0:0:0:0:
64,192,108550,1,0,0:0:0:0:
192,192,108550,1,0,0:0:0:0:
64,192,108648,1,0,0:0:0:0:
192,192,108648,1,0,0:0:0:0:
320,192,108746,1,0,0:0:0:0:
448,192,108746,1,0,0:0:0:0:
192,192,108844,1,0,0:0:0:0:
320,192,108844,1,0,0:0:0:0:
320,192,108942,1,0,0:0:0:0:
448,192,108942,1,0,0:0:0:0:
64,192,108942,1,0,0:0:0:0:
192,192,109041,1,0,0:0:0:0:
64,192,109041,1,0,0:0:0:0:
320,192,109139,1,0,0:0:0:0:
448,192,109139,1,0,0:0:0:0:
448,192,109237,1,0,0:0:0:0:
320,192,109237,1,0,0:0:0:0:
448,192,109335,1,0,0:0:0:0:
192,192,109335,1,0,0:0:0:0:
64,192,109335,1,0,0:0:0:0:
320,192,109433,1,0,0:0:0:0:
448,192,109531,1,0,0:0:0:0:
192,192,109531,1,0,0:0:0:0:
320,192,109629,1,0,0:0:0:0:
192,192,109629,1,0,0:0:0:0:
320,192,109727,1,0,0:0:0:0:
448,192,109727,1,0,0:0:0:0:
64,192,109727,1,0,0:0:0:0:
192,192,109825,1,0,0:0:0:0:
64,192,109825,1,0,0:0:0:0:
192,192,109923,1,0,0:0:0:0:
320,192,109923,1,0,0:0:0:0:
320,192,110021,1,0,0:0:0:0:
448,192,110021,1,0,0:0:0:0:
448,192,110119,1,0,0:0:0:0:
192,192,110119,1,0,0:0:0:0:
64,192,110119,1,0,0:0:0:0:
64,192,110217,1,0,0:0:0:0:
448,192,110315,1,0,0:0:0:0:
320,192,110315,1,0,0:0:0:0:
320,192,110413,1,0,0:0:0:0:
192,192,110413,1,0,0:0:0:0:
64,192,110511,1,0,0:0:0:0:
448,192,110511,1,0,0:0:0:0:
192,192,110511,1,0,0:0:0:0:
320,192,110609,1,0,0:0:0:0:
64,192,110609,1,0,0:0:0:0:
192,192,110707,1,0,0:0:0:0:
320,192,110707,1,0,0:0:0:0:
192,192,110805,1,0,0:0:0:0:
320,192,110903,1,0,0:0:0:0:
448,192,110903,1,0,0:0:0:0:
64,192,110903,1,0,0:0:0:0:
448,192,111001,1,0,0:0:0:0:
320,192,111099,1,0,0:0:0:0:
64,192,111099,1,0,0:0:0:0:
192,192,111197,1,0,0:0:0:0:
320,192,111197,1,0,0:0:0:0:
448,192,111295,1,0,0:0:0:0:
192,192,111295,1,0,0:0:0:0:
64,192,111295,1,0,0:0:0:0:
64,192,111393,1,0,0:0:0:0:
320,192,111393,1,0,0:0:0:0:
192,192,111491,1,0,0:0:0:0:
320,192,111491,1,0,0:0:0:0:
192,192,111590,1,0,0:0:0:0:
448,192,111590,1,0,0:0:0:0:
64,192,111590,1,0,0:0:0:0:
320,192,111688,1,0,0:0:0:0:
448,192,111688,1,0,0:0:0:0:
192,192,111786,1,0,0:0:0:0:
64,192,111786,1,0,0:0:0:0:
320,192,111884,1,0,0:0:0:0:
192,192,111884,1,0,0:0:0:0:
320,192,111982,1,0,0:0:0:0:
448,192,111982,1,0,0:0:0:0:
448,192,112080,1,0,0:0:0:0:
192,192,112080,1,0,0:0:0:0:
64,192,112080,1,0,0:0:0:0:
320,192,112178,1,0,0:0:0:0:
64,192,112276,1,0,0:0:0:0:
448,192,112276,1,0,0:0:0:0:
64,192,112374,1,0,0:0:0:0:
320,192,112374,1,0,0:0:0:0:
192,192,112472,1,0,0:0:0:0:
448,192,112472,1,0,0:0:0:0:
448,192,112570,1,0,0:0:0:0:
64,192,112570,1,0,0:0:0:0:
192,192,112668,1,0,0:0:0:0:
320,192,112668,1,0,0:0:0:0:
320,192,112766,1,0,0:0:0:0:
64,192,112766,1,0,0:0:0:0:
448,192,112864,1,0,0:0:0:0:
64,192,112864,1,0,0:0:0:0:
192,192,112864,1,0,0:0:0:0:
320,192,112962,1,0,0:0:0:0:
448,192,112962,1,0,0:0:0:0:
64,192,113060,1,0,0:0:0:0:
192,192,113060,1,0,0:0:0:0:
192,192,113158,1,0,0:0:0:0:
320,192,113158,1,0,0:0:0:0:
64,192,113256,1,0,0:0:0:0:
320,192,113256,1,0,0:0:0:0:
448,192,113256,1,0,0:0:0:0:
64,192,113354,1,0,0:0:0:0:
448,192,113452,1,0,0:0:0:0:
192,192,113452,1,0,0:0:0:0:
320,192,113550,1,0,0:0:0:0:
448,192,113550,1,0,0:0:0:0:
320,192,113648,1,0,0:0:0:0:
192,192,113648,1,0,0:0:0:0:
64,192,113648,1,0,0:0:0:0:
192,192,113746,1,0,0:0:0:0:
448,192,113844,1,0,0:0:0:0:
64,192,113844,1,0,0:0:0:0:
320,192,113942,1,0,0:0:0:0:
64,192,113942,1,0,0:0:0:0:
192,192,114040,1,0,0:0:0:0:
320,192,114040,1,0,0:0:0:0:
448,192,114040,1,0,0:0:0:0:
448,192,114139,1,0,0:0:0:0:
320,192,114237,1,0,0:0:0:0:
192,192,114237,1,0,0:0:0:0:
64,192,114237,1,0,0:0:0:0:
64,192,114335,1,0,0:0:0:0:
192,192,114433,1,0,0:0:0:0:
320,192,114433,1,0,0:0:0:0:
448,192,114433,1,0,0:0:0:0:
448,192,114531,1,0,0:0:0:0:
64,192,114629,1,0,0:0:0:0:
192,192,114629,1,0,0:0:0:0:
320,192,114727,1,0,0:0:0:0:
64,192,114727,1,0,0:0:0:0:
192,192,114825,1,0,0:0:0:0:
320,192,114825,1,0,0:0:0:0:
448,192,114825,1,0,0:0:0:0:
192,192,114923,1,0,0:0:0:0:
448,192,115021,1,0,0:0:0:0:
64,192,115021,1,0,0:0:0:0:
320,192,115119,1,0,0:0:0:0:
192,192,115119,1,0,0:0:0:0:
320,192,115217,1,0,0:0:0:0:
448,192,115217,1,0,0:0:0:0:
64,192,115217,1,0,0:0:0:0:
192,192,115315,1,0,0:0:0:0:
64,192,115315,1,0,0:0:0:0:
64,192,115413,1,0,0:0:0:0:
192,192,115413,1,0,0:0:0:0:
320,192,115511,1,0,0:0:0:0:
448,192,115511,1,0,0:0:0:0:
448,192,115609,1,0,0:0:0:0:
192,192,115609,1,0,0:0:0:0:
64,192,115609,1,0,0:0:0:0:
192,192,115707,1,0,0:0:0:0:
320,192,115805,1,0,0:0:0:0:
448,192,115805,1,0,0:0:0:0:
64,192,115805,1,0,0:0:0:0:
320,192,115903,1,0,0:0:0:0:
192,192,116001,1,0,0:0:0:0:
64,192,116001,1,0,0:0:0:0:
448,192,116001,1,0,0:0:0:0:
320,192,116099,1,0,0:0:0:0:
448,192,116099,1,0,0:0:0:0:
320,192,116197,1,0,0:0:0:0:
192,192,116197,1,0,0:0:0:0:
192,192,116295,1,0,0:0:0:0:
64,192,116295,1,0,0:0:0:0:
64,192,116393,1,0,0:0:0:0:
320,192,116393,1,0,0:0:0:0:
448,192,116393,1,0,0:0:0:0:
448,192,116491,1,0,0:0:0:0:
192,192,116590,1,0,0:0:0:0:
64,192,116590,1,0,0:0:0:0:
192,192,116688,1,0,0:0:0:0:
320,192,116688,1,0,0:0:0:0:
448,192,116786,1,0,0:0:0:0:
320,192,116786,1,0,0:0:0:0:
64,192,116786,1,0,0:0:0:0:
448,192,116884,1,0,0:0:0:0:
192,192,116884,1,0,0:0:0:0:
192,192,116982,1,0,0:0:0:0:
320,192,116982,1,0,0:0:0:0:
320,192,117080,1,0,0:0:0:0:
64,192,117080,1,0,0:0:0:0:
448,192,117178,1,0,0:0:0:0:
192,192,117178,1,0,0:0:0:0:
64,192,117178,1,0,0:0:0:0:
448,192,117276,1,0,0:0:0:0:
192,192,117374,1,0,0:0:0:0:
320,192,117374,1,0,0:0:0:0:
320,192,117472,1,0,0:0:0:0:
64,192,117472,1,0,0:0:0:0:
448,192,117570,1,0,0:0:0:0:
64,192,117570,1,0,0:0:0:0:
192,192,117570,1,0,0:0:0:0:
192,192,117668,1,0,0:0:0:0:
320,192,117766,1,0,0:0:0:0:
448,192,117766,1,0,0:0:0:0:
320,192,117864,1,0,0:0:0:0:
192,192,117864,1,0,0:0:0:0:
448,192,117962,1,0,0:0:0:0:
192,192,117962,1,0,0:0:0:0:
64,192,117962,1,0,0:0:0:0:
320,192,118060,1,0,0:0:0:0:
64,192,118060,1,0,0:0:0:0:
192,192,118158,1,0,0:0:0:0:
320,192,118158,1,0,0:0:0:0:
448,192,118158,1,0,0:0:0:0:
64,192,118256,1,0,0:0:0:0:
448,192,118256,1,0,0:0:0:0:
320,192,118354,1,0,0:0:0:0:
64,192,118354,1,0,0:0:0:0:
192,192,118452,1,0,0:0:0:0:
320,192,118452,1,0,0:0:0:0:
448,192,118550,1,0,0:0:0:0:
192,192,118550,1,0,0:0:0:0:
64,192,118550,1,0,0:0:0:0:
320,192,118648,1,0,0:0:0:0:
448,192,118648,1,0,0:0:0:0:
64,192,118648,1,0,0:0:0:0:
320,192,118746,1,0,0:0:0:0:
448,192,118746,1,0,0:0:0:0:
192,192,118746,1,0,0:0:0:0:
64,192,118844,1,0,0:0:0:0:
192,192,118844,1,0,0:0:0:0:
320,192,118942,1,0,0:0:0:0:
64,192,118942,1,0,0:0:0:0:
448,192,118942,1,0,0:0:0:0:
192,192,119040,1,0,0:0:0:0:
320,192,119040,1,0,0:0:0:0:
64,192,119139,1,0,0:0:0:0:
192,192,119139,1,0,0:0:0:0:
448,192,119139,1,0,0:0:0:0:
64,192,119433,1,0,0:0:0:0:
320,192,119531,1,0,0:0:0:0:
192,192,119727,1,0,0:0:0:0:
448,192,119825,1,0,0:0:0:0:
192,192,119923,128,0,120119:0:0:0:0:
64,192,119923,128,0,120119:0:0:0:0:
320,192,120217,1,0,0:0:0:0:
192,192,120315,1,0,0:0:0:0:
448,192,120413,1,0,0:0:0:0:
320,192,120511,1,0,0:0:0:0:
64,192,120609,1,0,0:0:0:0:
320,192,120707,128,0,120903:0:0:0:0:
448,192,120707,128,0,120903:0:0:0:0:
192,192,120903,1,0,0:0:0:0:
320,192,121001,1,0,0:0:0:0:
64,192,121099,1,0,0:0:0:0:
448,192,121197,1,0,0:0:0:0:
192,192,121295,1,0,0:0:0:0:
320,192,121393,1,0,0:0:0:0:
448,192,121491,1,0,0:0:0:0:
64,192,121491,1,0,0:0:0:0:
192,192,121557,1,0,0:0:0:0:
320,192,121622,1,0,0:0:0:0:
192,192,121688,1,0,0:0:0:0:
448,192,121753,1,0,0:0:0:0:
192,192,121818,1,0,0:0:0:0:
320,192,121884,1,0,0:0:0:0:
64,192,121884,1,0,0:0:0:0:
448,192,122080,1,0,0:0:0:0:
192,192,122080,1,0,0:0:0:0:
448,192,122178,1,0,0:0:0:0:
64,192,122276,1,0,0:0:0:0:
192,192,122276,1,0,0:0:0:0:
320,192,122276,1,0,0:0:0:0:
64,192,122472,1,0,0:0:0:0:
448,192,122472,1,0,0:0:0:0:
320,192,122537,1,0,0:0:0:0:
192,192,122603,1,0,0:0:0:0:
320,192,122668,1,0,0:0:0:0:
64,192,122733,1,0,0:0:0:0:
320,192,122799,1,0,0:0:0:0:
192,192,122864,1,0,0:0:0:0:
448,192,122864,1,0,0:0:0:0:
64,192,123060,1,0,0:0:0:0:
448,192,123060,1,0,0:0:0:0:
320,192,123158,1,0,0:0:0:0:
192,192,123256,1,0,0:0:0:0:
448,192,123256,1,0,0:0:0:0:
192,192,123354,1,0,0:0:0:0:
320,192,123354,1,0,0:0:0:0:
320,192,123452,1,0,0:0:0:0:
448,192,123452,1,0,0:0:0:0:
64,192,123452,1,0,0:0:0:0:
192,192,123550,1,0,0:0:0:0:
448,192,123648,1,0,0:0:0:0:
64,192,123648,1,0,0:0:0:0:
320,192,123648,1,0,0:0:0:0:
192,192,123746,1,0,0:0:0:0:
64,192,123746,1,0,0:0:0:0:
448,192,123746,1,0,0:0:0:0:
320,192,123844,1,0,0:0:0:0:
192,192,123844,1,0,0:0:0:0:
320,192,123942,1,0,0:0:0:0:
448,192,123942,1,0,0:0:0:0:
448,192,124040,1,0,0:0:0:0:
192,192,124040,1,0,0:0:0:0:
64,192,124040,1,0,0:0:0:0:
320,192,124139,1,0,0:0:0:0:
192,192,124139,1,0,0:0:0:0:
64,192,124237,1,0,0:0:0:0:
192,192,124237,1,0,0:0:0:0:
320,192,124335,1,0,0:0:0:0:
448,192,124335,1,0,0:0:0:0:
64,192,124335,1,0,0:0:0:0:
192,192,124433,1,0,0:0:0:0:
448,192,124433,1,0,0:0:0:0:
320,192,124531,1,0,0:0:0:0:
64,192,124531,1,0,0:0:0:0:
448,192,124629,1,0,0:0:0:0:
192,192,124629,1,0,0:0:0:0:
64,192,124629,1,0,0:0:0:0:
192,192,124727,1,0,0:0:0:0:
320,192,124727,1,0,0:0:0:0:
320,192,124825,1,0,0:0:0:0:
64,192,124825,1,0,0:0:0:0:
192,192,124923,1,0,0:0:0:0:
448,192,124923,1,0,0:0:0:0:
448,192,125021,1,0,0:0:0:0:
64,192,125021,1,0,0:0:0:0:
320,192,125021,1,0,0:0:0:0:
320,192,125119,1,0,0:0:0:0:
192,192,125217,1,0,0:0:0:0:
64,192,125217,1,0,0:0:0:0:
448,192,125315,1,0,0:0:0:0:
192,192,125315,1,0,0:0:0:0:
320,192,125413,1,0,0:0:0:0:
448,192,125413,1,0,0:0:0:0:
64,192,125413,1,0,0:0:0:0:
192,192,125511,1,0,0:0:0:0:
64,192,125511,1,0,0:0:0:0:
192,192,125609,1,0,0:0:0:0:
320,192,125609,1,0,0:0:0:0:
320,192,125707,1,0,0:0:0:0:
448,192,125707,1,0,0:0:0:0:
192,192,125805,1,0,0:0:0:0:
64,192,125805,1,0,0:0:0:0:
192,192,125903,1,0,0:0:0:0:
320,192,126001,1,0,0:0:0:0:
448,192,126001,1,0,0:0:0:0:
64,192,126001,1,0,0:0:0:0:
320,192,126099,1,0,0:0:0:0:
192,192,126197,1,0,0:0:0:0:
64,192,126197,1,0,0:0:0:0:
448,192,126197,1,0,0:0:0:0:
320,192,126295,1,0,0:0:0:0:
192,192,126295,1,0,0:0:0:0:
64,192,126393,1,0,0:0:0:0:
448,192,126393,1,0,0:0:0:0:
192,192,126393,1,0,0:0:0:0:
320,192,126491,1,0,0:0:0:0:
448,192,126491,1,0,0:0:0:0:
320,192,126590,1,0,0:0:0:0:
192,192,126590,1,0,0:0:0:0:
192,192,126688,1,0,0:0:0:0:
64,192,126688,1,0,0:0:0:0:
64,192,126786,1,0,0:0:0:0:
320,192,126786,1,0,0:0:0:0:
448,192,126786,1,0,0:0:0:0:
320,192,126884,1,0,0:0:0:0:
192,192,126982,1,0,0:0:0:0:
64,192,126982,1,0,0:0:0:0:
448,192,126982,1,0,0:0:0:0:
192,192,127080,1,0,0:0:0:0:
320,192,127178,1,0,0:0:0:0:
64,192,127178,1,0,0:0:0:0:
192,192,127276,1,0,0:0:0:0:
320,192,127276,1,0,0:0:0:0:
448,192,127374,1,0,0:0:0:0:
192,192,127374,1,0,0:0:0:0:
64,192,127374,1,0,0:0:0:0:
448,192,127472,1,0,0:0:0:0:
320,192,127570,1,0,0:0:0:0:
64,192,127570,1,0,0:0:0:0:
192,192,127668,1,0,0:0:0:0:
320,192,127668,1,0,0:0:0:0:
448,192,127766,1,0,0:0:0:0:
192,192,127766,1,0,0:0:0:0:
64,192,127766,1,0,0:0:0:0:
320,192,127864,1,0,0:0:0:0:
64,192,127864,1,0,0:0:0:0:
192,192,127962,1,0,0:0:0:0:
320,192,127962,1,0,0:0:0:0:
448,192,127962,1,0,0:0:0:0:
64,192,128060,1,0,0:0:0:0:
448,192,128060,1,0,0:0:0:0:
320,192,128158,1,0,0:0:0:0:
192,192,128158,1,0,0:0:0:0:
320,192,128256,1,0,0:0:0:0:
64,192,128256,1,0,0:0:0:0:
192,192,128354,1,0,0:0:0:0:
64,192,128354,1,0,0:0:0:0:
448,192,128354,1,0,0:0:0:0:
192,192,128452,1,0,0:0:0:0:
320,192,128452,1,0,0:0:0:0:
320,192,128550,1,0,0:0:0:0:
448,192,128550,1,0,0:0:0:0:
64,192,128550,1,0,0:0:0:0:
448,192,128648,1,0,0:0:0:0:
192,192,128648,1,0,0:0:0:0:
320,192,128746,1,0,0:0:0:0:
192,192,128746,1,0,0:0:0:0:
64,192,128844,1,0,0:0:0:0:
320,192,128844,1,0,0:0:0:0:
192,192,128942,1,0,0:0:0:0:
64,192,128942,1,0,0:0:0:0:
448,192,128942,1,0,0:0:0:0:
192,192,129040,1,0,0:0:0:0:
64,192,129139,1,0,0:0:0:0:
320,192,129139,1,0,0:0:0:0:
448,192,129139,1,0,0:0:0:0:
192,192,129237,1,0,0:0:0:0:
320,192,129237,1,0,0:0:0:0:
192,192,129335,1,0,0:0:0:0:
448,192,129335,1,0,0:0:0:0:
64,192,129335,1,0,0:0:0:0:
64,192,129433,1,0,0:0:0:0:
192,192,129531,5,0,0:0:0:0:
320,192,129531,1,0,0:0:0:0:
320,192,129629,1,0,0:0:0:0:
448,192,129629,1,0,0:0:0:0:
64,192,129629,1,0,0:0:0:0:
192,192,129727,5,0,0:0:0:0:
448,192,129727,1,0,0:0:0:0:
320,192,129825,1,0,0:0:0:0:
192,192,129825,1,0,0:0:0:0:
320,192,129923,1,0,0:0:0:0:
448,192,129923,1,0,0:0:0:0:
192,192,130021,1,0,0:0:0:0:
64,192,130021,1,0,0:0:0:0:
320,192,130119,1,0,0:0:0:0:
192,192,130119,1,0,0:0:0:0:
64,192,130119,1,0,0:0:0:0:
448,192,130119,1,0,0:0:0:0:
320,192,130217,1,0,0:0:0:0:
448,192,130217,1,0,0:0:0:0:
192,192,130315,1,0,0:0:0:0:
64,192,130315,1,0,0:0:0:0:
448,192,130413,1,0,0:0:0:0:
320,192,130413,1,0,0:0:0:0:
64,192,130413,1,0,0:0:0:0:
192,192,130413,1,0,0:0:0:0:
320,192,130511,1,0,0:0:0:0:
448,192,130511,1,0,0:0:0:0:
192,192,130609,1,0,0:0:0:0:
64,192,130609,1,0,0:0:0:0:
64,192,130707,1,0,0:0:0:0:
192,192,130707,1,0,0:0:0:0:
448,192,130707,1,0,0:0:0:0:
320,192,130707,1,0,0:0:0:0:
320,192,130805,1,0,0:0:0:0:
448,192,130805,1,0,0:0:0:0:
448,192,130903,1,0,0:0:0:0:
320,192,130903,1,0,0:0:0:0:
192,192,130903,1,0,0:0:0:0:
64,192,130903,1,0,0:0:0:0:
448,192,132080,5,0,0:0:0:0:
192,192,132080,1,0,0:0:0:0:
64,192,132080,1,0,0:0:0:0:
192,192,132178,1,0,0:0:0:0:
320,192,132276,1,0,0:0:0:0:
448,192,132276,1,0,0:0:0:0:
64,192,132276,1,0,0:0:0:0:
320,192,132374,1,0,0:0:0:0:
192,192,132472,1,0,0:0:0:0:
64,192,132472,1,0,0:0:0:0:
448,192,132472,1,0,0:0:0:0:
320,192,132570,1,0,0:0:0:0:
64,192,132570,1,0,0:0:0:0:
192,192,132668,1,0,0:0:0:0:
320,192,132668,1,0,0:0:0:0:
192,192,132766,1,0,0:0:0:0:
448,192,132766,1,0,0:0:0:0:
64,192,132864,1,0,0:0:0:0:
320,192,132864,1,0,0:0:0:0:
192,192,132962,1,0,0:0:0:0:
320,192,132962,1,0,0:0:0:0:
64,192,133060,1,0,0:0:0:0:
448,192,133060,1,0,0:0:0:0:
320,192,133158,1,0,0:0:0:0:
192,192,133158,1,0,0:0:0:0:
192,192,133256,1,0,0:0:0:0:
448,192,133256,1,0,0:0:0:0:
64,192,133256,1,0,0:0:0:0:
64,192,133354,1,0,0:0:0:0:
320,192,133354,1,0,0:0:0:0:
192,192,133452,1,0,0:0:0:0:
448,192,133452,1,0,0:0:0:0:
192,192,133550,1,0,0:0:0:0:
320,192,133550,1,0,0:0:0:0:
64,192,133648,1,0,0:0:0:0:
320,192,133648,1,0,0:0:0:0:
64,192,133746,1,0,0:0:0:0:
448,192,133746,1,0,0:0:0:0:
192,192,133844,1,0,0:0:0:0:
320,192,133844,1,0,0:0:0:0:
192,192,133942,1,0,0:0:0:0:
448,192,133942,1,0,0:0:0:0:
320,192,134040,1,0,0:0:0:0:
448,192,134040,1,0,0:0:0:0:
64,192,134040,1,0,0:0:0:0:
192,192,134138,1,0,0:0:0:0:
320,192,134138,1,0,0:0:0:0:
192,192,134236,1,0,0:0:0:0:
64,192,134236,1,0,0:0:0:0:
320,192,134334,1,0,0:0:0:0:
448,192,134334,1,0,0:0:0:0:
448,192,134432,1,0,0:0:0:0:
320,192,134432,1,0,0:0:0:0:
64,192,134432,1,0,0:0:0:0:
448,192,134530,1,0,0:0:0:0:
192,192,134530,1,0,0:0:0:0:
192,192,134628,1,0,0:0:0:0:
64,192,134628,1,0,0:0:0:0:
320,192,134726,1,0,0:0:0:0:
448,192,134726,1,0,0:0:0:0:
448,192,134824,1,0,0:0:0:0:
192,192,134824,1,0,0:0:0:0:
64,192,134824,1,0,0:0:0:0:
320,192,134922,1,0,0:0:0:0:
64,192,134922,1,0,0:0:0:0:
192,192,135021,1,0,0:0:0:0:
448,192,135021,1,0,0:0:0:0:
448,192,135119,1,0,0:0:0:0:
64,192,135119,1,0,0:0:0:0:
320,192,135217,1,0,0:0:0:0:
192,192,135217,1,0,0:0:0:0:
192,192,135315,1,0,0:0:0:0:
448,192,135315,1,0,0:0:0:0:
64,192,135413,1,0,0:0:0:0:
320,192,135413,1,0,0:0:0:0:
448,192,135511,1,0,0:0:0:0:
192,192,135511,1,0,0:0:0:0:
448,192,135609,1,0,0:0:0:0:
320,192,135609,1,0,0:0:0:0:
64,192,135609,1,0,0:0:0:0:
320,192,135707,1,0,0:0:0:0:
448,192,135805,1,0,0:0:0:0:
192,192,135805,1,0,0:0:0:0:
64,192,135805,1,0,0:0:0:0:
64,192,135903,1,0,0:0:0:0:
320,192,135903,1,0,0:0:0:0:
448,192,135903,1,0,0:0:0:0:
192,192,136001,1,0,0:0:0:0:
320,192,136099,1,0,0:0:0:0:
64,192,136197,1,0,0:0:0:0:
448,192,136197,1,0,0:0:0:0:
192,192,136197,1,0,0:0:0:0:
320,192,136295,1,0,0:0:0:0:
64,192,136393,1,0,0:0:0:0:
448,192,136393,1,0,0:0:0:0:
192,192,136393,1,0,0:0:0:0:
192,192,136491,1,0,0:0:0:0:
64,192,136589,1,0,0:0:0:0:
448,192,136589,1,0,0:0:0:0:
320,192,136589,1,0,0:0:0:0:
448,192,136687,1,0,0:0:0:0:
64,192,136687,1,0,0:0:0:0:
192,192,136687,1,0,0:0:0:0:
320,192,136785,1,0,0:0:0:0:
192,192,136785,1,0,0:0:0:0:
320,192,136883,1,0,0:0:0:0:
64,192,136883,1,0,0:0:0:0:
192,192,136981,1,0,0:0:0:0:
448,192,136981,1,0,0:0:0:0:
64,192,137079,1,0,0:0:0:0:
320,192,137079,1,0,0:0:0:0:
320,192,137177,1,0,0:0:0:0:
192,192,137177,1,0,0:0:0:0:
64,192,137177,1,0,0:0:0:0:
448,192,137177,1,0,0:0:0:0:
192,192,137275,1,0,0:0:0:0:
320,192,137373,1,0,0:0:0:0:
192,192,137472,1,0,0:0:0:0:
64,192,137472,1,0,0:0:0:0:
448,192,137570,1,0,0:0:0:0:
320,192,137570,1,0,0:0:0:0:
192,192,137570,1,0,0:0:0:0:
64,192,137570,1,0,0:0:0:0:
320,192,137668,1,0,0:0:0:0:
192,192,137766,1,0,0:0:0:0:
448,192,137864,1,0,0:0:0:0:
320,192,137864,1,0,0:0:0:0:
320,192,137962,1,0,0:0:0:0:
192,192,137962,1,0,0:0:0:0:
64,192,137962,1,0,0:0:0:0:
448,192,137962,1,0,0:0:0:0:
192,192,138060,1,0,0:0:0:0:
320,192,138158,1,0,0:0:0:0:
64,192,138256,1,0,0:0:0:0:
192,192,138256,1,0,0:0:0:0:
64,192,138354,1,0,0:0:0:0:
192,192,138354,1,0,0:0:0:0:
320,192,138354,1,0,0:0:0:0:
448,192,138354,1,0,0:0:0:0:
448,192,138452,1,0,0:0:0:0:
320,192,138452,1,0,0:0:0:0:
448,192,138550,1,0,0:0:0:0:
320,192,138550,1,0,0:0:0:0:
448,192,138648,1,0,0:0:0:0:
320,192,138648,1,0,0:0:0:0:
448,192,138746,1,0,0:0:0:0:
192,192,138746,1,0,0:0:0:0:
64,192,138746,1,0,0:0:0:0:
320,192,138844,1,0,0:0:0:0:
64,192,138844,1,0,0:0:0:0:
192,192,138942,1,0,0:0:0:0:
320,192,138942,1,0,0:0:0:0:
192,192,139040,1,0,0:0:0:0:
448,192,139040,1,0,0:0:0:0:
64,192,139138,1,0,0:0:0:0:
320,192,139138,1,0,0:0:0:0:
64,192,139236,1,0,0:0:0:0:
192,192,139236,1,0,0:0:0:0:
320,192,139334,1,0,0:0:0:0:
448,192,139334,1,0,0:0:0:0:
448,192,139432,1,0,0:0:0:0:
192,192,139432,1,0,0:0:0:0:
320,192,139530,1,0,0:0:0:0:
192,192,139530,1,0,0:0:0:0:
64,192,139530,1,0,0:0:0:0:
448,192,139628,1,0,0:0:0:0:
64,192,139628,1,0,0:0:0:0:
320,192,139726,1,0,0:0:0:0:
192,192,139726,1,0,0:0:0:0:
448,192,139824,1,0,0:0:0:0:
320,192,139824,1,0,0:0:0:0:
448,192,139922,1,0,0:0:0:0:
192,192,139922,1,0,0:0:0:0:
64,192,139922,1,0,0:0:0:0:
64,192,140021,1,0,0:0:0:0:
320,192,140021,1,0,0:0:0:0:
192,192,140119,1,0,0:0:0:0:
448,192,140119,1,0,0:0:0:0:
320,192,140217,1,0,0:0:0:0:
64,192,140217,1,0,0:0:0:0:
192,192,140315,1,0,0:0:0:0:
320,192,140315,1,0,0:0:0:0:
448,192,140315,1,0,0:0:0:0:
448,192,140413,1,0,0:0:0:0:
64,192,140413,1,0,0:0:0:0:
320,192,140511,1,0,0:0:0:0:
192,192,140511,1,0,0:0:0:0:
64,192,140511,1,0,0:0:0:0:
448,192,140609,1,0,0:0:0:0:
320,192,140609,1,0,0:0:0:0:
192,192,140707,1,0,0:0:0:0:
64,192,140707,1,0,0:0:0:0:
448,192,140707,1,0,0:0:0:0:
64,192,140805,1,0,0:0:0:0:
192,192,140805,1,0,0:0:0:0:
448,192,140903,1,0,0:0:0:0:
320,192,140903,1,0,0:0:0:0:
64,192,140903,1,0,0:0:0:0:
320,192,141001,1,0,0:0:0:0:
448,192,141001,1,0,0:0:0:0:
64,192,141099,1,0,0:0:0:0:
192,192,141099,1,0,0:0:0:0:
448,192,141099,1,0,0:0:0:0:
64,192,141197,1,0,0:0:0:0:
320,192,141197,1,0,0:0:0:0:
192,192,141295,1,0,0:0:0:0:
320,192,141295,1,0,0:0:0:0:
64,192,141393,1,0,0:0:0:0:
448,192,141393,1,0,0:0:0:0:
64,192,141491,1,0,0:0:0:0:
320,192,141491,1,0,0:0:0:0:
192,192,141589,1,0,0:0:0:0:
448,192,141589,1,0,0:0:0:0:
64,192,141687,1,0,0:0:0:0:
448,192,141687,1,0,0:0:0:0:
320,192,141785,1,0,0:0:0:0:
192,192,141785,1,0,0:0:0:0:
320,192,141883,1,0,0:0:0:0:
448,192,141883,1,0,0:0:0:0:
64,192,141883,1,0,0:0:0:0:
192,192,141981,1,0,0:0:0:0:
448,192,141981,1,0,0:0:0:0:
64,192,142079,1,0,0:0:0:0:
320,192,142079,1,0,0:0:0:0:
192,192,142177,1,0,0:0:0:0:
64,192,142177,1,0,0:0:0:0:
448,192,142177,1,0,0:0:0:0:
320,192,142275,1,0,0:0:0:0:
448,192,142275,1,0,0:0:0:0:
320,192,142373,1,0,0:0:0:0:
192,192,142373,1,0,0:0:0:0:
64,192,142472,1,0,0:0:0:0:
192,192,142472,1,0,0:0:0:0:
448,192,142472,1,0,0:0:0:0:
64,192,142570,1,0,0:0:0:0:
320,192,142570,1,0,0:0:0:0:
192,192,142668,1,0,0:0:0:0:
320,192,142668,1,0,0:0:0:0:
448,192,142668,1,0,0:0:0:0:
64,192,142766,1,0,0:0:0:0:
448,192,142766,1,0,0:0:0:0:
192,192,142864,1,0,0:0:0:0:
320,192,142864,1,0,0:0:0:0:
192,192,142962,1,0,0:0:0:0:
448,192,142962,1,0,0:0:0:0:
320,192,143060,1,0,0:0:0:0:
64,192,143060,1,0,0:0:0:0:
448,192,143060,1,0,0:0:0:0:
320,192,143158,1,0,0:0:0:0:
192,192,143158,1,0,0:0:0:0:
448,192,143256,1,0,0:0:0:0:
64,192,143256,1,0,0:0:0:0:
192,192,143256,1,0,0:0:0:0:
320,192,143354,1,0,0:0:0:0:
64,192,143452,1,0,0:0:0:0:
192,192,143452,1,0,0:0:0:0:
320,192,143452,1,0,0:0:0:0:
448,192,143452,1,0,0:0:0:0:
64,192,143550,1,0,0:0:0:0:
320,192,143648,1,0,0:0:0:0:
448,192,143648,1,0,0:0:0:0:
64,192,143746,1,0,0:0:0:0:
192,192,143746,1,0,0:0:0:0:
320,192,143746,1,0,0:0:0:0:
448,192,143746,1,0,0:0:0:0:
64,192,143844,1,0,0:0:0:0:
192,192,143844,1,0,0:0:0:0:
448,192,143942,1,0,0:0:0:0:
320,192,144040,1,0,0:0:0:0:
64,192,144040,1,0,0:0:0:0:
192,192,144040,1,0,0:0:0:0:
448,192,144040,1,0,0:0:0:0:
320,192,144138,1,0,0:0:0:0:
448,192,144236,1,0,0:0:0:0:
192,192,144236,1,0,0:0:0:0:
64,192,144236,1,0,0:0:0:0:
192,192,144334,1,0,0:0:0:0:
64,192,144334,1,0,0:0:0:0:
64,192,144432,1,0,0:0:0:0:
320,192,144432,1,0,0:0:0:0:
448,192,144432,1,0,0:0:0:0:
320,192,144530,1,0,0:0:0:0:
448,192,144628,1,0,0:0:0:0:
192,192,144628,1,0,0:0:0:0:
192,192,144726,1,0,0:0:0:0:
64,192,144726,1,0,0:0:0:0:
64,192,144824,1,0,0:0:0:0:
320,192,144824,1,0,0:0:0:0:
448,192,144922,1,0,0:0:0:0:
192,192,144922,1,0,0:0:0:0:
320,192,145021,1,0,0:0:0:0:
448,192,145021,1,0,0:0:0:0:
64,192,145021,1,0,0:0:0:0:
192,192,145119,1,0,0:0:0:0:
64,192,145119,1,0,0:0:0:0:
448,192,145217,1,0,0:0:0:0:
320,192,145217,1,0,0:0:0:0:
448,192,145315,1,0,0:0:0:0:
192,192,145315,1,0,0:0:0:0:
64,192,145413,1,0,0:0:0:0:
320,192,145413,1,0,0:0:0:0:
320,192,145511,1,0,0:0:0:0:
192,192,145511,1,0,0:0:0:0:
448,192,145609,1,0,0:0:0:0:
64,192,145609,1,0,0:0:0:0:
64,192,145707,1,0,0:0:0:0:
320,192,145707,1,0,0:0:0:0:
192,192,145805,1,0,0:0:0:0:
320,192,145805,1,0,0:0:0:0:
448,192,145805,1,0,0:0:0:0:
64,192,145903,1,0,0:0:0:0:
192,192,145903,1,0,0:0:0:0:
320,192,146001,1,0,0:0:0:0:
448,192,146001,1,0,0:0:0:0:
192,192,146099,1,0,0:0:0:0:
64,192,146099,1,0,0:0:0:0:
448,192,146099,1,0,0:0:0:0:
320,192,146197,1,0,0:0:0:0:
64,192,146197,1,0,0:0:0:0:
448,192,146295,1,0,0:0:0:0:
192,192,146295,1,0,0:0:0:0:
320,192,146393,1,0,0:0:0:0:
448,192,146393,1,0,0:0:0:0:
64,192,146393,1,0,0:0:0:0:
192,192,146491,1,0,0:0:0:0:
320,192,146589,1,0,0:0:0:0:
448,192,146589,1,0,0:0:0:0:
64,192,146589,1,0,0:0:0:0:
192,192,146687,1,0,0:0:0:0:
320,192,146687,1,0,0:0:0:0:
64,192,146785,1,0,0:0:0:0:
448,192,146785,1,0,0:0:0:0:
64,192,146883,1,0,0:0:0:0:
320,192,146883,1,0,0:0:0:0:
192,192,146981,1,0,0:0:0:0:
448,192,146981,1,0,0:0:0:0:
192,192,147079,1,0,0:0:0:0:
320,192,147079,1,0,0:0:0:0:
64,192,147177,1,0,0:0:0:0:
448,192,147177,1,0,0:0:0:0:
448,192,147275,1,0,0:0:0:0:
192,192,147275,1,0,0:0:0:0:
320,192,147373,1,0,0:0:0:0:
64,192,147373,1,0,0:0:0:0:
192,192,147373,1,0,0:0:0:0:
320,192,147472,1,0,0:0:0:0:
64,192,147472,1,0,0:0:0:0:
192,192,147570,1,0,0:0:0:0:
448,192,147570,1,0,0:0:0:0:
320,192,147668,1,0,0:0:0:0:
192,192,147668,1,0,0:0:0:0:
320,192,147766,1,0,0:0:0:0:
448,192,147766,1,0,0:0:0:0:
64,192,147766,1,0,0:0:0:0:
192,192,147864,1,0,0:0:0:0:
448,192,147864,1,0,0:0:0:0:
64,192,147962,1,0,0:0:0:0:
320,192,147962,1,0,0:0:0:0:
192,192,148060,1,0,0:0:0:0:
320,192,148060,1,0,0:0:0:0:
448,192,148158,1,0,0:0:0:0:
64,192,148158,1,0,0:0:0:0:
192,192,148158,1,0,0:0:0:0:
320,192,148256,1,0,0:0:0:0:
448,192,148256,1,0,0:0:0:0:
448,192,148354,1,0,0:0:0:0:
320,192,148354,1,0,0:0:0:0:
320,192,148452,1,0,0:0:0:0:
448,192,148452,1,0,0:0:0:0:
64,192,148550,1,0,0:0:0:0:
192,192,148550,1,0,0:0:0:0:
64,192,148648,1,0,0:0:0:0:
448,192,148648,1,0,0:0:0:0:
192,192,148746,1,0,0:0:0:0:
320,192,148746,1,0,0:0:0:0:
448,192,148746,1,0,0:0:0:0:
64,192,148844,1,0,0:0:0:0:
320,192,148844,1,0,0:0:0:0:
64,192,148942,1,0,0:0:0:0:
192,192,148942,1,0,0:0:0:0:
448,192,148942,1,0,0:0:0:0:
320,192,149040,1,0,0:0:0:0:
192,192,149040,1,0,0:0:0:0:
448,192,149138,1,0,0:0:0:0:
320,192,149138,1,0,0:0:0:0:
192,192,149236,1,0,0:0:0:0:
64,192,149236,1,0,0:0:0:0:
192,192,149334,1,0,0:0:0:0:
64,192,149334,1,0,0:0:0:0:
192,192,149432,1,0,0:0:0:0:
64,192,149432,1,0,0:0:0:0:
320,192,149530,1,0,0:0:0:0:
448,192,149530,1,0,0:0:0:0:
64,192,149530,1,0,0:0:0:0:
320,192,149628,1,0,0:0:0:0:
448,192,149726,1,0,0:0:0:0:
192,192,149726,1,0,0:0:0:0:
64,192,149726,1,0,0:0:0:0:
64,192,149824,1,0,0:0:0:0:
320,192,149824,1,0,0:0:0:0:
448,192,149922,1,0,0:0:0:0:
192,192,149922,1,0,0:0:0:0:
320,192,149922,1,0,0:0:0:0:
64,192,150021,1,0,0:0:0:0:
448,192,150021,1,0,0:0:0:0:
192,192,150021,1,0,0:0:0:0:
320,192,150119,1,0,0:0:0:0:
64,192,150119,1,0,0:0:0:0:
448,192,150119,1,0,0:0:0:0:
192,192,150217,1,0,0:0:0:0:
320,192,150217,1,0,0:0:0:0:
448,192,150315,1,0,0:0:0:0:
192,192,150315,1,0,0:0:0:0:
320,192,150413,1,0,0:0:0:0:
64,192,150413,1,0,0:0:0:0:
320,192,150511,1,0,0:0:0:0:
448,192,150511,1,0,0:0:0:0:
192,192,150511,1,0,0:0:0:0:
64,192,150609,1,0,0:0:0:0:
448,192,150609,1,0,0:0:0:0:
64,192,150707,1,0,0:0:0:0:
192,192,150707,1,0,0:0:0:0:
320,192,150805,1,0,0:0:0:0:
192,192,150805,1,0,0:0:0:0:
64,192,150903,1,0,0:0:0:0:
448,192,150903,1,0,0:0:0:0:
64,192,151001,1,0,0:0:0:0:
320,192,151001,1,0,0:0:0:0:
192,192,151099,1,0,0:0:0:0:
320,192,151099,1,0,0:0:0:0:
448,192,151197,1,0,0:0:0:0:
192,192,151197,1,0,0:0:0:0:
320,192,151295,1,0,0:0:0:0:
448,192,151295,1,0,0:0:0:0:
64,192,151295,1,0,0:0:0:0:
192,192,151393,1,0,0:0:0:0:
192,192,151491,1,0,0:0:0:0:
64,192,151491,1,0,0:0:0:0:
448,192,151491,1,0,0:0:0:0:
320,192,151589,1,0,0:0:0:0:
64,192,151589,1,0,0:0:0:0:
320,192,151687,1,0,0:0:0:0:
448,192,151785,1,0,0:0:0:0:
320,192,151785,1,0,0:0:0:0:
64,192,151785,1,0,0:0:0:0:
192,192,151883,1,0,0:0:0:0:
448,192,151883,1,0,0:0:0:0:
192,192,151981,1,0,0:0:0:0:
64,192,152079,1,0,0:0:0:0:
192,192,152079,1,0,0:0:0:0:
448,192,152079,1,0,0:0:0:0:
320,192,152177,1,0,0:0:0:0:
64,192,152177,1,0,0:0:0:0:
320,192,152275,1,0,0:0:0:0:
448,192,152373,1,0,0:0:0:0:
320,192,152373,1,0,0:0:0:0:
64,192,152373,1,0,0:0:0:0:
192,192,152472,1,0,0:0:0:0:
192,192,152570,1,0,0:0:0:0:
64,192,152570,1,0,0:0:0:0:
448,192,152570,1,0,0:0:0:0:
64,192,152668,1,0,0:0:0:0:
320,192,152668,1,0,0:0:0:0:
320,192,152766,1,0,0:0:0:0:
192,192,152766,1,0,0:0:0:0:
448,192,152864,1,0,0:0:0:0:
64,192,152864,1,0,0:0:0:0:
192,192,152864,1,0,0:0:0:0:
320,192,152962,1,0,0:0:0:0:
320,192,153060,1,0,0:0:0:0:
320,192,153158,1,0,0:0:0:0:
448,192,153158,1,0,0:0:0:0:
64,192,153158,1,0,0:0:0:0:
192,192,153256,1,0,0:0:0:0:
448,192,153256,1,0,0:0:0:0:
192,192,153354,1,0,0:0:0:0:
64,192,153452,1,0,0:0:0:0:
192,192,153452,1,0,0:0:0:0:
448,192,153452,1,0,0:0:0:0:
320,192,153550,1,0,0:0:0:0:
320,192,153648,1,0,0:0:0:0:
448,192,153746,1,0,0:0:0:0:
64,192,153746,1,0,0:0:0:0:
192,192,153746,1,0,0:0:0:0:
64,192,153844,1,0,0:0:0:0:
192,192,153942,1,0,0:0:0:0:
320,192,154040,1,0,0:0:0:0:
448,192,154040,1,0,0:0:0:0:
64,192,154040,1,0,0:0:0:0:
448,192,154138,1,0,0:0:0:0:
192,192,154138,1,0,0:0:0:0:
320,192,154236,1,0,0:0:0:0:
64,192,154236,1,0,0:0:0:0:
192,192,154334,1,0,0:0:0:0:
320,192,154334,1,0,0:0:0:0:
64,192,154432,1,0,0:0:0:0:
192,192,154432,1,0,0:0:0:0:
448,192,154432,128,0,154530:0:0:0:0:
320,192,154530,128,0,154628:0:0:0:0:
64,192,154628,128,0,154726:0:0:0:0:
448,192,154726,128,0,154824:0:0:0:0:
192,192,154824,128,0,154922:0:0:0:0:
320,192,154922,128,0,155021:0:0:0:0:
192,192,155021,128,0,155119:0:0:0:0:
64,192,155119,128,0,155217:0:0:0:0:
448,192,155217,128,0,155315:0:0:0:0:
192,192,155315,128,0,155413:0:0:0:0:
448,192,155413,128,0,155511:0:0:0:0:
64,192,155511,128,0,155609:0:0:0:0:
320,192,155609,128,0,155707:0:0:0:0:
448,192,155707,128,0,155805:0:0:0:0:
192,192,155805,128,0,155903:0:0:0:0:
320,192,155903,128,0,156001:0:0:0:0:
64,192,156001,128,0,156099:0:0:0:0:
448,192,156001,128,0,156099:0:0:0:0:
192,192,156099,128,0,156197:0:0:0:0:
320,192,156197,128,0,156295:0:0:0:0:
64,192,156295,128,0,156393:0:0:0:0:
320,192,156393,128,0,156491:0:0:0:0:
192,192,156491,128,0,156589:0:0:0:0:
448,192,156589,128,0,156687:0:0:0:0:
64,192,156687,128,0,156785:0:0:0:0:
448,192,156785,128,0,156883:0:0:0:0:
192,192,156883,128,0,156981:0:0:0:0:
320,192,156981,1,0,0:0:0:0:
448,192,156981,1,0,0:0:0:0:
192,192,157059,1,0,0:0:0:0:
64,192,157059,1,0,0:0:0:0:
320,192,157118,1,0,0:0:0:0:
64,192,157177,128,0,157373:0:0:0:0:
192,192,157177,128,0,157373:0:0:0:0:
448,192,157177,128,0,157373:0:0:0:0:
64,192,157569,1,0,0:0:0:0:
448,192,157569,1,0,0:0:0:0:
320,192,157569,1,0,0:0:0:0:
192,192,157667,1,0,0:0:0:0:
320,192,157667,1,0,0:0:0:0:
64,192,157765,1,0,0:0:0:0:
448,192,157765,1,0,0:0:0:0:
320,192,157863,1,0,0:0:0:0:
192,192,157863,1,0,0:0:0:0:
448,192,157961,1,0,0:0:0:0:
64,192,157961,1,0,0:0:0:0:
192,192,157961,1,0,0:0:0:0:
320,192,158059,1,0,0:0:0:0:
64,192,158059,1,0,0:0:0:0:
192,192,158157,1,0,0:0:0:0:
448,192,158157,1,0,0:0:0:0:
64,192,158255,1,0,0:0:0:0:
320,192,158255,1,0,0:0:0:0:
192,192,158353,1,0,0:0:0:0:
448,192,158353,1,0,0:0:0:0:
320,192,158353,1,0,0:0:0:0:
64,192,158451,1,0,0:0:0:0:
448,192,158451,1,0,0:0:0:0:
320,192,158549,1,0,0:0:0:0:
192,192,158549,1,0,0:0:0:0:
448,192,158647,1,0,0:0:0:0:
64,192,158647,1,0,0:0:0:0:
320,192,158745,1,0,0:0:0:0:
64,192,158745,1,0,0:0:0:0:
192,192,158745,1,0,0:0:0:0:
448,192,158843,1,0,0:0:0:0:
192,192,158843,1,0,0:0:0:0:
64,192,158941,1,0,0:0:0:0:
320,192,158941,1,0,0:0:0:0:
192,192,159039,1,0,0:0:0:0:
448,192,159039,1,0,0:0:0:0:
320,192,159137,1,0,0:0:0:0:
448,192,159137,1,0,0:0:0:0:
64,192,159137,1,0,0:0:0:0:
192,192,159235,1,0,0:0:0:0:
320,192,159235,1,0,0:0:0:0:
64,192,159333,1,0,0:0:0:0:
448,192,159333,1,0,0:0:0:0:
192,192,159431,1,0,0:0:0:0:
64,192,159431,1,0,0:0:0:0:
448,192,159529,1,0,0:0:0:0:
320,192,159529,1,0,0:0:0:0:
448,192,159627,1,0,0:0:0:0:
192,192,159627,1,0,0:0:0:0:
320,192,159725,1,0,0:0:0:0:
64,192,159725,1,0,0:0:0:0:
192,192,159823,1,0,0:0:0:0:
320,192,159823,1,0,0:0:0:0:
192,192,159921,1,0,0:0:0:0:
448,192,159921,128,0,160118:0:0:0:0:
64,192,159921,128,0,160118:0:0:0:0:
320,192,160019,1,0,0:0:0:0:
192,192,160118,1,0,0:0:0:0:
320,192,160216,1,0,0:0:0:0:
192,192,160265,1,0,0:0:0:0:
64,192,160314,128,0,160706:0:0:0:0:
448,192,160314,128,0,160706:0:0:0:0:
320,192,160412,1,0,0:0:0:0:
192,192,160510,1,0,0:0:0:0:
320,192,160608,1,0,0:0:0:0:
192,192,160706,1,0,0:0:0:0:
320,192,160771,1,0,0:0:0:0:
64,192,160836,1,0,0:0:0:0:
448,192,160902,1,0,0:0:0:0:
192,192,160951,1,0,0:0:0:0:
320,192,161000,1,0,0:0:0:0:
64,192,161049,1,0,0:0:0:0:
192,192,161098,1,0,0:0:0:0:
448,192,161147,1,0,0:0:0:0:
64,192,161196,1,0,0:0:0:0:
320,192,161245,1,0,0:0:0:0:
448,192,161294,1,0,0:0:0:0:
192,192,161359,1,0,0:0:0:0:
320,192,161425,1,0,0:0:0:0:
448,192,161490,1,0,0:0:0:0:
64,192,161490,1,0,0:0:0:0:
192,192,161491,1,0,0:0:0:0:
64,192,161589,1,0,0:0:0:0:
192,192,161687,1,0,0:0:0:0:
320,192,161687,1,0,0:0:0:0:
448,192,161687,1,0,0:0:0:0:
320,192,161785,1,0,0:0:0:0:
448,192,161883,1,0,0:0:0:0:
64,192,161883,1,0,0:0:0:0:
192,192,161981,1,0,0:0:0:0:
320,192,161981,1,0,0:0:0:0:
64,192,162079,1,0,0:0:0:0:
320,192,162079,1,0,0:0:0:0:
448,192,162079,1,0,0:0:0:0:
192,192,162177,1,0,0:0:0:0:
448,192,162177,1,0,0:0:0:0:
320,192,162275,1,0,0:0:0:0:
192,192,162275,1,0,0:0:0:0:
64,192,162275,1,0,0:0:0:0:
320,192,162373,1,0,0:0:0:0:
192,192,162471,1,0,0:0:0:0:
448,192,162471,1,0,0:0:0:0:
64,192,162471,1,0,0:0:0:0:
192,192,162569,1,0,0:0:0:0:
320,192,162667,1,0,0:0:0:0:
64,192,162667,1,0,0:0:0:0:
192,192,162765,1,0,0:0:0:0:
448,192,162765,1,0,0:0:0:0:
320,192,162863,1,0,0:0:0:0:
192,192,162863,1,0,0:0:0:0:
64,192,162863,1,0,0:0:0:0:
448,192,162961,1,0,0:0:0:0:
64,192,162961,1,0,0:0:0:0:
192,192,163059,1,0,0:0:0:0:
320,192,163059,1,0,0:0:0:0:
448,192,163059,1,0,0:0:0:0:
192,192,163157,1,0,0:0:0:0:
320,192,163255,1,0,0:0:0:0:
448,192,163255,1,0,0:0:0:0:
64,192,163255,1,0,0:0:0:0:
448,192,163353,1,0,0:0:0:0:
320,192,163451,1,0,0:0:0:0:
192,192,163451,1,0,0:0:0:0:
64,192,163451,1,0,0:0:0:0:
64,192,163549,1,0,0:0:0:0:
192,192,163647,1,0,0:0:0:0:
320,192,163647,1,0,0:0:0:0:
448,192,163647,1,0,0:0:0:0:
320,192,163745,1,0,0:0:0:0:
448,192,163843,1,0,0:0:0:0:
192,192,163843,1,0,0:0:0:0:
64,192,163843,1,0,0:0:0:0:
320,192,163941,1,0,0:0:0:0:
64,192,163941,1,0,0:0:0:0:
192,192,164040,1,0,0:0:0:0:
448,192,164040,1,0,0:0:0:0:
64,192,164138,1,0,0:0:0:0:
448,192,164138,1,0,0:0:0:0:
320,192,164236,1,0,0:0:0:0:
192,192,164236,1,0,0:0:0:0:
64,192,164334,1,0,0:0:0:0:
320,192,164334,1,0,0:0:0:0:
192,192,164432,1,0,0:0:0:0:
448,192,164432,1,0,0:0:0:0:
320,192,164530,1,0,0:0:0:0:
192,192,164530,1,0,0:0:0:0:
64,192,164628,1,0,0:0:0:0:
448,192,164628,1,0,0:0:0:0:
320,192,164628,1,0,0:0:0:0:
192,192,164726,1,0,0:0:0:0:
448,192,164726,1,0,0:0:0:0:
320,192,164824,1,0,0:0:0:0:
64,192,164824,1,0,0:0:0:0:
64,192,164922,1,0,0:0:0:0:
192,192,164922,1,0,0:0:0:0:
320,192,165020,1,0,0:0:0:0:
448,192,165020,1,0,0:0:0:0:
192,192,165118,1,0,0:0:0:0:
448,192,165118,1,0,0:0:0:0:
320,192,165216,1,0,0:0:0:0:
64,192,165216,1,0,0:0:0:0:
192,192,165314,1,0,0:0:0:0:
64,192,165314,1,0,0:0:0:0:
320,192,165412,1,0,0:0:0:0:
448,192,165412,1,0,0:0:0:0:
64,192,165510,1,0,0:0:0:0:
448,192,165510,1,0,0:0:0:0:
192,192,165608,1,0,0:0:0:0:
320,192,165608,1,0,0:0:0:0:
64,192,165706,1,0,0:0:0:0:
320,192,165706,1,0,0:0:0:0:
192,192,165804,1,0,0:0:0:0:
64,192,165804,1,0,0:0:0:0:
448,192,165804,1,0,0:0:0:0:
320,192,165902,1,0,0:0:0:0:
448,192,165902,1,0,0:0:0:0:
192,192,166000,1,0,0:0:0:0:
64,192,166000,1,0,0:0:0:0:
320,192,166098,1,0,0:0:0:0:
448,192,166098,1,0,0:0:0:0:
448,192,166196,1,0,0:0:0:0:
320,192,166196,1,0,0:0:0:0:
64,192,166196,1,0,0:0:0:0:
192,192,166196,1,0,0:0:0:0:
64,192,166294,1,0,0:0:0:0:
192,192,166294,1,0,0:0:0:0:
320,192,166392,1,0,0:0:0:0:
448,192,166392,1,0,0:0:0:0:
192,192,166491,1,0,0:0:0:0:
64,192,166491,1,0,0:0:0:0:
64,192,166589,1,0,0:0:0:0:
192,192,166589,1,0,0:0:0:0:
320,192,166589,1,0,0:0:0:0:
448,192,166589,1,0,0:0:0:0:
320,192,166687,1,0,0:0:0:0:
448,192,166687,1,0,0:0:0:0:
192,192,166785,1,0,0:0:0:0:
64,192,166785,1,0,0:0:0:0:
320,192,166883,1,0,0:0:0:0:
448,192,166883,1,0,0:0:0:0:
448,192,166981,1,0,0:0:0:0:
192,192,166981,1,0,0:0:0:0:
64,192,166981,1,0,0:0:0:0:
320,192,167079,1,0,0:0:0:0:
64,192,167079,1,0,0:0:0:0:
192,192,167177,1,0,0:0:0:0:
448,192,167177,1,0,0:0:0:0:
320,192,167275,1,0,0:0:0:0:
192,192,167275,1,0,0:0:0:0:
64,192,167373,1,0,0:0:0:0:
320,192,167373,1,0,0:0:0:0:
448,192,167373,1,0,0:0:0:0:
192,192,167471,1,0,0:0:0:0:
448,192,167471,1,0,0:0:0:0:
320,192,167569,1,0,0:0:0:0:
192,192,167569,1,0,0:0:0:0:
64,192,167569,1,0,0:0:0:0:
64,192,167667,1,0,0:0:0:0:
448,192,167667,1,0,0:0:0:0:
320,192,167765,1,0,0:0:0:0:
448,192,167765,1,0,0:0:0:0:
192,192,167814,1,0,0:0:0:0:
64,192,167863,1,0,0:0:0:0:
448,192,167912,1,0,0:0:0:0:
320,192,167961,1,0,0:0:0:0:
192,192,167961,1,0,0:0:0:0:
64,192,168010,1,0,0:0:0:0:
448,192,168059,1,0,0:0:0:0:
320,192,168108,1,0,0:0:0:0:
64,192,168157,1,0,0:0:0:0:
192,192,168157,1,0,0:0:0:0:
448,192,168206,1,0,0:0:0:0:
320,192,168255,1,0,0:0:0:0:
192,192,168304,1,0,0:0:0:0:
448,192,168353,1,0,0:0:0:0:
64,192,168353,1,0,0:0:0:0:
320,192,168402,1,0,0:0:0:0:
192,192,168451,1,0,0:0:0:0:
64,192,168500,1,0,0:0:0:0:
448,192,168549,1,0,0:0:0:0:
320,192,168549,1,0,0:0:0:0:
448,192,168647,1,0,0:0:0:0:
320,192,168647,1,0,0:0:0:0:
64,192,168696,1,0,0:0:0:0:
192,192,168745,1,0,0:0:0:0:
320,192,168794,1,0,0:0:0:0:
448,192,168843,1,0,0:0:0:0:
64,192,168892,1,0,0:0:0:0:
192,192,168941,1,0,0:0:0:0:
320,192,168941,1,0,0:0:0:0:
448,192,168991,1,0,0:0:0:0:
64,192,169040,1,0,0:0:0:0:
192,192,169089,1,0,0:0:0:0:
320,192,169138,1,0,0:0:0:0:
448,192,169138,1,0,0:0:0:0:
64,192,169187,1,0,0:0:0:0:
192,192,169236,1,0,0:0:0:0:
320,192,169285,1,0,0:0:0:0:
448,192,169334,1,0,0:0:0:0:
64,192,169334,1,0,0:0:0:0:
192,192,169383,1,0,0:0:0:0:
320,192,169432,1,0,0:0:0:0:
448,192,169481,1,0,0:0:0:0:
192,192,169530,1,0,0:0:0:0:
64,192,169530,1,0,0:0:0:0:
448,192,169579,1,0,0:0:0:0:
320,192,169628,1,0,0:0:0:0:
192,192,169677,1,0,0:0:0:0:
64,192,169726,1,0,0:0:0:0:
448,192,169726,1,0,0:0:0:0:
320,192,169775,1,0,0:0:0:0:
192,192,169824,1,0,0:0:0:0:
64,192,169873,1,0,0:0:0:0:
320,192,169922,1,0,0:0:0:0:
448,192,169922,1,0,0:0:0:0:
64,192,169971,1,0,0:0:0:0:
192,192,170020,1,0,0:0:0:0:
320,192,170069,1,0,0:0:0:0:
448,192,170118,1,0,0:0:0:0:
64,192,170118,1,0,0:0:0:0:
192,192,170167,1,0,0:0:0:0:
320,192,170216,1,0,0:0:0:0:
448,192,170265,1,0,0:0:0:0:
64,192,170314,1,0,0:0:0:0:
192,192,170314,1,0,0:0:0:0:
320,192,170363,1,0,0:0:0:0:
448,192,170412,1,0,0:0:0:0:
192,192,170461,1,0,0:0:0:0:
64,192,170510,1,0,0:0:0:0:
320,192,170566,1,0,0:0:0:0:
192,192,170622,1,0,0:0:0:0:
448,192,170678,1,0,0:0:0:0:
320,192,170734,1,0,0:0:0:0:
64,192,170790,1,0,0:0:0:0:
192,192,170846,1,0,0:0:0:0:
448,192,170902,1,0,0:0:0:0:
320,192,170902,1,0,0:0:0:0:
64,192,171000,1,0,0:0:0:0:
448,192,171000,1,0,0:0:0:0:
192,192,171098,1,0,0:0:0:0:
320,192,171098,1,0,0:0:0:0:
64,192,171196,1,0,0:0:0:0:
320,192,171196,1,0,0:0:0:0:
192,192,171294,1,0,0:0:0:0:
448,192,171294,1,0,0:0:0:0:
320,192,171392,1,0,0:0:0:0:
192,192,171392,1,0,0:0:0:0:
448,192,171491,1,0,0:0:0:0:
64,192,171491,1,0,0:0:0:0:
320,192,171589,1,0,0:0:0:0:
192,192,171589,1,0,0:0:0:0:
64,192,171687,1,0,0:0:0:0:
320,192,171687,1,0,0:0:0:0:
448,192,171687,1,0,0:0:0:0:
192,192,171785,1,0,0:0:0:0:
448,192,171785,1,0,0:0:0:0:
64,192,171883,1,0,0:0:0:0:
320,192,171883,1,0,0:0:0:0:
64,192,171981,1,0,0:0:0:0:
192,192,171981,1,0,0:0:0:0:
448,192,171981,1,0,0:0:0:0:
192,192,172079,1,0,0:0:0:0:
320,192,172079,1,0,0:0:0:0:
320,192,172177,1,0,0:0:0:0:
64,192,172177,1,0,0:0:0:0:
448,192,172275,1,0,0:0:0:0:
64,192,172275,1,0,0:0:0:0:
192,192,172275,1,0,0:0:0:0:
320,192,172373,1,0,0:0:0:0:
192,192,172373,1,0,0:0:0:0:
448,192,172471,1,0,0:0:0:0:
64,192,172471,1,0,0:0:0:0:
320,192,172471,1,0,0:0:0:0:
192,192,172569,1,0,0:0:0:0:
448,192,172569,1,0,0:0:0:0:
320,192,172667,1,0,0:0:0:0:
64,192,172667,1,0,0:0:0:0:
64,192,172765,1,0,0:0:0:0:
192,192,172765,1,0,0:0:0:0:
448,192,172863,1,0,0:0:0:0:
320,192,172863,1,0,0:0:0:0:
448,192,172961,1,0,0:0:0:0:
64,192,172961,1,0,0:0:0:0:
64,192,173059,1,0,0:0:0:0:
320,192,173059,1,0,0:0:0:0:
192,192,173059,1,0,0:0:0:0:
192,192,173157,1,0,0:0:0:0:
448,192,173157,1,0,0:0:0:0:
64,192,173255,1,0,0:0:0:0:
320,192,173255,1,0,0:0:0:0:
192,192,173353,1,0,0:0:0:0:
320,192,173353,1,0,0:0:0:0:
64,192,173451,1,0,0:0:0:0:
448,192,173451,1,0,0:0:0:0:
64,192,173549,1,0,0:0:0:0:
320,192,173549,1,0,0:0:0:0:
192,192,173647,1,0,0:0:0:0:
448,192,173647,1,0,0:0:0:0:
448,192,173745,1,0,0:0:0:0:
64,192,173745,1,0,0:0:0:0:
192,192,173843,1,0,0:0:0:0:
320,192,173843,1,0,0:0:0:0:
192,192,173941,1,0,0:0:0:0:
448,192,173941,1,0,0:0:0:0:
320,192,174040,1,0,0:0:0:0:
448,192,174040,1,0,0:0:0:0:
64,192,174040,1,0,0:0:0:0:
192,192,174138,1,0,0:0:0:0:
64,192,174138,1,0,0:0:0:0:
320,192,174236,1,0,0:0:0:0:
448,192,174236,1,0,0:0:0:0:
192,192,174334,1,0,0:0:0:0:
320,192,174334,1,0,0:0:0:0:
64,192,174432,1,0,0:0:0:0:
448,192,174432,1,0,0:0:0:0:
192,192,174530,1,0,0:0:0:0:
448,192,174530,1,0,0:0:0:0:
320,192,174628,1,0,0:0:0:0:
64,192,174628,1,0,0:0:0:0:
64,192,174726,1,0,0:0:0:0:
192,192,174726,1,0,0:0:0:0:
192,192,174824,1,0,0:0:0:0:
320,192,174824,1,0,0:0:0:0:
448,192,174824,1,0,0:0:0:0:
64,192,174922,1,0,0:0:0:0:
448,192,174922,1,0,0:0:0:0:
320,192,175020,1,0,0:0:0:0:
192,192,175020,1,0,0:0:0:0:
64,192,175020,1,0,0:0:0:0:
192,192,175118,1,0,0:0:0:0:
448,192,175118,1,0,0:0:0:0:
320,192,175216,1,0,0:0:0:0:
448,192,175216,1,0,0:0:0:0:
64,192,175216,1,0,0:0:0:0:
192,192,175314,1,0,0:0:0:0:
320,192,175314,1,0,0:0:0:0:
64,192,175412,1,0,0:0:0:0:
192,192,175412,1,0,0:0:0:0:
448,192,175412,1,0,0:0:0:0:
320,192,175510,1,0,0:0:0:0:
192,192,175608,1,0,0:0:0:0:
320,192,175608,1,0,0:0:0:0:
448,192,175608,1,0,0:0:0:0:
64,192,175608,1,0,0:0:0:0:
192,192,175706,1,0,0:0:0:0:
64,192,175804,1,0,0:0:0:0:
64,192,175902,1,0,0:0:0:0:
192,192,175902,1,0,0:0:0:0:
320,192,175902,1,0,0:0:0:0:
448,192,175902,1,0,0:0:0:0:
320,192,176000,1,0,0:0:0:0:
448,192,176098,1,0,0:0:0:0:
64,192,176196,1,0,0:0:0:0:
192,192,176196,1,0,0:0:0:0:
320,192,176196,1,0,0:0:0:0:
448,192,176196,1,0,0:0:0:0:
192,192,176294,1,0,0:0:0:0:
448,192,176392,1,0,0:0:0:0:
64,192,176392,1,0,0:0:0:0:
320,192,176392,1,0,0:0:0:0:
192,192,176458,1,0,0:0:0:0:
64,192,176523,1,0,0:0:0:0:
320,192,176589,1,0,0:0:0:0:
192,192,176654,1,0,0:0:0:0:
448,192,176719,1,0,0:0:0:0:
320,192,176785,1,0,0:0:0:0:
192,192,176785,1,0,0:0:0:0:
64,192,176785,1,0,0:0:0:0:
320,192,176981,1,0,0:0:0:0:
448,192,176981,1,0,0:0:0:0:
64,192,176981,1,0,0:0:0:0:
192,192,177177,1,0,0:0:0:0:
448,192,177177,1,0,0:0:0:0:
64,192,177177,1,0,0:0:0:0:
320,192,177177,1,0,0:0:0:0:
64,192,177373,1,0,0:0:0:0:
192,192,177373,1,0,0:0:0:0:
320,192,177373,1,0,0:0:0:0:
448,192,177373,1,0,0:0:0:0:
320,192,177569,1,0,0:0:0:0:
64,192,177569,1,0,0:0:0:0:
192,192,177765,1,0,0:0:0:0:
448,192,177765,1,0,0:0:0:0:
64,192,177961,1,0,0:0:0:0:
192,192,177961,1,0,0:0:0:0:
320,192,177961,1,0,0:0:0:0:
448,192,177961,1,0,0:0:0:0:
448,192,178157,1,0,0:0:0:0:
320,192,178157,1,0,0:0:0:0:
192,192,178157,1,0,0:0:0:0:
64,192,178157,1,0,0:0:0:0:
448,192,178353,1,0,0:0:0:0:
64,192,178353,1,0,0:0:0:0:
320,192,178549,1,0,0:0:0:0:
192,192,178549,1,0,0:0:0:0:
64,192,178745,1,0,0:0:0:0:
192,192,178745,1,0,0:0:0:0:
320,192,178745,1,0,0:0:0:0:
448,192,178745,1,0,0:0:0:0:
448,192,178941,1,0,0:0:0:0:
64,192,178941,1,0,0:0:0:0:
64,192,179138,1,0,0:0:0:0:
192,192,179138,1,0,0:0:0:0:
320,192,179138,1,0,0:0:0:0:
448,192,179138,1,0,0:0:0:0:
320,192,179334,1,0,0:0:0:0:
192,192,179334,1,0,0:0:0:0:
448,192,179530,1,0,0:0:0:0:
320,192,179530,1,0,0:0:0:0:
192,192,179530,1,0,0:0:0:0:
64,192,179530,1,0,0:0:0:0:
64,192,179922,1,0,0:0:0:0:
448,192,179922,1,0,0:0:0:0:
320,192,179922,1,0,0:0:0:0:
448,192,180118,1,0,0:0:0:0:
64,192,180118,1,0,0:0:0:0:
192,192,180118,1,0,0:0:0:0:
64,192,180314,1,0,0:0:0:0:
320,192,180314,1,0,0:0:0:0:
448,192,180314,1,0,0:0:0:0:
192,192,180412,1,0,0:0:0:0:
448,192,180412,1,0,0:0:0:0:
320,192,180510,1,0,0:0:0:0:
192,192,180510,1,0,0:0:0:0:
64,192,180608,1,0,0:0:0:0:
320,192,180608,1,0,0:0:0:0:
192,192,180706,1,0,0:0:0:0:
64,192,180706,1,0,0:0:0:0:
448,192,180706,1,0,0:0:0:0:
320,192,180804,1,0,0:0:0:0:
64,192,180804,1,0,0:0:0:0:
320,192,180902,1,0,0:0:0:0:
192,192,180902,1,0,0:0:0:0:
192,192,181000,1,0,0:0:0:0:
448,192,181000,1,0,0:0:0:0:
320,192,181098,1,0,0:0:0:0:
448,192,181098,1,0,0:0:0:0:
64,192,181098,1,0,0:0:0:0:
448,192,181196,1,0,0:0:0:0:
192,192,181196,1,0,0:0:0:0:
320,192,181294,1,0,0:0:0:0:
64,192,181294,1,0,0:0:0:0:
192,192,181294,1,0,0:0:0:0:
64,192,181392,1,0,0:0:0:0:
448,192,181392,1,0,0:0:0:0:
192,192,181491,1,0,0:0:0:0:
320,192,181491,1,0,0:0:0:0:
448,192,181491,1,0,0:0:0:0:
64,192,181589,1,0,0:0:0:0:
320,192,181589,1,0,0:0:0:0:
192,192,181687,1,0,0:0:0:0:
64,192,181687,1,0,0:0:0:0:
448,192,181687,1,0,0:0:0:0:
320,192,181785,1,0,0:0:0:0:
64,192,181883,1,0,0:0:0:0:
320,192,181883,1,0,0:0:0:0:
448,192,181883,1,0,0:0:0:0:
192,192,181883,1,0,0:0:0:0:
192,192,181981,1,0,0:0:0:0:
64,192,182079,1,0,0:0:0:0:
448,192,182177,1,0,0:0:0:0:
320,192,182177,1,0,0:0:0:0:
64,192,182275,1,0,0:0:0:0:
192,192,182275,1,0,0:0:0:0:
320,192,182275,1,0,0:0:0:0:
448,192,182275,1,0,0:0:0:0:
192,192,182373,1,0,0:0:0:0:
320,192,182471,1,0,0:0:0:0:
64,192,182569,1,0,0:0:0:0:
192,192,182569,1,0,0:0:0:0:
192,192,182667,1,0,0:0:0:0:
320,192,182667,1,0,0:0:0:0:
448,192,182667,1,0,0:0:0:0:
64,192,182667,1,0,0:0:0:0:
448,192,182765,1,0,0:0:0:0:
64,192,182863,1,0,0:0:0:0:
320,192,182961,1,0,0:0:0:0:
448,192,182961,1,0,0:0:0:0:
64,192,183059,1,0,0:0:0:0:
320,192,183059,1,0,0:0:0:0:
448,192,183059,1,0,0:0:0:0:
192,192,183059,1,0,0:0:0:0:
64,192,183451,1,0,0:0:0:0:
448,192,183451,1,0,0:0:0:0:
64,192,183647,1,0,0:0:0:0:
448,192,183647,1,0,0:0:0:0:
192,192,183745,1,0,0:0:0:0:
320,192,183745,1,0,0:0:0:0:
320,192,183843,1,0,0:0:0:0:
448,192,183843,1,0,0:0:0:0:
64,192,183843,1,0,0:0:0:0:
192,192,184040,1,0,0:0:0:0:
320,192,184040,1,0,0:0:0:0:
320,192,184138,1,0,0:0:0:0:
192,192,184138,1,0,0:0:0:0:
448,192,184236,1,0,0:0:0:0:
64,192,184236,1,0,0:0:0:0:
64,192,184432,1,0,0:0:0:0:
448,192,184432,1,0,0:0:0:0:
192,192,184530,1,0,0:0:0:0:
320,192,184530,1,0,0:0:0:0:
192,192,184628,1,0,0:0:0:0:
64,192,184628,1,0,0:0:0:0:
448,192,184628,1,0,0:0:0:0:
320,192,184824,1,0,0:0:0:0:
192,192,184824,1,0,0:0:0:0:
64,192,185020,1,0,0:0:0:0:
192,192,185020,1,0,0:0:0:0:
320,192,185020,1,0,0:0:0:0:
448,192,185020,1,0,0:0:0:0:
320,192,185118,1,0,0:0:0:0:
448,192,185216,1,0,0:0:0:0:
192,192,185314,1,0,0:0:0:0:
64,192,185314,1,0,0:0:0:0:
64,192,185412,1,0,0:0:0:0:
192,192,185412,1,0,0:0:0:0:
320,192,185412,1,0,0:0:0:0:
448,192,185412,1,0,0:0:0:0:
320,192,185510,1,0,0:0:0:0:
64,192,185608,1,0,0:0:0:0:
320,192,185706,1,0,0:0:0:0:
448,192,185706,1,0,0:0:0:0:
448,192,185804,1,0,0:0:0:0:
320,192,185804,1,0,0:0:0:0:
192,192,185804,1,0,0:0:0:0:
64,192,185804,1,0,0:0:0:0:
320,192,186000,1,0,0:0:0:0:
192,192,186000,1,0,0:0:0:0:
64,192,186196,1,0,0:0:0:0:
320,192,186196,1,0,0:0:0:0:
448,192,186196,1,0,0:0:0:0:
192,192,186196,1,0,0:0:0:0:
320,192,186392,1,0,0:0:0:0:
192,192,186392,1,0,0:0:0:0:
64,192,186589,1,0,0:0:0:0:
192,192,186589,1,0,0:0:0:0:
320,192,186589,1,0,0:0:0:0:
448,192,186589,1,0,0:0:0:0:
64,192,186687,1,0,0:0:0:0:
448,192,186687,1,0,0:0:0:0:
192,192,186785,1,0,0:0:0:0:
320,192,186785,1,0,0:0:0:0:
192,192,186883,1,0,0:0:0:0:
448,192,186883,1,0,0:0:0:0:
320,192,186981,1,0,0:0:0:0:
448,192,186981,1,0,0:0:0:0:
64,192,187079,1,0,0:0:0:0:
192,192,187079,1,0,0:0:0:0:
448,192,187177,1,0,0:0:0:0:
64,192,187177,1,0,0:0:0:0:
192,192,187275,1,0,0:0:0:0:
448,192,187275,1,0,0:0:0:0:
320,192,187373,1,0,0:0:0:0:
64,192,187373,1,0,0:0:0:0:
192,192,187471,1,0,0:0:0:0:
320,192,187471,1,0,0:0:0:0:
448,192,187569,1,0,0:0:0:0:
192,192,187569,1,0,0:0:0:0:
64,192,187667,1,0,0:0:0:0:
448,192,187667,1,0,0:0:0:0:
320,192,187765,1,0,0:0:0:0:
192,192,187765,1,0,0:0:0:0:
320,192,187863,1,0,0:0:0:0:
64,192,187863,1,0,0:0:0:0:
64,192,187961,1,0,0:0:0:0:
448,192,187961,1,0,0:0:0:0:
192,192,188059,1,0,0:0:0:0:
320,192,188059,1,0,0:0:0:0:
448,192,188157,1,0,0:0:0:0:
64,192,188157,128,0,189726:0:0:0:0:
192,192,188157,128,0,189530:0:0:0:0:
448,192,188745,1,0,0:0:0:0:
320,192,188941,128,0,189334:0:0:0:0:
448,192,189334,1,0,0:0:0:0:
320,192,189530,1,0,0:0:0:0:
192,192,189726,1,0,0:0:0:0:
64,192,190118,5,0,0:0:0:0:
320,192,190118,1,0,0:0:0:0:
448,192,190118,1,0,0:0:0:0:
320,192,190216,1,0,0:0:0:0:
192,192,190314,1,0,0:0:0:0:
64,192,190314,1,0,0:0:0:0:
448,192,190314,1,0,0:0:0:0:
192,192,190412,1,0,0:0:0:0:
320,192,190510,1,0,0:0:0:0:
448,192,190510,1,0,0:0:0:0:
64,192,190510,1,0,0:0:0:0:
192,192,190608,1,0,0:0:0:0:
448,192,190608,1,0,0:0:0:0:
320,192,190706,1,0,0:0:0:0:
192,192,190706,1,0,0:0:0:0:
320,192,190804,1,0,0:0:0:0:
64,192,190804,1,0,0:0:0:0:
448,192,190902,1,0,0:0:0:0:
192,192,190902,1,0,0:0:0:0:
320,192,191000,1,0,0:0:0:0:
192,192,191000,1,0,0:0:0:0:
448,192,191098,1,0,0:0:0:0:
64,192,191098,1,0,0:0:0:0:
192,192,191196,1,0,0:0:0:0:
320,192,191196,1,0,0:0:0:0:
320,192,191294,1,0,0:0:0:0:
64,192,191294,1,0,0:0:0:0:
448,192,191294,1,0,0:0:0:0:
448,192,191392,1,0,0:0:0:0:
192,192,191392,1,0,0:0:0:0:
320,192,191490,1,0,0:0:0:0:
64,192,191490,1,0,0:0:0:0:
320,192,191588,1,0,0:0:0:0:
192,192,191588,1,0,0:0:0:0:
448,192,191686,1,0,0:0:0:0:
192,192,191686,1,0,0:0:0:0:
448,192,191784,1,0,0:0:0:0:
64,192,191784,1,0,0:0:0:0:
320,192,191882,1,0,0:0:0:0:
192,192,191882,1,0,0:0:0:0:
320,192,191980,1,0,0:0:0:0:
64,192,191980,1,0,0:0:0:0:
192,192,192078,1,0,0:0:0:0:
64,192,192078,1,0,0:0:0:0:
448,192,192078,1,0,0:0:0:0:
320,192,192176,1,0,0:0:0:0:
192,192,192176,1,0,0:0:0:0:
320,192,192274,1,0,0:0:0:0:
448,192,192274,1,0,0:0:0:0:
192,192,192372,1,0,0:0:0:0:
64,192,192372,1,0,0:0:0:0:
64,192,192470,1,0,0:0:0:0:
192,192,192470,1,0,0:0:0:0:
448,192,192470,1,0,0:0:0:0:
64,192,192568,1,0,0:0:0:0:
320,192,192568,1,0,0:0:0:0:
320,192,192666,1,0,0:0:0:0:
448,192,192666,1,0,0:0:0:0:
192,192,192764,1,0,0:0:0:0:
64,192,192764,1,0,0:0:0:0:
64,192,192862,1,0,0:0:0:0:
320,192,192862,1,0,0:0:0:0:
448,192,192862,1,0,0:0:0:0:
192,192,192960,1,0,0:0:0:0:
448,192,192960,1,0,0:0:0:0:
320,192,193059,1,0,0:0:0:0:
64,192,193059,1,0,0:0:0:0:
64,192,193157,1,0,0:0:0:0:
448,192,193157,1,0,0:0:0:0:
192,192,193255,1,0,0:0:0:0:
320,192,193255,1,0,0:0:0:0:
320,192,193353,1,0,0:0:0:0:
64,192,193353,1,0,0:0:0:0:
448,192,193451,1,0,0:0:0:0:
192,192,193451,1,0,0:0:0:0:
64,192,193549,1,0,0:0:0:0:
320,192,193549,1,0,0:0:0:0:
64,192,193647,1,0,0:0:0:0:
192,192,193647,1,0,0:0:0:0:
448,192,193647,1,0,0:0:0:0:
192,192,193745,1,0,0:0:0:0:
64,192,193843,1,0,0:0:0:0:
320,192,193843,1,0,0:0:0:0:
448,192,193843,1,0,0:0:0:0:
448,192,193941,1,0,0:0:0:0:
192,192,193941,1,0,0:0:0:0:
64,192,193941,1,0,0:0:0:0:
320,192,194039,1,0,0:0:0:0:
192,192,194137,1,0,0:0:0:0:
448,192,194235,1,0,0:0:0:0:
64,192,194235,1,0,0:0:0:0:
320,192,194235,1,0,0:0:0:0:
192,192,194333,1,0,0:0:0:0:
448,192,194405,1,0,0:0:0:0:
64,192,194405,1,0,0:0:0:0:
320,192,194405,1,0,0:0:0:0:
320,192,194503,1,0,0:0:0:0:
448,192,194601,1,0,0:0:0:0:
64,192,194601,1,0,0:0:0:0:
192,192,194601,1,0,0:0:0:0:
64,192,194699,1,0,0:0:0:0:
448,192,194699,1,0,0:0:0:0:
320,192,194699,1,0,0:0:0:0:
192,192,194797,1,0,0:0:0:0:
320,192,194797,1,0,0:0:0:0:
192,192,194895,1,0,0:0:0:0:
448,192,194895,1,0,0:0:0:0:
320,192,194993,1,0,0:0:0:0:
64,192,194993,1,0,0:0:0:0:
448,192,195091,1,0,0:0:0:0:
192,192,195091,1,0,0:0:0:0:
192,192,195189,1,0,0:0:0:0:
320,192,195189,1,0,0:0:0:0:
448,192,195189,1,0,0:0:0:0:
64,192,195189,1,0,0:0:0:0:
320,192,195287,1,0,0:0:0:0:
192,192,195385,1,0,0:0:0:0:
320,192,195483,1,0,0:0:0:0:
448,192,195483,1,0,0:0:0:0:
64,192,195581,1,0,0:0:0:0:
192,192,195581,1,0,0:0:0:0:
320,192,195581,1,0,0:0:0:0:
448,192,195581,1,0,0:0:0:0:
192,192,195679,1,0,0:0:0:0:
320,192,195777,1,0,0:0:0:0:
64,192,195875,1,0,0:0:0:0:
192,192,195875,1,0,0:0:0:0:
192,192,195973,1,0,0:0:0:0:
320,192,195973,1,0,0:0:0:0:
448,192,195973,1,0,0:0:0:0:
64,192,195973,1,0,0:0:0:0:
320,192,196071,1,0,0:0:0:0:
192,192,196169,1,0,0:0:0:0:
448,192,196267,1,0,0:0:0:0:
320,192,196267,1,0,0:0:0:0:
448,192,196365,1,0,0:0:0:0:
320,192,196365,1,0,0:0:0:0:
192,192,196365,1,0,0:0:0:0:
64,192,196365,1,0,0:0:0:0:
64,192,196463,1,0,0:0:0:0:
192,192,196463,1,0,0:0:0:0:
64,192,196561,1,0,0:0:0:0:
192,192,196561,1,0,0:0:0:0:
64,192,196659,1,0,0:0:0:0:
192,192,196659,1,0,0:0:0:0:
64,192,196757,1,0,0:0:0:0:
320,192,196757,1,0,0:0:0:0:
448,192,196757,1,0,0:0:0:0:
192,192,196855,1,0,0:0:0:0:
448,192,196855,1,0,0:0:0:0:
320,192,196954,1,0,0:0:0:0:
192,192,196954,1,0,0:0:0:0:
320,192,197052,1,0,0:0:0:0:
64,192,197052,1,0,0:0:0:0:
448,192,197150,1,0,0:0:0:0:
192,192,197150,1,0,0:0:0:0:
448,192,197248,1,0,0:0:0:0:
320,192,197248,1,0,0:0:0:0:
192,192,197346,1,0,0:0:0:0:
64,192,197346,1,0,0:0:0:0:
64,192,197444,1,0,0:0:0:0:
320,192,197444,1,0,0:0:0:0:
192,192,197542,1,0,0:0:0:0:
320,192,197542,1,0,0:0:0:0:
448,192,197542,1,0,0:0:0:0:
64,192,197640,1,0,0:0:0:0:
448,192,197640,1,0,0:0:0:0:
192,192,197738,1,0,0:0:0:0:
320,192,197738,1,0,0:0:0:0:
64,192,197836,1,0,0:0:0:0:
192,192,197836,1,0,0:0:0:0:
64,192,197934,1,0,0:0:0:0:
320,192,197934,1,0,0:0:0:0:
448,192,197934,1,0,0:0:0:0:
448,192,198032,1,0,0:0:0:0:
192,192,198032,1,0,0:0:0:0:
320,192,198130,1,0,0:0:0:0:
64,192,198130,1,0,0:0:0:0:
192,192,198228,1,0,0:0:0:0:
448,192,198228,1,0,0:0:0:0:
320,192,198326,1,0,0:0:0:0:
192,192,198326,1,0,0:0:0:0:
64,192,198326,1,0,0:0:0:0:
64,192,198424,1,0,0:0:0:0:
448,192,198424,1,0,0:0:0:0:
192,192,198522,1,0,0:0:0:0:
320,192,198522,1,0,0:0:0:0:
448,192,198522,1,0,0:0:0:0:
64,192,198620,1,0,0:0:0:0:
192,192,198620,1,0,0:0:0:0:
320,192,198718,1,0,0:0:0:0:
448,192,198718,1,0,0:0:0:0:
64,192,198718,1,0,0:0:0:0:
448,192,198816,1,0,0:0:0:0:
320,192,198816,1,0,0:0:0:0:
64,192,198914,1,0,0:0:0:0:
192,192,198914,1,0,0:0:0:0:
448,192,198914,1,0,0:0:0:0:
192,192,199012,1,0,0:0:0:0:
64,192,199012,1,0,0:0:0:0:
448,192,199110,1,0,0:0:0:0:
320,192,199110,1,0,0:0:0:0:
64,192,199110,1,0,0:0:0:0:
448,192,199208,1,0,0:0:0:0:
192,192,199208,1,0,0:0:0:0:
320,192,199306,1,0,0:0:0:0:
192,192,199306,1,0,0:0:0:0:
448,192,199405,1,0,0:0:0:0:
64,192,199405,1,0,0:0:0:0:
448,192,199503,1,0,0:0:0:0:
192,192,199503,1,0,0:0:0:0:
320,192,199601,1,0,0:0:0:0:
64,192,199601,1,0,0:0:0:0:
448,192,199699,1,0,0:0:0:0:
64,192,199699,1,0,0:0:0:0:
192,192,199797,1,0,0:0:0:0:
320,192,199797,1,0,0:0:0:0:
192,192,199895,1,0,0:0:0:0:
64,192,199895,1,0,0:0:0:0:
448,192,199895,1,0,0:0:0:0:
320,192,199993,1,0,0:0:0:0:
64,192,199993,1,0,0:0:0:0:
448,192,200091,1,0,0:0:0:0:
192,192,200091,1,0,0:0:0:0:
320,192,200189,1,0,0:0:0:0:
448,192,200189,1,0,0:0:0:0:
64,192,200189,1,0,0:0:0:0:
192,192,200287,1,0,0:0:0:0:
64,192,200287,1,0,0:0:0:0:
192,192,200385,1,0,0:0:0:0:
320,192,200385,1,0,0:0:0:0:
448,192,200483,1,0,0:0:0:0:
320,192,200483,1,0,0:0:0:0:
64,192,200483,1,0,0:0:0:0:
448,192,200581,1,0,0:0:0:0:
192,192,200581,1,0,0:0:0:0:
320,192,200679,1,0,0:0:0:0:
192,192,200679,1,0,0:0:0:0:
64,192,200679,1,0,0:0:0:0:
448,192,200777,1,0,0:0:0:0:
64,192,200777,1,0,0:0:0:0:
320,192,200875,1,0,0:0:0:0:
192,192,200875,1,0,0:0:0:0:
320,192,200973,1,0,0:0:0:0:
64,192,200973,1,0,0:0:0:0:
192,192,201071,1,0,0:0:0:0:
448,192,201071,1,0,0:0:0:0:
64,192,201071,1,0,0:0:0:0:
192,192,201169,1,0,0:0:0:0:
320,192,201169,1,0,0:0:0:0:
64,192,201267,1,0,0:0:0:0:
448,192,201267,1,0,0:0:0:0:
320,192,201267,1,0,0:0:0:0:
192,192,201365,1,0,0:0:0:0:
448,192,201463,1,0,0:0:0:0:
320,192,201463,1,0,0:0:0:0:
192,192,201463,1,0,0:0:0:0:
64,192,201463,1,0,0:0:0:0:
448,192,201561,1,0,0:0:0:0:
192,192,201659,1,0,0:0:0:0:
64,192,201659,1,0,0:0:0:0:
448,192,201757,1,0,0:0:0:0:
320,192,201757,1,0,0:0:0:0:
192,192,201757,1,0,0:0:0:0:
64,192,201757,1,0,0:0:0:0:
448,192,201855,1,0,0:0:0:0:
320,192,201855,1,0,0:0:0:0:
64,192,201954,1,0,0:0:0:0:
192,192,202052,1,0,0:0:0:0:
448,192,202052,1,0,0:0:0:0:
320,192,202052,1,0,0:0:0:0:
64,192,202052,1,0,0:0:0:0:
192,192,202150,1,0,0:0:0:0:
64,192,202248,1,0,0:0:0:0:
320,192,202248,1,0,0:0:0:0:
448,192,202248,1,0,0:0:0:0:
320,192,202346,1,0,0:0:0:0:
448,192,202346,1,0,0:0:0:0:
448,192,202444,1,0,0:0:0:0:
192,192,202444,1,0,0:0:0:0:
64,192,202444,1,0,0:0:0:0:
192,192,202542,1,0,0:0:0:0:
64,192,202640,1,0,0:0:0:0:
320,192,202640,1,0,0:0:0:0:
320,192,202738,1,0,0:0:0:0:
448,192,202738,1,0,0:0:0:0:
448,192,202836,1,0,0:0:0:0:
192,192,202836,1,0,0:0:0:0:
64,192,202934,1,0,0:0:0:0:
320,192,202934,1,0,0:0:0:0:
192,192,203032,1,0,0:0:0:0:
64,192,203032,1,0,0:0:0:0:
448,192,203032,1,0,0:0:0:0:
320,192,203130,1,0,0:0:0:0:
448,192,203130,1,0,0:0:0:0:
64,192,203228,1,0,0:0:0:0:
192,192,203228,1,0,0:0:0:0:
64,192,203326,1,0,0:0:0:0:
320,192,203326,1,0,0:0:0:0:
448,192,203424,1,0,0:0:0:0:
192,192,203424,1,0,0:0:0:0:
192,192,203522,1,0,0:0:0:0:
320,192,203522,1,0,0:0:0:0:
64,192,203620,1,0,0:0:0:0:
448,192,203620,1,0,0:0:0:0:
448,192,203718,1,0,0:0:0:0:
192,192,203718,1,0,0:0:0:0:
320,192,203816,1,0,0:0:0:0:
192,192,203816,1,0,0:0:0:0:
64,192,203816,1,0,0:0:0:0:
448,192,203914,1,0,0:0:0:0:
320,192,203914,1,0,0:0:0:0:
192,192,204012,1,0,0:0:0:0:
64,192,204012,1,0,0:0:0:0:
320,192,204110,1,0,0:0:0:0:
448,192,204110,1,0,0:0:0:0:
64,192,204110,1,0,0:0:0:0:
192,192,204208,1,0,0:0:0:0:
448,192,204208,1,0,0:0:0:0:
64,192,204306,1,0,0:0:0:0:
320,192,204306,1,0,0:0:0:0:
192,192,204405,1,0,0:0:0:0:
64,192,204405,1,0,0:0:0:0:
448,192,204405,1,0,0:0:0:0:
320,192,204503,1,0,0:0:0:0:
192,192,204601,1,0,0:0:0:0:
64,192,204601,1,0,0:0:0:0:
448,192,204601,1,0,0:0:0:0:
320,192,204699,1,0,0:0:0:0:
192,192,204699,1,0,0:0:0:0:
448,192,204797,1,0,0:0:0:0:
64,192,204797,1,0,0:0:0:0:
448,192,204895,1,0,0:0:0:0:
192,192,204895,1,0,0:0:0:0:
320,192,204993,1,0,0:0:0:0:
64,192,204993,1,0,0:0:0:0:
320,192,205091,1,0,0:0:0:0:
192,192,205091,1,0,0:0:0:0:
448,192,205189,1,0,0:0:0:0:
64,192,205189,1,0,0:0:0:0:
64,192,205287,1,0,0:0:0:0:
320,192,205287,1,0,0:0:0:0:
192,192,205385,1,0,0:0:0:0:
448,192,205385,1,0,0:0:0:0:
320,192,205385,1,0,0:0:0:0:
192,192,205483,1,0,0:0:0:0:
448,192,205483,1,0,0:0:0:0:
320,192,205581,1,0,0:0:0:0:
64,192,205581,1,0,0:0:0:0:
192,192,205679,1,0,0:0:0:0:
320,192,205679,1,0,0:0:0:0:
192,192,205777,1,0,0:0:0:0:
64,192,205777,1,0,0:0:0:0:
448,192,205777,1,0,0:0:0:0:
320,192,205875,1,0,0:0:0:0:
64,192,205875,1,0,0:0:0:0:
448,192,205973,1,0,0:0:0:0:
192,192,205973,1,0,0:0:0:0:
320,192,206071,1,0,0:0:0:0:
192,192,206071,1,0,0:0:0:0:
64,192,206169,1,0,0:0:0:0:
448,192,206169,1,0,0:0:0:0:
320,192,206169,1,0,0:0:0:0:
192,192,206267,1,0,0:0:0:0:
64,192,206267,1,0,0:0:0:0:
64,192,206365,1,0,0:0:0:0:
192,192,206365,1,0,0:0:0:0:
192,192,206463,1,0,0:0:0:0:
64,192,206463,1,0,0:0:0:0:
448,192,206561,1,0,0:0:0:0:
320,192,206561,1,0,0:0:0:0:
448,192,206659,1,0,0:0:0:0:
64,192,206659,1,0,0:0:0:0:
320,192,206757,1,0,0:0:0:0:
192,192,206757,1,0,0:0:0:0:
64,192,206757,1,0,0:0:0:0:
448,192,206855,1,0,0:0:0:0:
192,192,206855,1,0,0:0:0:0:
448,192,206954,1,0,0:0:0:0:
320,192,206954,1,0,0:0:0:0:
64,192,206954,1,0,0:0:0:0:
192,192,207052,1,0,0:0:0:0:
320,192,207052,1,0,0:0:0:0:
64,192,207150,1,0,0:0:0:0:
192,192,207150,1,0,0:0:0:0:
320,192,207248,1,0,0:0:0:0:
448,192,207248,1,0,0:0:0:0:
320,192,207346,1,0,0:0:0:0:
448,192,207346,1,0,0:0:0:0:
320,192,207444,1,0,0:0:0:0:
448,192,207444,1,0,0:0:0:0:
192,192,207542,1,0,0:0:0:0:
64,192,207542,1,0,0:0:0:0:
448,192,207542,1,0,0:0:0:0:
192,192,207640,1,0,0:0:0:0:
64,192,207738,1,0,0:0:0:0:
320,192,207738,1,0,0:0:0:0:
448,192,207738,1,0,0:0:0:0:
448,192,207836,1,0,0:0:0:0:
192,192,207836,1,0,0:0:0:0:
64,192,207934,1,0,0:0:0:0:
320,192,207934,1,0,0:0:0:0:
192,192,207934,1,0,0:0:0:0:
448,192,208032,1,0,0:0:0:0:
64,192,208032,1,0,0:0:0:0:
320,192,208032,1,0,0:0:0:0:
192,192,208130,1,0,0:0:0:0:
448,192,208130,1,0,0:0:0:0:
64,192,208130,1,0,0:0:0:0:
320,192,208228,1,0,0:0:0:0:
192,192,208228,1,0,0:0:0:0:
64,192,208326,1,0,0:0:0:0:
320,192,208326,1,0,0:0:0:0:
192,192,208424,1,0,0:0:0:0:
448,192,208424,1,0,0:0:0:0:
192,192,208522,1,0,0:0:0:0:
64,192,208522,1,0,0:0:0:0:
320,192,208522,1,0,0:0:0:0:
448,192,208620,1,0,0:0:0:0:
64,192,208620,1,0,0:0:0:0:
448,192,208718,1,0,0:0:0:0:
320,192,208718,1,0,0:0:0:0:
192,192,208816,1,0,0:0:0:0:
320,192,208816,1,0,0:0:0:0:
448,192,208914,1,0,0:0:0:0:
64,192,208914,1,0,0:0:0:0:
448,192,209012,1,0,0:0:0:0:
192,192,209012,1,0,0:0:0:0:
320,192,209110,1,0,0:0:0:0:
192,192,209110,1,0,0:0:0:0:
64,192,209208,1,0,0:0:0:0:
320,192,209208,1,0,0:0:0:0:
192,192,209306,1,0,0:0:0:0:
64,192,209306,1,0,0:0:0:0:
448,192,209306,1,0,0:0:0:0:
320,192,209405,1,0,0:0:0:0:
448,192,209405,1,0,0:0:0:0:
320,192,209503,1,0,0:0:0:0:
448,192,209503,1,0,0:0:0:0:
320,192,209601,1,0,0:0:0:0:
448,192,209601,1,0,0:0:0:0:
64,192,209699,1,0,0:0:0:0:
192,192,209699,1,0,0:0:0:0:
64,192,209797,1,0,0:0:0:0:
448,192,209797,1,0,0:0:0:0:
192,192,209895,1,0,0:0:0:0:
320,192,209895,1,0,0:0:0:0:
448,192,209895,1,0,0:0:0:0:
64,192,209993,1,0,0:0:0:0:
320,192,209993,1,0,0:0:0:0:
64,192,210091,1,0,0:0:0:0:
192,192,210091,1,0,0:0:0:0:
448,192,210091,1,0,0:0:0:0:
320,192,210189,1,0,0:0:0:0:
192,192,210189,1,0,0:0:0:0:
448,192,210287,1,0,0:0:0:0:
320,192,210287,1,0,0:0:0:0:
192,192,210385,1,0,0:0:0:0:
64,192,210385,1,0,0:0:0:0:
192,192,210483,1,0,0:0:0:0:
64,192,210483,1,0,0:0:0:0:
192,192,210581,1,0,0:0:0:0:
64,192,210581,1,0,0:0:0:0:
320,192,210679,1,0,0:0:0:0:
448,192,210679,1,0,0:0:0:0:
64,192,210679,1,0,0:0:0:0:
320,192,210777,1,0,0:0:0:0:
448,192,210875,1,0,0:0:0:0:
192,192,210875,1,0,0:0:0:0:
64,192,210875,1,0,0:0:0:0:
64,192,210973,1,0,0:0:0:0:
320,192,210973,1,0,0:0:0:0:
448,192,211071,1,0,0:0:0:0:
192,192,211071,1,0,0:0:0:0:
320,192,211071,1,0,0:0:0:0:
64,192,211169,1,0,0:0:0:0:
448,192,211169,1,0,0:0:0:0:
192,192,211169,1,0,0:0:0:0:
320,192,211267,1,0,0:0:0:0:
64,192,211267,1,0,0:0:0:0:
448,192,211267,1,0,0:0:0:0:
192,192,211365,1,0,0:0:0:0:
320,192,211365,1,0,0:0:0:0:
448,192,211463,1,0,0:0:0:0:
192,192,211463,1,0,0:0:0:0:
320,192,211561,1,0,0:0:0:0:
64,192,211561,1,0,0:0:0:0:
320,192,211659,1,0,0:0:0:0:
448,192,211659,1,0,0:0:0:0:
192,192,211659,1,0,0:0:0:0:
64,192,211757,1,0,0:0:0:0:
448,192,211757,1,0,0:0:0:0:
64,192,211855,1,0,0:0:0:0:
192,192,211855,1,0,0:0:0:0:
320,192,211954,1,0,0:0:0:0:
192,192,211954,1,0,0:0:0:0:
64,192,212052,1,0,0:0:0:0:
448,192,212052,1,0,0:0:0:0:
64,192,212150,1,0,0:0:0:0:
320,192,212150,1,0,0:0:0:0:
192,192,212248,1,0,0:0:0:0:
320,192,212248,1,0,0:0:0:0:
448,192,212346,1,0,0:0:0:0:
192,192,212346,1,0,0:0:0:0:
320,192,212444,1,0,0:0:0:0:
448,192,212444,1,0,0:0:0:0:
64,192,212444,1,0,0:0:0:0:
192,192,212542,1,0,0:0:0:0:
64,192,212542,1,0,0:0:0:0:
192,192,212640,1,0,0:0:0:0:
64,192,212640,1,0,0:0:0:0:
192,192,212738,1,0,0:0:0:0:
64,192,212738,1,0,0:0:0:0:
320,192,212836,1,0,0:0:0:0:
448,192,212836,1,0,0:0:0:0:
192,192,212934,1,0,0:0:0:0:
448,192,212934,1,0,0:0:0:0:
320,192,213032,1,0,0:0:0:0:
192,192,213032,1,0,0:0:0:0:
64,192,213130,1,0,0:0:0:0:
320,192,213130,1,0,0:0:0:0:
192,192,213228,1,0,0:0:0:0:
64,192,213228,1,0,0:0:0:0:
448,192,213228,1,0,0:0:0:0:
64,192,213326,1,0,0:0:0:0:
320,192,213326,1,0,0:0:0:0:
192,192,213424,1,0,0:0:0:0:
320,192,213424,1,0,0:0:0:0:
448,192,213424,1,0,0:0:0:0:
64,192,213522,1,0,0:0:0:0:
320,192,213522,1,0,0:0:0:0:
192,192,213620,1,0,0:0:0:0:
64,192,213620,1,0,0:0:0:0:
448,192,213620,1,0,0:0:0:0:
64,192,213718,1,0,0:0:0:0:
320,192,213718,1,0,0:0:0:0:
192,192,213816,1,0,0:0:0:0:
320,192,213816,1,0,0:0:0:0:
448,192,213914,1,0,0:0:0:0:
192,192,213914,1,0,0:0:0:0:
320,192,214012,1,0,0:0:0:0:
64,192,214012,1,0,0:0:0:0:
448,192,214012,1,0,0:0:0:0:
192,192,214110,1,0,0:0:0:0:
64,192,214110,1,0,0:0:0:0:
192,192,214208,1,0,0:0:0:0:
64,192,214208,1,0,0:0:0:0:
320,192,214208,1,0,0:0:0:0:
192,192,214306,1,0,0:0:0:0:
320,192,214306,1,0,0:0:0:0:
448,192,214306,1,0,0:0:0:0:
320,192,214405,1,0,0:0:0:0:
448,192,214405,1,0,0:0:0:0:
64,192,214405,1,0,0:0:0:0:
448,192,214503,1,0,0:0:0:0:
192,192,214503,1,0,0:0:0:0:
320,192,214601,1,0,0:0:0:0:
64,192,214601,1,0,0:0:0:0:
192,192,214699,1,0,0:0:0:0:
320,192,214699,1,0,0:0:0:0:
192,192,214797,1,0,0:0:0:0:
64,192,214797,1,0,0:0:0:0:
448,192,214797,1,0,0:0:0:0:
64,192,214895,1,0,0:0:0:0:
320,192,214895,1,0,0:0:0:0:
448,192,214993,1,0,0:0:0:0:
192,192,214993,1,0,0:0:0:0:
320,192,215091,1,0,0:0:0:0:
192,192,215091,1,0,0:0:0:0:
320,192,215189,1,0,0:0:0:0:
448,192,215189,1,0,0:0:0:0:
64,192,215189,1,0,0:0:0:0:
192,192,215287,1,0,0:0:0:0:
448,192,215287,1,0,0:0:0:0:
320,192,215385,1,0,0:0:0:0:
64,192,215385,1,0,0:0:0:0:
320,192,215483,1,0,0:0:0:0:
192,192,215483,1,0,0:0:0:0:
192,192,215581,1,0,0:0:0:0:
64,192,215581,1,0,0:0:0:0:
448,192,215581,1,0,0:0:0:0:
320,192,215679,1,0,0:0:0:0:
64,192,215679,1,0,0:0:0:0:
320,192,215777,1,0,0:0:0:0:
448,192,215777,1,0,0:0:0:0:
192,192,215875,1,0,0:0:0:0:
320,192,215973,1,0,0:0:0:0:
448,192,215973,1,0,0:0:0:0:
64,192,215973,1,0,0:0:0:0:
192,192,216071,1,0,0:0:0:0:
448,192,216071,1,0,0:0:0:0:
192,192,216169,1,0,0:0:0:0:
64,192,216169,1,0,0:0:0:0:
320,192,216267,1,0,0:0:0:0:
64,192,216365,1,0,0:0:0:0:
192,192,216365,1,0,0:0:0:0:
448,192,216365,1,0,0:0:0:0:
320,192,216463,1,0,0:0:0:0:
64,192,216463,1,0,0:0:0:0:
320,192,216561,1,0,0:0:0:0:
448,192,216561,1,0,0:0:0:0:
192,192,216659,1,0,0:0:0:0:
320,192,216757,1,0,0:0:0:0:
448,192,216757,1,0,0:0:0:0:
64,192,216757,1,0,0:0:0:0:
192,192,216855,1,0,0:0:0:0:
448,192,216855,1,0,0:0:0:0:
192,192,216954,1,0,0:0:0:0:
64,192,216954,1,0,0:0:0:0:
320,192,217052,1,0,0:0:0:0:
192,192,217150,1,0,0:0:0:0:
64,192,217150,1,0,0:0:0:0:
448,192,217150,1,0,0:0:0:0:
320,192,217248,1,0,0:0:0:0:
64,192,217248,1,0,0:0:0:0:
320,192,217346,1,0,0:0:0:0:
448,192,217346,1,0,0:0:0:0:
192,192,217444,1,0,0:0:0:0:
448,192,217542,1,0,0:0:0:0:
320,192,217542,1,0,0:0:0:0:
64,192,217542,1,0,0:0:0:0:
192,192,217640,1,0,0:0:0:0:
448,192,217640,1,0,0:0:0:0:
192,192,217738,1,0,0:0:0:0:
64,192,217738,1,0,0:0:0:0:
320,192,217836,1,0,0:0:0:0:
448,192,217934,1,0,0:0:0:0:
64,192,217934,1,0,0:0:0:0:
192,192,217934,1,0,0:0:0:0:
320,192,218032,1,0,0:0:0:0:
64,192,218032,1,0,0:0:0:0:
448,192,218130,1,0,0:0:0:0:
320,192,218130,1,0,0:0:0:0:
192,192,218228,1,0,0:0:0:0:
64,192,218326,1,0,0:0:0:0:
448,192,218326,1,0,0:0:0:0:
320,192,218326,1,0,0:0:0:0:
448,192,218424,1,0,0:0:0:0:
192,192,218424,1,0,0:0:0:0:
64,192,218522,1,0,0:0:0:0:
192,192,218522,1,0,0:0:0:0:
320,192,218620,1,0,0:0:0:0:
448,192,218718,1,0,0:0:0:0:
192,192,218718,1,0,0:0:0:0:
64,192,218718,1,0,0:0:0:0:
64,192,218816,1,0,0:0:0:0:
320,192,218816,1,0,0:0:0:0:
320,192,218914,1,0,0:0:0:0:
448,192,218914,1,0,0:0:0:0:
192,192,219012,1,0,0:0:0:0:
64,192,219110,1,0,0:0:0:0:
448,192,219110,1,0,0:0:0:0:
320,192,219110,1,0,0:0:0:0:
448,192,219208,1,0,0:0:0:0:
192,192,219208,1,0,0:0:0:0:
64,192,219306,1,0,0:0:0:0:
192,192,219306,1,0,0:0:0:0:
320,192,219405,1,0,0:0:0:0:
448,192,219503,1,0,0:0:0:0:
192,192,219503,1,0,0:0:0:0:
64,192,219503,1,0,0:0:0:0:
64,192,219601,1,0,0:0:0:0:
320,192,219601,1,0,0:0:0:0:
320,192,219699,1,0,0:0:0:0:
448,192,219699,1,0,0:0:0:0:
192,192,219797,1,0,0:0:0:0:
320,192,219895,1,0,0:0:0:0:
448,192,219895,1,0,0:0:0:0:
64,192,219895,1,0,0:0:0:0:
192,192,219993,1,0,0:0:0:0:
448,192,219993,1,0,0:0:0:0:
192,192,220091,1,0,0:0:0:0:
64,192,220091,1,0,0:0:0:0:
320,192,220189,1,0,0:0:0:0:
64,192,220287,1,0,0:0:0:0:
192,192,220287,1,0,0:0:0:0:
448,192,220287,1,0,0:0:0:0:
320,192,220385,1,0,0:0:0:0:
64,192,220385,1,0,0:0:0:0:
448,192,220483,1,0,0:0:0:0:
320,192,220483,1,0,0:0:0:0:
192,192,220581,1,0,0:0:0:0:
64,192,220679,1,0,0:0:0:0:
448,192,220679,1,0,0:0:0:0:
320,192,220679,1,0,0:0:0:0:
448,192,220777,1,0,0:0:0:0:
192,192,220777,1,0,0:0:0:0:
64,192,220875,1,0,0:0:0:0:
192,192,220875,1,0,0:0:0:0:
320,192,220973,1,0,0:0:0:0:
448,192,221071,1,0,0:0:0:0:
192,192,221071,1,0,0:0:0:0:
64,192,221071,1,0,0:0:0:0:
64,192,221169,1,0,0:0:0:0:
320,192,221169,1,0,0:0:0:0:
320,192,221267,1,0,0:0:0:0:
448,192,221267,1,0,0:0:0:0:
192,192,221365,1,0,0:0:0:0:
64,192,221463,1,0,0:0:0:0:
320,192,221463,1,0,0:0:0:0:
448,192,221463,1,0,0:0:0:0:
320,192,221561,1,0,0:0:0:0:
192,192,221659,1,0,0:0:0:0:
64,192,221659,1,0,0:0:0:0:
448,192,221659,1,0,0:0:0:0:
192,192,221757,1,0,0:0:0:0:
64,192,221855,1,0,0:0:0:0:
448,192,221855,1,0,0:0:0:0:
320,192,221905,1,0,0:0:0:0:
192,192,221954,1,0,0:0:0:0:
64,192,222003,1,0,0:0:0:0:
320,192,222052,1,0,0:0:0:0:
448,192,222052,1,0,0:0:0:0:
192,192,222101,1,0,0:0:0:0:
64,192,222150,1,0,0:0:0:0:
448,192,222199,1,0,0:0:0:0:
320,192,222248,1,0,0:0:0:0:
192,192,222248,1,0,0:0:0:0:
64,192,222297,1,0,0:0:0:0:
448,192,222346,1,0,0:0:0:0:
320,192,222395,1,0,0:0:0:0:
192,192,222444,1,0,0:0:0:0:
64,192,222444,1,0,0:0:0:0:
448,192,222493,1,0,0:0:0:0:
320,192,222542,1,0,0:0:0:0:
192,192,222591,1,0,0:0:0:0:
64,192,222640,1,0,0:0:0:0:
448,192,222640,1,0,0:0:0:0:
192,192,222689,1,0,0:0:0:0:
320,192,222738,1,0,0:0:0:0:
448,192,222787,1,0,0:0:0:0:
192,192,222836,1,0,0:0:0:0:
64,192,222836,1,0,0:0:0:0:
320,192,222885,1,0,0:0:0:0:
448,192,222934,1,0,0:0:0:0:
64,192,222983,1,0,0:0:0:0:
192,192,223032,1,0,0:0:0:0:
320,192,223032,1,0,0:0:0:0:
448,192,223081,1,0,0:0:0:0:
64,192,223130,1,0,0:0:0:0:
192,192,223179,1,0,0:0:0:0:
320,192,223228,1,0,0:0:0:0:
448,192,223228,1,0,0:0:0:0:
64,192,223277,1,0,0:0:0:0:
192,192,223326,1,0,0:0:0:0:
320,192,223375,1,0,0:0:0:0:
448,192,223424,1,0,0:0:0:0:
64,192,223424,1,0,0:0:0:0:
320,192,223473,1,0,0:0:0:0:
192,192,223522,1,0,0:0:0:0:
64,192,223571,1,0,0:0:0:0:
448,192,223620,1,0,0:0:0:0:
320,192,223620,1,0,0:0:0:0:
192,192,223669,1,0,0:0:0:0:
64,192,223718,1,0,0:0:0:0:
448,192,223767,1,0,0:0:0:0:
320,192,223816,1,0,0:0:0:0:
192,192,223816,1,0,0:0:0:0:
64,192,223865,1,0,0:0:0:0:
448,192,223914,1,0,0:0:0:0:
320,192,223963,1,0,0:0:0:0:
192,192,224012,1,0,0:0:0:0:
64,192,224012,1,0,0:0:0:0:
448,192,224061,1,0,0:0:0:0:
320,192,224110,1,0,0:0:0:0:
192,192,224159,1,0,0:0:0:0:
64,192,224208,1,0,0:0:0:0:
448,192,224208,1,0,0:0:0:0:
320,192,224257,1,0,0:0:0:0:
192,192,224306,1,0,0:0:0:0:
64,192,224355,1,0,0:0:0:0:
448,192,224405,1,0,0:0:0:0:
320,192,224405,1,0,0:0:0:0:
192,192,224454,1,0,0:0:0:0:
64,192,224503,1,0,0:0:0:0:
448,192,224552,1,0,0:0:0:0:
320,192,224601,1,0,0:0:0:0:
192,192,224601,1,0,0:0:0:0:
64,192,224650,1,0,0:0:0:0:
448,192,224699,1,0,0:0:0:0:
320,192,224748,1,0,0:0:0:0:
192,192,224797,1,0,0:0:0:0:
64,192,224797,1,0,0:0:0:0:
448,192,224846,1,0,0:0:0:0:
320,192,224895,1,0,0:0:0:0:
192,192,224944,1,0,0:0:0:0:
64,192,224993,1,0,0:0:0:0:
448,192,224993,1,0,0:0:0:0:
192,192,225042,1,0,0:0:0:0:
320,192,225091,1,0,0:0:0:0:
448,192,225140,1,0,0:0:0:0:
64,192,225189,1,0,0:0:0:0:
192,192,225189,1,0,0:0:0:0:
320,192,225238,1,0,0:0:0:0:
448,192,225287,1,0,0:0:0:0:
64,192,225336,1,0,0:0:0:0:
192,192,225385,1,0,0:0:0:0:
320,192,225385,1,0,0:0:0:0:
448,192,225434,1,0,0:0:0:0:
64,192,225483,1,0,0:0:0:0:
192,192,225532,1,0,0:0:0:0:
320,192,225581,1,0,0:0:0:0:
448,192,225581,1,0,0:0:0:0:
64,192,225630,1,0,0:0:0:0:
192,192,225679,1,0,0:0:0:0:
320,192,225728,1,0,0:0:0:0:
448,192,225777,1,0,0:0:0:0:
64,192,225777,1,0,0:0:0:0:
192,192,225826,1,0,0:0:0:0:
320,192,225875,1,0,0:0:0:0:
448,192,225924,1,0,0:0:0:0:
192,192,225973,1,0,0:0:0:0:
64,192,225973,1,0,0:0:0:0:
320,192,226022,1,0,0:0:0:0:
448,192,226071,1,0,0:0:0:0:
64,192,226120,1,0,0:0:0:0:
192,192,226169,1,0,0:0:0:0:
320,192,226169,1,0,0:0:0:0:
448,192,226218,1,0,0:0:0:0:
64,192,226267,1,0,0:0:0:0:
192,192,226316,1,0,0:0:0:0:
320,192,226365,1,0,0:0:0:0:
448,192,226365,1,0,0:0:0:0:
64,192,226414,1,0,0:0:0:0:
192,192,226463,1,0,0:0:0:0:
320,192,226512,1,0,0:0:0:0:
448,192,226561,1,0,0:0:0:0:
64,192,226561,1,0,0:0:0:0:
320,192,226610,1,0,0:0:0:0:
192,192,226659,1,0,0:0:0:0:
64,192,226708,1,0,0:0:0:0:
448,192,226757,1,0,0:0:0:0:
320,192,226757,1,0,0:0:0:0:
192,192,226806,1,0,0:0:0:0:
64,192,226855,1,0,0:0:0:0:
448,192,226905,1,0,0:0:0:0:
320,192,226954,1,0,0:0:0:0:
192,192,226954,1,0,0:0:0:0:
64,192,227003,1,0,0:0:0:0:
448,192,227052,1,0,0:0:0:0:
320,192,227101,1,0,0:0:0:0:
192,192,227150,1,0,0:0:0:0:
64,192,227150,1,0,0:0:0:0:
448,192,227199,1,0,0:0:0:0:
320,192,227248,1,0,0:0:0:0:
192,192,227297,1,0,0:0:0:0:
64,192,227346,1,0,0:0:0:0:
448,192,227346,1,0,0:0:0:0:
192,192,227444,1,0,0:0:0:0:
448,192,227444,1,0,0:0:0:0:
320,192,227542,1,0,0:0:0:0:
192,192,227542,1,0,0:0:0:0:
64,192,227640,1,0,0:0:0:0:
448,192,227640,1,0,0:0:0:0:
320,192,227738,1,0,0:0:0:0:
64,192,227738,1,0,0:0:0:0:
192,192,227836,1,0,0:0:0:0:
320,192,227836,1,0,0:0:0:0:
448,192,227934,1,0,0:0:0:0:
192,192,227934,1,0,0:0:0:0:
448,192,228032,1,0,0:0:0:0:
64,192,228032,1,0,0:0:0:0:
320,192,228130,1,0,0:0:0:0:
192,192,228130,1,0,0:0:0:0:
64,192,228130,128,0,228228:0:0:0:0:
448,192,228228,128,0,228326:0:0:0:0:
192,192,228326,128,0,228424:0:0:0:0:
320,192,228424,128,0,228522:0:0:0:0:
64,192,228522,128,0,228620:0:0:0:0:
448,192,228620,128,0,228718:0:0:0:0:
192,192,228718,128,0,228816:0:0:0:0:
64,192,228816,128,0,228914:0:0:0:0:
320,192,228914,128,0,229012:0:0:0:0:
192,192,229012,128,0,229110:0:0:0:0:
448,192,229110,128,0,229208:0:0:0:0:
320,192,229208,128,0,229306:0:0:0:0:
64,192,229306,128,0,229405:0:0:0:0:
448,192,229405,128,0,229503:0:0:0:0:
192,192,229503,128,0,229601:0:0:0:0:
320,192,229601,128,0,229699:0:0:0:0:
64,192,229699,128,0,229895:0:0:0:0:
448,192,229699,128,0,229895:0:0:0:0:
