osu file format v14

[General]
AudioFilename: audio.mp3
AudioLeadIn: 0
PreviewTime: 176585
Countdown: 0
SampleSet: Normal
StackLeniency: 0.3
Mode: 1
LetterboxInBreaks: 0
WidescreenStoryboard: 1

[Editor]
Bookmarks: 800,14041,34433,59531,78354,90903,106589,132472,151295,177176,190508,215608
DistanceSpacing: 0.9
BeatDivisor: 6
GridSize: 32
TimelineZoom: 2.1

[Metadata]
Title:AMAZING BREAK
TitleUnicode:AMAZING BREAK
Artist:TERRASPEX
ArtistUnicode:TERRASPEX
Creator:hikiko-
Version:INNER ONI
Source:TERRA FORMARS
Tags:テラフォーマーズ
BeatmapID:1723214
BeatmapSetID:801075

[Difficulty]
HPDrainRate:5
CircleSize:2
OverallDifficulty:5.5
ApproachRate:5
SliderMultiplier:1.4
SliderTickRate:1

[Events]
//Background and Video events
0,0,"bg.png",0,90
//Break Periods
//Storyboard Layer 0 (Background)
//Storyboard Layer 1 (Fail)
//Storyboard Layer 2 (Pass)
//Storyboard Layer 3 (Foreground)
//Storyboard Sound Samples

[TimingPoints]
800,413.793103448276,4,1,0,100,1,0
14041,392.156862745098,4,1,0,100,1,0
34433,392.156862745098,4,1,0,100,1,0
59531,-80,4,1,0,100,0,1
78354,-90.9090909090909,4,1,0,100,0,0
106589,392.156862745098,4,1,0,100,1,0
130118,392.156862745098,6,1,0,100,1,0
132470,392.156862745098,4,1,0,100,1,1
132470,-80,4,1,0,100,0,1
151293,-76.9230769230769,4,1,0,100,0,0
159136,392.156862745098,6,1,0,100,1,0
161488,392.156862745098,4,1,0,100,1,0
170899,392.156862745098,4,1,0,100,1,0
188153,392.156862745098,6,1,0,100,1,0
190505,392.156862745098,4,1,0,100,1,1
190505,-74.0740740740741,4,1,0,100,0,1
215603,-83.3333333333333,4,1,0,100,0,0

[HitObjects]
256,192,58746,5,12,0:0:0:0:
256,192,59531,1,12,0:0:0:0:
256,192,59727,1,0,0:0:0:0:
256,192,59825,1,0,0:0:0:0:
256,192,59923,1,8,0:0:0:0:
256,192,60021,1,0,0:0:0:0:
256,192,60119,1,8,0:0:0:0:
256,192,60217,1,8,0:0:0:0:
256,192,60315,1,0,0:0:0:0:
256,192,60511,1,0,0:0:0:0:
256,192,60609,1,0,0:0:0:0:
256,192,60707,1,8,0:0:0:0:
256,192,60903,1,0,0:0:0:0:
256,192,61099,1,8,0:0:0:0:
256,192,61197,1,0,0:0:0:0:
256,192,61295,1,8,0:0:0:0:
256,192,61393,1,8,0:0:0:0:
256,192,61491,1,0,0:0:0:0:
256,192,61687,1,0,0:0:0:0:
256,192,61883,1,8,0:0:0:0:
256,192,62080,1,0,0:0:0:0:
256,192,62178,1,0,0:0:0:0:
256,192,62276,1,8,0:0:0:0:
256,192,62374,1,8,0:0:0:0:
256,192,62472,1,0,0:0:0:0:
256,192,62668,1,8,0:0:0:0:
256,192,62766,1,8,0:0:0:0:
256,192,62864,1,0,0:0:0:0:
256,192,62962,1,8,0:0:0:0:
256,192,63060,1,8,0:0:0:0:
256,192,63256,1,0,0:0:0:0:
256,192,63452,1,8,0:0:0:0:
256,192,63550,1,0,0:0:0:0:
256,192,63648,1,0,0:0:0:0:
256,192,63746,1,8,0:0:0:0:
256,192,63844,1,8,0:0:0:0:
256,192,63942,1,0,0:0:0:0:
256,192,64040,1,0,0:0:0:0:
256,192,64138,1,0,0:0:0:0:
256,192,64236,1,12,0:0:0:0:
256,192,64629,1,12,0:0:0:0:
256,192,65021,1,4,0:0:0:0:
256,192,65413,1,4,0:0:0:0:
256,192,65805,1,12,0:0:0:0:
256,192,66001,1,0,0:0:0:0:
256,192,66099,1,8,0:0:0:0:
256,192,66197,1,0,0:0:0:0:
256,192,66295,1,0,0:0:0:0:
256,192,66393,1,8,0:0:0:0:
256,192,66491,1,8,0:0:0:0:
256,192,66589,1,0,0:0:0:0:
256,192,66785,1,0,0:0:0:0:
256,192,66982,1,8,0:0:0:0:
256,192,67080,1,0,0:0:0:0:
256,192,67178,1,0,0:0:0:0:
256,192,67276,1,0,0:0:0:0:
256,192,67374,1,8,0:0:0:0:
256,192,67570,1,8,0:0:0:0:
256,192,67668,1,8,0:0:0:0:
256,192,67766,1,0,0:0:0:0:
256,192,67864,1,8,0:0:0:0:
256,192,67962,1,0,0:0:0:0:
256,192,68060,1,0,0:0:0:0:
256,192,68158,1,8,0:0:0:0:
256,192,68354,1,0,0:0:0:0:
256,192,68550,1,8,0:0:0:0:
256,192,68648,1,8,0:0:0:0:
256,192,68746,1,8,0:0:0:0:
256,192,68844,1,8,0:0:0:0:
256,192,68942,1,0,0:0:0:0:
256,192,69138,1,0,0:0:0:0:
256,192,69236,1,8,0:0:0:0:
256,192,69334,1,0,0:0:0:0:
256,192,69433,1,0,0:0:0:0:
256,192,69531,1,8,0:0:0:0:
256,192,69727,1,0,0:0:0:0:
256,192,69923,1,8,0:0:0:0:
256,192,70021,1,0,0:0:0:0:
256,192,70119,1,8,0:0:0:0:
256,192,70217,1,8,0:0:0:0:
256,192,70315,1,0,0:0:0:0:
256,192,70413,1,0,0:0:0:0:
256,192,70511,1,12,0:0:0:0:
256,192,70707,1,8,0:0:0:0:
256,192,70805,1,4,0:0:0:0:
256,192,71001,1,0,0:0:0:0:
256,192,71099,1,12,0:0:0:0:
256,192,71295,1,0,0:0:0:0:
256,192,71393,1,0,0:0:0:0:
256,192,71491,1,0,0:0:0:0:
256,192,71589,1,0,0:0:0:0:
256,192,71687,1,8,0:0:0:0:
256,192,71883,1,0,0:0:0:0:
256,192,72080,1,8,0:0:0:0:
256,192,72178,1,0,0:0:0:0:
256,192,72276,1,0,0:0:0:0:
256,192,72374,1,0,0:0:0:0:
256,192,72472,1,0,0:0:0:0:
256,192,72570,1,0,0:0:0:0:
256,192,72668,1,0,0:0:0:0:
256,192,72766,1,0,0:0:0:0:
256,192,72864,1,8,0:0:0:0:
256,192,73060,1,0,0:0:0:0:
256,192,73158,1,8,0:0:0:0:
256,192,73354,1,0,0:0:0:0:
256,192,73452,1,0,0:0:0:0:
256,192,73648,1,8,0:0:0:0:
256,192,73746,1,8,0:0:0:0:
256,192,73844,1,0,0:0:0:0:
256,192,73942,1,0,0:0:0:0:
256,192,74040,1,0,0:0:0:0:
256,192,74138,1,0,0:0:0:0:
256,192,74236,1,0,0:0:0:0:
256,192,74334,1,0,0:0:0:0:
256,192,74433,1,8,0:0:0:0:
256,192,74629,1,0,0:0:0:0:
256,192,74727,1,0,0:0:0:0:
256,192,74825,1,8,0:0:0:0:
256,192,75021,1,0,0:0:0:0:
256,192,75217,1,8,0:0:0:0:
256,192,75315,1,0,0:0:0:0:
256,192,75413,1,8,0:0:0:0:
256,192,75511,1,8,0:0:0:0:
256,192,75609,1,0,0:0:0:0:
256,192,75707,1,0,0:0:0:0:
256,192,75805,1,8,0:0:0:0:
256,192,75903,1,0,0:0:0:0:
256,192,76001,1,8,0:0:0:0:
256,192,76197,1,0,0:0:0:0:
256,192,76295,1,8,0:0:0:0:
256,192,76393,1,0,0:0:0:0:
256,192,76589,1,0,0:0:0:0:
256,192,76785,1,8,0:0:0:0:
256,192,76883,1,8,0:0:0:0:
256,192,76982,1,0,0:0:0:0:
256,192,77080,1,0,0:0:0:0:
256,192,77178,1,8,0:0:0:0:
256,192,77276,1,8,0:0:0:0:
256,192,77374,1,0,0:0:0:0:
256,192,77439,1,0,0:0:0:0:
256,192,77504,1,0,0:0:0:0:
256,192,77570,1,12,0:0:0:0:
