osu file format v14

[General]
AudioFilename: audio.mp3
AudioLeadIn: 0
PreviewTime: -1
Countdown: 1
SampleSet: None
StackLeniency: 0.7
Mode: 2
LetterboxInBreaks: 0
WidescreenStoryboard: 0

[Editor]
DistanceSpacing: 2
BeatDivisor: 4
GridSize: 4
TimelineZoom: 4.599998

[Metadata]
Title:AMAZING BREAK (TV Size)
TitleUnicode:AMAZING BREAK (TVサイズ)
Artist:TERRASPEX
ArtistUnicode:TERRASPEX
Creator:Hazuki
Version:Amazing Overdose
Source:
Tags:
BeatmapID:1167687
BeatmapSetID:551270

[Difficulty]
HPDrainRate:6
CircleSize:4
OverallDifficulty:9.6
ApproachRate:9.6
SliderMultiplier:2
SliderTickRate:1

[Events]
//Background and Video events
0,0,"microsoft-surface-book-i7-001.jpg",0,0
//Break Periods
//Storyboard Layer 0 (Background)
//Storyboard Layer 1 (Fail)
//Storyboard Layer 2 (Pass)
//Storyboard Layer 3 (Foreground)
//Storyboard Sound Samples

[TimingPoints]
414,413.793103448276,4,1,1,50,1,0
13655,392.156862745098,4,1,1,40,1,0
51596,-83.3333333333333,4,1,1,40,0,0
51890,-71.4285714285714,4,1,1,40,0,0
52184,-62.5,4,1,1,40,0,0
52870,-55.5555555555556,4,1,0,40,0,0

[HitObjects]
360,84,46204,5,4,0:0:0:0:
400,160,46302,1,0,0:0:0:0:
388,252,46400,1,4,0:0:0:0:
296,292,46498,1,0,0:0:0:0:
212,296,46596,6,0,L|100:272,1,100,2|0,0:0|0:0,0:0:0:0:
44,48,46890,2,0,L|72:176,1,100,2|0,0:0|0:0,0:0:0:0:
240,216,47184,5,4,0:0:0:0:
240,216,47282,1,0,0:0:0:0:
240,216,47380,2,0,L|116:212,1,100,6|0,0:0|0:0,0:0:0:0:
320,144,47674,2,0,L|448:132,1,100,6|0,0:0|0:0,0:0:0:0:
140,268,47968,6,4,L|116:188,1,50,4|0,0:0|0:0,0:0:0:0:
364,64,48164,2,4,P|392:140|380:200,1,100,6|2,0:0|0:0,0:0:0:0:
428,360,48458,1,6,0:0:0:0:
428,360,48556,1,2,0:0:0:0:
480,264,48655,1,2,0:0:0:0:
452,148,48753,1,6,0:0:0:0:
368,76,48851,1,2,0:0:0:0:
236,96,48949,2,2,L|232:176,1,50,6|2,0:0|0:0,0:0:0:0:
448,308,49145,1,0,0:0:0:0:
456,312,49243,1,2,0:0:0:0:
460,316,49341,6,2,L|464:232,1,50,2|0,0:0|0:0,0:0:0:0:
248,312,49537,1,4,0:0:0:0:
248,312,49635,1,4,0:0:0:0:
248,312,49733,6,0,L|240:192,1,100,6|0,0:0|0:0,0:0:0:0:
236,80,50027,2,0,L|372:68,1,100,6|0,0:0|0:0,0:0:0:0:
472,320,50321,2,6,L|360:332,1,100,6|4,0:0|0:0,0:0:0:0:
200,344,50713,2,6,L|72:328,1,100,4|4,0:0|0:0,0:0:0:0:
424,60,51105,5,4,0:0:0:0:
424,60,51204,1,0,0:0:0:0:
424,60,51302,6,0,L|296:56,1,100,8|2,0:0|0:0,0:0:0:0:
200,176,51596,6,0,L|344:180,1,119.999996337891,8|2,0:0|0:0,0:0:0:0:
480,324,51890,6,0,L|292:316,1,139.999995727539,8|2,0:0|0:0,0:0:0:0:
96,300,52184,6,0,P|56:200|120:136,1,160,8|2,0:0|0:0,0:0:0:0:
200,80,52478,1,0,0:0:0:0:
200,80,52576,2,4,L|288:72,1,80,0|0,0:0|0:0,0:0:0:0:
376,188,52772,1,0,0:0:0:0:
456,328,52870,6,0,P|496:232|416:140,1,179.999994506836,2|8,0:0|0:0,0:0:0:0:
296,64,53164,1,0,0:0:0:0:
296,64,53262,2,0,L|388:44,1,89.9999972534181
212,264,53458,2,0,L|116:204,1,89.9999972534181,8|0,0:0|0:0,0:0:0:0:
344,340,53655,6,0,P|360:228|308:140,1,179.999994506836,2|8,0:0|0:0,0:0:0:0:
136,72,53949,2,0,L|144:204,1,89.9999972534181,2|0,0:0|0:0,0:0:0:0:
332,304,54145,2,0,L|320:184,1,89.9999972534181,2|8,0:0|0:0,0:0:0:0:
72,164,54341,1,0,0:0:0:0:
101,249,54439,6,0,L|297:261,1,179.999994506836,2|8,0:0|0:0,0:0:0:0:
380,152,54733,1,0,0:0:0:0:
380,152,54831,2,0,L|392:276,1,89.9999972534181,0|0,0:0|0:0,0:0:0:0:
248,344,55027,2,0,L|132:316,1,89.9999972534181,8|0,0:0|0:0,0:0:0:0:
40,264,55223,6,0,P|24:168|140:88,1,179.999994506836,2|8,0:0|0:0,0:0:0:0:
144,84,55517,2,0,L|248:72,1,89.9999972534181,2|0,0:0|0:0,0:0:0:0:
336,216,55713,2,0,L|444:244,1,89.9999972534181,2|8,0:0|0:0,0:0:0:0:
488,352,55909,1,0,0:0:0:0:
488,352,56007,2,0,L|496:152,1,179.999994506836,8|2,0:0|0:0,0:0:0:0:
288,40,56302,2,0,L|272:240,1,179.999994506836,8|2,0:0|0:0,0:0:0:0:
192,348,56596,2,0,L|-8:332,1,179.999994506836,8|2,0:0|0:0,0:0:0:0:
36,340,56890,1,2,0:0:0:0:
104,248,56988,1,2,0:0:0:0:
112,124,57086,1,2,0:0:0:0:
20,40,57184,1,2,0:0:0:0:
112,124,57282,2,6,L|240:120,1,89.9999972534181,2|2,0:0|0:0,0:0:0:0:
320,224,57478,1,2,0:0:0:0:
320,224,57576,2,0,P|348:116|276:32,1,179.999994506836,8|2,0:0|0:0,0:0:0:0:
160,204,57870,2,0,P|136:312|216:384,1,179.999994506836,8|2,0:0|0:0,0:0:0:0:
340,352,58164,2,0,P|440:360|504:288,1,179.999994506836,8|2,0:0|0:0,0:0:0:0:
220,208,58753,6,4,L|32:204,1,179.999994506836
400,248,59145,6,0,P|456:148|376:104,1,179.999994506836,4|8,1:0|0:0,0:0:0:0:
276,84,59439,1,0,0:0:0:0:
276,84,59537,2,0,L|136:80,1,89.9999972534181,2|0,0:0|0:0,0:0:0:0:
88,288,59733,2,0,L|56:168,1,89.9999972534181,8|0,0:0|0:0,0:0:0:0:
280,308,59929,6,0,B|376:320|376:320|476:304,1,179.999994506836,2|8,0:0|0:0,0:0:0:0:
396,40,60223,6,0,L|384:168,1,89.9999972534181,0|2,0:0|0:0,0:0:0:0:
208,352,60419,2,0,L|176:244,1,89.9999972534181,2|8,0:0|0:0,0:0:0:0:
104,116,60615,1,0,0:0:0:0:
232,108,60713,6,0,B|248:112|328:104|328:104|236:80,1,179.999994506836,2|8,0:0|0:0,0:0:0:0:
116,72,61007,5,0,0:0:0:0:
72,168,61105,1,2,0:0:0:0:
112,288,61204,1,2,0:0:0:0:
216,332,61302,1,8,0:0:0:0:
324,304,61400,1,0,0:0:0:0:
444,48,61498,6,0,P|492:164|412:220,1,179.999994506836,2|12,0:0|0:0,0:0:0:0:
336,220,61792,2,0,L|220:200,1,89.9999972534181,2|0,0:0|0:0,0:0:0:0:
132,328,61988,2,0,L|268:324,1,89.9999972534181,2|12,0:0|0:0,0:0:0:0:
316,288,62184,1,0,0:0:0:0:
448,272,62282,6,0,L|468:60,1,179.999994506836,6|8,0:0|0:0,0:0:0:0:
352,88,62576,1,0,0:0:0:0:
252,76,62674,1,2,0:0:0:0:
152,52,62772,1,2,0:0:0:0:
252,76,62870,2,0,L|376:92,1,89.9999972534181,12|0,0:0|0:0,0:0:0:0:
440,84,63066,6,0,P|464:208|456:236,1,89.9999972534181,6|0,0:0|0:0,0:0:0:0:
480,320,63262,1,2,0:0:0:0:
336,312,63360,5,8,0:0:0:0:
228,240,63458,1,8,0:0:0:0:
336,200,63556,1,10,0:0:0:0:
212,124,63654,1,2,0:0:0:0:
320,64,63753,1,2,0:0:0:0:
176,32,63851,6,0,P|48:200|136:240,2,359.999989013672,6|6|6,0:0|0:0|0:0,0:0:0:0:
92,312,64929,5,2,0:0:0:0:
296,336,65027,6,0,L|392:328,1,89.9999972534181,8|8,0:0|0:0,0:0:0:0:
452,244,65223,1,8,0:0:0:0:
428,104,65321,1,8,0:0:0:0:
312,48,65419,6,0,P|288:152|336:240,1,179.999994506836,6|8,0:0|0:0,0:0:0:0:
432,260,65713,1,0,0:0:0:0:
432,260,65811,2,0,L|334:251,1,89.9999972534181,2|2,0:0|0:0,0:0:0:0:
195,131,66007,2,0,L|211:248,1,89.9999972534181,8|0,0:0|0:0,0:0:0:0:
227,354,66204,6,0,B|135:347|135:347|35:296,1,179.999994506836,2|8,0:0|0:0,0:0:0:0:
56,68,66498,2,0,L|76:177,1,89.9999972534181,0|2,0:0|0:0,0:0:0:0:
292,289,66694,2,0,L|315:178,1,89.9999972534181,2|8,0:0|0:0,0:0:0:0:
170,147,66890,6,0,L|170:273,1,89.9999972534181,0|2,0:0|0:0,0:0:0:0:
397,210,67086,2,0,L|392:97,1,89.9999972534181,0|8,0:0|0:0,0:0:0:0:
229,106,67282,6,0,L|119:92,1,89.9999972534181,0|2,0:0|0:0,0:0:0:0:
365,326,67478,2,0,L|488:288,1,89.9999972534181,2|8,0:0|0:0,0:0:0:0:
445,142,67674,1,0,0:0:0:0:
321,56,67772,6,0,P|305:179|353:250,1,179.999994506836,2|12,0:0|0:0,0:0:0:0:
436,300,68066,1,0,0:0:0:0:
436,300,68164,2,0,L|452:168,1,89.9999972534181,2|0,0:0|0:0,0:0:0:0:
112,32,68360,2,0,L|104:148,1,89.9999972534181,8|8,0:0|0:0,0:0:0:0:
207,349,68556,6,0,B|332:360|332:360|420:342,1,179.999994506836,6|8,0:0|0:0,0:0:0:0:
479,101,68851,6,0,B|390:91|390:91|302:112,1,179.999994506836,0|2,0:0|0:0,0:0:0:0:
164,235,69145,2,0,L|134:137,1,89.9999972534181,8|0,0:0|0:0,0:0:0:0:
345,74,69341,6,0,L|337:281,1,179.999994506836,2|8,0:0|0:0,0:0:0:0:
179,332,69635,5,2,0:0:0:0:
179,332,69733,2,0,L|153:130,1,179.999994506836,0|12,0:0|0:0,0:0:0:0:
288,56,70027,5,0,0:0:0:0:
288,56,70125,6,0,B|384:52|384:52|480:96,1,179.999994506836,6|8,0:0|0:0,0:0:0:0:
328,252,70419,2,0,B|232:252|232:252|140:212,1,179.999994506836,6|8,0:0|0:0,0:0:0:0:
60,56,70713,2,0,L|48:164,1,89.9999972534181,2|0,0:0|0:0,0:0:0:0:
316,324,70909,6,0,P|368:228|264:168,1,179.999994506836,8|2,0:0|0:0,0:0:0:0:
208,156,71204,1,0,0:0:0:0:
208,156,71302,2,0,L|112:156,1,89.9999972534181,8|0,0:0|0:0,0:0:0:0:
348,308,71498,2,0,L|452:312,1,89.9999972534181,2|0,0:0|0:0,0:0:0:0:
144,320,71694,5,6,0:0:0:0:
56,268,71792,1,2,0:0:0:0:
32,124,71890,1,8,0:0:0:0:
152,44,71988,1,2,0:0:0:0:
280,52,72086,6,0,L|272:176,1,89.9999972534181,2|2,0:0|0:0,0:0:0:0:
432,228,72282,2,0,L|436:332,1,89.9999972534181,8|2,0:0|0:0,0:0:0:0:
212,312,72478,2,0,L|200:196,1,89.9999972534181,2|2,0:0|0:0,0:0:0:0:
352,152,72674,6,0,L|364:20,1,89.9999972534181,8|2,0:0|0:0,0:0:0:0:
88,104,72870,2,0,L|80:232,1,89.9999972534181,2|2,0:0|0:0,0:0:0:0:
272,344,73066,5,8,0:0:0:0:
376,312,73164,1,2,0:0:0:0:
420,164,73262,5,6,0:0:0:0:
320,56,73360,1,2,0:0:0:0:
196,68,73458,1,8,0:0:0:0:
84,168,73556,1,2,0:0:0:0:
188,256,73655,1,2,0:0:0:0:
92,352,73753,1,2,0:0:0:0:
208,176,73851,6,0,L|208:44,1,89.9999972534181,8|2,0:0|0:0,0:0:0:0:
376,208,74047,2,0,L|380:352,1,89.9999972534181,2|2,0:0|0:0,0:0:0:0:
204,352,74243,5,8,0:0:0:0:
116,348,74341,1,2,0:0:0:0:
20,348,74439,5,2,0:0:0:0:
116,348,74537,1,2,0:0:0:0:
380,236,74635,2,0,L|396:124,1,89.9999972534181,8|2,0:0|0:0,0:0:0:0:
184,348,74831,5,6,0:0:0:0:
96,344,74929,1,2,0:0:0:0:
0,344,75027,1,8,0:0:0:0:
96,344,75125,1,2,0:0:0:0:
392,148,75223,6,0,L|400:260,1,89.9999972534181,2|2,0:0|0:0,0:0:0:0:
192,224,75419,2,0,L|192:116,1,89.9999972534181,8|2,0:0|0:0,0:0:0:0:
400,40,75615,5,2,0:0:0:0:
492,164,75713,1,2,0:0:0:0:
464,316,75811,1,8,0:0:0:0:
348,344,75909,1,2,0:0:0:0:
216,332,76007,6,0,L|112:304,1,89.9999972534181,2|2,0:0|0:0,0:0:0:0:
28,68,76204,2,0,L|40:196,1,89.9999972534181,8|2,0:0|0:0,0:0:0:0:
152,232,76400,6,0,L|276:224,1,89.9999972534181,6|0,0:0|0:0,0:0:0:0:
392,84,76596,2,0,L|256:80,1,89.9999972534181,8|8,0:0|0:0,0:0:0:0:
120,364,76792,6,0,L|112:256,1,89.9999972534181,8|0,0:0|0:0,0:0:0:0:
436,120,76988,2,0,L|432:244,1,89.9999972534181,2|0,0:0|0:0,0:0:0:0:
236,320,77184,6,0,P|160:244|340:84,1,359.999989013672,8|0,0:0|0:0,0:0:0:0:
