osu file format v14

[General]
AudioFilename: audio.mp3
AudioLeadIn: 0
PreviewTime: 132080
Countdown: 0
SampleSet: Drum
StackLeniency: 0.7
Mode: 2
LetterboxInBreaks: 0
EpilepsyWarning: 1
WidescreenStoryboard: 1

[Editor]
Bookmarks: 34433,59531,78354,106590,132472,161490,177177,190510
DistanceSpacing: 1.1
BeatDivisor: 4
GridSize: 4
TimelineZoom: 5.099997

[Metadata]
Title:AMAZING BREAK
TitleUnicode:AMAZING BREAK
Artist:TERRASPEX
ArtistUnicode:TERRASPEX
Creator:Spectator
Version:CRYSTAL'S INVASION
Source:TERRAFORMARS
Tags:Darky1 Kyuare CLSW Minato Yukina Nelly Sanyi Du5t iDu5t iDust Monstrata テラフォーマーズ Anime Japanese J-pop JPOP Metal Rock 松山晃太 堀江晶太
BeatmapID:2404346
BeatmapSetID:727329

[Difficulty]
HPDrainRate:7
CircleSize:3.8
OverallDifficulty:9.8
ApproachRate:9.8
SliderMultiplier:2
SliderTickRate:1

[Events]
//Background and Video events
0,0,"BG.jpg",0,0
//Break Periods
//Storyboard Layer 0 (Background)
//Storyboard Layer 1 (Fail)
//Storyboard Layer 2 (Pass)
//Storyboard Layer 3 (Foreground)
Sprite,Foreground,Centre,"sb\highlight.png",0,0 F,0,46001,,0.3 C,0,46001,,47,125,189 M,0,46001,46982,143,400,143,360 S,0,46001,46982,3,1
Sprite,Foreground,Centre,"sb\highlight.png",0,0 F,0,46099,,0.3 C,0,46099,,47,125,189 M,0,46099,46982,241,400,241,360 S,0,46099,46982,3.2,1.2
Sprite,Foreground,Centre,"sb\highlight.png",0,0 F,0,46197,,0.3 C,0,46197,,47,125,189 M,0,46197,46982,143,400,143,360 S,0,46197,46982,3.4,1.4
Sprite,Foreground,Centre,"sb\highlight.png",0,0 F,0,46295,,0.3 C,0,46295,,47,125,189 M,0,46295,46982,241,400,241,360 S,0,46295,46982,3.6,1.6
Sprite,Foreground,Centre,"sb\highlight.png",0,0 F,0,46393,,0.3 C,0,46393,,135,75,160 M,0,46393,46982,354,400,354,360 S,0,46393,46982,3.8,1.8
Sprite,Foreground,Centre,"sb\highlight.png",0,0 F,0,46491,,0.3 C,0,46491,,135,75,160 M,0,46491,46982,241,400,241,360 S,0,46491,46982,4,2
Sprite,Foreground,Centre,"sb\highlight.png",0,0 F,0,46590,,0.3 C,0,46590,,135,75,160 M,0,46590,46982,354,400,354,360 S,0,46590,46982,4.2,2.2
Sprite,Foreground,Centre,"sb\highlight.png",0,0 F,0,46688,,0.3 C,0,46688,,135,75,160 M,0,46688,46982,241,400,241,360 S,0,46688,46982,4.4,2.4
Sprite,Foreground,Centre,"sb\highlight.png",0,0 F,0,46786,,0.3 C,0,46786,,135,75,160 M,0,46786,46982,417,400,417,360 S,0,46786,46982,4.6,2.6
Sprite,Foreground,Centre,"sb\highlight.png",0,0 F,0,46884,,0.3 C,0,46884,,135,75,160 M,0,46884,46982,530,400,530,360 S,0,46884,46982,4.8,2.8
Sprite,Foreground,Centre,"sb\highlight.png",0,0 M,0,46982,,354,400,354,360 F,0,46982,,0.3 S,0,46982,,5,3 C,0,46982,,191,66,82
Sprite,Foreground,Centre,"sb\pixel.png",320,240 V,0,46001,,88,48 F,15,46001,46982,0,1
Sprite,Foreground,Centre,"sb\highlight.png",0,0 F,0,117570,,0.3 C,0,117570,,135,75,160 M,0,117570,118570,505,400,505,360 S,0,117570,118570,3,1
Sprite,Foreground,Centre,"sb\highlight.png",0,0 F,0,117864,,0.3 C,0,117864,,135,75,160 M,0,117864,118864,258,400,258,360 S,0,117864,118864,3.2,1.2
Sprite,Foreground,Centre,"sb\highlight.png",0,0 F,0,118158,,0.3 C,0,118158,,135,75,160 M,0,118158,119139,423,400,423,360 S,0,118158,119139,3.4,1.4
Sprite,Foreground,Centre,"sb\highlight.png",0,0 F,0,118256,,0.3 C,0,118256,,135,75,160 M,0,118256,119139,248,400,248,360 S,0,118256,119139,3.6,1.6
Sprite,Foreground,Centre,"sb\highlight.png",0,0 F,0,118550,,0.3 C,0,118550,,135,75,160 M,0,118550,119139,475,400,475,360 S,0,118550,119139,3.8,1.8
Sprite,Foreground,Centre,"sb\highlight.png",0,0 F,0,118746,,0.3 C,0,118746,,135,75,160 M,0,118746,119139,229,400,229,360 S,0,118746,119139,4,2
Sprite,Foreground,Centre,"sb\highlight.png",0,0 F,0,118942,,0.3 C,0,118942,,135,75,160 M,0,118942,119139,411,400,411,360 S,0,118942,119139,4.2,2.2
Sprite,Foreground,Centre,"sb\highlight.png",0,0 M,0,119139,,129,400,129,360 F,0,119139,,0.3 S,0,119139,,4.4,2.4 C,0,119139,,191,66,82
Sprite,Foreground,Centre,"sb\pixel.png",320,240 V,0,117570,,88,48 F,15,117570,119139,0,1
Sprite,Foreground,Centre,"sb\highlight.png",0,0 F,0,160706,,0.3 C,0,160706,,191,66,82 M,0,160706,161490,420,400,420,360 S,0,160706,161490,3,1 F,0,161490,,0
Sprite,Foreground,Centre,"sb\highlight.png",0,0 F,0,160730,,0.3 C,0,160730,,191,66,82 M,0,160730,161490,448,400,448,360 S,0,160730,161490,3.2,1.2 F,0,161490,,0
Sprite,Foreground,Centre,"sb\highlight.png",0,0 F,0,160755,,0.3 C,0,160755,,191,66,82 M,0,160755,161490,472,400,472,360 S,0,160755,161490,3.4,1.4 F,0,161490,,0
Sprite,Foreground,Centre,"sb\highlight.png",0,0 F,0,160779,,0.3 C,0,160779,,191,66,82 M,0,160779,161490,488,400,488,360 S,0,160779,161490,3.6,1.6 F,0,161490,,0
Sprite,Foreground,Centre,"sb\highlight.png",0,0 F,0,160804,,0.3 C,0,160804,,191,66,82 M,0,160804,161490,496,400,496,360 S,0,160804,161490,3.8,1.8 F,0,161490,,0
Sprite,Foreground,Centre,"sb\highlight.png",0,0 F,0,160829,,0.3 C,0,160829,,191,66,82 M,0,160829,161490,504,400,504,360 S,0,160829,161490,4,2 F,0,161490,,0
Sprite,Foreground,Centre,"sb\highlight.png",0,0 F,0,160853,,0.3 C,0,160853,,191,66,82 M,0,160853,161490,504,400,504,360 S,0,160853,161490,4.2,2.2 F,0,161490,,0
Sprite,Foreground,Centre,"sb\highlight.png",0,0 F,0,160877,,0.3 C,0,160877,,191,66,82 M,0,160877,161490,500,400,500,360 S,0,160877,161490,4.4,2.4 F,0,161490,,0
Sprite,Foreground,Centre,"sb\highlight.png",0,0 F,0,160902,,0.3 C,0,160902,,181,96,91 M,0,160902,161490,488,400,488,360 S,0,160902,161490,4.6,2.6 F,0,161490,,0
Sprite,Foreground,Centre,"sb\highlight.png",0,0 F,0,160927,,0.3 C,0,160927,,181,96,91 M,0,160927,161490,468,400,468,360 S,0,160927,161490,4.8,2.8 F,0,161490,,0
Sprite,Foreground,Centre,"sb\highlight.png",0,0 F,0,160951,,0.3 C,0,160951,,181,96,91 M,0,160951,161490,444,400,444,360 S,0,160951,161490,5,3 F,0,161490,,0
Sprite,Foreground,Centre,"sb\highlight.png",0,0 F,0,160976,,0.3 C,0,160976,,181,96,91 M,0,160976,161490,420,400,420,360 S,0,160976,161490,5.2,3.2 F,0,161490,,0
Sprite,Foreground,Centre,"sb\highlight.png",0,0 F,0,161000,,0.3 C,0,161000,,181,96,91 M,0,161000,161490,392,400,392,360 S,0,161000,161490,5.4,3.4 F,0,161490,,0
Sprite,Foreground,Centre,"sb\highlight.png",0,0 F,0,161025,,0.3 C,0,161025,,181,96,91 M,0,161025,161490,360,400,360,360 S,0,161025,161490,5.6,3.6 F,0,161490,,0
Sprite,Foreground,Centre,"sb\highlight.png",0,0 F,0,161049,,0.3 C,0,161049,,181,96,91 M,0,161049,161490,320,400,320,360 S,0,161049,161490,5.8,3.8 F,0,161490,,0
Sprite,Foreground,Centre,"sb\highlight.png",0,0 F,0,161073,,0.3 C,0,161073,,181,96,91 M,0,161073,161490,280,400,280,360 S,0,161073,161490,6,4 F,0,161490,,0
Sprite,Foreground,Centre,"sb\highlight.png",0,0 F,0,161098,,0.3 C,0,161098,,47,125,189 M,0,161098,161490,248,400,248,360 S,0,161098,161490,6.2,4.2 F,0,161490,,0
Sprite,Foreground,Centre,"sb\highlight.png",0,0 F,0,161122,,0.3 C,0,161122,,47,125,189 M,0,161122,161490,220,400,220,360 S,0,161122,161490,6.4,4.4 F,0,161490,,0
Sprite,Foreground,Centre,"sb\highlight.png",0,0 F,0,161147,,0.3 C,0,161147,,47,125,189 M,0,161147,161490,196,400,196,360 S,0,161147,161490,6.6,4.6 F,0,161490,,0
Sprite,Foreground,Centre,"sb\highlight.png",0,0 F,0,161171,,0.3 C,0,161171,,47,125,189 M,0,161171,161490,172,400,172,360 S,0,161171,161490,6.8,4.8 F,0,161490,,0
Sprite,Foreground,Centre,"sb\highlight.png",0,0 F,0,161196,,0.3 C,0,161196,,47,125,189 M,0,161196,161490,152,400,152,360 S,0,161196,161490,7,5 F,0,161490,,0
Sprite,Foreground,Centre,"sb\highlight.png",0,0 F,0,161221,,0.3 C,0,161221,,47,125,189 M,0,161221,161490,140,400,140,360 S,0,161221,161490,7.2,5.2 F,0,161490,,0
Sprite,Foreground,Centre,"sb\highlight.png",0,0 F,0,161245,,0.3 C,0,161245,,47,125,189 M,0,161245,161490,136,400,136,360 S,0,161245,161490,7.4,5.4 F,0,161490,,0
Sprite,Foreground,Centre,"sb\highlight.png",0,0 F,0,161269,,0.3 C,0,161269,,47,125,189 M,0,161269,161490,136,400,136,360 S,0,161269,161490,7.6,5.6 F,0,161490,,0
Sprite,Foreground,Centre,"sb\highlight.png",0,0 F,0,161294,,0.3 C,0,161294,,135,75,160 M,0,161294,161490,144,400,144,360 S,0,161294,161490,7.8,5.8 F,0,161490,,0
Sprite,Foreground,Centre,"sb\highlight.png",0,0 F,0,161319,,0.3 C,0,161319,,135,75,160 M,0,161319,161490,152,400,152,360 S,0,161319,161490,8,6 F,0,161490,,0
Sprite,Foreground,Centre,"sb\highlight.png",0,0 F,0,161343,,0.3 C,0,161343,,135,75,160 M,0,161343,161490,168,400,168,360 S,0,161343,161490,8.2,6.2 F,0,161490,,0
Sprite,Foreground,Centre,"sb\highlight.png",0,0 F,0,161368,,0.3 C,0,161368,,135,75,160 M,0,161368,161490,192,400,192,360 S,0,161368,161490,8.4,6.4 F,0,161490,,0
Sprite,Foreground,Centre,"sb\highlight.png",0,0 F,0,161392,,0.3 C,0,161392,,135,75,160 M,0,161392,161490,220,400,220,360 S,0,161392,161490,8.6,6.6 F,0,161490,,0
Sprite,Foreground,Centre,"sb\pixel.png",320,240 V,0,160706,,88,48 F,15,160706,161490,0,1
Sprite,Foreground,BottomCentre,"sb\spotlight.png",473,480 C,0,78354,,191,66,82 F,0,78354,78746,0.6,0.4 V,19,78354,78746,0.4,0.8,1.5,0.8 F,0,78746,79530,0.4,0
Sprite,Foreground,BottomCentre,"sb\spotlight.png",301,480 C,0,79139,,181,96,91 F,0,79139,79531,0.6,0.4 V,19,79139,79531,0.4,0.8,1.5,0.8 F,0,79531,80315,0.4,0
Sprite,Foreground,BottomCentre,"sb\spotlight.png",119,480 C,0,79923,,47,125,189 F,0,79923,80315,0.6,0.4 V,19,79923,80315,0.4,0.8,1.5,0.8 F,0,80315,81099,0.4,0
Sprite,Foreground,BottomCentre,"sb\spotlight.png",441,480 C,0,80707,,135,75,160 F,0,80707,81099,0.6,0.4 V,19,80707,81099,0.4,0.8,1.5,0.8 F,0,81099,81883,0.4,0
Sprite,Foreground,BottomCentre,"sb\spotlight.png",471,480 C,0,81491,,191,66,82 F,0,81491,81883,0.6,0.4 V,19,81491,81883,0.4,0.8,1.5,0.8 F,0,81883,82667,0.4,0
Sprite,Foreground,BottomCentre,"sb\spotlight.png",455,480 C,0,82276,,181,96,91 F,0,82276,82668,0.6,0.4 V,19,82276,82668,0.4,0.8,1.5,0.8 F,0,82668,83452,0.4,0
Sprite,Foreground,BottomCentre,"sb\spotlight.png",281,480 C,0,83060,,47,125,189 F,0,83060,83452,0.6,0.4 V,19,83060,83452,0.4,0.8,1.5,0.8 F,0,83452,84236,0.4,0
Sprite,Foreground,BottomCentre,"sb\spotlight.png",103,480 C,0,83844,,135,75,160 F,0,83844,84236,0.6,0.4 V,19,83844,84236,0.4,0.8,1.5,0.8 F,0,84236,85020,0.4,0
Sprite,Foreground,BottomCentre,"sb\spotlight.png",493,480 C,0,84629,,181,96,91 F,0,84629,85021,0.6,0.4 V,19,84629,85021,0.4,0.8,1.5,0.8 F,0,85021,85805,0.4,0
Sprite,Foreground,BottomCentre,"sb\spotlight.png",274,480 C,0,85413,,135,75,160 F,0,85413,85805,0.6,0.4 V,19,85413,85805,0.4,0.8,1.5,0.8 F,0,85805,86589,0.4,0
Sprite,Foreground,BottomCentre,"sb\spotlight.png",408,480 C,0,86197,,181,96,91 F,0,86197,86589,0.6,0.4 V,19,86197,86589,0.4,0.8,1.5,0.8 F,0,86589,87373,0.4,0
Sprite,Foreground,BottomCentre,"sb\spotlight.png",259,480 C,0,86982,,135,75,160 F,0,86982,87374,0.6,0.4 V,19,86982,87374,0.4,0.8,1.5,0.8 F,0,87374,88158,0.4,0
Sprite,Foreground,BottomCentre,"sb\spotlight.png",482,480 C,0,87766,,181,96,91 F,0,87766,88158,0.6,0.4 V,19,87766,88158,0.4,0.8,1.5,0.8 F,0,88158,88942,0.4,0
Sprite,Foreground,BottomCentre,"sb\spotlight.png",305,480 C,0,88550,,135,75,160 F,0,88550,88942,0.6,0.4 V,19,88550,88942,0.4,0.8,1.5,0.8 F,0,88942,89726,0.4,0
Sprite,Foreground,BottomCentre,"sb\spotlight.png",433,480 C,0,151295,,191,66,82 F,0,151295,151687,0.6,0.4 V,19,151295,151687,0.4,0.8,1.5,0.8 F,0,151687,152471,0.4,0
Sprite,Foreground,BottomCentre,"sb\spotlight.png",246,480 C,0,151589,,191,66,82 F,0,151589,151981,0.6,0.4 V,19,151589,151981,0.4,0.8,1.5,0.8 F,0,151981,152765,0.4,0
Sprite,Foreground,BottomCentre,"sb\spotlight.png",471,480 C,0,151883,,181,96,91 F,0,151883,152275,0.6,0.4 V,19,151883,152275,0.4,0.8,1.5,0.8 F,0,152275,153059,0.4,0
Sprite,Foreground,BottomCentre,"sb\spotlight.png",284,480 C,0,152177,,181,96,91 F,0,152177,152569,0.6,0.4 V,19,152177,152569,0.4,0.8,1.5,0.8 F,0,152569,153353,0.4,0
Sprite,Foreground,BottomCentre,"sb\spotlight.png",169,480 C,0,152864,,135,75,160 F,0,152864,153256,0.6,0.4 V,19,152864,153256,0.4,0.8,1.5,0.8 F,0,153256,154040,0.4,0
Sprite,Foreground,BottomCentre,"sb\spotlight.png",140,480 C,0,153158,,135,75,160 F,0,153158,153550,0.6,0.4 V,19,153158,153550,0.4,0.8,1.5,0.8 F,0,153550,154334,0.4,0
Sprite,Foreground,BottomCentre,"sb\spotlight.png",365,480 C,0,153452,,191,66,82 F,0,153452,153844,0.6,0.4 V,19,153452,153844,0.4,0.8,1.5,0.8 F,0,153844,154628,0.4,0
Sprite,Foreground,BottomCentre,"sb\spotlight.png",394,480 C,0,153746,,191,66,82 F,0,153746,154138,0.6,0.4 V,19,153746,154138,0.4,0.8,1.5,0.8 F,0,154138,154922,0.4,0
Sprite,Foreground,BottomCentre,"sb\spotlight.png",206,480 C,0,154040,,181,96,91 F,0,154040,154432,0.6,0.4 V,19,154040,154432,0.4,0.8,1.5,0.8 F,0,154432,155216,0.4,0
Sprite,Foreground,BottomCentre,"sb\spotlight.png",443,480 C,0,215608,,181,96,91 F,0,215608,216000,0.6,0.4 V,19,215608,216000,0.4,0.8,1.5,0.8 F,0,216000,216784,0.4,0
Sprite,Foreground,BottomCentre,"sb\spotlight.png",284,480 C,0,216392,,47,125,189 F,0,216392,216784,0.6,0.4 V,19,216392,216784,0.4,0.8,1.5,0.8 F,0,216784,217568,0.4,0
Sprite,Foreground,BottomCentre,"sb\spotlight.png",368,480 C,0,217176,,135,75,160 F,0,217176,217568,0.6,0.4 V,19,217176,217568,0.4,0.8,1.5,0.8 F,0,217568,218352,0.4,0
Sprite,Foreground,BottomCentre,"sb\spotlight.png",272,480 C,0,217960,,191,66,82 F,0,217960,218352,0.6,0.4 V,19,217960,218352,0.4,0.8,1.5,0.8 F,0,218352,219136,0.4,0
Sprite,Foreground,BottomCentre,"sb\spotlight.png",418,480 C,0,218745,,181,96,91 F,0,218745,219137,0.6,0.4 V,19,218745,219137,0.4,0.8,1.5,0.8 F,0,219137,219921,0.4,0
Sprite,Foreground,BottomCentre,"sb\spotlight.png",179,480 C,0,219529,,47,125,189 F,0,219529,219921,0.6,0.4 V,19,219529,219921,0.4,0.8,1.5,0.8 F,0,219921,220705,0.4,0
Sprite,Foreground,BottomCentre,"sb\spotlight.png",360,480 C,0,220313,,135,75,160 F,0,220313,220705,0.6,0.4 V,19,220313,220705,0.4,0.8,1.5,0.8 F,0,220705,221489,0.4,0
Sprite,Foreground,BottomCentre,"sb\spotlight.png",537,480 C,0,221098,,191,66,82 F,0,221098,221490,0.6,0.4 V,19,221098,221490,0.4,0.8,1.5,0.8 F,0,221490,222274,0.4,0
Sprite,Foreground,BottomCentre,"sb\spotlight.png",133,480 C,0,221882,,181,96,91 F,0,221882,222274,0.6,0.4 V,19,221882,222274,0.4,0.8,1.5,0.8 F,0,222274,223058,0.4,0
Sprite,Foreground,BottomCentre,"sb\spotlight.png",416,480 C,0,222666,,135,75,160 F,0,222666,223058,0.6,0.4 V,19,222666,223058,0.4,0.8,1.5,0.8 F,0,223058,223842,0.4,0
Sprite,Foreground,BottomCentre,"sb\spotlight.png",477,480 C,0,223451,,181,96,91 F,0,223451,223843,0.6,0.4 V,19,223451,223843,0.4,0.8,1.5,0.8 F,0,223843,224627,0.4,0
Sprite,Foreground,BottomCentre,"sb\spotlight.png",163,480 C,0,224235,,135,75,160 F,0,224235,224627,0.6,0.4 V,19,224235,224627,0.4,0.8,1.5,0.8 F,0,224627,225411,0.4,0
Sprite,Foreground,BottomCentre,"sb\spotlight.png",295,480 C,0,225019,,181,96,91 F,0,225019,225411,0.6,0.4 V,19,225019,225411,0.4,0.8,1.5,0.8 F,0,225411,226195,0.4,0
Sprite,Foreground,BottomCentre,"sb\spotlight.png",515,480 C,0,225804,,47,125,189 F,0,225804,226196,0.6,0.4 V,19,225804,226196,0.4,0.8,1.5,0.8 F,0,226196,226980,0.4,0
Sprite,Foreground,BottomCentre,"sb\spotlight.png",302,480 C,0,226588,,135,75,160 F,0,226588,226980,0.6,0.4 V,19,226588,226980,0.4,0.8,1.5,0.8 F,0,226980,227764,0.4,0
Sprite,Foreground,BottomCentre,"sb\spotlight.png",163,480 C,0,227372,,191,66,82 F,0,227372,227764,0.6,0.4 V,19,227372,227764,0.4,0.8,1.5,0.8 F,0,227764,228157,0.4,0
Sprite,Foreground,Centre,"sb\highlight.png",0,0 C,0,59531,,166,88,83 M,0,59531,60176,505,400,768,257 S,0,59531,60176,4,2 F,0,59631,60176,0.3,0
Sprite,Foreground,Centre,"sb\highlight.png",0,0 C,0,60315,,42,113,172 M,0,60315,61011,144,400,-129,278 S,0,60315,61011,4,2 F,0,60460,61011,0.3,0
Sprite,Foreground,Centre,"sb\highlight.png",0,0 C,0,64237,,126,70,149 M,0,64237,64885,409,400,674,260 S,0,64237,64885,4,2 F,0,64383,64885,0.3,0
Sprite,Foreground,Centre,"sb\highlight.png",0,0 C,0,64629,,115,64,136 M,0,64629,65152,178,400,-111,322 S,0,64629,65152,4,2 F,0,64753,65152,0.3,0
Sprite,Foreground,Centre,"sb\highlight.png",0,0 C,0,65021,,117,65,139 M,0,65021,65698,405,400,682,286 S,0,65021,65698,4,2 F,0,65201,65698,0.3,0
Sprite,Foreground,Centre,"sb\highlight.png",0,0 C,0,65413,,123,68,146 M,0,65413,66067,444,400,736,335 S,0,65413,66067,4,2 F,0,65523,66067,0.3,0
Sprite,Foreground,Centre,"sb\highlight.png",0,0 C,0,70511,,37,100,152 M,0,70511,71094,528,400,823,349 S,0,70511,71094,4,2 F,0,70641,71094,0.3,0
Sprite,Foreground,Centre,"sb\highlight.png",0,0 C,0,70805,,44,117,178 M,0,70805,71460,109,400,-187,356 S,0,70805,71460,4,2 F,0,70970,71460,0.3,0
Sprite,Foreground,Centre,"sb\highlight.png",0,0 C,0,71099,,44,118,179 M,0,71099,71674,437,400,729,334 S,0,71099,71674,4,2 F,0,71283,71674,0.3,0
Sprite,Foreground,Centre,"sb\highlight.png",0,0 C,0,71295,,118,66,140 M,0,71295,71912,272,400,4,268 S,0,71295,71912,4,2 F,0,71398,71912,0.3,0
Sprite,Foreground,Centre,"sb\highlight.png",0,0 C,0,72080,,183,63,78 M,0,72080,72696,530,400,829,377 S,0,72080,72696,4,2 F,0,72270,72696,0.3,0
Sprite,Foreground,Centre,"sb\highlight.png",0,0 C,0,73648,,43,116,176 M,0,73648,74261,461,400,760,388 S,0,73648,74261,4,2 F,0,73829,74261,0.3,0
Sprite,Foreground,Centre,"sb\highlight.png",0,0 C,0,75217,,126,70,149 M,0,75217,75911,454,400,746,334 S,0,75217,75911,4,2 F,0,75404,75911,0.3,0
Sprite,Foreground,Centre,"sb\highlight.png",0,0 C,0,76786,,43,116,175 M,0,76786,77410,368,400,665,359 S,0,76786,77410,4,2 F,0,76917,77410,0.3,0
Sprite,Foreground,Centre,"sb\highlight.png",0,0 C,0,77570,,122,68,145 M,0,77570,78178,92,400,-207,383 S,0,77570,78178,4,2 F,0,77759,78178,0.3,0
Sprite,Foreground,Centre,"sb\highlight.png",0,0 C,0,77962,,129,71,152 M,0,77962,78637,529,400,828,400 S,0,77962,78637,4,2 F,0,78142,78637,0.3,0
Sprite,Foreground,Centre,"sb\highlight.png",0,0 C,0,78354,,155,53,66 M,0,78354,78930,473,400,772,398 S,0,78354,78930,4,2 F,0,78527,78930,0.3,0
Sprite,Foreground,Centre,"sb\highlight.png",0,0 C,0,107374,,162,86,81 M,0,107374,107988,315,400,28,316 S,0,107374,107988,4,2 F,0,107558,107988,0.3,0
Sprite,Foreground,Centre,"sb\highlight.png",0,0 C,0,108550,,42,111,169 M,0,108550,109175,528,400,815,314 S,0,108550,109175,4,2 F,0,108706,109175,0.3,0
Sprite,Foreground,Centre,"sb\highlight.png",0,0 C,0,109727,,187,64,80 M,0,109727,110280,163,400,-136,391 S,0,109727,110280,4,2 F,0,109907,110280,0.3,0
Sprite,Foreground,Centre,"sb\highlight.png",0,0 C,0,111295,,173,92,87 M,0,111295,111942,434,400,697,257 S,0,111295,111942,4,2 F,0,111471,111942,0.3,0
Sprite,Foreground,Centre,"sb\highlight.png",0,0 C,0,111590,,148,78,74 M,0,111590,112166,294,400,1,340 S,0,111590,112166,4,2 F,0,111778,112166,0.3,0
Sprite,Foreground,Centre,"sb\highlight.png",0,0 C,0,111884,,174,92,87 M,0,111884,112424,240,400,-59,381 S,0,111884,112424,4,2 F,0,112022,112424,0.3,0
Sprite,Foreground,Centre,"sb\highlight.png",0,0 C,0,112080,,46,123,186 M,0,112080,112763,445,400,744,400 S,0,112080,112763,4,2 F,0,112203,112763,0.3,0
Sprite,Foreground,Centre,"sb\highlight.png",0,0 C,0,132472,,39,104,157 M,0,132472,133070,136,400,-148,305 S,0,132472,133070,4,2 F,0,132596,133070,0.3,0
Sprite,Foreground,Centre,"sb\highlight.png",0,0 C,0,133256,,130,72,154 M,0,133256,133792,491,400,781,328 S,0,133256,133792,4,2 F,0,133420,133792,0.3,0
Sprite,Foreground,Centre,"sb\highlight.png",0,0 C,0,137177,,177,61,76 M,0,137177,137859,123,400,-176,380 S,0,137177,137859,4,2 F,0,137319,137859,0.3,0
Sprite,Foreground,Centre,"sb\highlight.png",0,0 C,0,137570,,160,55,68 M,0,137570,138239,517,400,805,319 S,0,137570,138239,4,2 F,0,137744,138239,0.3,0
Sprite,Foreground,Centre,"sb\highlight.png",0,0 C,0,137962,,152,52,65 M,0,137962,138464,97,400,-175,275 S,0,137962,138464,4,2 F,0,138118,138464,0.3,0
Sprite,Foreground,Centre,"sb\highlight.png",0,0 C,0,138354,,188,65,80 M,0,138354,139000,517,400,815,373 S,0,138354,139000,4,2 F,0,138484,139000,0.3,0
Sprite,Foreground,Centre,"sb\highlight.png",0,0 C,0,143452,,38,103,156 M,0,143452,144113,215,400,-82,363 S,0,143452,144113,4,2 F,0,143561,144113,0.3,0
Sprite,Foreground,Centre,"sb\highlight.png",0,0 C,0,143746,,43,116,175 M,0,143746,144377,425,400,722,362 S,0,143746,144377,4,2 F,0,143868,144377,0.3,0
Sprite,Foreground,Centre,"sb\highlight.png",0,0 C,0,144040,,45,122,184 M,0,144040,144673,215,400,-59,279 S,0,144040,144673,4,2 F,0,144145,144673,0.3,0
Sprite,Foreground,Centre,"sb\highlight.png",0,0 C,0,144236,,131,73,156 M,0,144236,144870,460,400,758,373 S,0,144236,144870,4,2 F,0,144431,144870,0.3,0
Sprite,Foreground,Centre,"sb\highlight.png",0,0 C,0,145021,,158,54,67 M,0,145021,145668,110,400,-178,317 S,0,145021,145668,4,2 F,0,145207,145668,0.3,0
Sprite,Foreground,Centre,"sb\highlight.png",0,0 C,0,146589,,44,117,178 M,0,146589,147213,155,400,-126,298 S,0,146589,147213,4,2 F,0,146728,147213,0.3,0
Sprite,Foreground,Centre,"sb\highlight.png",0,0 C,0,148158,,187,64,80 M,0,148158,148700,117,400,-170,316 S,0,148158,148700,4,2 F,0,148342,148700,0.3,0
Sprite,Foreground,Centre,"sb\highlight.png",0,0 C,0,149628,,156,82,78 M,0,149628,150134,86,400,-213,391 S,0,149628,150134,4,2 F,0,149770,150134,0.3,0
Sprite,Foreground,Centre,"sb\highlight.png",0,0 C,0,150511,,110,61,131 M,0,150511,151063,299,400,13,313 S,0,150511,151063,4,2 F,0,150685,151063,0.3,0
Sprite,Foreground,Centre,"sb\highlight.png",0,0 C,0,150903,,111,61,131 M,0,150903,151562,433,400,730,362 S,0,150903,151562,4,2 F,0,151072,151562,0.3,0
Sprite,Foreground,Centre,"sb\highlight.png",0,0 C,0,151295,,188,65,81 M,0,151295,151991,433,400,719,311 S,0,151295,151991,4,2 F,0,151431,151991,0.3,0
Sprite,Foreground,Centre,"sb\highlight.png",0,0 C,0,161491,,183,63,78 M,0,161491,162189,420,400,711,331 S,0,161491,162189,4,2 F,0,161689,162189,0.3,0
Sprite,Foreground,Centre,"sb\highlight.png",0,0 C,0,166196,,158,54,67 M,0,166196,166834,96,400,-179,282 S,0,166196,166834,4,2 F,0,166332,166834,0.3,0
Sprite,Foreground,Centre,"sb\highlight.png",0,0 C,0,166491,,175,60,75 M,0,166491,167081,364,400,635,272 S,0,166491,167081,4,2 F,0,166613,167081,0.3,0
Sprite,Foreground,Centre,"sb\highlight.png",0,0 C,0,167765,,162,86,81 M,0,167765,168457,200,400,-99,398 S,0,167765,168457,4,2 F,0,167869,168457,0.3,0
Sprite,Foreground,Centre,"sb\highlight.png",0,0 C,0,168549,,171,90,86 M,0,168549,169115,492,400,778,313 S,0,168549,169115,4,2 F,0,168701,169115,0.3,0
Sprite,Foreground,Centre,"sb\highlight.png",0,0 C,0,169334,,38,101,153 M,0,169334,170018,393,400,682,323 S,0,169334,170018,4,2 F,0,169465,170018,0.3,0
Sprite,Foreground,Centre,"sb\highlight.png",0,0 C,0,169628,,38,102,154 M,0,169628,170179,344,400,45,396 S,0,169628,170179,4,2 F,0,169781,170179,0.3,0
Sprite,Foreground,Centre,"sb\highlight.png",0,0 C,0,170902,,118,65,140 M,0,170902,171474,156,400,-138,342 S,0,170902,171474,4,2 F,0,171026,171474,0.3,0
Sprite,Foreground,Centre,"sb\highlight.png",0,0 C,0,175608,,156,82,78 M,0,175608,176156,103,400,-169,275 S,0,175608,176156,4,2 F,0,175760,176156,0.3,0
Sprite,Foreground,Centre,"sb\highlight.png",0,0 C,0,175902,,157,83,79 M,0,175902,176477,399,400,675,284 S,0,175902,176477,4,2 F,0,176095,176477,0.3,0
Sprite,Foreground,Centre,"sb\highlight.png",0,0 C,0,176196,,175,92,87 M,0,176196,176795,483,400,782,377 S,0,176196,176795,4,2 F,0,176388,176795,0.3,0
Sprite,Foreground,Centre,"sb\highlight.png",0,0 C,0,176392,,157,83,79 M,0,176392,176979,113,400,-161,279 S,0,176392,176979,4,2 F,0,176588,176979,0.3,0
Sprite,Foreground,Centre,"sb\highlight.png",0,0 C,0,190510,,156,83,78 M,0,190510,191126,523,400,817,344 S,0,190510,191126,4,2 F,0,190658,191126,0.3,0
Sprite,Foreground,Centre,"sb\highlight.png",0,0 C,0,191294,,39,105,159 M,0,191294,191805,209,400,-75,305 S,0,191294,191805,4,2 F,0,191489,191805,0.3,0
Sprite,Foreground,Centre,"sb\highlight.png",0,0 C,0,195215,,44,119,180 M,0,195215,195773,496,400,774,290 S,0,195215,195773,4,2 F,0,195409,195773,0.3,0
Sprite,Foreground,Centre,"sb\highlight.png",0,0 C,0,195608,,37,100,152 M,0,195608,196305,186,400,-110,356 S,0,195608,196305,4,2 F,0,195793,196305,0.3,0
Sprite,Foreground,Centre,"sb\highlight.png",0,0 C,0,196000,,41,109,166 M,0,196000,196642,151,400,-124,281 S,0,196000,196642,4,2 F,0,196183,196642,0.3,0
Sprite,Foreground,Centre,"sb\highlight.png",0,0 C,0,196392,,46,124,188 M,0,196392,196912,371,400,648,286 S,0,196392,196912,4,2 F,0,196575,196912,0.3,0
Sprite,Foreground,Centre,"sb\highlight.png",0,0 C,0,201490,,149,79,75 M,0,201490,202153,176,400,-123,387 S,0,201490,202153,4,2 F,0,201606,202153,0.3,0
Sprite,Foreground,Centre,"sb\highlight.png",0,0 C,0,201784,,148,78,74 M,0,201784,202344,464,400,762,371 S,0,201784,202344,4,2 F,0,201956,202344,0.3,0
Sprite,Foreground,Centre,"sb\highlight.png",0,0 C,0,202078,,168,89,84 M,0,202078,202607,206,400,-85,331 S,0,202078,202607,4,2 F,0,202244,202607,0.3,0
Sprite,Foreground,Centre,"sb\highlight.png",0,0 C,0,202274,,38,102,154 M,0,202274,202794,406,400,688,299 S,0,202274,202794,4,2 F,0,202410,202794,0.3,0
Sprite,Foreground,Centre,"sb\highlight.png",0,0 C,0,203059,,132,73,156 M,0,203059,203603,152,400,-133,309 S,0,203059,203603,4,2 F,0,203226,203603,0.3,0
Sprite,Foreground,Centre,"sb\highlight.png",0,0 C,0,204627,,161,85,81 M,0,204627,205223,96,400,-179,282 S,0,204627,205223,4,2 F,0,204815,205223,0.3,0
Sprite,Foreground,Centre,"sb\highlight.png",0,0 C,0,206196,,119,66,142 M,0,206196,206753,180,400,-113,340 S,0,206196,206753,4,2 F,0,206363,206753,0.3,0
Sprite,Foreground,Centre,"sb\highlight.png",0,0 C,0,207764,,185,64,79 M,0,207764,208287,184,400,-90,279 S,0,207764,208287,4,2 F,0,207955,208287,0.3,0
Sprite,Foreground,Centre,"sb\highlight.png",0,0 C,0,209333,,178,94,89 M,0,209333,209867,504,400,795,329 S,0,209333,209867,4,2 F,0,209434,209867,0.3,0
Sprite,Foreground,Centre,"sb\highlight.png",0,0 C,0,210902,,125,69,148 M,0,210902,211599,477,400,763,310 S,0,210902,211599,4,2 F,0,211053,211599,0.3,0
Sprite,Foreground,Centre,"sb\highlight.png",0,0 C,0,212470,,167,89,84 M,0,212470,213160,176,400,-98,279 S,0,212470,213160,4,2 F,0,212571,213160,0.3,0
Sprite,Foreground,Centre,"sb\highlight.png",0,0 C,0,214039,,115,64,137 M,0,214039,214674,112,400,-176,317 S,0,214039,214674,4,2 F,0,214231,214674,0.3,0
Sprite,Foreground,Centre,"sb\highlight.png",0,0 C,0,214823,,178,61,76 M,0,214823,215449,515,400,813,368 S,0,214823,215449,4,2 F,0,214945,215449,0.3,0
Sprite,Foreground,Centre,"sb\highlight.png",0,0 C,0,215215,,153,53,66 M,0,215215,215896,125,400,-174,386 S,0,215215,215896,4,2 F,0,215357,215896,0.3,0
Sprite,Foreground,Centre,"sb\highlight.png",0,0 C,0,215608,,167,89,84 M,0,215608,216135,443,400,722,293 S,0,215608,216135,4,2 F,0,215782,216135,0.3,0
Sprite,Foreground,CentreLeft,"sb\side.png",-107,240 C,0,161490,,0,0,0 V,0,161490,,0,1.2 V,0,161491,161589,0,1.2,1.41,1.2 V,0,161589,161687,1.41,1.2,1.38,1.2 V,0,161687,161785,1.38,1.2,1.2,1.2 V,0,161785,161883,1.2,1.2,0.84,1.2 V,0,161883,161981,0.84,1.2,0.68,1.2 V,0,161981,162079,0.68,1.2,1.24,1.2 V,0,162079,162177,1.24,1.2,1.39,1.2 V,0,162177,162275,1.39,1.2,0.84,1.2 V,0,162275,162373,0.84,1.2,0.82,1.2 V,0,162373,162471,0.82,1.2,0.92,1.2 V,0,162471,162569,0.92,1.2,1.11,1.2 V,0,162569,162667,1.11,1.2,0.7,1.2 V,0,162667,162765,0.7,1.2,0.85,1.2 V,0,162765,162863,0.85,1.2,1.29,1.2 V,0,162863,162961,1.29,1.2,1.45,1.2 V,0,162961,163059,1.45,1.2,0.72,1.2 V,0,163059,163157,0.72,1.2,0.7,1.2 V,0,163157,163255,0.7,1.2,1.18,1.2 V,0,163255,163353,1.18,1.2,1.03,1.2 V,0,163353,163451,1.03,1.2,1.48,1.2 V,0,163451,163549,1.48,1.2,1.5,1.2 V,0,163549,163647,1.5,1.2,1.01,1.2 V,0,163647,163745,1.01,1.2,1.17,1.2 V,0,163745,163843,1.17,1.2,0.77,1.2 V,0,163843,163941,0.77,1.2,0.93,1.2 V,0,163941,164039,0.93,1.2,1.08,1.2 V,0,164039,164138,1.08,1.2,0.89,1.2 V,0,164138,164236,0.89,1.2,1.29,1.2 V,0,164236,164334,1.29,1.2,1.44,1.2 V,0,164334,164432,1.44,1.2,0.93,1.2 V,0,164432,164530,0.93,1.2,0.92,1.2 V,0,164530,164628,0.92,1.2,1.36,1.2 V,0,164628,164726,1.36,1.2,1.51,1.2 V,0,164726,164824,1.51,1.2,1.29,1.2 V,0,164824,164922,1.29,1.2,1.44,1.2 V,0,164922,165020,1.44,1.2,0.97,1.2 V,0,165020,165118,0.97,1.2,0.95,1.2 V,0,165118,165216,0.95,1.2,1.15,1.2 V,0,165216,165314,1.15,1.2,1.16,1.2 V,0,165314,165412,1.16,1.2,0.64,1.2 V,0,165412,165510,0.64,1.2,0.79,1.2 V,0,165510,165608,0.79,1.2,1.23,1.2 V,0,165608,165706,1.23,1.2,1.08,1.2 V,0,165706,165804,1.08,1.2,1.55,1.2 V,0,165804,165902,1.55,1.2,1.39,1.2 V,0,165902,166000,1.39,1.2,0.96,1.2 V,0,166000,166098,0.96,1.2,1.12,1.2 V,0,166098,166196,1.12,1.2,0.63,1.2 V,0,166196,166294,0.63,1.2,0.65,1.2 V,0,166294,166392,0.65,1.2,0.76,1.2 V,0,166392,166491,0.76,1.2,1.19,1.2 V,0,166491,166589,1.19,1.2,1.03,1.2 V,0,166589,166687,1.03,1.2,0.88,1.2 V,0,166687,166785,0.88,1.2,1.3,1.2 V,0,166785,166883,1.3,1.2,1.46,1.2 V,0,166883,166981,1.46,1.2,1.1,1.2 V,0,166981,167177,1.1,1.2,0.74,1.2 V,0,167177,167373,0.74,1.2,1.1,1.2 V,0,167373,167569,1.1,1.2,1.45,1.2 V,0,167569,167765,1.45,1.2,0.85,1.2 V,0,167765,167863,0.85,1.2,0.71,1.2 V,0,167863,167961,0.71,1.2,0.67,1.2 V,0,167961,168059,0.67,1.2,1.06,1.2 V,0,168059,168157,1.06,1.2,1.2,1.2 V,0,168157,168255,1.2,1.2,1.24,1.2 V,0,168255,168353,1.24,1.2,1.04,1.2 V,0,168353,168549,1.04,1.2,1.46,1.2 V,0,168549,168647,1.46,1.2 V,0,168647,168745,1.46,1.2,1.45,1.2 V,0,168745,168843,1.45,1.2 V,0,168843,168941,1.45,1.2 V,0,168941,169138,1.45,1.2,0.92,1.2 V,0,169138,169236,0.92,1.2,0.76,1.2 V,0,169236,169334,0.76,1.2,1.25,1.2 V,0,169334,169432,1.25,1.2,1.41,1.2 V,0,169432,169530,1.41,1.2,1.56,1.2 V,0,169530,169628,1.56,1.2,1.15,1.2 V,0,169628,169726,1.15,1.2,0.99,1.2 V,0,169726,169824,0.99,1.2,0.84,1.2 V,0,169824,169922,0.84,1.2,1.26,1.2 V,0,169922,170020,1.26,1.2,1.42,1.2 V,0,170020,170118,1.42,1.2,0.99,1.2 V,0,170118,170216,0.99,1.2,0.83,1.2 V,0,170216,170314,0.83,1.2,0.68,1.2 V,0,170314,170510,0.68,1.2,1.41,1.2 V,0,170510,170902,1.41,1.2,0.76,1.2 V,0,170902,171000,0.76,1.2,0.74,1.2 V,0,171000,171098,0.74,1.2,0.96,1.2 V,0,171098,171196,0.96,1.2,0.97,1.2 V,0,171196,171294,0.97,1.2,1.19,1.2 V,0,171294,171392,1.19,1.2,1.18,1.2 V,0,171392,171490,1.18,1.2,1.39,1.2 V,0,171490,171588,1.39,1.2,1.41,1.2 V,0,171588,171687,1.41,1.2,0.8,1.2 V,0,171687,171785,0.8,1.2,0.77,1.2 V,0,171785,171883,0.77,1.2,0.94,1.2 V,0,171883,171981,0.94,1.2,0.79,1.2 V,0,171981,172079,0.79,1.2,1.17,1.2 V,0,172079,172177,1.17,1.2,1.32,1.2 V,0,172177,172275,1.32,1.2,1.08,1.2 V,0,172275,172373,1.08,1.2,0.93,1.2 V,0,172373,172471,0.93,1.2,1.53,1.2 V,0,172471,172569,1.53,1.2,1.54,1.2 V,0,172569,172667,1.54,1.2,1.09,1.2 V,0,172667,172765,1.09,1.2,0.93,1.2 V,0,172765,172863,0.93,1.2,1.12,1.2 V,0,172863,172961,1.12,1.2,1.28,1.2 V,0,172961,173059,1.28,1.2,0.66,1.2 V,0,173059,173157,0.66,1.2,0.65,1.2 V,0,173157,173255,0.65,1.2,1.23,1.2 V,0,173255,173353,1.23,1.2,1.39,1.2 V,0,173353,173451,1.39,1.2,0.96,1.2 V,0,173451,173549,0.96,1.2,0.81,1.2 V,0,173549,173647,0.81,1.2,1.27,1.2 V,0,173647,173745,1.27,1.2,1.42,1.2 V,0,173745,173843,1.42,1.2,0.93,1.2 V,0,173843,173941,0.93,1.2,0.78,1.2 V,0,173941,174040,0.78,1.2,1.34,1.2 V,0,174040,174138,1.34,1.2,1.49,1.2 V,0,174138,174236,1.49,1.2,1.27,1.2 V,0,174236,174334,1.27,1.2,1.42,1.2 V,0,174334,174432,1.42,1.2,0.86,1.2 V,0,174432,174530,0.86,1.2,0.71,1.2 V,0,174530,174628,0.71,1.2,0.92,1.2 V,0,174628,174726,0.92,1.2,0.77,1.2 V,0,174726,174824,0.77,1.2,1.54,1.2 V,0,174824,174922,1.54,1.2,1.57,1.2 V,0,174922,175020,1.57,1.2,1.18,1.2 V,0,175020,175118,1.18,1.2,1.15,1.2 V,0,175118,175216,1.15,1.2,0.8,1.2 V,0,175216,175314,0.8,1.2,0.65,1.2 V,0,175314,175412,0.65,1.2,1.33,1.2 V,0,175412,175510,1.33,1.2,1.48,1.2 V,0,175510,175608,1.48,1.2,0.65,1.2 V,0,175608,175706,0.65,1.2,0.66,1.2 V,0,175706,175804,0.66,1.2,0.77,1.2 V,0,175804,175902,0.77,1.2,1.26,1.2 V,0,175902,176000,1.26,1.2,1.11,1.2 V,0,176000,176098,1.11,1.2,0.95,1.2 V,0,176098,176196,0.95,1.2,1.44,1.2 V,0,176196,176294,1.44,1.2,1.59,1.2 F,0,176392,,1
Sprite,Foreground,CentreLeft,"sb\side.png",747,240 R,0,161490,,3.141593 C,0,161490,,0,0,0 V,0,161490,,0,1.2 V,0,161491,161589,0,1.2,0.8,1.2 V,0,161589,161687,0.8,1.2,0.84,1.2 V,0,161687,161785,0.84,1.2,1.02,1.2 V,0,161785,161883,1.02,1.2,1.38,1.2 V,0,161883,161981,1.38,1.2,1.53,1.2 V,0,161981,162079,1.53,1.2,0.98,1.2 V,0,162079,162177,0.98,1.2,0.82,1.2 V,0,162177,162275,0.82,1.2,1.38,1.2 V,0,162275,162373,1.38,1.2,1.4,1.2 V,0,162373,162471,1.4,1.2,1.3,1.2 V,0,162471,162569,1.3,1.2,1.11,1.2 V,0,162569,162667,1.11,1.2,1.52,1.2 V,0,162667,162765,1.52,1.2,1.36,1.2 V,0,162765,162863,1.36,1.2,0.92,1.2 V,0,162863,162961,0.92,1.2,0.77,1.2 V,0,162961,163059,0.77,1.2,1.5,1.2 V,0,163059,163157,1.5,1.2,1.52,1.2 V,0,163157,163255,1.52,1.2,1.03,1.2 V,0,163255,163353,1.03,1.2,1.19,1.2 V,0,163353,163451,1.19,1.2,0.74,1.2 V,0,163451,163549,0.74,1.2,0.72,1.2 V,0,163549,163647,0.72,1.2,1.2,1.2 V,0,163647,163745,1.2,1.2,1.05,1.2 V,0,163745,163843,1.05,1.2,1.45,1.2 V,0,163843,163941,1.45,1.2,1.29,1.2 V,0,163941,164039,1.29,1.2,1.14,1.2 V,0,164039,164138,1.14,1.2,1.33,1.2 V,0,164138,164236,1.33,1.2,0.93,1.2 V,0,164236,164334,0.93,1.2,0.77,1.2 V,0,164334,164432,0.77,1.2,1.28,1.2 V,0,164432,164530,1.28,1.2,1.29,1.2 V,0,164530,164628,1.29,1.2,0.86,1.2 V,0,164628,164726,0.86,1.2,0.7,1.2 V,0,164726,164824,0.7,1.2,0.93,1.2 V,0,164824,164922,0.93,1.2,0.77,1.2 V,0,164922,165020,0.77,1.2,1.25,1.2 V,0,165020,165118,1.25,1.2,1.26,1.2 V,0,165118,165216,1.26,1.2,1.07,1.2 V,0,165216,165314,1.07,1.2,1.06,1.2 V,0,165314,165412,1.06,1.2,1.58,1.2 V,0,165412,165510,1.58,1.2,1.43,1.2 V,0,165510,165608,1.43,1.2,0.99,1.2 V,0,165608,165706,0.99,1.2,1.14,1.2 V,0,165706,165804,1.14,1.2,0.67,1.2 V,0,165804,165902,0.67,1.2,0.82,1.2 V,0,165902,166000,0.82,1.2,1.25,1.2 V,0,166000,166098,1.25,1.2,1.1,1.2 V,0,166098,166196,1.1,1.2,1.59,1.2 V,0,166196,166294,1.59,1.2,1.56,1.2 V,0,166294,166392,1.56,1.2,1.45,1.2 V,0,166392,166491,1.45,1.2,1.03,1.2 V,0,166491,166589,1.03,1.2,1.18,1.2 V,0,166589,166687,1.18,1.2,1.34,1.2 V,0,166687,166785,1.34,1.2,0.91,1.2 V,0,166785,166883,0.91,1.2,0.76,1.2 V,0,166883,166981,0.76,1.2,1.11,1.2 V,0,166981,167177,1.11,1.2,1.48,1.2 V,0,167177,167373,1.48,1.2,1.11,1.2 V,0,167373,167569,1.11,1.2,0.77,1.2 V,0,167569,167765,0.77,1.2,1.37,1.2 V,0,167765,167863,1.37,1.2,1.51,1.2 V,0,167863,167961,1.51,1.2,1.55,1.2 V,0,167961,168059,1.55,1.2,1.16,1.2 V,0,168059,168157,1.16,1.2,1.02,1.2 V,0,168157,168255,1.02,1.2,0.98,1.2 V,0,168255,168353,0.98,1.2,1.18,1.2 V,0,168353,168549,1.18,1.2,0.76,1.2 V,0,168549,168647,0.76,1.2 V,0,168647,168745,0.76,1.2 V,0,168745,168843,0.76,1.2 V,0,168843,168941,0.76,1.2 V,0,168941,169138,0.76,1.2,1.3,1.2 V,0,169138,169236,1.3,1.2,1.45,1.2 V,0,169236,169334,1.45,1.2,0.97,1.2 V,0,169334,169432,0.97,1.2,0.81,1.2 V,0,169432,169530,0.81,1.2,0.65,1.2 V,0,169530,169628,0.65,1.2,1.07,1.2 V,0,169628,169726,1.07,1.2,1.23,1.2 V,0,169726,169824,1.23,1.2,1.38,1.2 V,0,169824,169922,1.38,1.2,0.96,1.2 V,0,169922,170020,0.96,1.2,0.8,1.2 V,0,170020,170118,0.8,1.2,1.23,1.2 V,0,170118,170216,1.23,1.2,1.38,1.2 V,0,170216,170314,1.38,1.2,1.54,1.2 V,0,170314,170510,1.54,1.2,0.81,1.2 V,0,170510,170902,0.81,1.2,1.46,1.2 V,0,170902,171000,1.46,1.2,1.48,1.2 V,0,171000,171098,1.48,1.2,1.26,1.2 V,0,171098,171196,1.26,1.2,1.24,1.2 V,0,171196,171294,1.24,1.2,1.02,1.2 V,0,171294,171392,1.02,1.2,1.04,1.2 V,0,171392,171490,1.04,1.2,0.82,1.2 V,0,171490,171588,0.82,1.2,0.81,1.2 V,0,171588,171687,0.81,1.2,1.42,1.2 V,0,171687,171785,1.42,1.2,1.45,1.2 V,0,171785,171883,1.45,1.2,1.27,1.2 V,0,171883,171981,1.27,1.2,1.43,1.2 V,0,171981,172079,1.43,1.2,1.05,1.2 V,0,172079,172177,1.05,1.2,0.89,1.2 V,0,172177,172275,0.89,1.2,1.13,1.2 V,0,172275,172373,1.13,1.2,1.29,1.2 V,0,172373,172471,1.29,1.2,0.69,1.2 V,0,172471,172569,0.69,1.2,0.67,1.2 V,0,172569,172667,0.67,1.2,1.13,1.2 V,0,172667,172765,1.13,1.2,1.28,1.2 V,0,172765,172863,1.28,1.2,1.09,1.2 V,0,172863,172961,1.09,1.2,0.94,1.2 V,0,172961,173059,0.94,1.2,1.55,1.2 V,0,173059,173157,1.55,1.2,1.56,1.2 V,0,173157,173255,1.56,1.2,0.99,1.2 V,0,173255,173353,0.99,1.2,0.83,1.2 V,0,173353,173451,0.83,1.2,1.25,1.2 V,0,173451,173549,1.25,1.2,1.41,1.2 V,0,173549,173647,1.41,1.2,0.95,1.2 V,0,173647,173745,0.95,1.2,0.79,1.2 V,0,173745,173843,0.79,1.2,1.29,1.2 V,0,173843,173941,1.29,1.2,1.44,1.2 V,0,173941,174040,1.44,1.2,0.88,1.2 V,0,174040,174138,0.88,1.2,0.73,1.2 V,0,174138,174236,0.73,1.2,0.94,1.2 V,0,174236,174334,0.94,1.2,0.79,1.2 V,0,174334,174432,0.79,1.2,1.36,1.2 V,0,174432,174530,1.36,1.2,1.51,1.2 V,0,174530,174628,1.51,1.2,1.29,1.2 V,0,174628,174726,1.29,1.2,1.45,1.2 V,0,174726,174824,1.45,1.2,0.68,1.2 V,0,174824,174922,0.68,1.2,0.65,1.2 V,0,174922,175020,0.65,1.2,1.04,1.2 V,0,175020,175118,1.04,1.2,1.07,1.2 V,0,175118,175216,1.07,1.2,1.41,1.2 V,0,175216,175314,1.41,1.2,1.57,1.2 V,0,175314,175412,1.57,1.2,0.89,1.2 V,0,175412,175510,0.89,1.2,0.73,1.2 V,0,175510,175608,0.73,1.2,1.57,1.2 V,0,175608,175706,1.57,1.2,1.56,1.2 V,0,175706,175804,1.56,1.2,1.45,1.2 V,0,175804,175902,1.45,1.2,0.95,1.2 V,0,175902,176000,0.95,1.2,1.11,1.2 V,0,176000,176098,1.11,1.2,1.27,1.2 V,0,176098,176196,1.27,1.2,0.78,1.2 V,0,176196,176294,0.78,1.2,0.62,1.2 F,0,176392,,1
//Storyboard Layer 4 (Overlay)
//Storyboard Sound Samples

[TimingPoints]
800,413.793103448276,4,3,0,70,1,0
6800,-100,4,3,1,70,0,0
9903,-100,4,3,0,60,0,0
10937,-100,4,3,0,50,0,0
13627,-100,4,2,1,45,0,0
14041,392.156862745098,4,3,1,60,1,0
14041,-83.3333333333333,4,3,1,60,0,0
16982,-71.4285714285714,4,3,1,60,0,0
17178,-71.4285714285714,4,3,1,70,0,0
18746,-71.4285714285714,4,3,1,80,0,0
20315,-71.4285714285714,4,3,1,85,0,0
32962,-83.3333333333333,4,2,1,45,0,0
34041,-71.4285714285714,4,3,1,70,0,0
42276,-71.4285714285714,4,3,1,75,0,0
45707,-71.4285714285714,4,3,1,70,0,0
46982,-83.3333333333333,4,2,1,55,0,0
51688,-71.4285714285714,4,2,1,60,0,0
52276,-71.4285714285714,4,2,1,65,0,0
53256,-71.4285714285714,4,3,1,70,0,0
57962,-71.4285714285714,4,3,1,75,0,0
59531,-71.4285714285714,4,3,1,90,0,1
77962,-71.4285714285714,4,3,1,90,0,1
78354,-71.4285714285714,4,3,1,65,0,0
87766,-71.4285714285714,4,3,1,68,0,0
88746,-71.4285714285714,4,3,1,70,0,0
89335,-71.4285714285714,4,3,1,60,0,0
90903,-71.4285714285714,4,3,1,70,0,0
112080,-71.4285714285714,4,2,1,60,0,0
112864,-71.4285714285714,4,3,1,70,0,0
119139,-71.4285714285714,4,3,1,65,0,0
123452,-71.4285714285714,4,3,1,68,0,0
124433,-71.4285714285714,4,3,1,70,0,0
125413,-71.4285714285714,4,3,1,70,0,0
129335,-71.4285714285714,4,3,1,73,0,0
132472,392.156862745098,4,3,1,90,1,1
132472,-71.4285714285714,4,3,1,90,0,1
150511,-71.4285714285714,4,3,1,90,0,0
151295,-71.4285714285714,4,3,1,85,0,0
154530,-71.4285714285714,4,2,1,70,0,0
157000,355.029585798817,4,3,1,70,1,0
157177,392.156862745098,4,3,1,75,1,0
157177,-71.4285714285714,4,3,1,75,0,0
157569,392.156862745098,4,3,1,75,1,0
157569,-71.4285714285714,4,3,1,75,0,0
159137,-71.4285714285714,4,3,1,77,0,0
159333,-71.4285714285714,4,3,1,79,0,0
159529,-71.4285714285714,4,3,1,80,0,0
159725,-71.4285714285714,4,3,1,82,0,0
159921,-71.4285714285714,4,3,1,85,0,0
160706,-100,4,2,1,25,0,0
160755,-100,4,2,1,25,0,0
160804,-100,4,2,1,25,0,0
160853,-100,4,2,1,25,0,0
160902,-76.9230769230769,4,2,1,25,0,0
160951,-62.5,4,2,1,25,0,0
161000,-52.6315789473684,4,2,1,25,0,0
161049,-45.4545454545455,4,2,1,25,0,0
161098,-40,4,2,1,28,0,0
161147,-35.7142857142857,4,2,1,28,0,0
161196,-32.258064516129,4,2,1,28,0,0
161245,-29.4117647058824,4,2,1,28,0,0
161294,-27.027027027027,4,2,1,28,0,0
161343,-25,4,2,1,28,0,0
161491,392.156862745098,4,3,1,90,1,1
161491,-71.4285714285714,4,3,1,90,0,1
161589,-71.4285714285714,4,3,1,90,0,0
175608,-71.4285714285714,4,3,1,90,0,0
177177,-71.4285714285714,4,3,1,85,0,0
181883,-71.4285714285714,4,3,1,90,0,0
183451,-71.4285714285714,4,3,1,85,0,0
188157,-71.4285714285714,4,2,1,60,0,0
188745,-71.4285714285714,4,2,1,55,0,0
189334,-71.4285714285714,4,2,1,50,0,0
189922,-71.4285714285714,4,2,1,70,0,0
190118,-71.4285714285714,4,2,1,75,0,0
190510,392.156862745098,4,3,1,90,1,1
190510,-62.5,4,3,1,90,0,1
215608,-62.5,4,3,1,85,0,0
226588,-62.5,4,3,1,90,0,0
228157,-62.5,4,3,1,80,0,0

[Colours]
Combo1 : 135,75,160
Combo2 : 191,66,82
Combo3 : 181,96,91
Combo4 : 47,125,189

[HitObjects]
186,49,800,6,0,P|93:66|140:303,1,400,4|8,0:2|0:0,0:0:0:0:
258,234,1765,1,0,0:0:0:0:
135,194,1903,1,8,0:0:0:0:
262,167,2041,2,0,L|363:169,2,66.6666666666666,4|0|0,0:0|0:0|0:0,0:0:0:0:
489,101,2455,6,0,L|271:100,2,200,4|0|2,0:2|0:0|0:2,0:0:0:0:
356,155,3420,1,0,0:0:0:0:
490,163,3558,1,2,0:2:0:0:
372,224,3696,2,0,L|370:338,1,66.6666666666666,2|0,0:2|0:0,0:0:0:0:
458,291,3972,1,0,0:0:0:0:
195,288,4110,6,0,P|126:269|48:149,2,200,4|0|8,0:2|0:0|0:0,0:0:0:0:
56,245,5075,2,0,L|55:343,1,66.6666666666666,0|8,0:0|0:0,0:0:0:0:
195,231,5351,2,0,L|122:231,2,66.6666666666666,0|8|0,0:0|0:0|0:0,0:0:0:0:
451,102,5765,6,0,L|206:104,2,200,4|0|0,0:2|0:0|0:0,0:0:0:0:
280,192,6800,1,0,1:0:0:0:
334,192,6868,1,0,1:0:0:0:
390,194,6937,1,0,1:0:0:0:
183,147,7006,2,0,L|178:316,1,150,4|0,1:2|0:0,0:0:0:0:
495,268,7420,6,0,L|285:268,1,200,4|8,0:2|0:0,0:0:0:0:
380,217,7972,1,0,0:0:0:0:
294,172,8110,1,0,0:0:0:0:
66,132,8248,6,0,L|276:132,1,200,8|8,0:0|0:0,0:0:0:0:
181,83,8800,1,0,0:0:0:0:
267,36,8938,1,0,0:0:0:0:
23,34,9075,6,0,L|20:241,1,200,4|8,0:1|0:0,0:0:0:0:
110,261,9627,1,0,2:0:0:0:
19,291,9765,1,0,2:0:0:0:
289,131,9903,6,0,L|71:128,1,200,0|0,1:0|1:0,0:0:0:0:
217,76,10455,1,0,1:0:0:0:
91,60,10593,1,0,1:0:0:0:
386,100,10731,1,4,1:1:0:0:
256,192,10937,12,0,13627,0:0:0:0:
221,108,14041,5,8,0:0:0:0:
409,108,14237,2,0,L|318:109,2,59.9999981689454,0|8|0,0:0|0:0|0:0,0:0:0:0:
221,108,14629,1,8,0:0:0:0:
33,108,14825,2,0,L|124:109,2,59.9999981689454,0|8|0,0:0|0:0|0:0,0:0:0:0:
221,108,15217,2,0,L|73:109,1,119.999996337891,8|8,0:0|0:0,0:0:0:0:
361,104,15609,6,0,P|398:157|346:228,1,119.999996337891,8|2,0:0|0:0,0:0:0:0:
305,208,15903,1,8,0:0:0:0:
385,243,16001,1,0,0:0:0:0:
184,148,16197,2,0,L|356:148,1,119.999996337891,8|2,0:0|0:0,0:0:0:0:
386,144,16491,1,8,0:0:0:0:
306,91,16589,1,0,0:0:0:0:
489,43,16786,6,0,L|492:83,3,29.9999990844727,8|0|0|0,0:0|0:0|0:0|0:0,0:0:0:0:
409,43,16982,2,0,L|503:42,1,69.9999978637696
241,46,17178,6,0,L|155:46,3,69.9999978637696,8|0|0|4,0:0|0:0|0:0|0:0,0:0:0:0:
341,78,17570,1,0,0:0:0:0:
256,78,17668,2,0,L|249:170,1,69.9999978637696,0|4,0:0|0:0,0:0:0:0:
418,166,17864,2,0,L|328:165,1,69.9999978637696
267,164,18060,5,4,0:0:0:0:
442,121,18158,2,0,L|445:193,1,69.9999978637696
364,194,18354,1,4,0:0:0:0:
202,224,18452,2,0,L|282:223,2,69.9999978637696,0|4|0,0:0|0:0|0:0,0:0:0:0:
157,208,18697,1,0,0:0:0:0:
22,69,18746,6,0,L|112:70,2,69.9999978637696,4|0|0,0:1|0:0|0:0,0:0:0:0:
220,68,19041,2,0,L|310:69,2,69.9999978637696,4|0|0,0:1|0:0|0:0,0:0:0:0:
421,69,19335,2,0,L|490:69,1,69.9999978637696,4|0,0:1|0:0,0:0:0:0:
305,146,19531,6,0,L|375:146,1,69.9999978637696
207,146,19727,2,0,L|137:146,1,69.9999978637696
397,240,19923,1,4,0:2:0:0:
222,239,20021,1,0,0:0:0:0:
119,237,20119,1,0,0:0:0:0:
291,239,20217,1,0,0:0:0:0:
113,69,20315,6,0,L|17:68,1,69.9999978637696,2|2,0:0|0:0,0:0:0:0:
140,37,20511,2,0,L|217:37,1,69.9999978637696,0|2,0:0|0:0,0:0:0:0:
32,42,20707,2,0,L|19:131,1,69.9999978637696,10|0,0:2|0:0,0:0:0:0:
194,138,20903,2,0,L|106:137,1,69.9999978637696,0|0,0:0|1:0,0:0:0:0:
321,140,21099,6,0,L|432:140,1,69.9999978637696,2|2,0:0|0:0,0:0:0:0:
403,107,21246,1,0,0:0:0:0:
390,74,21295,2,0,L|310:74,1,69.9999978637696,0|2,0:0|0:0,0:0:0:0:
494,194,21491,2,0,L|337:197,1,139.999995727539,10|0,0:2|0:0,0:0:0:0:
423,168,21786,1,0,0:0:0:0:
241,162,21884,5,2,1:2:0:0:
334,154,21982,2,0,L|416:155,1,69.9999978637696,2|0,0:0|0:0,0:0:0:0:
222,103,22178,2,0,L|207:184,1,69.9999978637696,2|0,0:2|0:0,0:0:0:0:
301,172,22374,2,0,L|313:243,1,69.9999978637696,2|0,0:2|0:0,0:0:0:0:
146,268,22570,6,0,L|291:267,1,139.999995727539,2|2,1:2|0:2,0:0:0:0:
215,224,22864,2,0,L|295:222,1,69.9999978637696,2|2,0:2|0:2,0:0:0:0:
452,217,23060,1,10,0:2:0:0:
384,219,23158,1,0,0:0:0:0:
356,138,23256,1,2,1:2:0:0:
426,138,23354,1,0,0:0:0:0:
241,50,23452,6,0,L|226:134,1,69.9999978637696,2|2,0:0|0:0,0:0:0:0:
323,162,23648,2,0,L|205:163,1,69.9999978637696,2|2,1:2|0:0,0:0:0:0:
419,163,23844,2,0,L|530:162,1,69.9999978637696,10|0,0:2|0:0,0:0:0:0:
321,241,24041,2,0,L|432:240,1,69.9999978637696
212,273,24237,6,0,L|218:185,1,69.9999978637696,2|2,0:2|0:0,0:0:0:0:
252,205,24384,1,0,0:0:0:0:
287,205,24433,2,0,L|293:117,1,69.9999978637696,0|2,0:0|0:0,0:0:0:0:
128,88,24629,2,0,L|210:87,1,69.9999978637696,10|0,0:2|0:0,0:0:0:0:
98,95,24825,2,0,L|88:176,1,69.9999978637696
278,68,25021,6,0,L|177:68,1,69.9999978637696,6|0,0:0|0:0,0:0:0:0:
419,106,25217,2,0,L|331:107,1,69.9999978637696,2|0,0:0|0:0,0:0:0:0:
162,136,25413,2,0,L|263:136,1,69.9999978637696,6|0,0:0|0:0,0:0:0:0:
37,169,25609,2,0,L|125:170,1,69.9999978637696,2|0,0:0|0:0,0:0:0:0:
315,265,25805,5,6,0:0:0:0:
235,265,25903,1,2,0:0:0:0:
155,265,26001,1,2,0:0:0:0:
235,265,26099,1,2,0:0:0:0:
46,192,26197,2,0,L|43:269,1,69.9999978637696,6|2,0:0|0:0,0:0:0:0:
234,194,26393,2,0,L|154:195,1,69.9999978637696,2|2,0:0|0:0,0:0:0:0:
355,119,26590,6,0,L|435:118,3,69.9999978637696,2|2|0|2,0:0|0:0|0:0|0:0,0:0:0:0:
251,117,26982,2,0,L|246:198,1,69.9999978637696,10|0,0:2|0:0,0:0:0:0:
421,188,27178,2,0,L|336:187,1,69.9999978637696
179,238,27374,6,0,L|277:239,1,69.9999978637696,2|2,0:0|0:0,0:0:0:0:
261,271,27521,1,0,0:0:0:0:
255,305,27570,2,0,L|186:304,1,69.9999978637696,0|2,0:0|0:0,0:0:0:0:
371,282,27766,2,0,L|376:357,1,69.9999978637696,10|0,0:2|0:0,0:0:0:0:
206,351,27962,2,0,L|301:351,1,69.9999978637696
94,225,28158,6,0,L|12:224,2,69.9999978637696,2|2|0,1:2|0:0|0:0,0:0:0:0:
266,157,28452,2,0,L|175:157,1,69.9999978637696,2|0,0:2|0:0,0:0:0:0:
369,155,28648,2,0,L|375:250,1,69.9999978637696,2|0,0:2|0:0,0:0:0:0:
206,227,28844,6,0,L|299:227,1,69.9999978637696,2|0,1:2|0:0,0:0:0:0:
104,286,29041,2,0,L|199:285,2,69.9999978637696,2|2|2,0:2|0:2|0:2,0:0:0:0:
278,288,29335,2,0,L|352:286,1,69.9999978637696,8|0,0:0|0:0,0:0:0:0:
176,298,29531,2,0,L|172:378,1,69.9999978637696
347,333,29727,5,2,0:0:0:0:
277,333,29825,1,2,0:0:0:0:
347,333,29923,1,0,0:0:0:0:
417,333,30021,1,2,0:0:0:0:
242,202,30119,2,0,L|149:201,1,69.9999978637696,10|0,0:2|0:0,0:0:0:0:
348,195,30315,2,0,L|425:196,1,69.9999978637696
247,78,30511,6,0,L|335:78,1,69.9999978637696,2|2,0:0|0:0,0:0:0:0:
324,112,30658,1,0,0:0:0:0:
318,146,30707,2,0,L|230:146,1,69.9999978637696,0|2,0:0|0:0,0:0:0:0:
412,81,30903,2,0,L|417:172,1,69.9999978637696,10|0,0:2|0:0,0:0:0:0:
242,207,31099,2,0,L|321:209,1,69.9999978637696
126,150,31295,6,0,L|27:151,1,69.9999978637696,2|0,0:0|0:0,0:0:0:0:
232,96,31491,2,0,L|133:97,1,69.9999978637696,2|0,0:0|0:0,0:0:0:0:
356,106,31688,2,0,L|455:107,1,69.9999978637696,2|0,0:0|0:0,0:0:0:0:
250,52,31884,2,0,L|349:53,1,69.9999978637696,2|0,0:0|0:0,0:0:0:0:
109,54,32080,6,0,L|100:137,1,69.9999978637696,2|2,0:0|0:0,0:0:0:0:
269,142,32276,2,0,L|278:225,1,69.9999978637696,2|2,0:0|0:0,0:0:0:0:
440,160,32472,2,0,L|449:243,1,69.9999978637696,2|2,0:0|0:0,0:0:0:0:
280,248,32668,2,0,L|271:331,1,69.9999978637696,2|2,0:0|0:0,0:0:0:0:
477,313,32864,5,2,0:2:0:0:
294,237,33060,2,0,L|359:235,1,59.9999981689454,2|2,0:2|0:2,0:0:0:0:
248,241,33256,1,2,0:2:0:0:
192,230,33354,1,0,0:0:0:0:
175,176,33452,1,2,0:2:0:0:
215,136,33550,1,0,0:0:0:0:
306,89,33648,6,0,L|225:89,1,59.9999981689454,2|0,0:2|0:2,0:0:0:0:
340,90,33844,2,0,L|421:90,1,59.9999981689454,2|0,0:2|0:2,0:0:0:0:
310,130,34041,2,0,L|300:200,1,69.9999978637696,2|0,0:2|0:0,0:0:0:0:
395,197,34237,2,0,L|405:271,1,69.9999978637696,2|0,0:2|0:2,0:0:0:0:
223,266,34433,6,0,L|386:263,1,139.999995727539,10|0,0:2|0:0,0:0:0:0:
262,217,34727,2,0,L|176:216,2,69.9999978637696,10|0|0,0:2|0:0|0:0,0:0:0:0:
434,154,35021,6,0,L|271:151,1,139.999995727539,10|0,0:2|0:0,0:0:0:0:
395,105,35315,2,0,L|481:104,2,69.9999978637696,10|0|0,0:2|0:0|0:0,0:0:0:0:
231,63,35609,2,0,L|342:62,1,69.9999978637696,10|0,0:0|0:0,0:0:0:0:
132,68,35805,2,0,L|125:138,1,69.9999978637696,10|0,0:2|0:0,0:0:0:0:
296,174,36001,6,0,L|145:176,1,139.999995727539,10|0,0:2|0:0,0:0:0:0:
255,130,36295,1,10,0:2:0:0:
186,131,36393,1,0,0:0:0:0:
116,132,36491,1,0,0:0:0:0:
292,127,36590,6,0,L|443:129,1,139.999995727539,10|0,0:2|0:0,0:0:0:0:
333,83,36884,1,10,0:2:0:0:
403,84,36982,1,0,0:0:0:0:
473,85,37080,1,2,0:2:0:0:
307,118,37178,2,0,L|301:194,1,69.9999978637696,10|0,0:2|0:0,0:0:0:0:
105,197,37374,2,0,L|202:200,1,69.9999978637696,10|0,0:2|0:0,0:0:0:0:
339,254,37570,5,2,0:0:0:0:
272,206,37668,2,0,L|433:206,1,139.999995727539,10|2,0:0|0:0,0:0:0:0:
341,159,37962,1,8,0:0:0:0:
79,98,38158,1,2,0:0:0:0:
239,68,38256,6,0,L|77:67,2,139.999995727539,8|8|2,0:0|0:0|0:0,0:0:0:0:
406,88,38746,2,0,L|300:89,1,69.9999978637696,8|0,0:0|0:0,0:0:0:0:
172,117,38942,2,0,L|271:117,1,69.9999978637696,2|0,0:0|0:0,0:0:0:0:
69,113,39139,6,0,L|64:198,1,69.9999978637696,10|0,0:2|0:0,0:0:0:0:
145,189,39335,1,0,0:0:0:0:
313,207,39433,2,0,L|221:210,1,69.9999978637696,10|0,0:2|0:0,0:0:0:0:
448,204,39629,2,0,L|451:286,1,69.9999978637696,2|0,0:2|0:0,0:0:0:0:
278,278,39825,6,0,L|388:276,2,69.9999978637696,10|0|0,0:2|0:0|0:0,0:0:0:0:
173,250,40119,2,0,L|261:250,1,69.9999978637696,2|0,1:2|0:0,0:0:0:0:
411,242,40315,2,0,L|416:317,1,69.9999978637696,10|2,0:2|0:0,0:0:0:0:
312,340,40511,2,0,L|405:343,1,69.9999978637696,2|0,0:2|0:0,0:0:0:0:
199,147,40707,6,0,P|132:160|154:212,1,139.999995727539,10|0,0:2|0:0,0:0:0:0:
254,211,41001,2,0,L|171:210,2,69.9999978637696,10|0|0,0:2|0:0|0:0,0:0:0:0:
77,96,41295,6,0,L|246:97,1,139.999995727539,10|0,0:2|0:0,0:0:0:0:
311,96,41590,2,0,L|408:97,2,69.9999978637696,10|0|0,0:2|0:0|0:0,0:0:0:0:
141,111,41884,2,0,L|218:113,1,69.9999978637696,10|0,0:2|0:0,0:0:0:0:
40,119,42080,2,0,L|21:200,1,69.9999978637696,10|0,0:2|0:0,0:0:0:0:
198,239,42276,6,0,P|257:209|220:146,1,139.999995727539,10|0,0:2|0:0,0:0:0:0:
132,154,42570,2,0,L|215:155,2,69.9999978637696,10|0|0,0:2|0:0|0:0,0:0:0:0:
320,290,42864,6,0,L|151:289,1,139.999995727539,10|0,0:2|0:0,0:0:0:0:
86,290,43159,2,0,L|-11:289,2,69.9999978637696,10|0|0,0:2|0:0|0:0,0:0:0:0:
269,274,43453,2,0,L|192:272,1,69.9999978637696,10|0,0:2|0:0,0:0:0:0:
384,268,43649,2,0,L|471:266,1,69.9999978637696,10|0,0:2|0:0,0:0:0:0:
260,97,43844,5,2,0:0:0:0:
328,56,43942,2,0,L|181:56,1,139.999995727539,10|2,0:0|0:0,0:0:0:0:
258,41,44237,1,8,0:0:0:0:
66,44,44433,1,0,0:0:0:0:
259,92,44531,6,0,P|290:176|240:225,1,139.999995727539,8|8,0:0|0:0,0:0:0:0:
168,211,44825,2,0,L|252:210,1,69.9999978637696,0|2,0:0|0:0,0:0:0:0:
65,164,45021,2,0,L|186:164,1,69.9999978637696,8|0,0:0|0:0,0:0:0:0:
237,131,45217,2,0,L|144:130,1,69.9999978637696,8|0,0:0|0:0,0:0:0:0:
367,127,45413,6,0,L|382:205,1,69.9999978637696,8|0,0:0|0:0,0:0:0:0:
288,198,45609,1,2,0:0:0:0:
482,251,45707,1,8,0:0:0:0:
412,252,45805,1,0,0:0:0:0:
342,254,45903,1,2,0:0:0:0:
142,291,46001,2,0,L|258:295,1,69.9999978637696,8|0,0:0|0:0,0:0:0:0:
37,285,46197,6,0,L|35:207,1,69.9999978637696,10|0,0:0|0:0,0:0:0:0:
207,196,46393,1,0,0:0:0:0:
142,179,46491,1,0,0:0:0:0:
124,115,46589,1,0,1:0:0:0:
170,67,46687,1,0,1:0:0:0:
277,64,46786,2,0,L|363:66,1,69.9999978637696,0|0,1:0|1:0,0:0:0:0:
103,53,46982,6,0,L|294:50,2,179.999994506836,2|0|0,0:2|0:0|0:0,0:0:0:0:
195,50,47668,1,0,0:0:0:0:
375,157,47766,6,0,L|184:154,2,179.999994506836,2|2|0,0:2|0:0|0:0,0:0:0:0:
283,154,48452,1,0,0:0:0:0:
461,152,48550,6,0,L|388:154,2,59.9999981689454,2|0|0,0:2|0:0|0:0,0:0:0:0:
288,208,48844,1,2,0:0:0:0:
232,197,48942,1,0,0:0:0:0:
211,143,49040,1,0,0:0:0:0:
245,97,49138,1,0,0:0:0:0:
296,78,49237,1,0,0:0:0:0:
192,39,49335,5,2,0:0:0:0:
369,37,49433,2,0,P|399:95|367:179,1,119.999996337891,2|0,0:2|0:0,0:0:0:0:
228,149,49727,1,2,0:0:0:0:
332,175,49825,2,0,L|401:176,2,59.9999981689454,0|2|2,0:0|0:2|0:0,0:0:0:0:
227,92,50119,6,0,L|398:90,1,119.999996337891,2|0,0:2|0:0,0:0:0:0:
246,144,50413,2,0,L|168:146,2,59.9999981689454,2|0|0,0:0|0:0|0:0,0:0:0:0:
345,199,50707,2,0,L|261:202,1,59.9999981689454,2|0,0:2|0:0,0:0:0:0:
117,204,50903,6,0,L|102:272,1,59.9999981689454,2|0,0:0|0:0,0:0:0:0:
207,262,51099,2,0,L|216:328,1,59.9999981689454,6|0,0:2|0:0,0:0:0:0:
41,339,51295,2,0,L|116:338,1,59.9999981689454,2|0,1:2|0:0,0:0:0:0:
279,283,51491,1,2,1:2:0:0:
102,280,51590,1,0,0:0:0:0:
323,120,51688,5,8,0:0:0:0:
229,117,51786,2,0,L|222:196,1,69.9999978637696
440,182,51982,1,8,0:0:0:0:
346,179,52080,2,0,L|339:258,1,69.9999978637696
146,254,52276,5,8,0:0:0:0:
240,257,52374,2,0,L|247:178,1,69.9999978637696
29,192,52570,1,8,0:0:0:0:
123,195,52668,2,0,L|130:116,1,69.9999978637696
317,62,52864,6,0,L|238:63,3,69.9999978637696,0|0|0|0,1:0|1:0|1:0|1:0,0:0:0:0:
446,151,53256,6,0,L|293:153,1,139.999995727539,2|8,0:0|0:0,0:0:0:0:
377,116,53550,1,0,0:0:0:0:
197,115,53648,2,0,L|179:198,1,69.9999978637696
376,209,53844,2,0,L|287:208,1,69.9999978637696,8|0,0:0|0:0,0:0:0:0:
124,257,54041,6,0,L|272:254,1,139.999995727539,2|8,0:0|0:0,0:0:0:0:
192,226,54335,1,0,0:0:0:0:
369,227,54433,2,0,L|376:303,1,69.9999978637696
191,320,54629,2,0,L|289:317,1,69.9999978637696,8|0,0:0|0:0,0:0:0:0:
48,324,54825,6,0,P|19:250|81:202,1,139.999995727539,0|8,0:0|0:0,0:0:0:0:
144,211,55119,1,0,0:0:0:0:
317,153,55217,2,0,L|243:152,1,69.9999978637696
417,120,55413,2,0,L|534:123,1,69.9999978637696,8|0,0:0|0:0,0:0:0:0:
301,72,55609,5,0,0:0:0:0:
384,67,55707,2,0,L|383:153,1,69.9999978637696,0|8,0:0|0:0,0:0:0:0:
298,140,55903,1,8,0:0:0:0:
131,111,56001,2,0,L|243:113,1,69.9999978637696,2|0,0:0|0:0,0:0:0:0:
31,75,56197,2,0,L|26:148,1,69.9999978637696,8|0,0:0|0:0,0:0:0:0:
226,212,56393,6,0,L|66:213,1,139.999995727539,12|0,0:2|0:0,0:0:0:0:
286,212,56688,2,0,L|446:213,1,139.999995727539,8|0,0:2|0:0,0:0:0:0:
222,152,56982,2,0,L|317:153,1,69.9999978637696,8|0,0:2|0:0,0:0:0:0:
36,83,57178,6,0,L|26:165,1,69.9999978637696,12|0,0:2|0:0,0:0:0:0:
227,200,57374,2,0,L|136:199,1,69.9999978637696,2|8,0:0|0:2,0:0:0:0:
358,197,57570,1,0,0:0:0:0:
424,205,57668,1,0,0:0:0:0:
441,269,57766,1,8,0:2:0:0:
388,309,57864,1,0,0:0:0:0:
202,264,57962,6,0,L|365:263,1,139.999995727539,12|0,0:2|0:0,0:0:0:0:
158,199,58256,2,0,L|321:198,1,139.999995727539,12|0,0:2|0:0,0:0:0:0:
121,129,58550,2,0,L|117:217,1,69.9999978637696,12|0,0:2|0:0,0:0:0:0:
364,75,58746,6,0,P|421:137|371:323,1,279.999991455078,14|0,0:2|2:0,0:0:0:0:
195,264,59335,1,0,2:0:0:0:
472,128,59531,6,0,L|286:129,1,139.999995727539,4|8,1:0|0:0,0:0:0:0:
247,127,59825,1,0,0:0:0:0:
424,198,59923,2,0,L|307:198,1,69.9999978637696,0|0,1:3|0:3,0:0:0:0:
175,198,60119,2,0,L|271:198,1,69.9999978637696,8|0,0:0|0:0,0:0:0:0:
40,128,60315,6,0,L|226:129,1,139.999995727539,2|8,0:0|0:0,0:0:0:0:
265,127,60609,1,0,0:0:0:0:
88,198,60707,2,0,L|205:198,1,69.9999978637696,0|0,1:0|1:0,0:0:0:0:
337,198,60903,2,0,L|241:198,1,69.9999978637696,8|0,0:0|0:0,0:0:0:0:
445,167,61099,6,0,L|458:258,1,69.9999978637696,2|0,0:0|0:0,0:0:0:0:
250,238,61295,2,0,L|233:318,1,69.9999978637696,8|0,0:0|0:0,0:0:0:0:
402,322,61491,2,0,L|316:323,1,69.9999978637696,2|0,0:0|0:0,0:0:0:0:
165,331,61688,2,0,L|275:333,1,69.9999978637696,8|0,0:0|0:0,0:0:0:0:
53,215,61884,6,0,L|221:212,1,139.999995727539,2|8,0:0|0:0,0:0:0:0:
128,159,62178,1,0,0:0:0:0:
295,151,62276,2,0,L|309:234,1,69.9999978637696,2|2,0:0|0:0,0:0:0:0:
125,232,62472,2,0,L|108:315,1,69.9999978637696,8|0,0:0|0:0,0:0:0:0:
337,292,62668,6,0,L|184:293,1,139.999995727539,2|8,0:0|0:0,0:0:0:0:
368,195,62962,1,4,0:2:0:0:
438,195,63060,2,0,L|359:195,1,69.9999978637696,0|2,0:0|0:0,0:0:0:0:
197,135,63256,2,0,L|276:135,1,69.9999978637696,8|0,0:0|0:0,0:0:0:0:
89,133,63452,6,0,L|77:208,1,69.9999978637696,2|0,0:0|0:0,0:0:0:0:
254,244,63648,1,8,1:3:0:0:
78,250,63746,1,12,1:2:0:0:
179,251,63844,1,0,1:0:0:0:
242,226,63942,1,2,1:3:0:0:
255,160,64040,1,8,1:2:0:0:
206,114,64139,1,0,1:0:0:0:
47,52,64237,6,0,L|268:53,1,209.999993591309,12|0,0:2|2:0,0:0:0:0:
465,52,64629,6,0,L|244:53,1,209.999993591309,12|0,0:2|2:0,0:0:0:0:
418,97,65021,6,0,P|486:138|412:232,1,209.999993591309,12|0,0:2|1:0,0:0:0:0:
257,191,65413,6,0,L|391:192,3,69.9999978637696,2|2|2|2,0:0|0:0|0:0|0:0,0:0:0:0:
73,132,65805,6,0,P|36:131|75:200,1,139.999995727539,6|8,0:0|0:0,0:0:0:0:
134,206,66099,1,0,0:0:0:0:
303,132,66197,2,0,L|224:132,1,69.9999978637696,2|0,0:0|0:0,0:0:0:0:
417,92,66393,2,0,L|336:92,1,69.9999978637696,8|0,0:0|0:0,0:0:0:0:
169,92,66590,6,0,P|132:91|171:160,1,139.999995727539,2|8,0:0|0:0,0:0:0:0:
230,166,66884,1,0,0:0:0:0:
401,168,66982,2,0,L|414:256,1,69.9999978637696,0|0,1:0|1:0,0:0:0:0:
234,247,67178,2,0,L|321:248,1,69.9999978637696,8|0,0:0|0:0,0:0:0:0:
96,204,67374,6,0,L|-9:201,1,69.9999978637696,2|0,0:0|0:0,0:0:0:0:
217,122,67570,2,0,L|322:119,1,69.9999978637696,8|0,0:0|0:0,0:0:0:0:
457,85,67766,2,0,L|372:87,1,69.9999978637696,2|0,0:0|0:0,0:0:0:0:
217,69,67962,2,0,L|302:71,1,69.9999978637696,8|0,0:0|0:0,0:0:0:0:
117,176,68158,6,0,L|313:174,1,139.999995727539,2|8,0:0|0:0,0:0:0:0:
186,141,68452,1,0,0:0:0:0:
351,134,68550,2,0,L|360:209,1,69.9999978637696,2|0,0:0|1:0,0:0:0:0:
188,222,68746,2,0,L|291:223,1,69.9999978637696,8|0,1:3|1:0,0:0:0:0:
43,97,68942,6,0,L|201:95,1,139.999995727539,4|0,1:2|1:0,0:0:0:0:
352,62,69237,2,0,L|202:62,1,139.999995727539,8|0,1:2|0:0,0:0:0:0:
400,110,69531,2,0,L|471:110,1,69.9999978637696,8|0,0:0|0:0,0:0:0:0:
297,113,69727,6,0,L|282:183,1,69.9999978637696,12|0,1:2|0:0,0:0:0:0:
385,208,69923,2,0,L|300:208,1,69.9999978637696,8|0,0:0|0:0,0:0:0:0:
119,153,70119,2,0,L|201:155,1,69.9999978637696,8|0,0:0|0:0,0:0:0:0:
356,136,70315,2,0,L|274:138,1,69.9999978637696,8|0,0:0|0:0,0:0:0:0:
493,100,70511,6,0,L|310:100,1,139.999995727539,12|2,1:2|0:0,0:0:0:0:
114,42,70805,2,0,L|297:42,1,139.999995727539,12|2,1:2|0:0,0:0:0:0:
496,41,71099,2,0,L|406:42,1,69.9999978637696,12|0,1:2|0:0,0:0:0:0:
151,97,71295,5,12,1:2:0:0:
333,75,71393,2,0,L|431:75,2,69.9999978637696,0|0|0,0:0|1:0|0:0,0:0:0:0:
151,97,71688,2,0,L|246:98,1,69.9999978637696,2|0,1:3|1:2,0:0:0:0:
388,105,71884,2,0,L|468:105,1,69.9999978637696,8|0,1:2|1:2,0:0:0:0:
255,138,72080,6,0,L|232:207,1,69.9999978637696,2|2,1:3|0:0,0:0:0:0:
70,195,72276,2,0,L|55:274,1,69.9999978637696,8|0,0:0|1:0,0:0:0:0:
257,138,72472,2,0,L|280:207,1,69.9999978637696,0|0,1:0|0:0,0:0:0:0:
442,195,72668,2,0,L|457:274,1,69.9999978637696,8|0,1:2|0:0,0:0:0:0:
254,264,72864,6,0,L|346:262,1,69.9999978637696,0|0,1:0|0:0,0:0:0:0:
128,126,73060,2,0,L|32:125,1,69.9999978637696,8|0,1:2|0:0,0:0:0:0:
258,120,73256,2,0,L|166:122,1,69.9999978637696,0|0,1:0|0:0,0:0:0:0:
384,258,73452,2,0,L|480:259,1,69.9999978637696,8|0,1:2|0:0,0:0:0:0:
224,222,73648,6,0,L|202:154,1,69.9999978637696,0|0,1:0|0:0,0:0:0:0:
34,138,73844,2,0,L|119:138,1,69.9999978637696,8|0,1:2|0:0,0:0:0:0:
288,222,74041,2,0,L|310:154,1,69.9999978637696,0|0,1:0|0:0,0:0:0:0:
478,138,74237,2,0,L|393:138,1,69.9999978637696,8|0,1:2|0:0,0:0:0:0:
219,72,74433,6,0,L|305:72,3,69.9999978637696,0|0|8|0,1:0|0:0|1:2|0:0,0:0:0:0:
120,72,74825,2,0,L|111:150,1,69.9999978637696,0|0,1:0|0:0,0:0:0:0:
392,72,75021,2,0,L|401:150,1,69.9999978637696,8|0,1:2|0:0,0:0:0:0:
104,138,75217,6,0,L|34:138,1,69.9999978637696,2|0,1:3|0:0,0:0:0:0:
203,155,75413,2,0,L|224:222,1,69.9999978637696,8|0,1:2|0:0,0:0:0:0:
408,138,75609,2,0,L|478:138,1,69.9999978637696,0|0,1:0|0:0,0:0:0:0:
310,155,75805,2,0,L|288:222,1,69.9999978637696,8|0,1:2|0:0,0:0:0:0:
35,139,76001,6,0,L|133:137,1,69.9999978637696,2|0,1:2|0:0,0:0:0:0:
304,82,76197,2,0,L|416:80,1,69.9999978637696,8|0,1:2|0:0,0:0:0:0:
139,80,76393,6,0,L|208:82,1,69.9999978637696,0|0,1:2|0:0,0:0:0:0:
408,137,76590,2,0,L|477:139,1,69.9999978637696,8|0,1:2|0:0,0:0:0:0:
254,157,76786,6,0,L|412:155,1,139.999995727539,4|8,1:2|0:0,0:0:0:0:
323,117,77080,1,8,0:0:0:0:
141,102,77178,2,0,L|258:100,1,69.9999978637696,2|2,0:3|0:3,0:0:0:0:
106,122,77374,2,0,L|91:200,1,69.9999978637696,2|2,1:3|1:3,0:0:0:0:
302,244,77570,6,0,L|38:245,1,209.999993591309,4|0,0:1|0:0,0:0:0:0:
275,159,77962,2,0,P|344:207|256:270,1,209.999993591309,4|0,1:2|0:0,0:0:0:0:
32,78,78354,6,0,L|122:79,1,69.9999978637696,0|0,1:3|1:0,0:0:0:0:
199,111,78550,2,0,L|109:112,1,69.9999978637696,0|0,1:3|1:0,0:0:0:0:
338,57,78746,2,0,L|106:59,1,209.999993591309,10|0,0:0|0:0,0:0:0:0:
295,108,79139,6,0,L|303:186,1,69.9999978637696,0|0,1:3|1:0,0:0:0:0:
198,187,79335,2,0,L|301:188,1,69.9999978637696,0|0,1:3|1:0,0:0:0:0:
96,227,79531,2,0,L|318:229,1,209.999993591309,10|0,0:0|0:0,0:0:0:0:
480,306,79923,6,0,L|390:305,1,69.9999978637696,0|0,1:0|1:0,0:0:0:0:
313,273,80119,2,0,L|403:272,1,69.9999978637696,0|0,1:0|1:0,0:0:0:0:
174,327,80315,2,0,L|406:325,1,209.999993591309,8|0,0:0|0:0,0:0:0:0:
217,276,80707,6,0,L|209:198,1,69.9999978637696,0|0,1:0|1:0,0:0:0:0:
314,197,80903,2,0,L|211:196,1,69.9999978637696,0|0,1:0|1:0,0:0:0:0:
416,157,81099,2,0,L|194:155,1,209.999993591309,8|0,0:0|0:0,0:0:0:0:
381,85,81491,5,2,1:2:0:0:
217,82,81688,2,0,L|305:83,1,69.9999978637696
97,84,81884,1,10,0:0:0:0:
254,113,82080,2,0,L|265:202,1,69.9999978637696
33,129,82276,5,2,0:2:0:0:
206,133,82374,2,0,L|210:207,1,69.9999978637696
121,202,82570,1,0,0:0:0:0:
295,149,82668,2,0,L|400:149,3,69.9999978637696,10|0|0|0,0:2|0:0|0:0|0:0,0:0:0:0:
198,88,83060,5,2,0:2:0:0:
375,89,83158,1,0,0:0:0:0:
445,89,83256,1,0,0:0:0:0:
375,89,83354,1,0,0:0:0:0:
209,93,83452,1,10,0:2:0:0:
280,110,83550,1,0,0:0:0:0:
290,171,83648,1,0,0:0:0:0:
222,206,83746,1,0,0:0:0:0:
418,199,83844,6,0,L|325:199,1,69.9999978637696,6|0,0:2|0:0,0:0:0:0:
179,194,84041,1,0,0:0:0:0:
156,233,84106,1,0,0:0:0:0:
158,279,84171,1,0,0:0:0:0:
387,308,84237,2,0,L|228:308,1,139.999995727539,8|0,0:0|0:0,0:0:0:0:
158,317,84531,1,0,0:0:0:0:
372,112,84629,5,2,0:2:0:0:
411,131,84694,1,0,0:0:0:0:
406,174,84759,1,0,0:0:0:0:
268,183,84825,1,2,0:2:0:0:
228,202,84890,1,0,0:0:0:0:
233,245,84956,1,0,0:0:0:0:
404,267,85021,5,10,0:2:0:0:
357,267,85086,1,0,0:0:0:0:
310,268,85151,1,0,0:0:0:0:
166,265,85217,2,0,L|105:264,2,46.6666652425131,2|0|0,0:2|0:0|0:0,0:0:0:0:
312,224,85413,5,2,0:2:0:0:
312,177,85478,1,0,0:0:0:0:
288,139,85544,1,0,0:0:0:0:
125,123,85609,1,2,0:2:0:0:
171,123,85674,1,0,0:0:0:0:
209,99,85740,1,0,0:0:0:0:
65,130,85805,5,10,0:2:0:0:
40,91,85871,1,0,0:0:0:0:
41,45,85936,1,0,0:0:0:0:
177,33,86001,2,0,L|241:33,2,46.6666652425131,2|0|0,0:2|0:0|0:0,0:0:0:0:
324,39,86197,5,2,0:2:0:0:
370,42,86263,1,0,0:0:0:0:
408,67,86328,1,0,0:0:0:0:
233,84,86393,1,2,0:2:0:0:
186,87,86459,1,0,0:0:0:0:
148,112,86524,1,0,0:0:0:0:
291,135,86590,6,0,L|365:135,2,46.6666652425131,10|0|0,0:2|0:0|0:0,0:0:0:0:
146,172,86786,2,0,L|72:172,2,46.6666652425131,2|0|0,0:2|0:0|0:0,0:0:0:0:
295,194,86982,6,0,L|286:246,1,46.6666652425131,2|0,0:2|0:0,0:0:0:0:
240,258,87112,1,0,0:2:0:0:
415,286,87178,2,0,L|488:285,2,46.6666652425131,2|0|0,0:0|0:0|0:0,0:0:0:0:
267,271,87374,5,10,0:2:0:0:
224,258,87439,1,0,0:0:0:0:
219,214,87505,1,0,0:0:0:0:
355,172,87570,1,2,0:2:0:0:
349,128,87635,1,0,0:0:0:0:
307,115,87701,1,0,0:0:0:0:
141,94,87766,6,0,L|67:94,3,69.9999978637696,2|0|0|0,0:1|0:0|1:0|1:0,0:0:0:0:
246,92,88158,2,0,L|246:241,1,139.999995727539,2|0,0:1|1:0,0:0:0:0:
162,233,88452,1,0,1:0:0:0:
333,168,88550,6,0,L|236:167,1,69.9999978637696
362,172,88746,2,0,L|372:249,1,69.9999978637696,8|8,0:0|0:0,0:0:0:0:
210,278,88942,2,0,L|302:277,1,69.9999978637696,8|0,0:0|0:0,0:0:0:0:
373,274,89139,2,0,L|442:274,1,69.9999978637696,2|2,1:3|1:3,0:0:0:0:
171,114,89335,5,2,2:0:0:0:
333,115,89531,2,0,L|341:187,1,69.9999978637696,2|2,2:0|2:0,0:0:0:0:
231,202,89727,2,0,L|148:202,1,69.9999978637696,2|0,2:0|2:0,0:0:0:0:
231,202,89923,2,0,L|314:202,1,69.9999978637696,2|0,2:0|2:0,0:0:0:0:
195,243,90119,5,2,2:0:0:0:
131,222,90217,1,0,2:0:0:0:
111,158,90315,1,2,2:0:0:0:
153,105,90413,1,0,2:0:0:0:
322,147,90511,2,0,P|387:109|363:63,1,139.999995727539,2|0,0:0|0:0,0:0:0:0:
272,61,90805,1,0,0:0:0:0:
57,63,90903,6,0,L|143:65,2,69.9999978637696,2|2|2,0:0|0:0|0:0,0:0:0:0:
231,61,91197,2,0,L|238:144,1,69.9999978637696,8|0,0:0|0:0,0:0:0:0:
68,133,91393,2,0,L|58:209,1,69.9999978637696,2|0,0:0|0:0,0:0:0:0:
239,208,91590,1,2,0:0:0:0:
61,164,91688,6,0,L|159:167,1,69.9999978637696,8|0,0:0|0:0,0:0:0:0:
180,167,91835,1,0,0:0:0:0:
223,167,91884,2,0,L|125:170,1,69.9999978637696
337,163,92080,2,0,L|343:237,1,69.9999978637696,2|2,0:0|0:0,0:0:0:0:
249,235,92276,1,2,0:0:0:0:
423,232,92374,6,0,L|413:313,1,69.9999978637696,8|0,0:0|0:0,0:0:0:0:
249,290,92570,2,0,L|261:363,1,69.9999978637696,2|0,0:0|0:0,0:0:0:0:
423,349,92766,1,2,0:0:0:0:
249,176,92864,1,8,0:0:0:0:
319,175,92962,1,0,0:0:0:0:
389,175,93060,1,0,0:0:0:0:
319,175,93158,1,2,0:0:0:0:
141,117,93256,6,0,L|220:117,3,69.9999978637696,2|0|2|2,0:0|1:0|0:0|0:0,0:0:0:0:
381,60,93648,2,0,L|236:59,1,139.999995727539,8|0,0:0|0:0,0:0:0:0:
310,97,93942,1,0,0:0:0:0:
485,117,94041,6,0,L|413:116,2,69.9999978637696,2|2|2,0:0|0:0|0:0,0:0:0:0:
314,135,94335,2,0,L|306:208,1,69.9999978637696,8|0,0:0|0:0,0:0:0:0:
473,204,94531,2,0,L|482:285,1,69.9999978637696,2|0,0:0|0:0,0:0:0:0:
307,275,94727,1,2,0:0:0:0:
483,316,94825,6,0,L|388:316,1,69.9999978637696,8|0,0:0|0:0,0:0:0:0:
366,316,94972,1,0,0:0:0:0:
320,314,95021,2,0,L|225:314,1,69.9999978637696,0|2,0:0|0:0,0:0:0:0:
417,259,95217,2,0,L|424:182,1,69.9999978637696,2|0,0:0|0:0,0:0:0:0:
247,148,95413,2,0,L|340:149,2,69.9999978637696,2|2|0,0:0|0:0|0:0,0:0:0:0:
71,148,95707,6,0,L|65:217,1,69.9999978637696,2|2,0:0|0:0,0:0:0:0:
229,238,95903,1,2,0:0:0:0:
64,264,96001,2,0,L|162:267,1,69.9999978637696,8|0,0:0|0:0,0:0:0:0:
183,267,96148,1,0,0:0:0:0:
226,267,96197,2,0,L|128:270,1,69.9999978637696
329,178,96393,6,0,L|402:179,1,69.9999978637696,2|2,0:0|0:0,0:0:0:0:
229,124,96590,2,0,L|156:125,1,69.9999978637696,0|2,0:0|0:0,0:0:0:0:
387,116,96786,2,0,P|462:144|434:233,1,139.999995727539,8|2,0:0|0:0,0:0:0:0:
404,223,97080,1,0,0:0:0:0:
241,198,97178,6,0,L|329:198,1,69.9999978637696,8|0,0:0|0:0,0:0:0:0:
209,231,97374,2,0,L|197:304,1,69.9999978637696,0|2,0:0|0:0,0:0:0:0:
366,298,97570,2,0,L|269:299,2,69.9999978637696,8|0|2,0:0|0:0|0:0,0:0:0:0:
464,292,97864,1,8,0:0:0:0:
289,144,97962,6,0,L|191:145,1,69.9999978637696,0|8,0:0|0:0,0:0:0:0:
211,110,98109,1,0,0:0:0:0:
220,144,98158,2,0,L|289:144,1,69.9999978637696,0|2,0:0|0:0,0:0:0:0:
108,140,98354,2,0,L|14:139,1,69.9999978637696,8|0,0:0|0:0,0:0:0:0:
136,188,98550,2,0,L|208:188,1,69.9999978637696,2|0,0:0|0:0,0:0:0:0:
377,186,98746,6,0,L|307:188,2,69.9999978637696,2|8|0,0:0|0:0|0:0,0:0:0:0:
213,194,99041,2,0,L|205:279,1,69.9999978637696,2|8,0:0|0:0,0:0:0:0:
376,270,99237,2,0,L|460:269,1,69.9999978637696,0|2,0:0|0:0,0:0:0:0:
276,273,99433,6,0,L|283:344,1,69.9999978637696,8|0,0:0|0:0,0:0:0:0:
451,321,99629,1,8,0:0:0:0:
382,321,99727,1,0,0:0:0:0:
312,322,99825,1,2,0:0:0:0:
484,184,99923,2,0,L|408:183,1,69.9999978637696,8|0,0:0|0:0,0:0:0:0:
251,148,100119,2,0,L|339:148,1,69.9999978637696
149,150,100315,6,0,L|138:229,1,69.9999978637696,2|8,0:0|0:0,0:0:0:0:
233,219,100511,2,0,L|241:293,1,69.9999978637696,0|2,0:0|0:0,0:0:0:0:
62,323,100707,1,8,0:0:0:0:
132,322,100805,1,0,0:0:0:0:
202,322,100903,1,2,0:0:0:0:
132,322,101001,1,2,0:0:0:0:
306,253,101099,6,0,L|216:254,1,69.9999978637696,8|8,0:0|0:0,0:0:0:0:
228,219,101246,1,0,0:0:0:0:
233,184,101295,2,0,L|303:183,1,69.9999978637696,2|2,0:0|0:0,0:0:0:0:
127,138,101491,2,0,L|34:138,1,69.9999978637696,8|0,0:0|0:0,0:0:0:0:
234,93,101688,2,0,L|327:93,1,69.9999978637696,8|0,0:0|0:0,0:0:0:0:
29,107,101884,6,0,L|20:185,7,69.9999978637696,2|0|2|0|2|0|2|0,0:2|0:0|2:0|0:0|2:0|0:0|2:0|0:0,0:0:0:0:
225,188,102668,6,0,L|137:188,1,69.9999978637696,10|0,0:2|0:0,0:0:0:0:
354,189,102864,2,0,L|442:189,1,69.9999978637696
346,125,103060,2,0,L|434:125,1,69.9999978637696
237,121,103256,2,0,L|149:121,1,69.9999978637696
389,50,103452,5,10,0:2:0:0:
304,47,103550,2,0,L|301:128,1,69.9999978637696
484,167,103746,2,0,L|395:167,2,69.9999978637696,2|0|0,1:2|0:0|0:0,0:0:0:0:
249,183,104041,5,10,0:2:0:0:
335,181,104139,2,0,L|338:262,1,69.9999978637696,0|2,0:0|0:2,0:0:0:0:
155,301,104335,2,0,L|244:301,2,69.9999978637696,10|0|0,1:2|0:0|2:0,0:0:0:0:
334,202,104629,6,0,L|353:237,1,34.9999989318848,10|0,0:2|0:0,0:0:0:0:
223,202,104727,2,0,L|201:237,1,34.9999989318848
348,178,104825,2,0,L|383:178,1,34.9999989318848
210,172,104923,2,0,L|176:172,1,34.9999989318848
411,309,105021,6,0,P|436:268|415:207,1,93.3333304850261,4|0,0:2|0:0,0:0:0:0:
383,154,105217,2,0,L|319:154,2,46.6666652425131
451,153,105413,6,0,L|515:153,2,46.6666652425131
383,154,105609,2,0,L|319:154,2,46.6666652425131
219,150,105805,6,0,L|227:208,1,46.6666652425131
275,205,105936,1,0,0:0:0:0:
328,212,106001,2,0,L|320:270,1,46.6666652425131
272,267,106132,1,0,0:0:0:0:
435,319,106197,5,0,0:0:0:0:
395,320,106262,1,0,0:0:0:0:
348,321,106327,1,0,0:0:0:0:
149,324,106393,1,0,0:0:0:0:
189,323,106458,1,0,0:0:0:0:
235,322,106523,1,0,0:0:0:0:
37,317,106590,6,0,L|34:229,1,69.9999978637696,2|0,0:0|0:0,0:0:0:0:
123,241,106786,1,0,1:0:0:0:
29,174,106884,2,0,L|193:169,1,139.999995727539,2|0,0:0|1:0,0:0:0:0:
266,123,107178,2,0,L|190:122,1,69.9999978637696,2|2,0:0|0:0,0:0:0:0:
366,115,107374,6,0,P|428:158|356:272,1,209.999993591309,12|0,0:2|0:0,0:0:0:0:
292,232,107766,6,0,L|368:228,1,69.9999978637696,0|0,1:0|1:0,0:0:0:0:
262,252,107962,2,0,L|256:338,1,69.9999978637696,2|2,0:0|0:3,0:0:0:0:
358,312,108158,5,2,0:0:0:0:
273,186,108256,2,0,L|430:185,1,139.999995727539
241,97,108550,6,0,P|179:140|251:254,1,209.999993591309,12|0,0:2|0:0,0:0:0:0:
317,265,108942,6,0,L|208:263,1,69.9999978637696,2|0,0:0|0:0,0:0:0:0:
143,270,109139,2,0,L|214:266,1,69.9999978637696,2|2,0:0|0:3,0:0:0:0:
41,270,109335,2,0,L|36:193,1,69.9999978637696,10|0,0:2|0:0,0:0:0:0:
233,191,109531,2,0,L|239:120,1,69.9999978637696,2|0,0:0|0:0,0:0:0:0:
56,73,109727,6,0,L|161:72,2,69.9999978637696,0|0|0,1:0|1:0|1:0,0:0:0:0:
161,72,110021,2,0,L|311:74,2,139.999995727539,2|0|0,0:0|1:0|0:0,0:0:0:0:
325,39,110511,6,0,P|418:76|299:315,1,419.999987182618,12|0,0:2|0:0,0:0:0:0:
237,270,111197,1,0,0:0:0:0:
420,177,111295,6,0,L|331:176,2,69.9999978637696,8|0|2,0:0|0:0|0:0,0:0:0:0:
214,174,111590,2,0,L|315:176,2,69.9999978637696,8|0|2,0:0|0:0|0:0,0:0:0:0:
423,104,111884,2,0,L|322:106,1,69.9999978637696,8|0,0:0|0:0,0:0:0:0:
135,105,112080,6,0,P|221:123|294:236,2,209.999993591309,6|2|2,0:2|0:0|0:0,0:0:0:0:
431,73,112864,6,0,L|277:70,1,139.999995727539,8|2,0:0|0:0,0:0:0:0:
391,101,113158,2,0,L|392:192,1,69.9999978637696,8|0,0:0|0:0,0:0:0:0:
288,173,113354,1,2,0:0:0:0:
471,217,113452,6,0,L|317:214,1,139.999995727539,8|2,0:0|0:0,0:0:0:0:
431,245,113746,2,0,L|432:336,1,69.9999978637696,8|0,0:0|0:0,0:0:0:0:
328,317,113942,1,2,0:0:0:0:
151,234,114040,2,0,L|149:313,1,69.9999978637696,8|0,0:0|0:0,0:0:0:0:
339,253,114237,2,0,L|244:253,1,69.9999978637696,8|0,0:0|0:0,0:0:0:0:
98,86,114433,6,0,L|270:86,1,139.999995727539,8|2,0:0|0:0,0:0:0:0:
140,129,114727,2,0,L|62:128,2,69.9999978637696,8|0|2,0:0|0:0|0:0,0:0:0:0:
309,168,115021,6,0,L|137:168,1,139.999995727539,8|2,0:0|0:0,0:0:0:0:
267,211,115315,2,0,L|345:210,2,69.9999978637696,8|0|2,0:0|0:0|0:0,0:0:0:0:
436,207,115609,2,0,L|441:282,1,69.9999978637696,8|0,0:0|0:0,0:0:0:0:
251,293,115805,2,0,L|375:288,1,69.9999978637696,8|0,0:0|0:0,0:0:0:0:
130,183,116001,5,2,0:0:0:0:
201,128,116099,2,0,L|60:128,1,139.999995727539,8|0,0:0|0:0,0:0:0:0:
131,89,116393,1,8,0:0:0:0:
325,86,116590,1,2,0:0:0:0:
131,37,116688,6,0,L|305:39,2,139.999995727539,8|8|2,0:0|0:0|0:0,0:0:0:0:
321,39,117178,2,0,L|411:39,1,69.9999978637696,8|0,0:0|0:0,0:0:0:0:
206,83,117374,2,0,L|202:176,1,69.9999978637696,8|8,0:0|0:0,0:0:0:0:
391,175,117570,6,0,L|302:176,2,69.9999978637696,8|0|2,0:0|0:0|0:0,0:0:0:0:
221,178,117864,2,0,L|218:252,1,69.9999978637696,8|0,0:0|0:0,0:0:0:0:
307,244,118060,1,2,0:0:0:0:
118,276,118158,2,0,L|235:274,1,69.9999978637696,8|0,0:0|0:0,0:0:0:0:
288,283,118354,6,0,L|376:281,1,69.9999978637696,0|8,0:0|0:0,0:0:0:0:
157,201,118550,2,0,L|269:200,3,69.9999978637696,0|0|2|2,0:0|0:0|0:0|0:0,0:0:0:0:
404,193,118942,2,0,L|492:191,1,69.9999978637696,4|4,0:0|0:0,0:0:0:0:
284,66,119139,6,0,P|180:96|171:241,2,209.999993591309,0|0|0,1:0|1:0|0:0,0:0:0:0:
364,66,119825,1,0,0:0:0:0:
184,119,119923,6,0,L|422:118,1,209.999993591309,6|0,0:2|0:0,0:0:0:0:
301,163,120315,2,0,L|153:166,1,139.999995727539
349,188,120707,6,0,P|442:204|491:320,2,209.999993591309,0|0|0,1:0|1:0|1:0,0:0:0:0:
36,322,121491,6,0,P|138:294|17:92,1,419.999987182618,4|0,0:2|0:0,0:0:0:0:
118,89,122178,1,0,0:0:0:0:
291,124,122276,6,0,L|38:122,2,209.999993591309,0|0|0,1:0|1:0|0:0,0:0:0:0:
26,172,123060,5,14,0:2:0:0:
188,171,123256,2,0,L|200:247,1,69.9999978637696,2|0,0:2|0:0,0:0:0:0:
101,272,123452,2,0,L|191:271,1,69.9999978637696,2|0,0:2|0:0,0:0:0:0:
349,267,123648,2,0,L|333:338,1,69.9999978637696,2|0,0:2|0:0,0:0:0:0:
139,173,123844,6,0,L|287:173,1,139.999995727539,8|2,0:0|0:0,0:0:0:0:
105,209,124139,2,0,P|52:177|112:113,1,139.999995727539,8|2,0:0|0:0,0:0:0:0:
279,173,124433,6,0,L|139:173,1,139.999995727539,8|2,0:0|0:0,0:0:0:0:
360,210,124727,2,0,P|413:178|353:114,1,139.999995727539,8|2,0:0|0:0,0:0:0:0:
207,80,125021,6,0,L|294:79,1,69.9999978637696,8|8,0:0|0:0,0:0:0:0:
95,84,125217,2,0,L|81:170,1,69.9999978637696,8|8,0:0|0:0,0:0:0:0:
276,217,125413,6,0,L|112:214,1,139.999995727539,2|8,0:0|0:0,0:0:0:0:
208,174,125707,1,2,0:0:0:0:
378,148,125805,2,0,L|267:150,1,69.9999978637696,0|2,0:0|0:0,0:0:0:0:
474,148,126001,2,0,L|376:148,1,69.9999978637696,8|0,0:0|0:0,0:0:0:0:
236,217,126197,6,0,L|400:214,1,139.999995727539,2|8,0:0|0:0,0:0:0:0:
304,174,126491,1,2,0:0:0:0:
134,148,126589,2,0,L|245:150,1,69.9999978637696,0|2,0:0|0:0,0:0:0:0:
38,148,126785,2,0,L|136:148,1,69.9999978637696,8|0,0:0|0:0,0:0:0:0:
325,82,126982,6,0,L|170:83,1,139.999995727539,2|8,0:0|0:0,0:0:0:0:
256,105,127276,1,2,0:0:0:0:
423,104,127374,2,0,L|433:192,1,69.9999978637696,0|2,0:0|0:0,0:0:0:0:
220,182,127570,2,0,L|206:253,1,69.9999978637696,8|0,0:0|0:0,0:0:0:0:
386,293,127766,6,0,L|218:293,1,139.999995727539,2|8,0:0|0:0,0:0:0:0:
315,245,128060,1,8,0:0:0:0:
145,213,128158,2,0,L|72:214,3,69.9999978637696,2|0|8|8,0:0|0:0|0:0|0:0,0:0:0:0:
288,65,128550,6,0,P|359:88|423:218,2,209.999993591309,6|0|0,0:2|0:0|0:0,0:0:0:0:
207,64,129237,1,0,0:0:0:0:
377,40,129335,6,0,L|307:41,3,69.9999978637696,8|0|8|0,0:0|0:0|0:0|0:0,0:0:0:0:
135,40,129727,2,0,L|205:41,1,69.9999978637696,2|2,0:0|0:0,0:0:0:0:
413,113,129923,2,0,L|343:114,1,69.9999978637696,2|2,1:3|1:3,0:0:0:0:
93,116,130119,6,0,L|255:117,1,139.999995727539,14|0,0:2|0:0,0:0:0:0:
36,188,130413,2,0,L|210:188,1,139.999995727539,14|0,0:2|0:0,0:0:0:0:
348,183,130707,2,0,L|263:184,1,69.9999978637696,14|0,0:2|0:0,0:0:0:0:
482,178,130903,5,14,0:2:0:0:
256,105,132080,5,0,2:0:0:0:
440,104,132276,1,0,2:0:0:0:
153,216,132472,6,0,L|328:213,1,139.999995727539,4|8,1:0|0:0,0:0:0:0:
222,171,132766,1,0,0:0:0:0:
35,165,132864,2,0,L|23:237,1,69.9999978637696,0|0,1:0|0:0,0:0:0:0:
215,268,133060,2,0,L|125:268,1,69.9999978637696,8|0,0:0|0:0,0:0:0:0:
359,216,133256,6,0,L|184:213,1,139.999995727539,2|8,0:0|0:0,0:0:0:0:
290,171,133550,1,0,0:0:0:0:
477,165,133648,2,0,L|489:237,1,69.9999978637696,0|0,1:0|1:0,0:0:0:0:
297,268,133844,2,0,L|387:268,1,69.9999978637696,8|0,0:0|0:0,0:0:0:0:
123,109,134040,6,0,L|108:182,1,69.9999978637696,2|0,0:0|0:0,0:0:0:0:
290,194,134236,2,0,L|206:196,1,69.9999978637696,8|0,0:0|0:0,0:0:0:0:
389,109,134432,2,0,L|404:182,1,69.9999978637696,0|0,1:0|0:0,0:0:0:0:
300,177,134628,2,0,L|281:252,1,69.9999978637696,8|0,0:0|0:0,0:0:0:0:
467,293,134824,6,0,L|313:294,1,139.999995727539,2|8,0:0|0:0,0:0:0:0:
398,249,135119,1,0,0:0:0:0:
227,247,135217,2,0,L|241:323,1,69.9999978637696,0|0,1:0|1:0,0:0:0:0:
408,334,135413,2,0,L|482:333,1,69.9999978637696,8|0,0:0|0:0,0:0:0:0:
296,162,135609,6,0,L|445:162,1,139.999995727539,2|8,0:0|0:0,0:0:0:0:
262,79,135903,1,4,0:2:0:0:
193,79,136001,2,0,L|311:80,1,69.9999978637696,0|2,0:0|0:0,0:0:0:0:
95,157,136197,2,0,L|20:155,1,69.9999978637696,8|0,0:0|0:0,0:0:0:0:
191,156,136393,6,0,L|201:230,1,69.9999978637696,2|0,0:0|0:0,0:0:0:0:
26,208,136589,1,8,0:0:0:0:
200,225,136687,1,12,0:2:0:0:
115,257,136785,1,2,0:0:0:0:
220,261,136883,2,0,L|300:260,2,69.9999978637696,2|2|2,0:0|0:0|0:0,0:0:0:0:
409,242,137177,6,0,P|460:216|391:87,1,209.999993591309,12|0,0:2|2:0,0:0:0:0:
153,44,137570,6,0,L|402:45,1,209.999993591309,12|0,0:2|2:0,0:0:0:0:
186,90,137962,6,0,P|204:165|374:187,1,209.999993591309,12|0,0:2|1:0,0:0:0:0:
126,193,138354,6,0,L|48:193,3,69.9999978637696,2|2|2|2,0:0|0:0|0:0|0:0,0:0:0:0:
250,94,138746,6,0,L|409:95,1,139.999995727539,6|8,0:0|0:0,0:0:0:0:
319,61,139040,1,0,0:0:0:0:
493,66,139138,2,0,L|481:135,1,69.9999978637696,0|0,1:0|0:0,0:0:0:0:
316,162,139334,2,0,L|408:160,1,69.9999978637696,8|0,0:0|0:0,0:0:0:0:
217,160,139530,6,0,L|58:161,1,139.999995727539,2|8,0:0|0:0,0:0:0:0:
147,115,139824,1,0,0:0:0:0:
322,109,139922,2,0,L|253:110,1,69.9999978637696,0|0,1:0|1:0,0:0:0:0:
416,111,140118,2,0,L|431:181,1,69.9999978637696,8|0,0:0|0:0,0:0:0:0:
253,217,140315,6,0,L|181:215,1,69.9999978637696,2|0,0:0|0:0,0:0:0:0:
366,176,140511,2,0,L|282:176,1,69.9999978637696,8|0,0:0|0:0,0:0:0:0:
127,167,140707,2,0,L|112:237,1,69.9999978637696,0|0,1:0|0:0,0:0:0:0:
228,242,140903,2,0,L|242:313,1,69.9999978637696,8|0,0:0|0:0,0:0:0:0:
54,335,141099,6,0,L|236:337,1,139.999995727539,2|8,0:0|0:0,0:0:0:0:
129,283,141393,1,8,0:0:0:0:
308,118,141491,2,0,L|162:119,1,139.999995727539,2|8,0:0|0:0,0:0:0:0:
77,115,141785,1,0,0:0:0:0:
299,172,141883,6,0,P|346:222|292:272,1,139.999995727539,4|0,1:2|0:0,0:0:0:0:
119,228,142177,2,0,L|283:227,1,139.999995727539,8|0,1:2|0:0,0:0:0:0:
459,198,142472,2,0,L|362:196,1,69.9999978637696,8|0,0:0|0:0,0:0:0:0:
203,130,142668,5,12,0:2:0:0:
300,134,142766,2,0,L|302:215,1,69.9999978637696,0|8,0:0|0:0,0:0:0:0:
204,197,142962,1,0,0:0:0:0:
383,142,143060,2,0,L|484:143,1,69.9999978637696,8|0,0:0|0:0,0:0:0:0:
260,69,143256,2,0,L|159:70,1,69.9999978637696,8|0,0:0|0:0,0:0:0:0:
485,41,143452,6,0,L|346:39,1,139.999995727539,12|2,1:2|0:0,0:0:0:0:
129,142,143746,2,0,P|81:80|135:41,1,139.999995727539,12|2,1:2|0:0,0:0:0:0:
381,119,144040,2,0,L|459:118,1,69.9999978637696,12|0,1:2|0:0,0:0:0:0:
221,174,144236,5,12,1:2:0:0:
291,174,144334,1,0,0:0:0:0:
361,175,144432,1,0,1:0:0:0:
291,174,144530,1,0,0:0:0:0:
125,228,144628,2,0,L|213:227,1,69.9999978637696,2|0,1:3|1:0,0:0:0:0:
29,291,144824,2,0,L|21:214,1,69.9999978637696,8|0,1:2|1:0,0:0:0:0:
201,54,145021,6,0,L|111:52,1,69.9999978637696,2|0,1:3|0:0,0:0:0:0:
311,54,145217,2,0,L|401:52,1,69.9999978637696,8|0,1:2|1:0,0:0:0:0:
321,119,145413,2,0,L|411:117,1,69.9999978637696,0|0,1:0|0:0,0:0:0:0:
191,119,145609,2,0,L|101:117,1,69.9999978637696,8|0,1:2|0:0,0:0:0:0:
391,183,145805,6,0,L|322:181,1,69.9999978637696,2|0,1:3|0:0,0:0:0:0:
121,183,146001,2,0,L|191:181,1,69.9999978637696,8|2,1:2|0:0,0:0:0:0:
108,127,146197,2,0,L|178:125,1,69.9999978637696,0|2,1:0|0:0,0:0:0:0:
404,127,146393,2,0,L|335:125,1,69.9999978637696,8|0,1:2|0:0,0:0:0:0:
165,65,146589,6,0,L|75:63,1,69.9999978637696,2|0,1:3|0:0,0:0:0:0:
258,32,146785,2,0,L|168:30,1,69.9999978637696,8|0,1:2|1:0,0:0:0:0:
347,65,146981,2,0,L|437:63,1,69.9999978637696,0|0,1:0|0:0,0:0:0:0:
254,32,147177,2,0,L|344:30,1,69.9999978637696,8|0,1:2|0:0,0:0:0:0:
62,107,147373,6,0,L|49:189,1,69.9999978637696,2|0,1:3|0:0,0:0:0:0:
152,211,147570,2,0,L|232:211,1,69.9999978637696,8|0,1:2|0:0,0:0:0:0:
450,107,147766,2,0,L|463:189,1,69.9999978637696,2|0,1:3|0:0,0:0:0:0:
360,211,147963,2,0,L|280:211,1,69.9999978637696,8|0,1:2|0:0,0:0:0:0:
470,301,148158,6,0,L|363:298,1,69.9999978637696,2|0,1:3|0:0,0:0:0:0:
219,284,148354,2,0,L|319:284,1,69.9999978637696,8|0,1:2|1:0,0:0:0:0:
112,299,148550,2,0,L|42:301,1,69.9999978637696,0|0,1:0|0:0,0:0:0:0:
256,80,148746,2,0,L|256:176,1,69.9999978637696,8|0,1:2|0:0,0:0:0:0:
42,301,148942,6,0,L|149:298,1,69.9999978637696,2|0,1:3|0:0,0:0:0:0:
293,284,149138,2,0,L|193:284,1,69.9999978637696,8|2,1:2|0:0,0:0:0:0:
400,299,149334,2,0,L|470:301,1,69.9999978637696,0|2,1:0|0:0,0:0:0:0:
256,80,149530,2,0,L|256:176,1,69.9999978637696,8|0,1:2|0:0,0:0:0:0:
480,144,149726,5,4,1:2:0:0:
307,146,149922,2,0,L|385:145,1,69.9999978637696,8|8,0:0|0:0,0:0:0:0:
208,143,150119,1,2,1:3:0:0:
144,162,150217,1,2,1:3:0:0:
127,227,150315,1,2,1:3:0:0:
172,277,150413,1,2,1:3:0:0:
435,228,150511,6,0,L|215:230,1,209.999993591309,4|0,0:1|0:0,0:0:0:0:
391,227,150903,2,0,P|464:189|376:98,1,209.999993591309,4|0,1:2|0:0,0:0:0:0:
220,75,151295,6,0,L|317:75,2,69.9999978637696,8|0|2,0:0|0:0|0:0,0:0:0:0:
55,108,151589,2,0,L|152:108,2,69.9999978637696,8|0|2,0:0|0:0|0:0,0:0:0:0:
292,75,151883,6,0,L|195:75,2,69.9999978637696,8|0|2,0:0|0:0|0:0,0:0:0:0:
457,108,152177,2,0,L|360:108,2,69.9999978637696,8|0|0,0:0|0:0|0:0,0:0:0:0:
259,196,152472,6,0,L|179:196,1,69.9999978637696,2|8,0:0|0:0,0:0:0:0:
417,168,152668,1,0,0:0:0:0:
459,169,152717,1,0,0:0:0:0:
417,168,152766,1,2,0:0:0:0:
258,105,152864,6,0,L|173:105,2,69.9999978637696,8|0|2,0:0|0:0|0:0,0:0:0:0:
87,107,153158,2,0,L|2:107,2,69.9999978637696,8|0|2,0:0|0:0|0:0,0:0:0:0:
254,105,153452,6,0,L|339:105,2,69.9999978637696,8|0|2,0:0|0:0|0:0,0:0:0:0:
425,107,153746,2,0,L|510:107,2,69.9999978637696,8|0|0,0:0|0:0|0:0,0:0:0:0:
237,120,154040,6,0,L|239:179,1,46.6666652425131,2|0,0:0|0:0,0:0:0:0:
293,168,154171,1,0,0:0:0:0:
87,107,154236,2,0,L|37:107,2,46.6666652425131
291,47,154432,6,0,L|375:47,1,69.9999978637696,2|2,0:2|0:2,0:0:0:0:
263,46,154628,2,0,L|179:46,1,69.9999978637696
304,85,154824,1,0,0:0:0:0:
368,107,154922,1,0,0:0:0:0:
382,172,155021,1,0,0:0:0:0:
334,218,155119,1,0,0:0:0:0:
227,167,155217,5,2,0:0:0:0:
297,167,155315,1,0,0:0:0:0:
367,167,155413,1,0,0:0:0:0:
297,167,155511,1,0,0:0:0:0:
400,97,155609,6,0,L|517:95,3,69.9999978637696,2|0|0|0,0:0|0:0|0:0|0:0,0:0:0:0:
359,62,156001,6,0,L|280:61,1,69.9999978637696,2|0,0:0|0:0,0:0:0:0:
271,131,156197,2,0,L|358:130,1,69.9999978637696
237,164,156393,2,0,L|223:239,1,69.9999978637696
296,238,156589,2,0,L|309:169,1,69.9999978637696
202,132,156785,6,0,L|290:130,1,69.9999978637696,2|0,0:0|0:0,0:0:0:0:
448,225,157000,1,0,0:0:0:0:
455,192,157059,1,0,1:0:0:0:
445,161,157118,1,0,1:0:0:0:
247,45,157177,1,12,0:2:0:0:
181,56,157275,1,0,0:0:0:0:
156,118,157373,1,0,0:0:0:0:
194,173,157471,1,0,0:0:0:0:
464,98,157569,6,0,L|370:98,3,69.9999978637696,8|0|0|0,0:0|0:0|0:0|0:0,0:0:0:0:
220,100,157961,2,0,L|314:100,3,69.9999978637696,8|0|0|0,0:0|0:0|0:0|0:0,0:0:0:0:
118,99,158353,6,0,L|48:99,3,69.9999978637696,8|0|0|0,0:0|0:0|0:0|0:0,0:0:0:0:
220,100,158745,2,0,L|314:100,3,69.9999978637696,8|0|0|0,0:0|0:0|0:0|0:0,0:0:0:0:
464,98,159137,6,0,L|370:98,1,69.9999978637696,12|0,0:2|0:0,0:0:0:0:
220,100,159333,6,0,L|314:100,1,69.9999978637696,8|0,0:0|0:0,0:0:0:0:
118,99,159529,6,0,L|48:99,1,69.9999978637696,8|0,0:0|0:0,0:0:0:0:
290,100,159725,6,0,L|220:100,1,69.9999978637696,8|0,0:0|0:0,0:0:0:0:
392,127,159921,6,0,P|464:158|396:247,1,209.999993591309,12|2,0:2|0:0,0:0:0:0:
359,248,160265,1,0,0:0:0:0:
221,205,160314,2,0,P|149:236|217:325,1,209.999993591309,12|0,0:2|0:0,0:0:0:0:
444,332,160706,5,2,0:0:0:0:
452,332,160730,1,0,0:0:0:0:
438,307,160755,1,0,0:0:0:0:
459,307,160779,1,0,0:0:0:0:
432,283,160804,1,0,0:0:0:0:
465,283,160828,1,0,0:0:0:0:
427,259,160853,1,0,0:0:0:0:
470,259,160877,1,0,0:0:0:0:
424,234,160902,1,0,0:0:0:0:
473,234,160926,1,0,0:0:0:0:
422,209,160951,1,0,0:0:0:0:
475,209,160975,1,0,0:0:0:0:
421,184,161000,1,0,0:0:0:0:
476,184,161024,1,0,0:0:0:0:
421,159,161049,5,0,0:0:0:0:
476,159,161073,1,0,0:0:0:0:
422,134,161098,1,0,0:0:0:0:
475,134,161122,1,0,0:0:0:0:
424,109,161147,1,0,0:0:0:0:
473,109,161171,1,0,0:0:0:0:
427,84,161196,1,0,0:0:0:0:
470,84,161220,1,0,0:0:0:0:
432,60,161245,1,0,0:0:0:0:
465,60,161269,1,0,0:0:0:0:
438,35,161294,1,0,0:0:0:0:
459,35,161318,1,0,0:0:0:0:
444,11,161343,1,0,0:0:0:0:
181,80,161491,6,0,L|321:80,1,139.999995727539,4|8,1:2|0:0,0:0:0:0:
250,107,161785,1,2,0:0:0:0:
80,143,161883,2,0,L|151:142,1,69.9999978637696,2|2,1:3|0:0,0:0:0:0:
363,142,162079,2,0,L|432:143,1,69.9999978637696,8|0,0:0|0:0,0:0:0:0:
254,46,162275,6,0,L|99:45,1,139.999995727539,2|8,1:3|0:0,0:0:0:0:
183,46,162569,1,0,0:0:0:0:
359,49,162667,2,0,L|283:49,1,69.9999978637696,2|0,1:3|0:0,0:0:0:0:
457,50,162863,2,0,L|473:120,1,69.9999978637696,8|0,0:0|0:0,0:0:0:0:
289,128,163059,6,0,L|192:127,1,69.9999978637696,2|0,1:2|0:0,0:0:0:0:
20,169,163255,2,0,L|90:169,1,69.9999978637696,8|0,0:0|0:0,0:0:0:0:
258,223,163451,2,0,L|328:222,1,69.9999978637696,2|2,1:2|0:0,0:0:0:0:
492,169,163647,2,0,L|423:169,1,69.9999978637696,8|0,0:0|0:0,0:0:0:0:
253,165,163843,6,0,P|192:127|227:72,1,139.999995727539,2|8,1:2|0:0,0:0:0:0:
308,76,164138,1,0,0:0:0:0:
146,41,164236,2,0,L|253:39,1,69.9999978637696,2|0,1:3|0:0,0:0:0:0:
50,40,164432,2,0,L|36:110,1,69.9999978637696,8|0,0:0|1:0,0:0:0:0:
256,166,164628,5,4,1:2:0:0:
156,166,164726,2,0,L|78:167,2,69.9999978637696,0|0|0,1:0|1:0|1:0,0:0:0:0:
329,93,165020,1,0,1:0:0:0:
229,93,165118,2,0,L|151:94,2,69.9999978637696,0|0|0,1:0|1:0|1:0,0:0:0:0:
401,96,165412,6,0,L|416:167,1,69.9999978637696,2|10,1:3|0:0,0:0:0:0:
224,196,165608,2,0,L|335:196,1,69.9999978637696,2|10,0:0|0:0,0:0:0:0:
113,153,165804,2,0,L|2:153,1,69.9999978637696,10|2,0:0|1:3,0:0:0:0:
224,196,166000,2,0,L|335:196,1,69.9999978637696,2|2,1:2|1:3,0:0:0:0:
84,260,166196,6,0,L|275:258,1,139.999995727539,6|0,0:1|0:0,0:0:0:0:
428,260,166491,2,0,L|349:259,2,69.9999978637696,2|0|0,1:1|0:0|0:0,0:0:0:0:
253,107,166785,2,0,L|336:105,1,69.9999978637696,2|0,1:1|0:0,0:0:0:0:
129,105,166981,5,6,1:2:0:0:
56,105,167079,1,0,0:0:0:0:
40,136,167128,1,0,0:0:0:0:
40,171,167177,1,0,2:0:0:0:
143,175,167275,1,0,0:0:0:0:
323,213,167373,2,0,L|179:213,1,139.999995727539,6|2,1:2|1:3,0:0:0:0:
479,69,167765,6,0,P|401:83|343:205,2,209.999993591309,6|0|2,1:2|1:0|1:3,0:0:0:0:
120,42,168549,6,0,P|198:56|256:178,1,209.999993591309,12|0,0:2|0:0,0:0:0:0:
166,162,168941,1,0,0:0:0:0:
346,162,169138,2,0,L|356:242,1,69.9999978637696,0|0,1:0|1:0,0:0:0:0:
29,136,169334,6,0,L|260:139,2,209.999993591309,6|0|0,1:2|1:0|1:0,0:0:0:0:
112,86,170020,1,0,1:0:0:0:
287,48,170118,6,0,L|121:47,1,139.999995727539,12|4,0:2|1:3,0:0:0:0:
405,81,170510,2,0,P|465:92|443:216,1,209.999993591309,8|0,1:2|0:0,0:0:0:0:
249,163,170902,6,0,L|411:162,1,139.999995727539,6|8,1:3|0:0,0:0:0:0:
318,130,171196,1,0,0:0:0:0:
482,131,171294,2,0,L|498:213,1,69.9999978637696,4|0,1:3|0:0,0:0:0:0:
391,219,171491,2,0,L|467:220,1,69.9999978637696,8|0,0:0|0:0,0:0:0:0:
263,163,171687,6,0,L|101:162,1,139.999995727539,6|8,1:3|0:0,0:0:0:0:
194,130,171981,1,0,0:0:0:0:
30,131,172079,2,0,L|14:213,1,69.9999978637696,4|0,1:3|0:0,0:0:0:0:
121,219,172276,2,0,L|45:220,1,69.9999978637696,8|0,0:0|0:0,0:0:0:0:
258,148,172471,6,0,L|331:147,3,69.9999978637696,6|0|8|0,1:3|0:0|0:0|0:0,0:0:0:0:
156,147,172863,2,0,L|87:147,1,69.9999978637696,4|0,1:3|0:0,0:0:0:0:
356,147,173059,2,0,L|425:147,1,69.9999978637696,8|0,0:0|0:0,0:0:0:0:
254,148,173255,6,0,L|181:147,3,69.9999978637696,6|0|8|0,1:3|0:0|0:0|0:0,0:0:0:0:
356,147,173647,2,0,L|425:147,1,69.9999978637696,6|0,1:3|0:0,0:0:0:0:
156,147,173843,2,0,L|87:147,1,69.9999978637696,8|0,0:0|0:0,0:0:0:0:
432,192,174040,6,0,L|439:271,1,69.9999978637696,6|2,0:0|0:0,0:0:0:0:
256,192,174236,2,0,L|256:288,1,69.9999978637696,8|2,0:0|0:0,0:0:0:0:
80,192,174432,2,0,L|73:271,1,69.9999978637696,6|2,1:3|3:3,0:0:0:0:
290,114,174628,2,0,L|210:114,1,69.9999978637696,8|2,1:3|3:3,0:0:0:0:
419,51,174824,6,0,L|502:49,1,69.9999978637696,4|0,1:3|1:0,0:0:0:0:
294,46,175020,2,0,L|211:44,1,69.9999978637696,8|0,1:3|1:0,0:0:0:0:
24,49,175216,2,0,L|93:51,1,69.9999978637696,4|0,1:3|1:0,0:0:0:0:
489,49,175412,2,0,L|419:51,1,69.9999978637696,8|0,1:3|1:0,0:0:0:0:
184,145,175608,6,0,L|377:146,1,139.999995727539,10|0,0:2|0:0,0:0:0:0:
82,99,175902,2,0,P|31:133|100:187,1,139.999995727539,10|0,0:2|0:0,0:0:0:0:
290,77,176196,2,0,L|210:77,1,69.9999978637696,10|0,0:2|0:0,0:0:0:0:
484,150,176392,6,0,L|175:153,1,279.999991455078,12|2,0:2|2:0,0:0:0:0:
392,221,176981,1,0,2:0:0:0:
32,78,177177,5,6,3:0:0:0:
333,82,177373,1,6,3:0:0:0:
156,128,177569,2,0,L|-8:129,1,139.999995727539,2|0,0:2|2:0,0:0:0:0:
480,78,177961,5,6,3:0:0:0:
179,82,178157,1,6,3:0:0:0:
356,128,178353,2,0,L|520:129,1,139.999995727539,2|0,3:2|2:0,0:0:0:0:
139,129,178745,6,0,P|60:188|130:254,1,209.999993591309,4|0,1:2|0:0,0:0:0:0:
357,222,179138,2,0,L|140:221,1,209.999993591309,4|0,1:2|0:0,0:0:0:0:
373,129,179530,6,0,P|452:188|382:254,1,209.999993591309,4|0,1:2|0:0,0:0:0:0:
291,218,179922,1,2,0:2:0:0:
485,216,180118,1,0,0:0:0:0:
222,89,180314,6,0,L|216:242,1,139.999995727539,2|0,1:3|0:0,0:0:0:0:
127,227,180608,1,0,0:0:0:0:
36,222,180706,2,0,L|30:375,1,139.999995727539,8|0,0:0|0:0,0:0:0:0:
122,359,181000,1,0,0:0:0:0:
314,356,181098,5,2,1:3:0:0:
149,266,181294,2,0,L|146:340,1,69.9999978637696
316,247,181491,2,0,L|216:246,1,69.9999978637696,8|0,0:0|0:0,0:0:0:0:
65,214,181687,2,0,L|157:214,1,69.9999978637696
365,91,181883,6,0,L|141:92,1,209.999993591309,4|0,1:1|0:0,0:0:0:0:
400,138,182275,6,0,L|177:136,1,209.999993591309,4|0,1:1|0:0,0:0:0:0:
372,242,182667,6,0,P|437:221|371:119,1,209.999993591309,4|0,1:1|0:0,0:0:0:0:
223,89,183059,6,0,L|441:89,1,209.999993591309,4|0,1:1|0:0,0:0:0:0:
224,127,183451,6,0,P|172:168|198:256,1,139.999995727539,0|2,1:0|0:3,0:0:0:0:
244,246,183713,1,0,1:0:0:0:
311,254,183778,1,0,1:0:0:0:
159,108,183843,2,0,L|7:110,1,139.999995727539,4|2,1:2|2:2,0:0:0:0:
288,127,184236,6,0,P|340:168|314:256,1,139.999995727539,0|2,1:0|0:3,0:0:0:0:
268,246,184498,1,0,1:0:0:0:
201,254,184563,1,0,1:0:0:0:
353,108,184628,2,0,L|505:110,1,139.999995727539,4|2,1:2|2:2,0:0:0:0:
157,39,185020,6,0,L|391:38,1,209.999993591309,4|0,1:0|0:0,0:0:0:0:
166,88,185412,2,0,P|76:131|133:198,1,209.999993591309,4|0,1:0|0:0,0:0:0:0:
346,88,185804,6,0,P|436:131|379:198,1,209.999993591309,4|0,1:1|1:0,0:0:0:0:
166,143,186196,1,0,1:2:0:0:
346,143,186392,1,0,2:0:0:0:
86,157,186589,6,0,P|22:200|58:245,1,139.999995727539,6|0,1:2|1:0,0:0:0:0:
128,245,186883,1,0,1:3:0:0:
296,201,186981,2,0,L|143:202,1,139.999995727539,8|2,0:0|0:0,0:0:0:0:
429,163,187373,6,0,L|441:243,1,69.9999978637696,2|10,1:3|0:0,0:0:0:0:
334,259,187569,2,0,L|250:259,1,69.9999978637696,0|2,0:0|0:0,0:0:0:0:
157,277,187765,2,0,L|169:357,1,69.9999978637696,8|0,0:0|0:0,0:0:0:0:
357,308,187961,2,0,L|261:309,1,69.9999978637696,4|4,1:3|1:3,0:0:0:0:
466,37,188157,6,0,L|28:41,1,419.999987182618,4|0,2:2|0:0,0:0:0:0:
229,315,188941,6,0,P|310:278|211:157,1,279.999991455078,2|0,2:0|2:0,0:0:0:0:
50,150,189530,1,2,2:0:0:0:
225,91,189726,2,0,L|394:91,1,139.999995727539,2|0,2:0|0:0,0:0:0:0:
104,89,190118,5,8,1:2:0:0:
431,127,190314,1,0,0:0:0:0:
41,179,190510,6,0,L|232:177,1,160,4|8,1:0|0:0,0:0:0:0:
288,177,190804,1,0,0:0:0:0:
113,182,190902,2,0,L|90:262,1,80,0|0,1:0|0:0,0:0:0:0:
267,250,191098,2,0,L|144:254,1,80,8|0,0:0|0:0,0:0:0:0:
370,254,191294,6,0,P|440:208|399:164,1,160,2|8,1:3|0:0,0:0:0:0:
314,158,191588,1,0,0:0:0:0:
483,77,191686,2,0,L|377:76,1,80,0|0,1:0|0:0,0:0:0:0:
227,78,191882,2,0,L|325:77,1,80,8|0,0:0|0:0,0:0:0:0:
126,81,192078,6,0,L|109:167,1,80,2|0,1:3|0:0,0:0:0:0:
281,197,192274,2,0,L|174:198,1,80,8|0,0:0|0:0,0:0:0:0:
376,252,192470,2,0,L|269:253,1,80,2|0,1:3|0:0,0:0:0:0:
469,250,192666,2,0,L|487:161,1,80,8|0,0:0|0:0,0:0:0:0:
288,112,192862,6,0,L|491:112,1,160,2|8,1:3|0:0,0:0:0:0:
369,77,193157,1,0,0:0:0:0:
176,85,193255,2,0,L|57:85,1,80,0|0,1:0|1:0,0:0:0:0:
277,154,193451,2,0,L|187:153,1,80,8|0,0:0|0:0,0:0:0:0:
394,215,193647,6,0,L|395:391,1,160,2|8,1:3|0:0,0:0:0:0:
194,211,193941,1,4,0:2:0:0:
114,213,194039,1,0,0:0:0:0:
194,211,194137,1,2,0:0:0:0:
274,210,194235,1,8,0:0:0:0:
194,211,194333,1,0,0:0:0:0:
392,136,194431,6,0,L|311:138,1,80,2|0,1:3|0:0,0:0:0:0:
107,89,194627,1,8,0:0:0:0:
276,88,194725,1,12,0:2:0:0:
107,127,194823,2,0,L|193:126,1,80,2|2,0:0|0:0,0:0:0:0:
392,136,195019,2,0,L|311:138,1,80,2|2,1:3|1:3,0:0:0:0:
19,62,195215,6,0,L|276:58,1,240,12|0,0:2|0:0,0:0:0:0:
19,62,195608,6,0,L|276:58,1,240,12|0,0:2|0:0,0:0:0:0:
493,62,196000,6,0,L|236:58,1,240,12|0,0:2|0:0,0:0:0:0:
493,62,196392,6,0,L|396:60,1,80,2|2,1:3|0:0,0:0:0:0:
226,91,196588,2,0,L|129:89,1,80,0|0,1:3|1:3,0:0:0:0:
358,117,196784,5,2,1:3:0:0:
430,145,196882,1,0,0:0:0:0:
443,221,196980,1,8,0:0:0:0:
387,273,197078,1,0,0:0:0:0:
212,193,197176,2,0,L|318:193,1,80,2|0,1:3|0:0,0:0:0:0:
111,137,197372,2,0,L|13:137,1,80,8|0,0:0|0:0,0:0:0:0:
225,77,197568,6,0,L|51:78,1,160,2|8,1:3|0:0,0:0:0:0:
150,45,197862,1,0,0:0:0:0:
337,44,197960,2,0,L|225:45,1,80,2|0,1:3|1:0,0:0:0:0:
441,45,198157,2,0,L|450:134,1,80,8|0,0:0|0:0,0:0:0:0:
285,164,198353,6,0,L|182:165,1,80,2|0,1:3|0:0,0:0:0:0:
28,218,198549,2,0,L|128:217,1,80,8|0,0:0|0:0,0:0:0:0:
285,164,198745,2,0,L|182:165,1,80,2|0,1:3|0:0,0:0:0:0:
377,212,198941,2,0,L|477:211,1,80,8|0,0:0|0:0,0:0:0:0:
276,275,199137,6,0,L|477:274,1,160,2|8,1:3|0:0,0:0:0:0:
357,252,199431,1,8,0:0:0:0:
181,201,199529,2,0,L|284:200,1,80,8|0,1:2|3:2,0:0:0:0:
71,204,199725,2,0,L|55:283,1,80,2|2,1:3|1:3,0:0:0:0:
241,311,199921,6,0,L|25:310,1,160,12|8,0:2|0:0,0:0:0:0:
334,303,200215,2,0,P|408:251|379:197,1,160,4|2,0:2|0:0,0:0:0:0:
173,121,200510,2,0,L|277:119,1,80,8|0,0:0|0:0,0:0:0:0:
27,145,200706,6,0,L|19:228,1,80,12|0,3:2|0:0,0:0:0:0:
255,146,200902,2,0,L|259:242,1,80,8|0,0:0|0:0,0:0:0:0:
485,145,201098,2,0,L|483:238,1,80,8|0,0:0|1:0,0:0:0:0:
217,69,201294,2,0,L|309:73,1,80,8|8,1:2|1:2,0:0:0:0:
51,55,201490,6,0,L|40:105,1,40,14|0,0:2|0:0,0:0:0:0:
461,55,201784,6,0,L|472:105,1,40,14|0,0:2|0:0,0:0:0:0:
27,57,202078,6,0,L|16:107,1,40,14|0,0:2|0:0,0:0:0:0:
400,144,202274,5,14,0:2:0:0:
80,240,202470,5,0,1:0:0:0:
256,240,202568,1,0,1:0:0:0:
432,192,202666,2,0,L|320:192,1,80,2|2,0:0|0:0,0:0:0:0:
160,192,202862,2,0,L|80:192,1,80,2|2,3:3|3:3,0:0:0:0:
388,93,203059,6,0,L|413:199,1,80,2|0,1:3|0:0,0:0:0:0:
229,172,203255,2,0,L|317:173,1,80,8|0,0:0|0:0,0:0:0:0:
135,175,203451,2,0,L|160:281,1,80,2|0,1:3|0:0,0:0:0:0:
316,255,203647,2,0,L|407:254,1,80,8|0,0:0|0:0,0:0:0:0:
224,288,203843,6,0,L|121:288,1,80,2|0,1:3|0:0,0:0:0:0:
438,143,204039,2,0,L|358:143,1,80,8|0,0:0|0:0,0:0:0:0:
186,109,204235,2,0,L|266:109,1,80,2|0,1:3|0:0,0:0:0:0:
75,113,204431,2,0,L|49:209,1,80,8|0,0:0|0:0,0:0:0:0:
237,211,204627,6,0,L|139:208,3,80,2|0|8|0,1:3|0:0|0:0|0:0,0:0:0:0:
361,140,205019,2,0,L|276:142,1,80,2|0,1:3|0:0,0:0:0:0:
462,135,205215,2,0,L|482:224,1,80,8|0,0:0|0:0,0:0:0:0:
285,209,205411,6,0,L|261:294,1,80,2|0,1:3|0:0,0:0:0:0:
379,315,205608,2,0,L|285:313,1,80,8|0,0:0|0:0,0:0:0:0:
102,313,205804,2,0,L|182:314,1,80,2|0,1:3|1:0,0:0:0:0:
68,265,206000,2,0,L|44:350,1,80,8|0,1:2|1:0,0:0:0:0:
237,218,206196,6,0,L|374:218,1,80,2|0,1:3|0:0,0:0:0:0:
495,167,206392,2,0,L|400:170,1,80,8|0,0:0|0:0,0:0:0:0:
237,109,206588,2,0,L|374:109,1,80,2|0,1:3|0:0,0:0:0:0:
127,111,206784,2,0,L|32:114,1,80,8|0,0:0|0:0,0:0:0:0:
260,171,206980,5,2,1:3:0:0:
181,171,207078,1,0,0:0:0:0:
101,171,207176,1,8,0:0:0:0:
181,171,207274,1,0,0:0:0:0:
355,214,207372,2,0,L|197:217,1,80,2|0,1:3|0:0,0:0:0:0:
487,193,207568,2,0,L|498:282,1,80,8|0,0:0|0:0,0:0:0:0:
308,275,207764,6,0,L|412:273,3,80,2|0|8|0,1:3|0:0|0:0|0:0,0:0:0:0:
204,275,208157,2,0,L|100:273,1,80,2|0,1:3|0:0,0:0:0:0:
334,88,208353,2,0,L|131:87,1,160,12|0,0:2|1:3,0:0:0:0:
257,136,208647,5,2,0:0:0:0:
435,173,208745,2,0,L|443:276,1,80,8|0,0:0|0:0,0:0:0:0:
216,223,208941,2,0,L|315:225,1,80,2|0,1:3|0:0,0:0:0:0:
77,173,209137,2,0,L|69:276,1,80,8|0,0:0|1:0,0:0:0:0:
370,79,209333,6,0,L|261:78,1,80,2|0,1:3|0:0,0:0:0:0:
482,147,209529,2,0,L|373:146,1,80,8|0,0:0|0:0,0:0:0:0:
142,79,209725,2,0,L|251:78,1,80,2|0,1:3|0:0,0:0:0:0:
30,147,209921,2,0,L|139:146,1,80,8|0,0:0|0:0,0:0:0:0:
403,146,210117,6,0,L|482:147,1,80,2|0,1:3|0:0,0:0:0:0:
291,78,210313,2,0,L|370:79,1,80,8|0,0:0|0:0,0:0:0:0:
110,146,210510,2,0,L|30:147,1,80,2|0,1:3|0:0,0:0:0:0:
222,78,210706,2,0,L|142:79,1,80,8|0,0:0|0:0,0:0:0:0:
453,98,210902,6,0,L|463:194,1,80,2|0,1:3|0:0,0:0:0:0:
287,172,211098,2,0,L|391:173,1,80,8|0,0:0|0:0,0:0:0:0:
59,98,211294,2,0,L|49:194,1,80,2|0,1:3|0:0,0:0:0:0:
225,172,211490,2,0,L|121:173,1,80,8|0,0:0|0:0,0:0:0:0:
417,90,211686,5,2,1:3:0:0:
338,89,211784,1,0,0:0:0:0:
258,89,211882,1,8,0:0:0:0:
338,89,211980,1,0,0:0:0:0:
95,90,212078,1,2,1:3:0:0:
175,89,212176,1,0,0:0:0:0:
255,89,212274,1,8,0:0:0:0:
175,89,212372,1,0,1:3:0:0:
367,172,212470,6,0,L|287:172,1,80,2|0,1:3|0:0,0:0:0:0:
453,98,212666,2,0,L|463:194,1,80,8|0,0:0|0:0,0:0:0:0:
146,172,212862,2,0,L|225:172,1,80,2|0,1:3|0:0,0:0:0:0:
59,98,213058,2,0,L|49:194,1,80,8|0,0:0|0:0,0:0:0:0:
352,64,213255,6,0,L|448:64,1,80,2|0,1:3|0:0,0:0:0:0:
256,64,213451,1,8,0:0:0:0:
462,127,213549,1,0,0:0:0:0:
256,64,213647,1,2,1:3:0:0:
50,127,213745,1,0,0:0:0:0:
256,64,213843,2,0,L|160:64,1,80,8|0,0:0|0:0,0:0:0:0:
432,224,214039,5,4,1:2:0:0:
256,189,214235,2,0,L|355:188,1,80,0|0,1:0|1:0,0:0:0:0:
157,238,214431,1,2,0:0:0:0:
88,206,214529,1,2,0:0:0:0:
75,130,214627,1,2,0:0:0:0:
131,78,214725,1,2,1:3:0:0:
369,42,214823,6,0,L|91:39,1,240,4|0,1:1|0:0,0:0:0:0:
402,71,215215,2,0,P|481:112|389:224,1,240,4|0,3:1|0:0,0:0:0:0:
250,152,215608,6,0,L|366:153,3,80,4|0|0|0,1:3|0:0|1:0|0:0,0:0:0:0:
148,236,216000,2,0,L|444:236,1,240,10|0,0:2|0:0,0:0:0:0:
199,69,216392,6,0,L|83:70,3,80,4|0|0|0,1:3|0:0|1:0|0:0,0:0:0:0:
301,153,216784,2,0,L|5:153,1,240,10|0,0:0|0:0,0:0:0:0:
251,105,217176,6,0,L|155:105,1,80,4|0,1:3|0:0,0:0:0:0:
279,73,217372,2,0,L|375:73,1,80,0|0,1:0|0:0,0:0:0:0:
192,190,217568,2,0,L|443:188,1,240,10|0,0:0|0:0,0:0:0:0:
261,105,217960,6,0,L|357:105,1,80,4|0,1:3|0:0,0:0:0:0:
233,73,218156,2,0,L|137:73,1,80,0|0,1:0|0:0,0:0:0:0:
320,190,218352,2,0,L|69:188,1,240,10|0,0:0|0:0,0:0:0:0:
261,249,218745,6,0,L|446:250,1,160,6|0,1:2|0:0,0:0:0:0:
346,210,219039,1,0,0:0:0:0:
156,116,219137,2,0,L|341:117,1,160,10|0,0:0|0:0,0:0:0:0:
241,77,219431,1,0,0:0:0:0:
456,72,219529,5,2,1:2:0:0:
283,33,219627,2,0,L|193:31,2,80,0|0|0,0:0|1:0|0:0,0:0:0:0:
456,72,219921,1,10,1:2:0:0:
256,78,220019,2,0,L|166:76,2,80
456,72,220313,5,2,1:2:0:0:
226,131,220411,1,0,0:0:0:0:
306,131,220510,1,0,1:0:0:0:
386,131,220608,1,0,0:0:0:0:
182,189,220706,2,0,L|283:189,1,80,10|0,1:2|0:0,0:0:0:0:
455,184,220902,2,0,L|343:188,1,80
167,269,221098,6,0,L|291:269,1,80,2|0,1:3|0:0,0:0:0:0:
77,221,221294,2,0,L|20:221,2,53.3333333333333,0|0|0,1:0|1:0|1:0,0:0:0:0:
263,212,221490,2,0,P|325:183|286:103,1,160,12|0,1:2|0:0,0:0:0:0:
217,105,221784,1,0,0:0:0:0:
409,103,221882,5,2,1:2:0:0:
392,54,221947,1,0,0:0:0:0:
343,38,222013,1,0,0:0:0:0:
492,90,222078,1,2,1:2:0:0:
475,41,222143,1,0,0:0:0:0:
426,25,222209,1,0,0:0:0:0:
242,26,222274,5,10,1:2:0:0:
260,74,222340,1,0,0:0:0:0:
309,90,222405,1,0,0:0:0:0:
159,39,222470,1,2,0:2:0:0:
176,88,222536,1,0,0:0:0:0:
225,104,222601,1,0,0:0:0:0:
81,166,222666,6,0,L|13:163,2,53.3333333333333,2|0|0,1:2|0:0|0:0,0:0:0:0:
230,167,222862,2,0,L|298:164,2,53.3333333333333,2|0|0,1:2|0:0|0:0,0:0:0:0:
368,160,223059,5,10,1:2:0:0:
404,195,223124,1,0,0:0:0:0:
389,244,223189,1,0,0:0:0:0:
241,221,223255,1,2,0:2:0:0:
206,256,223320,1,0,0:0:0:0:
221,305,223385,1,0,0:0:0:0:
380,295,223451,5,2,1:2:0:0:
327,295,223516,1,0,0:0:0:0:
274,295,223581,1,0,0:0:0:0:
88,188,223647,1,2,1:2:0:0:
142,188,223712,1,0,0:0:0:0:
195,188,223777,1,0,0:0:0:0:
46,186,223843,5,10,1:2:0:0:
51,134,223908,1,0,0:0:0:0:
94,106,223974,1,0,0:0:0:0:
238,127,224039,1,2,0:2:0:0:
234,75,224104,1,0,0:0:0:0:
191,47,224170,1,0,0:0:0:0:
341,44,224235,6,0,L|415:43,1,53.3333333333333,2|0,1:2|0:0,0:0:0:0:
268,95,224366,2,0,L|253:153,1,53.3333333333333,0|2,0:0|1:2,0:0:0:0:
418,146,224496,2,0,L|346:145,1,53.3333333333333
228,151,224627,5,10,1:2:0:0:
241,200,224693,1,0,0:0:0:0:
288,222,224758,1,0,0:0:0:0:
421,264,224823,2,0,L|482:264,2,53.3333333333333,2|0|0,0:2|0:0|0:0,0:0:0:0:
247,290,225019,6,0,L|139:288,1,80,2|0,1:1|0:0,0:0:0:0:
342,288,225215,2,0,L|346:193,1,80,0|2,0:0|0:0,0:0:0:0:
171,140,225411,2,0,L|286:139,3,80,10|0|0|0,1:2|0:0|0:0|1:0,0:0:0:0:
53,66,225804,5,2,1:1:0:0:
220,59,225902,2,0,L|333:59,1,80
490,140,226098,1,0,0:0:0:0:
323,133,226196,2,0,L|210:133,1,80,10|0,1:2|0:0,0:0:0:0:
490,140,226392,2,0,L|492:241,1,80,0|0,0:0|1:0,0:0:0:0:
227,39,226588,6,0,L|38:39,1,160,2|2,1:1|1:3,0:0:0:0:
147,82,226882,1,0,0:0:0:0:
389,145,226980,2,0,L|214:144,1,160,10|0,1:2|0:0,0:0:0:0:
144,146,227274,1,2,0:0:0:0:
329,77,227372,6,0,L|429:77,1,80,10|0,1:3|0:0,0:0:0:0:
216,36,227568,2,0,L|333:37,1,80,2|0,1:3|0:0,0:0:0:0:
99,88,227764,2,0,L|283:87,1,160,8|2,1:3|0:0,0:0:0:0:
179,119,228059,1,0,1:0:0:0:
396,147,228157,6,0,L|405:233,1,80,8|0,1:3|1:0,0:0:0:0:
217,227,228353,2,0,L|325:227,1,80,0|0,1:0|1:0,0:0:0:0:
120,146,228549,2,0,L|111:232,1,80,8|0,1:3|1:0,0:0:0:0:
217,227,228745,1,0,1:0:0:0:
37,108,228843,1,8,1:3:0:0:
211,106,228941,5,10,1:3:0:0:
28,244,229039,1,2,1:3:0:0:
20,282,229088,1,0,0:0:0:0:
24,322,229137,1,10,1:3:0:0:
126,323,229235,1,2,1:3:0:0:
308,289,229333,6,0,L|205:289,1,80,10|2,1:3|1:3,0:0:0:0:
391,238,229529,1,2,1:3:0:0:
138,231,229627,1,10,1:3:0:0:
