osu file format v14

[General]
AudioFilename: audio.mp3
AudioLeadIn: 0
PreviewTime: 69516
Countdown: 0
SampleSet: Drum
StackLeniency: 0.7
Mode: 2
LetterboxInBreaks: 0
WidescreenStoryboard: 1

[Editor]
DistanceSpacing: 0.8
BeatDivisor: 4
GridSize: 4
TimelineZoom: 1.4

[Metadata]
Title:ever snow
TitleUnicode:ever snow
Artist:TERRA
ArtistUnicode:TЁЯRA
Creator:autofanboy
Version:winter
Source:DanceDanceRevolution
Tags:AFB alienflybot Yoma Komatsu 小松代真 jun Junko Karashima 辛島純子 Naoki Maeda 前田尚紀 DDR hottest party4 partyfour X3 VS 2ndMIX SecondMIX RЁVOLUTIØN REVOLUTION BEMANI Video Game Japanese Electronic cover
BeatmapID:3376128
BeatmapSetID:1654021

[Difficulty]
HPDrainRate:6
CircleSize:4.5
OverallDifficulty:8.8
ApproachRate:8.8
SliderMultiplier:1.92
SliderTickRate:2

[Events]
//Background and Video events
0,0,"merrychristmas.jpg",0,0
//Break Periods
//Storyboard Layer 0 (Background)
//Storyboard Layer 1 (Fail)
//Storyboard Layer 2 (Pass)
//Storyboard Layer 3 (Foreground)
//Storyboard Layer 4 (Overlay)
//Storyboard Sound Samples

[TimingPoints]
1654,413.793103448276,4,2,1,30,1,0
2067,-100,4,2,3,30,0,0
4136,-100,4,2,13,30,0,0
4343,-100,4,2,3,30,0,0
7447,-100,4,2,3,15,0,0
7860,-100,4,2,1,30,0,0
8274,-100,4,2,1,50,0,0
9309,-100,4,3,11,50,0,0
9412,-100,4,2,1,50,0,0
9516,-100,4,1,11,50,0,0
9722,-100,4,2,1,50,0,0
11791,-100,4,3,11,50,0,0
11895,-100,4,2,1,50,0,0
12619,-100,4,3,11,50,0,0
12722,-100,4,2,1,50,0,0
14067,-100,4,2,2,50,0,0
14895,-100,4,2,1,10,0,0
16550,-100,4,2,1,70,0,0
16757,-100,4,3,11,70,0,0
16860,-100,4,2,1,70,0,0
17791,-100,4,2,3,70,0,0
17998,-100,4,2,1,70,0,0
18412,-100,4,2,3,70,0,0
18619,-100,4,2,1,70,0,0
20067,-100,4,3,11,70,0,0
20171,-100,4,2,1,70,0,0
22343,-100,4,2,2,70,0,0
23171,-100,4,2,1,70,0,0
23378,-100,4,3,11,70,0,0
23481,-100,4,2,1,70,0,0
24412,-100,4,2,3,70,0,0
24619,-100,4,2,1,70,0,0
25033,-100,4,2,3,70,0,0
25240,-100,4,2,1,70,0,0
26688,-100,4,3,11,70,0,0
26791,-100,4,2,1,70,0,0
27722,-100,4,2,3,70,0,0
27929,-100,4,2,1,70,0,0
28343,-100,4,2,3,70,0,0
28447,-100,4,2,1,70,0,0
28964,-100,4,2,2,70,0,0
29791,-100,4,2,1,50,0,0
30826,-100,4,3,11,50,0,0
30929,-100,4,2,1,50,0,0
32481,-100,4,3,11,50,0,0
32585,-100,4,2,1,50,0,0
32688,-100,4,1,11,50,0,0
32895,-100,4,2,1,50,0,0
34964,-100,4,3,11,50,0,0
35067,-100,4,2,1,50,0,0
42205,-100,4,2,2,50,0,0
43033,-100,4,2,1,60,0,0
43447,-100,4,2,3,60,0,0
43654,-100,4,2,1,60,0,0
44067,-100,4,2,3,60,0,0
44274,-100,4,2,1,60,0,0
45102,-100,4,2,3,60,0,0
45309,-100,4,2,1,60,0,0
45722,-100,4,2,3,60,0,0
45929,-100,4,2,1,60,0,0
48205,-100,4,3,11,60,0,0
48412,-100,4,2,1,60,0,0
49654,-100,4,2,1,70,0,0
49860,-100,4,3,11,70,0,0
50067,-100,4,2,1,70,0,0
50481,-100,4,2,11,70,0,0
50688,-100,4,2,1,70,0,0
53998,-100,4,2,2,70,0,0
54619,-100,4,2,1,70,0,0
55654,-100,4,2,1,10,0,0
56274,-100,4,2,1,30,0,0
56895,-100,4,2,3,30,0,0
57102,-100,4,2,1,30,0,0
57929,-100,4,2,3,30,0,0
58136,-100,4,2,1,30,0,0
58550,-100,4,2,3,30,0,0
58757,-100,4,2,1,30,0,0
59171,-100,4,2,3,30,0,0
59378,-100,4,2,1,30,0,0
59585,-100,4,2,3,30,0,0
59791,-100,4,2,1,30,0,0
60412,-100,4,2,3,30,0,0
60619,-100,4,2,1,30,0,0
61240,-100,4,2,3,30,0,0
62067,-100,4,2,1,15,0,0
62481,-100,4,2,1,30,0,0
62895,-100,4,2,1,50,0,0
63102,-100,4,3,11,50,0,0
63205,-100,4,2,1,50,0,0
63309,-100,4,1,11,50,0,0
63516,-100,4,2,1,50,0,0
64757,-100,4,3,11,50,0,0
64860,-100,4,2,1,50,0,0
64964,-100,4,1,11,50,0,0
65171,-100,4,2,1,50,0,0
66412,-100,4,3,11,50,0,0
66516,-100,4,2,1,50,0,0
66619,-100,4,1,11,50,0,0
66826,-100,4,2,1,50,0,0
68688,-100,4,2,2,60,0,0
69516,-100,4,2,1,70,0,1
71378,-100,4,3,11,70,0,1
71585,-100,4,2,1,70,0,1
73033,-100,4,3,11,70,0,1
73240,-100,4,2,1,70,0,1
81826,-100,4,2,2,60,0,1
81929,-100,4,2,2,60,0,0
82240,-100,4,2,1,60,0,0
82343,-100,4,2,2,60,0,0
82757,-100,4,2,1,80,0,1
84412,-100,4,2,2,80,0,1
84619,-100,4,2,1,80,0,1
85240,-100,4,2,11,80,0,1
85447,-100,4,2,1,80,0,1
85860,-100,4,3,11,80,0,1
85964,-100,4,2,1,80,0,1
86067,-100,4,2,2,80,0,1
86274,-100,4,2,1,80,0,1
86895,-100,4,2,2,80,0,1
87102,-100,4,2,1,80,0,1
87722,-100,4,2,2,80,0,1
87929,-100,4,2,1,80,0,1
95067,-100,4,2,2,60,0,1
95171,-100,4,2,2,60,0,0
95998,-100,4,2,1,90,0,1
97860,-100,4,3,11,90,0,1
98067,-100,4,2,1,90,0,1
99516,-100,4,3,11,90,0,1
99722,-100,4,2,1,90,0,1
101791,-100,4,2,2,60,0,1
102412,-100,4,2,1,90,0,1
107171,-100,4,2,1,90,0,0
107585,-100,4,2,1,90,0,1
107791,-100,4,2,1,70,0,0
107998,-100,4,2,1,45,0,0
108412,-100,4,2,1,15,0,0
108826,-100,4,2,1,30,0,0
109240,-100,4,2,1,70,0,0
110481,-100,4,2,3,70,0,0
110688,-100,4,2,1,70,0,0
111102,-100,4,2,3,70,0,0
111205,-100,4,2,1,70,0,0
111722,-100,4,2,2,70,0,0
112550,-100,4,2,1,70,0,0
113791,-100,4,2,3,70,0,0
113998,-100,4,2,1,70,0,0
114412,-100,4,2,3,70,0,0
114516,-100,4,2,1,70,0,0
115033,-100,4,2,2,70,0,0
115860,-100,4,2,4,70,0,1
116067,-100,4,2,1,70,0,0
116274,-100,4,3,3,50,0,0
116688,-100,4,3,3,25,0,0
117102,-100,4,3,3,5,0,0

[Colours]
Combo1 : 255,249,128
Combo2 : 78,241,217
Combo3 : 128,226,255
Combo4 : 251,132,158

[HitObjects]
356,344,1033,5,0,1:0:0:0:
392,256,1240,1,0,1:0:0:0:
356,168,1446,1,0,1:0:0:0:
268,132,1654,6,0,L|460:124,1,192,4|2,0:0|0:0,0:0:0:0:
364,120,2274,1,0,0:0:0:0:
196,216,2481,2,0,L|192:120,1,96,4|0,0:0|0:0,0:0:0:0:
308,24,2895,2,0,L|212:20,1,96,2|0,0:0|0:0,0:0:0:0:
44,308,3309,6,0,P|48:256|152:176,1,192,0|2,0:0|0:0,0:0:0:0:
248,272,3929,2,0,P|352:192|356:140,1,192
188,136,4550,2,0,L|184:40,1,96,2|0,0:0|0:0,0:0:0:0:
352,232,4964,6,0,L|160:224,1,192,4|2,0:0|0:0,0:0:0:0:
256,220,5585,1,0,0:0:0:0:
424,124,5791,2,0,L|280:120,2,144,4|0|0,0:0|0:0|0:0,0:0:0:0:
256,28,6619,5,4,0:0:0:0:
256,192,6826,12,2,7860,0:0:0:0:
92,320,8274,6,0,L|88:224,1,96,6|2,0:0|0:3,0:0:0:0:
256,128,8688,1,8,0:0:0:0:
304,124,8791,2,0,L|208:120,1,96,0|0,0:0|0:0,0:0:0:0:
320,216,9102,2,0,L|464:212,2,144,2|0|2,0:0|0:0|0:3,0:0:0:0:
152,312,9929,6,0,L|144:216,1,96,2|2,0:0|0:3,0:0:0:0:
312,120,10343,1,8,0:0:0:0:
316,72,10446,1,0,0:0:0:0:
320,24,10549,1,2,0:3:0:0:
152,216,10757,1,10,0:1:0:0:
132,164,10860,1,0,0:0:0:0:
152,112,10964,1,10,0:1:0:0:
200,84,11067,1,0,0:0:0:0:
312,36,11171,1,8,0:0:0:0:
360,32,11274,1,8,0:1:0:0:
312,36,11378,1,2,0:3:0:0:
48,324,11585,6,0,P|24:256|48:192,1,144,6|0,0:0|0:0,0:0:0:0:
160,144,11998,2,0,L|64:140,1,96,8|2,0:0|0:3,0:0:0:0:
328,236,12412,2,0,P|352:168|328:104,1,144,6|0,0:0|0:0,0:0:0:0:
216,152,12826,2,0,L|212:56,1,96,8|2,0:0|0:3,0:0:0:0:
476,344,13240,6,0,L|480:296,1,48,6|8,0:0|0:1,0:0:0:0:
312,200,13550,1,0,0:0:0:0:
308,152,13654,2,0,L|404:148,1,96,8|2,0:0|0:3,0:0:0:0:
236,52,14067,1,2,0:0:0:0:
164,100,14222,1,0,0:0:0:0:
162,76,14274,1,2,0:3:0:0:
160,52,14326,1,0,0:0:0:0:
328,244,14482,1,8,0:0:0:0:
348,192,14585,1,0,0:0:0:0:
328,140,14689,1,2,0:3:0:0:
280,112,14792,1,0,0:0:0:0:
172,160,14895,6,0,L|164:64,1,96,0|0,0:0|0:0,0:0:0:0:
332,256,15309,2,0,L|340:160,1,96,0|0,0:0|0:0,0:0:0:0:
292,156,15619,1,0,0:0:0:0:
184,108,15722,2,0,L|232:104,1,48,0|0,0:0|0:0,0:0:0:0:
400,200,16033,2,0,L|404:56,1,144,0|0,0:0|0:0,0:0:0:0:
140,248,16550,6,0,L|284:244,1,144,6|10,0:0|0:1,0:0:0:0:
172,148,16964,2,0,L|76:144,1,96,8|10,0:0|0:1,0:0:0:0:
192,336,17378,2,0,L|196:240,1,96,2|2,0:0|0:3,0:0:0:0:
28,144,17791,2,0,L|24:48,1,96,12|2,0:1|0:3,0:0:0:0:
288,144,18205,6,0,L|384:140,1,96,2|6,0:0|0:3,0:0:0:0:
216,44,18619,1,8,0:0:0:0:
168,40,18722,1,0,0:0:0:0:
216,44,18826,1,2,0:0:0:0:
384,140,19033,2,0,L|392:44,1,96,2|2,0:0|0:3,0:0:0:0:
128,236,19447,2,0,L|120:140,1,96,8|2,0:0|0:3,0:0:0:0:
384,332,19860,6,0,P|408:264|384:200,1,144,2|8,0:0|0:1,0:0:0:0:
272,248,20274,2,0,L|268:152,1,96,8|2,0:0|0:3,0:0:0:0:
436,56,20688,1,10,0:1:0:0:
340,52,20895,2,0,L|292:48,1,48,2|8,0:3|0:1,0:0:0:0:
460,144,21205,2,0,L|508:140,1,48,0|10,0:0|0:3,0:0:0:0:
340,236,21516,5,2,0:0:0:0:
292,232,21619,1,0,0:0:0:0:
340,236,21722,1,10,0:3:0:0:
172,332,21929,2,0,L|168:236,1,96,8|2,0:0|0:3,0:0:0:0:
432,136,22343,2,0,L|336:132,1,96,6|0,0:0|0:0,0:0:0:0:
168,36,22757,1,12,0:0:0:0:
432,132,22964,1,0,0:0:0:0:
168,228,23171,6,0,P|144:296|168:360,1,144,10|10,0:1|0:1,0:0:0:0:
280,312,23585,2,0,L|376:308,1,96,8|10,0:0|0:1,0:0:0:0:
260,212,23998,2,0,L|264:116,1,96,2|2,0:0|0:3,0:0:0:0:
432,124,24412,2,0,L|436:28,1,96,12|2,0:1|0:3,0:0:0:0:
156,28,24826,6,0,L|60:32,1,96,2|6,0:0|0:3,0:0:0:0:
228,128,25240,1,8,0:0:0:0:
276,132,25343,1,0,0:0:0:0:
228,128,25447,1,2,0:3:0:0:
60,224,25654,2,0,L|56:128,1,96,2|2,0:0|0:3,0:0:0:0:
320,32,26067,2,0,L|416:28,1,96,8|2,0:0|0:3,0:0:0:0:
152,316,26481,6,0,L|296:312,1,144,10|10,0:1|0:1,0:0:0:0:
408,360,26895,2,0,L|412:264,1,96,8|10,0:0|0:1,0:0:0:0:
296,168,27309,2,0,L|200:164,1,96,2|2,0:0|0:3,0:0:0:0:
368,68,27722,2,0,L|464:64,1,96,12|2,0:1|0:3,0:0:0:0:
296,168,28136,5,2,0:0:0:0:
412,264,28343,2,0,L|364:260,1,48,6|2,0:3|0:0,0:0:0:0:
196,356,28654,2,0,L|148:352,1,48,0|2,0:0|0:0,0:0:0:0:
316,256,28964,2,0,L|320:160,1,96,6|0,0:0|0:0,0:0:0:0:
152,64,29378,1,12,0:0:0:0:
416,160,29585,1,0,0:0:0:0:
152,64,29791,6,0,L|56:60,1,96,6|2,0:0|0:3,0:0:0:0:
144,56,30102,1,2,0:0:0:0:
228,52,30205,2,0,L|324:48,1,96,8|2,0:0|0:3,0:0:0:0:
208,332,30619,2,0,L|64:328,1,144,2|0,0:0|0:0,0:0:0:0:
176,280,31033,1,8,0:0:0:0:
272,276,31240,2,0,L|276:228,1,48,2|2,0:3|0:3,0:0:0:0:
108,180,31447,6,0,L|104:84,1,96,2|2,0:0|0:3,0:0:0:0:
188,80,31757,1,2,0:0:0:0:
272,76,31860,2,0,L|176:72,1,96,8|2,0:0|0:0,0:0:0:0:
292,168,32274,2,0,L|436:164,2,144,2|0|2,0:0|0:0|0:3,0:0:0:0:
28,264,33102,6,0,L|24:168,1,96,2|2,0:0|0:3,0:0:0:0:
108,164,33412,1,2,0:0:0:0:
192,160,33516,2,0,L|288:156,1,96,8|2,0:0|0:3,0:0:0:0:
120,348,33929,1,2,0:0:0:0:
72,320,34032,1,0,0:0:0:0:
52,268,34136,1,2,0:3:0:0:
72,216,34239,1,0,0:0:0:0:
120,188,34343,1,8,0:0:0:0:
288,92,34550,1,2,0:3:0:0:
24,188,34757,6,0,L|168:184,1,144,2|2,0:0|0:0,0:0:0:0:
280,232,35171,2,0,L|284:136,1,96,8|2,0:0|0:3,0:0:0:0:
400,184,35585,2,0,L|404:88,1,96,2|2,0:0|0:3,0:0:0:0:
236,280,35998,2,0,L|140:276,1,96,8|2,0:0|0:3,0:0:0:0:
188,272,36309,1,0,0:0:0:0:
376,224,36412,6,0,L|472:220,1,96,6|2,0:0|0:3,0:0:0:0:
424,216,36722,1,2,0:0:0:0:
312,168,36826,1,8,0:0:0:0:
292,116,36929,1,0,0:0:0:0:
312,64,37033,1,2,0:3:0:0:
360,36,37136,1,0,0:0:0:0:
472,40,37240,2,0,L|476:88,1,48,2|0,0:0|0:0,0:0:0:0:
308,184,37550,2,0,L|304:232,1,48,0|8,0:0|0:0,0:0:0:0:
400,236,37860,1,2,0:3:0:0:
136,332,38067,6,0,L|132:236,1,96,2|2,0:0|0:3,0:0:0:0:
244,188,38378,2,0,L|340:184,1,96,2|0,0:0|0:0,0:0:0:0:
292,180,38688,1,2,0:3:0:0:
124,276,38895,1,2,0:0:0:0:
104,224,38998,1,0,0:0:0:0:
124,172,39102,1,2,0:3:0:0:
172,144,39205,1,0,0:0:0:0:
228,140,39309,1,8,0:0:0:0:
60,44,39516,1,2,0:3:0:0:
324,236,39722,6,0,L|420:232,1,96,2|2,0:0|0:3,0:0:0:0:
308,184,40033,2,0,L|212:180,1,96,2|0,0:0|0:0,0:0:0:0:
260,176,40343,1,2,0:3:0:0:
428,320,40550,1,2,0:0:0:0:
432,272,40654,2,0,L|336:267,1,96,2|0,0:0|0:0,0:0:0:0:
224,316,40964,2,0,L|220:220,1,96,8|2,0:0|0:3,0:0:0:0:
484,124,41378,6,0,L|488:28,1,96,2|2,0:0|0:3,0:0:0:0:
376,76,41688,2,0,L|280:72,1,96,2|0,0:0|0:0,0:0:0:0:
328,68,41998,2,0,L|280:64,1,48,2|0,0:3|0:0,0:0:0:0:
112,160,42205,2,0,L|108:112,1,48,2|0,0:0|0:0,0:0:0:0:
276,256,42516,1,0,0:0:0:0:
324,228,42619,1,8,0:0:0:0:
344,176,42723,1,0,0:0:0:0:
324,124,42826,1,2,0:3:0:0:
276,96,42929,1,0,0:0:0:0:
104,48,43033,6,0,L|100:144,1,96,6|2,0:0|0:3,0:0:0:0:
268,240,43447,2,0,L|364:244,1,96,12|2,0:1|0:3,0:0:0:0:
196,340,43860,1,2,0:0:0:0:
364,244,44067,2,0,L|172:236,1,192,6|2,0:3|0:3,0:0:0:0:
220,232,44585,1,0,0:0:0:0:
388,140,44688,6,0,L|392:44,1,96,2|2,0:0|0:3,0:0:0:0:
224,140,45102,2,0,L|128:136,1,96,12|2,0:1|0:3,0:0:0:0:
296,40,45516,1,2,0:0:0:0:
128,136,45722,2,0,L|320:144,1,192,6|2,0:3|0:3,0:0:0:0:
272,148,46240,1,0,0:0:0:0:
104,292,46343,6,0,L|100:196,1,96,2|2,0:0|0:3,0:0:0:0:
268,292,46757,2,0,L|364:288,1,96,8|2,0:0|0:3,0:0:0:0:
248,192,47171,2,0,L|152:188,1,96,2|2,0:0|0:3,0:0:0:0:
320,92,47585,2,0,L|324:188,1,96,8|2,0:0|0:3,0:0:0:0:
60,284,47998,6,0,P|64:232|168:152,1,192,2|8,0:0|0:0,0:0:0:0:
336,248,48619,1,2,0:3:0:0:
384,252,48722,1,0,0:0:0:0:
336,248,48826,1,2,0:0:0:0:
220,152,49033,2,0,L|316:148,1,96,2|8,0:3|0:0,0:0:0:0:
484,52,49447,1,2,0:3:0:0:
220,244,49654,6,0,P|164:200|220:116,1,192,6|8,0:0|0:0,0:0:0:0:
484,20,50274,2,0,L|292:12,1,192,2|2,0:3|0:3,0:0:0:0:
124,108,50895,2,0,L|120:12,1,96,8|2,0:0|0:3,0:0:0:0:
168,16,51205,1,2,0:3:0:0:
336,256,51309,6,0,L|340:160,1,96,6|2,0:0|0:3,0:0:0:0:
224,64,51722,2,0,L|320:60,1,96,8|2,0:0|0:3,0:0:0:0:
152,252,52136,2,0,L|56:248,1,96,2|2,0:0|0:3,0:0:0:0:
224,152,52550,1,8,0:0:0:0:
56,56,52757,1,2,0:3:0:0:
320,344,52964,5,6,0:0:0:0:
368,316,53067,1,0,0:0:0:0:
388,264,53171,1,2,0:3:0:0:
368,212,53274,1,0,0:0:0:0:
320,184,53378,1,8,0:0:0:0:
224,176,53585,1,2,0:3:0:0:
392,272,53791,5,2,0:0:0:0:
344,244,53894,1,0,0:0:0:0:
324,192,53998,1,2,0:3:0:0:
344,140,54101,1,0,0:0:0:0:
392,112,54205,1,8,0:0:0:0:
440,140,54308,1,0,0:0:0:0:
460,192,54412,1,2,0:3:0:0:
440,244,54515,1,0,0:0:0:0:
392,272,54619,5,2,0:0:0:0:
16,128,54929,1,2,0:0:0:0:
392,272,55240,1,2,0:0:0:0:
256,368,55654,1,0,0:0:0:0:
252,272,55860,1,0,0:0:0:0:
248,176,56067,1,0,0:0:0:0:
416,32,56274,5,4,0:0:0:0:
308,76,56585,1,2,0:0:0:0:
264,184,56895,1,4,0:0:0:0:
308,292,57205,1,2,0:0:0:0:
416,336,57516,2,0,L|420:240,1,96,2|0,0:0|0:0,0:0:0:0:
252,96,57929,5,4,0:0:0:0:
296,204,58239,1,2,0:0:0:0:
252,312,58549,1,4,0:0:0:0:
144,356,58860,1,2,0:0:0:0:
288,260,59171,2,0,L|292:164,1,96,4|0,0:0|0:0,0:0:0:0:
124,68,59585,6,0,L|268:64,2,144,4|2|2,0:0|0:0|0:0,0:0:0:0:
292,260,60412,2,0,L|436:256,2,144,4|2|2,0:0|0:0|0:0,0:0:0:0:
124,164,61240,5,4,0:0:0:0:
256,192,61447,12,2,62481,0:0:0:0:
256,356,62895,6,0,L|112:352,2,144,6|0|2,0:0|0:0|0:3,0:0:0:0:
424,260,63722,1,2,0:0:0:0:
308,256,63929,2,0,L|304:208,1,48,2|0,0:3|0:0,0:0:0:0:
472,160,64240,2,0,L|476:112,1,48,0|2,0:0|0:3,0:0:0:0:
308,16,64550,6,0,L|452:12,2,144,2|0|2,0:0|0:0|0:3,0:0:0:0:
140,112,65378,1,2,0:0:0:0:
256,116,65585,2,0,L|208:120,1,48,2|0,0:3|0:0,0:0:0:0:
40,216,65895,2,0,L|88:220,1,48,0|2,0:0|0:3,0:0:0:0:
256,316,66205,6,0,L|400:312,2,144,2|0|2,0:0|0:0|0:3,0:0:0:0:
424,220,67033,2,0,L|428:124,1,96,2|2,0:0|0:3,0:0:0:0:
312,28,67447,2,0,L|408:24,1,96,8|2,0:0|0:3,0:0:0:0:
132,120,67860,5,2,0:0:0:0:
84,148,67963,1,0,0:0:0:0:
64,200,68067,1,2,0:3:0:0:
84,252,68170,1,0,0:0:0:0:
196,300,68274,2,0,L|216:256,1,48,8|0,0:0|0:0,0:0:0:0:
196,300,68481,2,0,L|216:256,1,48,2|0,0:3|0:0,0:0:0:0:
388,248,68688,5,2,0:0:0:0:
408,196,68791,1,0,0:0:0:0:
388,144,68895,1,2,0:3:0:0:
340,116,68998,1,0,0:0:0:0:
228,112,69102,2,0,L|180:108,1,48,8|0,0:0|0:0,0:0:0:0:
352,60,69309,2,0,L|400:56,1,48,2|0,0:3|0:0,0:0:0:0:
228,8,69516,6,0,L|220:104,1,96,6|2,0:0|0:3,0:0:0:0:
388,200,69929,2,0,L|396:296,1,96,8|2,0:0|0:3,0:0:0:0:
280,200,70343,2,0,L|376:196,1,96,2|2,0:0|0:3,0:0:0:0:
208,100,70757,2,0,L|200:4,1,96,8|2,0:0|0:3,0:0:0:0:
256,8,71067,1,2,0:3:0:0:
464,292,71171,6,0,L|272:284,1,192,2|8,0:0|0:0,0:0:0:0:
104,188,71791,1,2,0:3:0:0:
272,92,71998,1,10,0:1:0:0:
176,88,72205,2,0,L|172:40,1,48,2|8,0:3|0:1,0:0:0:0:
436,184,72516,2,0,L|440:136,1,48,0|10,0:0|0:3,0:0:0:0:
176,280,72826,6,0,P|180:228|284:148,1,192,2|8,0:0|0:0,0:0:0:0:
288,52,73447,1,2,0:3:0:0:
120,244,73654,2,0,L|24:240,1,96,2|2,0:0|0:3,0:0:0:0:
136,192,73964,2,0,L|232:188,1,96,0|0,0:0|0:0,0:0:0:0:
176,184,74274,1,2,0:3:0:0:
440,96,74481,6,0,L|344:92,1,96,2|2,0:0|0:3,0:0:0:0:
232,44,74791,2,0,L|328:40,1,96
384,36,75102,1,2,0:3:0:0:
216,132,75309,1,2,0:0:0:0:
160,128,75412,1,0,0:0:0:0:
216,132,75516,1,2,0:3:0:0:
384,324,75722,1,8,0:0:0:0:
404,272,75825,1,0,0:0:0:0:
384,220,75929,1,2,0:3:0:0:
336,192,76032,1,2,0:3:0:0:
148,240,76136,6,0,L|52:236,1,96,6|2,0:0|0:3,0:0:0:0:
164,188,76447,2,0,L|260:184,1,96,0|0,0:0|0:0,0:0:0:0:
204,180,76757,1,2,0:3:0:0:
36,276,76964,2,0,L|32:180,1,96,2|10,0:0|0:1,0:0:0:0:
200,84,77378,2,0,L|104:80,1,96,8|2,0:0|0:3,0:0:0:0:
368,368,77791,6,0,L|464:364,1,96,6|2,0:0|0:3,0:0:0:0:
352,316,78102,2,0,L|256:312,1,96
200,308,78412,1,2,0:3:0:0:
368,212,78619,1,2,0:0:0:0:
272,208,78826,2,0,L|268:160,1,48,10|0,0:1|0:0,0:0:0:0:
436,64,79136,2,0,L|440:16,1,48,8|2,0:1|0:3,0:0:0:0:
176,208,79447,6,0,L|272:204,1,96,6|2,0:0|0:3,0:0:0:0:
384,156,79757,2,0,L|480:152,1,96,0|0,0:0|0:0,0:0:0:0:
424,148,80067,1,2,0:3:0:0:
160,340,80274,2,0,L|156:244,1,96,6|2,0:0|0:3,0:0:0:0:
324,148,80688,2,0,L|328:52,1,96,8|2,0:0|0:3,0:0:0:0:
64,244,81102,5,6,0:0:0:0:
28,156,81309,1,2,0:3:0:0:
64,68,81515,1,8,0:0:0:0:
152,32,81722,2,0,L|200:36,1,48,2|0,0:3|0:0,0:0:0:0:
88,84,81929,5,2,0:0:0:0:
68,136,82032,1,0,0:0:0:0:
88,188,82136,1,2,0:3:0:0:
136,216,82239,1,0,0:0:0:0:
248,264,82343,2,0,L|296:268,1,48,8|0,0:0|0:0,0:0:0:0:
128,316,82550,2,0,L|80:320,1,48,2|0,0:3|0:0,0:0:0:0:
248,264,82757,6,0,L|344:256,1,96,6|2,0:0|0:3,0:0:0:0:
176,160,83171,2,0,L|168:64,1,96,8|2,0:0|0:3,0:0:0:0:
284,160,83585,2,0,L|188:152,1,96,2|2,0:0|0:3,0:0:0:0:
20,248,83998,2,0,L|116:240,1,96,8|2,0:0|0:3,0:0:0:0:
172,236,84309,1,2,0:3:0:0:
396,336,84412,6,0,P|452:292|396:208,1,192,6|8,1:0|0:0,0:0:0:0:
228,304,85033,2,0,L|420:296,1,192,2|2,0:3|0:3,0:0:0:0:
156,200,85654,2,0,L|12:196,1,144,8|2,0:0|0:3,0:0:0:0:
180,244,86067,6,0,L|276:240,1,96,6|2,1:0|0:3,0:0:0:0:
108,336,86481,2,0,L|104:240,1,96,8|2,0:0|0:3,0:0:0:0:
368,144,86895,2,0,L|372:48,1,96,6|2,1:0|0:3,0:0:0:0:
260,96,87205,2,0,L|164:92,1,96,0|0,0:0|0:0,0:0:0:0:
220,88,87516,1,2,0:3:0:0:
484,280,87722,6,0,L|488:184,1,96,6|2,1:0|0:3,0:0:0:0:
320,88,88136,2,0,L|416:84,1,96,8|2,0:0|0:3,0:0:0:0:
248,180,88550,1,2,0:0:0:0:
192,176,88654,1,0,0:0:0:0:
248,180,88757,1,2,0:3:0:0:
80,276,88964,1,8,0:0:0:0:
60,224,89067,1,0,0:0:0:0:
80,172,89171,1,2,0:3:0:0:
128,144,89274,1,2,0:3:0:0:
296,96,89378,6,0,L|392:100,1,96,6|2,0:0|0:3,0:0:0:0:
280,244,89688,2,0,L|184:240,1,96,0|0,0:0|0:0,0:0:0:0:
240,236,89998,1,2,0:3:0:0:
408,332,90205,2,0,L|412:236,1,96,2|10,0:0|0:1,0:0:0:0:
244,140,90619,2,0,L|148:136,1,96,8|2,0:0|0:3,0:0:0:0:
412,40,91033,6,0,L|316:36,1,96,2|2,0:0|0:3,0:0:0:0:
204,84,91343,2,0,L|300:88,1,96,0|0,0:0|0:0,0:0:0:0:
304,136,91654,1,2,0:3:0:0:
136,232,91860,1,2,0:0:0:0:
232,236,92067,2,0,L|280:240,1,48,10|0,0:1|0:0,0:0:0:0:
112,336,92378,2,0,L|64:340,1,48,8|2,0:1|0:3,0:0:0:0:
328,148,92688,6,0,L|184:144,2,144,2|0|2,0:0|0:0|0:3,0:0:0:0:
496,244,93516,2,0,L|400:240,1,96,2|2,0:0|0:3,0:0:0:0:
232,336,93929,1,8,0:0:0:0:
400,240,94136,1,2,0:3:0:0:
232,336,94344,5,2,0:0:0:0:
212,284,94447,1,0,0:0:0:0:
232,232,94551,1,2,0:3:0:0:
280,204,94654,1,0,0:0:0:0:
392,156,94757,1,8,0:0:0:0:
412,104,94860,1,0,0:0:0:0:
392,52,94964,1,2,0:3:0:0:
344,24,95067,1,0,0:0:0:0:
176,72,95171,5,2,0:0:0:0:
128,100,95274,1,0,0:0:0:0:
108,152,95378,1,2,0:3:0:0:
128,204,95481,1,0,0:0:0:0:
240,252,95585,2,0,L|288:256,1,48,8|0,0:0|0:0,0:0:0:0:
120,304,95791,2,0,L|72:308,1,48,2|0,0:3|0:0,0:0:0:0:
240,356,95998,6,0,L|336:348,1,96,6|2,0:0|0:3,0:0:0:0:
504,252,96412,2,0,L|408:244,1,96,8|2,0:0|0:3,0:0:0:0:
292,148,96826,2,0,L|284:52,1,96,2|2,0:0|0:3,0:0:0:0:
452,236,97240,2,0,L|460:140,1,96,8|2,0:0|0:3,0:0:0:0:
404,136,97550,1,2,0:3:0:0:
244,336,97654,6,0,P|140:256|136:204,1,192,2|8,0:0|0:0,0:0:0:0:
304,108,98274,1,2,0:3:0:0:
136,12,98481,1,10,0:1:0:0:
232,108,98688,2,0,L|280:112,1,48,2|8,0:3|0:1,0:0:0:0:
16,208,98998,2,0,L|64:212,1,48,0|10,0:0|0:3,0:0:0:0:
340,308,99309,6,0,P|396:264|340:180,1,192,2|8,0:0|0:0,0:0:0:0:
244,172,99929,1,2,0:3:0:0:
412,268,100136,2,0,L|420:172,1,96,2|2,0:0|0:3,0:0:0:0:
308,124,100447,2,0,L|300:28,1,96,0|0,0:0|0:0,0:0:0:0:
356,32,100757,1,2,0:3:0:0:
84,224,100964,6,0,L|76:128,1,96,2|2,0:0|0:3,0:0:0:0:
188,80,101274,2,0,L|284:72,1,96,0|0,0:0|0:0,0:0:0:0:
288,24,101585,1,2,0:3:0:0:
16,312,101791,1,2,0:0:0:0:
112,308,101998,2,0,L|120:276,3,32,2|0|0|8,0:3|0:0|0:0|0:0,0:0:0:0:
24,272,102412,1,2,0:3:0:0:
288,176,102619,6,0,L|192:172,1,96,6|2,0:0|0:3,0:0:0:0:
80,220,102929,2,0,L|76:124,1,96,0|0,0:0|0:0,0:0:0:0:
132,120,103240,1,2,0:3:0:0:
300,312,103447,2,0,L|304:216,1,96,2|10,0:0|0:1,0:0:0:0:
136,120,103860,2,0,L|40:116,1,96,8|2,0:0|0:3,0:0:0:0:
304,20,104274,6,0,L|400:24,1,96,6|2,0:0|0:3,0:0:0:0:
288,72,104585,2,0,L|192:76,1,96,0|0,0:0|0:0,0:0:0:0:
248,80,104895,1,2,0:3:0:0:
416,176,105102,1,2,0:0:0:0:
320,180,105309,2,0,L|272:184,1,48,10|0,0:1|0:0,0:0:0:0:
440,284,105619,2,0,L|392:288,1,48,8|2,0:1|0:3,0:0:0:0:
128,384,105929,6,0,L|224:380,1,96,6|2,0:0|0:3,0:0:0:0:
336,332,106240,2,0,L|432:328,1,96,0|0,0:0|0:0,0:0:0:0:
376,324,106550,1,2,0:3:0:0:
112,228,106757,2,0,L|16:224,1,96,6|2,0:0|0:3,0:0:0:0:
184,128,107171,1,8,0:0:0:0:
352,32,107378,2,0,L|304:28,1,48,2|2,0:3|0:3,0:0:0:0:
132,76,107585,5,6,0:0:0:0:
256,192,107791,12,2,109033,0:0:0:0:
256,280,109240,6,0,L|252:184,1,96,6|2,0:0|0:3,0:0:0:0:
364,136,109550,2,0,L|460:132,1,96,10|0,0:1|0:0,0:0:0:0:
412,128,109860,1,10,0:1:0:0:
244,224,110067,2,0,L|148:220,1,96,2|2,0:0|0:3,0:0:0:0:
316,124,110481,1,12,0:1:0:0:
148,28,110688,1,2,0:3:0:0:
412,316,110895,6,0,L|416:220,1,96,2|6,0:0|0:3,0:0:0:0:
304,172,111205,2,0,L|208:168,1,96,2|0,0:0|0:0,0:0:0:0:
204,120,111516,1,2,0:0:0:0:
372,24,111722,2,0,L|468:28,1,96,2|0,0:0|0:0,0:0:0:0:
204,316,112136,2,0,L|108:312,1,96,8|0,0:0|0:0,0:0:0:0:
372,216,112550,6,0,L|276:212,1,96,4|2,0:0|0:3,0:0:0:0:
144,164,112860,2,0,L|48:160,1,96,10|0,0:1|0:0,0:0:0:0:
96,156,113171,1,10,0:1:0:0:
264,252,113378,2,0,L|268:156,1,96,2|2,0:0|0:3,0:0:0:0:
100,348,113791,2,0,L|96:252,1,96,12|2,0:1|0:3,0:0:0:0:
360,60,114205,6,0,L|456:64,1,96,2|6,0:0|0:3,0:0:0:0:
344,112,114516,2,0,L|248:116,1,96,2|0,0:0|0:0,0:0:0:0:
296,120,114826,1,2,0:0:0:0:
464,216,115033,2,0,L|368:220,1,96,2|0,0:0|0:0,0:0:0:0:
200,316,115447,1,12,0:0:0:0:
464,220,115654,1,0,0:0:0:0:
200,124,115860,5,4,0:0:0:0:
256,192,116067,12,0,117516,0:0:0:0:
