osu file format v14

[General]
AudioFilename: audio.mp3
AudioLeadIn: 0
PreviewTime: 69516
Countdown: 0
SampleSet: Soft
StackLeniency: 0.7
Mode: 2
LetterboxInBreaks: 0
WidescreenStoryboard: 0

[Editor]
DistanceSpacing: 1
BeatDivisor: 4
GridSize: 4
TimelineZoom: 1.4

[Metadata]
Title:ever snow
TitleUnicode:ever snow
Artist:TERRA
ArtistUnicode:TЁЯRA
Creator:autofanboy
Version:cup
Source:DanceDanceRevolution
Tags:AFB alienflybot Yoma Komatsu 小松代真 jun Junko Karashima 辛島純子 Naoki Maeda 前田尚紀 DDR hottest party4 partyfour X3 VS 2ndMIX SecondMIX RЁVOLUTIØN REVOLUTION BEMANI Video Game Japanese Electronic cover
BeatmapID:3376125
BeatmapSetID:1654021

[Difficulty]
HPDrainRate:3
CircleSize:3.5
OverallDifficulty:5.5
ApproachRate:5.5
SliderMultiplier:1.28
SliderTickRate:1

[Events]
//Background and Video events
0,0,"merrychristmas.jpg",0,0
//Break Periods
//Storyboard Layer 0 (Background)
//Storyboard Layer 1 (Fail)
//Storyboard Layer 2 (Pass)
//Storyboard Layer 3 (Foreground)
//Storyboard Layer 4 (Overlay)
//Storyboard Sound Samples

[TimingPoints]
1654,413.793103448276,4,2,1,30,1,0
2067,-100,4,2,12,30,0,0
2481,-100,4,2,3,30,0,0
3722,-100,4,2,12,30,0,0
3929,-100,4,2,3,30,0,0
4136,-100,4,2,13,30,0,0
4550,-100,4,2,3,30,0,0
7447,-100,4,2,3,15,0,0
7860,-100,4,2,1,30,0,0
8274,-100,4,2,1,50,0,0
14067,-100,4,2,2,50,0,0
14895,-100,4,2,1,10,0,0
16550,-100,4,2,1,70,0,0
17791,-100,4,2,3,70,0,0
17998,-100,4,2,1,70,0,0
18412,-100,4,2,3,70,0,0
18619,-100,4,2,1,70,0,0
22343,-100,4,2,2,70,0,0
23171,-100,4,2,1,70,0,0
24412,-100,4,2,3,70,0,0
24619,-100,4,2,1,70,0,0
25033,-100,4,2,3,70,0,0
25240,-100,4,2,1,70,0,0
27722,-100,4,2,3,70,0,0
27929,-100,4,2,1,70,0,0
28343,-100,4,2,3,70,0,0
28447,-100,4,2,1,70,0,0
28964,-100,4,2,2,70,0,0
29791,-100,4,2,1,50,0,0
42205,-100,4,2,2,50,0,0
43033,-100,4,2,1,60,0,0
43447,-100,4,2,3,60,0,0
43654,-100,4,2,1,60,0,0
44067,-100,4,2,3,60,0,0
44274,-100,4,2,1,60,0,0
45102,-100,4,2,3,60,0,0
45309,-100,4,2,1,60,0,0
45722,-100,4,2,3,60,0,0
45929,-100,4,2,1,60,0,0
48412,-100,4,1,11,60,0,0
48826,-100,4,2,1,60,0,0
49654,-100,4,2,1,70,0,0
53998,-100,4,2,2,70,0,0
54619,-100,4,2,1,70,0,0
55654,-100,4,2,1,10,0,0
56274,-100,4,2,1,30,0,0
56895,-100,4,2,3,30,0,0
57102,-100,4,2,1,30,0,0
57929,-100,4,2,3,30,0,0
58136,-100,4,2,1,30,0,0
58550,-100,4,2,3,30,0,0
58757,-100,4,2,1,30,0,0
59171,-100,4,2,3,30,0,0
59378,-100,4,2,1,30,0,0
59585,-100,4,2,3,30,0,0
59791,-100,4,2,1,30,0,0
60412,-100,4,2,3,30,0,0
60619,-100,4,2,1,30,0,0
61240,-100,4,2,3,30,0,0
62067,-100,4,2,1,15,0,0
62481,-100,4,2,1,30,0,0
62895,-100,4,2,1,50,0,0
68688,-100,4,2,2,60,0,0
69516,-100,4,2,1,70,0,1
71585,-100,4,1,11,70,0,1
71791,-100,4,2,1,70,0,1
71998,-100,4,2,11,70,0,1
72412,-100,4,2,1,70,0,1
81826,-100,4,2,2,60,0,1
81929,-100,4,2,2,60,0,0
82240,-100,4,2,1,60,0,0
82343,-100,4,2,2,60,0,0
82757,-100,4,2,1,80,0,1
84412,-100,4,2,2,80,0,1
84619,-100,4,2,1,80,0,1
84826,-100,4,1,11,80,0,1
85033,-100,4,2,1,80,0,1
85240,-100,4,2,11,80,0,1
85654,-100,4,2,1,80,0,1
86067,-100,4,2,2,80,0,1
86274,-100,4,2,1,80,0,1
86895,-100,4,2,2,80,0,1
87102,-100,4,2,1,80,0,1
87722,-100,4,2,2,80,0,1
87929,-100,4,2,1,80,0,1
95067,-100,4,2,2,60,0,1
95171,-100,4,2,2,60,0,0
95998,-100,4,2,1,90,0,1
98067,-100,4,1,11,90,0,1
98274,-100,4,2,1,90,0,1
98481,-100,4,2,11,90,0,1
98895,-100,4,2,1,90,0,1
101791,-100,4,2,2,90,0,1
102412,-100,4,2,1,90,0,1
107171,-100,4,2,1,90,0,0
107585,-100,4,2,1,90,0,1
107791,-100,4,2,1,70,0,0
107998,-100,4,2,1,45,0,0
108412,-100,4,2,1,15,0,0
108826,-100,4,2,1,30,0,0
109240,-100,4,2,1,70,0,0
110481,-100,4,2,3,70,0,0
110895,-100,4,2,1,70,0,0
111722,-100,4,2,2,70,0,0
112550,-100,4,2,1,70,0,0
113791,-100,4,2,3,70,0,0
114205,-100,4,2,1,70,0,0
115033,-100,4,2,2,70,0,0
115860,-100,4,2,4,70,0,1
116067,-100,4,2,1,70,0,0
116274,-100,4,3,3,50,0,0
116688,-100,4,3,3,25,0,0
117102,-100,4,3,3,5,0,0

[Colours]
Combo1 : 255,249,128
Combo2 : 78,241,217
Combo3 : 128,226,255
Combo4 : 251,132,158

[HitObjects]
256,296,1654,6,0,P|176:280|256:192,1,256,4|4,0:0|0:0,0:0:0:0:
384,184,2895,1,2,0:0:0:0:
224,88,3309,6,0,L|32:76,2,192,0|0|2,0:0|0:0|0:0,0:0:0:0:
416,184,4964,6,0,L|424:56,1,128,4|2,0:0|0:0,0:0:0:0:
264,248,5791,2,0,L|256:120,1,128,4|2,0:0|0:0,0:0:0:0:
448,312,6619,5,4,0:0:0:0:
256,192,7033,12,2,7860,0:0:0:0:
104,312,8274,6,0,L|96:184,1,128,6|8,0:0|0:0,0:0:0:0:
256,120,9102,2,0,L|128:112,1,128,2|8,0:0|0:0,0:0:0:0:
288,48,9929,6,0,L|416:40,2,128,2|8|10,0:0|0:0|0:1,0:0:0:0:
208,112,10964,2,0,L|204:16,1,96,10|8,0:1|0:1,0:0:0:0:
348,272,11585,6,0,L|476:264,1,128,6|8,0:0|0:0,0:0:0:0:
284,136,12412,2,0,L|156:128,1,128,6|8,0:0|0:0,0:0:0:0:
348,0,13240,5,6,0:0:0:0:
456,44,13654,1,8,0:0:0:0:
500,152,14067,1,2,0:0:0:0:
456,260,14481,1,8,0:0:0:0:
348,304,14895,6,0,L|340:176,1,128,0|0,0:0|0:0,0:0:0:0:
212,48,15722,2,0,L|116:44,2,96,0|0|0,0:0|0:0|0:0,0:0:0:0:
292,112,16550,6,0,L|388:108,2,96,6|10|10,0:0|0:1|0:1,0:0:0:0:
100,304,17791,6,0,L|92:176,1,128,12|2,0:1|0:0,0:0:0:0:
252,48,18619,2,0,L|380:40,2,128,8|2|8,0:0|0:0|0:0,0:0:0:0:
412,368,19860,6,0,L|420:240,1,128,2|8,0:0|0:0,0:0:0:0:
260,112,20688,2,0,L|132:104,1,128,10|8,0:1|0:0,0:0:0:0:
292,232,21516,6,0,L|300:104,1,128,2|8,0:0|0:0,0:0:0:0:
108,360,22343,2,0,L|44:356,2,64,6|0|12,0:0|0:0|0:0,0:0:0:0:
268,232,23171,6,0,L|272:136,1,96,10|10,0:1|0:1,0:0:0:0:
176,132,23791,1,10,0:1:0:0:
416,324,24412,6,0,L|424:196,1,128,12|2,0:1|0:0,0:0:0:0:
296,188,25240,1,8,0:0:0:0:
168,180,25654,2,0,L|160:52,1,128,2|8,0:0|0:0,0:0:0:0:
320,308,26481,6,0,L|416:304,2,96,10|10|10,0:1|0:1|0:1,0:0:0:0:
80,244,27722,6,0,L|72:116,1,128,12|2,0:1|0:0,0:0:0:0:
200,124,28550,1,8,0:0:0:0:
328,132,28964,2,0,L|332:68,1,64,6|0,0:0|0:0,0:0:0:0:
252,72,29378,2,0,L|248:8,1,64,12|0,0:0|0:0,0:0:0:0:
328,4,29791,6,0,L|456:12,1,128,6|8,0:0|0:0,0:0:0:0:
328,204,30619,2,0,L|320:76,1,128,2|8,0:0|0:0,0:0:0:0:
160,268,31447,6,0,L|64:264,2,96,2|2|2,0:0|0:0|0:0,0:0:0:0:
240,332,32274,2,0,L|248:204,1,128,2|8,0:0|0:0,0:0:0:0:
88,76,33102,6,0,L|184:72,2,96,2|2|2,0:0|0:0|0:3,0:0:0:0:
280,268,34343,1,8,0:0:0:0:
152,260,34757,6,0,L|56:256,2,96,2|2|2,0:0|0:0|0:3,0:0:0:0:
232,196,35585,2,0,L|240:68,1,128,2|8,0:0|0:0,0:0:0:0:
48,324,36412,6,0,L|40:196,1,128,6|8,0:0|0:0,0:0:0:0:
168,68,37240,2,0,L|40:60,1,128,2|8,0:0|0:0,0:0:0:0:
200,188,38067,6,0,L|296:184,2,96,2|2|2,0:0|0:0|0:3,0:0:0:0:
280,252,38895,2,0,L|408:244,1,128,2|8,0:0|0:0,0:0:0:0:
248,372,39722,5,2,0:0:0:0:
168,340,40033,1,2,0:0:0:0:
136,260,40343,1,2,0:3:0:0:
168,180,40653,1,2,0:0:0:0:
248,148,40964,1,8,0:0:0:0:
408,20,41378,6,0,L|504:16,2,96,2|2|2,0:0|0:0|0:3,0:0:0:0:
328,84,42205,2,0,L|200:76,1,128,2|8,0:0|0:0,0:0:0:0:
392,332,43033,6,0,L|400:204,1,128,6|12,0:0|0:1,0:0:0:0:
208,140,44067,1,6,0:3:0:0:
400,76,44688,6,0,L|272:68,1,128,2|12,0:0|0:1,0:0:0:0:
80,4,45722,1,6,0:3:0:0:
320,260,46343,6,0,L|328:132,1,128,2|8,0:0|0:0,0:0:0:0:
200,196,47171,2,0,L|192:68,1,128,2|8,0:0|0:0,0:0:0:0:
352,4,47998,6,0,P|432:20|352:108,1,256,2|2,0:0|0:0,0:0:0:0:
288,112,49033,1,2,0:3:0:0:
224,116,49240,1,8,0:0:0:0:
416,372,49654,6,0,L|424:244,1,128,6|8,0:0|0:0,0:0:0:0:
264,116,50481,2,0,L|392:108,1,128,2|8,0:0|0:0,0:0:0:0:
200,236,51309,6,0,L|72:228,1,128,6|8,0:0|0:0,0:0:0:0:
232,356,52136,2,0,L|240:228,1,128,2|8,0:0|0:0,0:0:0:0:
160,224,52757,1,2,0:3:0:0:
80,220,52964,6,0,L|72:92,1,128,6|8,0:0|0:0,0:0:0:0:
232,28,53791,2,0,L|360:36,1,128,2|8,0:0|0:0,0:0:0:0:
280,40,54412,1,2,0:3:0:0:
200,44,54619,6,0,L|104:48,2,96,2|2|2,0:0|0:0|0:0,0:0:0:0:
440,236,55860,1,0,0:0:0:0:
256,364,56274,6,0,P|176:348|256:260,1,256,4|0,0:0|0:0,0:0:0:0:
384,252,57516,1,2,0:0:0:0:
224,124,57929,6,0,L|416:112,2,192,4|4|4,0:0|0:0|0:0,0:0:0:0:
352,252,59585,6,0,L|96:236,1,256,4|4,0:0|0:0,0:0:0:0:
192,232,60722,2,0,L|196:136,1,96,2|2,0:0|0:0,0:0:0:0:
116,72,61240,5,4,0:0:0:0:
256,192,61654,12,2,62481,0:0:0:0:
216,320,62895,6,0,L|120:316,2,96,6|0|2,0:0|0:0|0:3,0:0:0:0:
296,384,63722,2,0,L|304:256,1,128,2|8,0:0|0:0,0:0:0:0:
144,128,64550,6,0,L|240:124,2,96,2|0|2,0:0|0:0|0:3,0:0:0:0:
64,192,65378,2,0,L|56:64,1,128,2|8,0:0|0:0,0:0:0:0:
216,192,66205,6,0,L|312:188,2,96,2|0|2,0:0|0:0|0:3,0:0:0:0:
296,256,67033,2,0,L|424:248,1,128,2|8,0:0|0:0,0:0:0:0:
344,244,67654,1,2,0:3:0:0:
264,240,67860,6,0,L|256:112,1,128,2|8,0:0|0:0,0:0:0:0:
416,368,68688,2,0,L|480:364,1,64,2|2,0:0|0:3,0:0:0:0:
400,300,69102,2,0,L|336:296,1,64,8|2,0:0|0:3,0:0:0:0:
416,232,69516,6,0,L|424:104,1,128,6|8,0:0|0:0,0:0:0:0:
264,232,70343,2,0,L|136:224,1,128,2|8,0:0|0:0,0:0:0:0:
296,96,71171,6,0,L|488:84,2,192,2|2|8,0:0|0:3|0:0,0:0:0:0:
136,224,72826,6,0,L|128:96,1,128,2|8,0:0|0:0,0:0:0:0:
256,352,73654,2,0,L|352:348,2,96,2|0|2,0:0|0:0|0:3,0:0:0:0:
176,288,74481,6,0,L|80:284,2,96,2|0|2,0:0|0:0|0:3,0:0:0:0:
256,224,75309,2,0,L|264:96,1,128,2|8,0:0|0:0,0:0:0:0:
72,352,76136,6,0,L|64:224,1,128,6|8,0:0|0:0,0:0:0:0:
224,96,76964,1,2,0:0:0:0:
160,92,77171,1,10,0:1:0:0:
96,88,77378,1,8,0:0:0:0:
248,216,77791,6,0,L|376:208,1,128,6|8,0:0|0:0,0:0:0:0:
216,80,78619,2,0,L|152:76,2,64,2|10|8,0:0|0:1|0:0,0:0:0:0:
408,336,79447,6,0,L|416:208,1,128,6|8,0:0|0:0,0:0:0:0:
336,204,80067,1,2,0:3:0:0:
256,268,80274,2,0,L|256:140,1,128,6|8,0:0|0:0,0:0:0:0:
176,136,80895,1,2,0:3:0:0:
96,200,81102,6,0,L|88:72,1,128,6|8,0:0|0:0,0:0:0:0:
248,328,81929,2,0,L|376:320,1,128,2|8,0:0|0:0,0:0:0:0:
296,316,82550,1,2,0:3:0:0:
216,312,82757,6,0,L|208:184,1,128,6|8,0:0|0:0,0:0:0:0:
368,56,83585,2,0,L|240:48,1,128,2|8,0:0|0:0,0:0:0:0:
80,176,84412,6,0,L|272:164,2,192,6|2|8,1:0|0:3|0:0,0:0:0:0:
240,304,86067,6,0,L|248:176,1,128,6|8,1:0|0:0,0:0:0:0:
120,48,86895,2,0,L|24:44,2,96,6|0|2,1:0|0:0|0:3,0:0:0:0:
200,112,87722,6,0,L|328:104,1,128,6|8,1:0|0:0,0:0:0:0:
168,232,88550,2,0,L|104:228,2,64,2|2|8,0:0|0:3|0:0,0:0:0:0:
360,360,89378,6,0,L|368:232,1,128,6|8,0:0|0:0,0:0:0:0:
208,104,90205,1,2,0:0:0:0:
272,100,90412,1,10,0:1:0:0:
336,96,90619,1,8,0:0:0:0:
176,288,91033,6,0,L|168:160,1,128,2|8,0:0|0:0,0:0:0:0:
328,32,91860,2,0,L|392:28,2,64,2|10|8,0:0|0:1|0:0,0:0:0:0:
168,160,92688,6,0,L|40:152,1,128,2|8,0:0|0:0,0:0:0:0:
200,280,93516,2,0,L|328:272,1,128,2|8,0:0|0:0,0:0:0:0:
248,268,94136,1,2,0:3:0:0:
168,264,94343,6,0,L|296:256,1,128,2|8,0:0|0:0,0:0:0:0:
456,192,95171,1,2,0:0:0:0:
484,132,95377,1,2,0:3:0:0:
456,72,95584,1,8,0:0:0:0:
392,40,95791,1,2,0:3:0:0:
312,104,95998,6,0,L|184:96,1,128,6|8,0:0|0:0,0:0:0:0:
344,352,96826,2,0,L|352:224,1,128,2|8,0:0|0:0,0:0:0:0:
192,96,97654,6,0,L|0:84,2,192,2|0|8,0:0|0:0|0:0,0:0:0:0:
352,224,99309,6,0,L|360:96,1,128,2|8,0:0|0:0,0:0:0:0:
168,352,100136,1,2,0:0:0:0:
264,348,100447,2,0,L|268:252,1,96,0|2,0:0|0:3,0:0:0:0:
188,248,100964,5,2,0:0:0:0:
92,244,101274,2,0,L|88:148,1,96,0|2,0:0|0:3,0:0:0:0:
168,84,101791,2,0,L|296:76,1,128,2|8,0:0|0:0,0:0:0:0:
488,204,102619,6,0,L|496:76,1,128,6|8,0:0|0:0,0:0:0:0:
336,332,103447,1,2,0:0:0:0:
272,328,103654,1,10,0:1:0:0:
208,324,103860,1,8,0:0:0:0:
400,196,104274,6,0,L|272:188,1,128,6|8,0:0|0:0,0:0:0:0:
112,316,105102,1,2,0:0:0:0:
108,252,105309,1,10,0:1:0:0:
104,188,105516,1,8,0:0:0:0:
296,60,105929,6,0,L|424:52,1,128,6|8,0:0|0:0,0:0:0:0:
264,308,106757,2,0,L|136:300,1,128,6|8,0:0|0:0,0:0:0:0:
328,172,107585,5,6,0:0:0:0:
256,192,107998,12,8,108826,0:0:0:0:
284,320,109240,6,0,L|380:316,2,96,6|10|10,0:0|0:1|0:1,0:0:0:0:
92,128,110481,1,12,0:1:0:0:
252,256,110895,6,0,L|260:128,1,128,2|8,0:0|0:0,0:0:0:0:
100,384,111722,1,2,0:0:0:0:
96,320,111928,1,0,0:0:0:0:
92,256,112135,1,8,0:0:0:0:
284,128,112550,6,0,L|188:124,2,96,4|10|10,0:0|0:1|0:1,0:0:0:0:
476,320,113791,1,12,0:1:0:0:
316,192,114205,6,0,L|412:188,2,96,2|2|2,0:0|0:0|0:0,0:0:0:0:
236,256,115033,2,0,L|228:128,1,128,2|12,0:0|0:0,0:0:0:0:
308,124,115654,1,0,0:0:0:0:
388,120,115860,5,4,0:0:0:0:
256,192,116274,12,0,117516,0:0:0:0:
