osu file format v14

[General]
AudioFilename: audio.mp3
AudioLeadIn: 0
PreviewTime: 50980
Countdown: 0
SampleSet: None
StackLeniency: 0.3
Mode: 0
LetterboxInBreaks: 0
WidescreenStoryboard: 0

[Editor]
Bookmarks: 1266,14123,20980,38123,51837,79266,91266,98980,100694
DistanceSpacing: 0.7
BeatDivisor: 4
GridSize: 4
TimelineZoom: 2.3

[Metadata]
Title:Marchen
TitleUnicode:Märchen
Artist:TERRA
ArtistUnicode:TЁЯRA
Creator:vita2
Version:Dance of Eternal Night
Source:
Tags:
BeatmapID:4537621
BeatmapSetID:2153540

[Difficulty]
HPDrainRate:5
CircleSize:4
OverallDifficulty:8.8
ApproachRate:9.3
SliderMultiplier:1.8
SliderTickRate:1

[Events]
//Background and Video events
0,0,"31.png",0,0
//Break Periods
//Storyboard Layer 0 (Background)
//Storyboard Layer 1 (Fail)
//Storyboard Layer 2 (Pass)
//Storyboard Layer 3 (Foreground)
//Storyboard Layer 4 (Overlay)
//Storyboard Sound Samples

[TimingPoints]
409,285.714285714286,3,2,0,66,1,0
694,-200,3,2,0,66,0,0
980,-166.666666666667,3,2,0,66,0,0
1266,-100,3,2,0,66,0,0
13266,-250,3,2,0,66,0,0
13551,-142.857142857143,3,2,0,66,0,0
13837,-250,3,2,0,66,0,0
14123,-100,3,2,0,66,0,0
20694,-125,3,2,0,66,0,0
20980,-111.111111111111,3,2,0,66,0,0
27837,-105.263157894737,3,2,0,66,0,0
35551,-99.9999999999999,3,2,0,66,0,0
37551,-125,3,2,0,66,0,0
38123,-100,3,2,0,66,0,0
50980,-200,3,2,0,66,0,0
51837,-95.2380952380952,3,2,0,66,0,0
79266,-1000,3,2,0,66,0,0
81266,-333.333333333333,3,2,0,66,0,0
82694,-200,3,2,0,66,0,0
85266,-142.857142857143,3,2,0,66,0,0
85837,-222.222222222222,3,2,0,66,0,0
86123,-100,3,2,0,66,0,0
91266,-111.111111111111,3,2,0,66,0,0
94694,-100,3,2,0,66,0,0
98980,-400,3,2,0,66,0,0

[Colours]
Combo1 : 235,190,250
Combo2 : 162,211,249
Combo3 : 168,255,164
Combo4 : 255,120,113

[HitObjects]
187,310,694,6,0,P|146:298|139:297,1,45
149,220,980,6,0,P|123:224|97:232,1,53.9999983520508
183,120,1266,6,0,B|242:97|277:156|250:134|290:196|351:170,1,180
391,93,1694,1,0,0:0:0:0:
384,103,1837,2,0,P|379:45|375:8,1,90
512,99,2123,6,0,P|505:155|488:283,2,180
475,359,2980,1,0,0:0:0:0:
475,359,3266,5,0,0:0:0:0:
507,293,3409,1,0,0:0:0:0:
374,225,3551,5,0,0:0:0:0:
398,293,3694,1,0,0:0:0:0:
504,171,3837,6,0,P|464:129|455:85,1,90
318,112,4123,2,0,P|348:62|383:35,1,90
439,0,4409,2,0,P|424:63|417:103,1,90
298,207,4694,6,0,B|251:224|169:246|169:246|187:268|212:249,1,180
276,299,5123,1,0,0:0:0:0:
204,144,5266,2,0,P|195:91|187:44,1,90
36,4,5551,6,0,P|12:51|27:104,1,90
95,229,5837,2,0,P|104:175|110:130,1,90
217,40,6123,2,0,P|273:49|294:81,1,90
498,224,6409,6,0,P|423:208|283:193,2,180
498,224,7266,6,0,P|446:226|415:250,1,90
353,350,7551,2,0,P|313:337|291:284,1,90
400,71,7837,1,0,0:0:0:0:
346,124,7980,1,0,0:0:0:0:
283,4,8123,6,0,P|293:73|388:113,1,180
278,174,8551,1,0,0:0:0:0:
266,188,8694,2,0,P|207:179|155:170,1,90
50,311,8980,6,0,P|40:233|24:121,2,180
82,33,9837,2,0,P|111:71|112:118,1,90
51,243,10123,5,0,0:0:0:0:
122,211,10266,1,0,0:0:0:0:
196,344,10409,5,0,0:0:0:0:
129,316,10551,1,0,0:0:0:0:
295,273,10694,6,0,B|345:254|398:310|353:284|407:356|463:336,1,180
512,251,11123,1,0,0:0:0:0:
478,106,11266,2,0,P|469:150|457:195,1,90
308,0,11551,6,0,P|333:59|362:176,1,180
278,260,11980,1,0,0:0:0:0:
143,165,12123,2,0,P|188:172|231:184,1,90
325,356,12409,5,0,0:0:0:0:
512,190,12694,5,0,0:0:0:0:
476,44,12980,5,0,0:0:0:0:
476,44,13266,6,0,L|483:-3,1,36
405,114,13551,2,0,L|342:95,1,62.9999980773926
398,34,13837,2,0,L|378:-8,1,36
512,239,14123,5,0,0:0:0:0:
387,319,14266,1,0,0:0:0:0:
323,260,14409,1,0,0:0:0:0:
469,358,14551,1,0,0:0:0:0:
404,183,14694,1,0,0:0:0:0:
308,245,14837,1,0,0:0:0:0:
193,165,14980,5,0,0:0:0:0:
65,200,15123,1,0,0:0:0:0:
0,123,15266,1,0,0:0:0:0:
117,268,15409,1,0,0:0:0:0:
184,37,15551,1,0,0:0:0:0:
110,82,15694,1,0,0:0:0:0:
266,186,15837,5,0,0:0:0:0:
364,141,15980,1,0,0:0:0:0:
391,213,16123,1,0,0:0:0:0:
275,108,16266,1,0,0:0:0:0:
435,0,16409,1,0,0:0:0:0:
512,156,16551,1,0,0:0:0:0:
511,54,16694,5,0,0:0:0:0:
443,79,16837,1,0,0:0:0:0:
512,250,16980,2,0,P|460:224|407:217,1,90
284,22,17266,2,0,P|277:77|272:123,1,90
229,367,17551,5,0,0:0:0:0:
182,292,17694,1,0,0:0:0:0:
298,200,17837,1,0,0:0:0:0:
141,110,17980,1,0,0:0:0:0:
270,280,18123,1,0,0:0:0:0:
116,346,18266,1,0,0:0:0:0:
153,200,18409,5,0,0:0:0:0:
76,162,18551,1,0,0:0:0:0:
124,0,18694,1,0,0:0:0:0:
230,94,18837,1,0,0:0:0:0:
355,49,18980,1,0,0:0:0:0:
279,9,19123,1,0,0:0:0:0:
360,162,19266,5,0,0:0:0:0:
439,127,19409,1,0,0:0:0:0:
512,270,19551,1,0,0:0:0:0:
292,223,19694,1,0,0:0:0:0:
406,363,19837,1,0,0:0:0:0:
508,172,19980,1,0,0:0:0:0:
336,62,20123,6,0,P|289:48|248:43,1,90
292,223,20409,2,0,P|220:233|121:266,1,135
160,250,20694,6,0,B|169:287|169:287|183:334,1,72
0,355,20980,6,0,P|12:291|23:185,1,161.999995056153
0,112,21409,1,0,0:0:0:0:
122,0,21551,2,0,P|120:40|103:76,1,80.9999975280763
21,194,21837,2,0,P|61:202|100:215,1,80.9999975280763
203,192,22123,2,0,P|200:148|170:112,1,80.9999975280763
298,47,22409,2,0,P|290:94|282:138,1,80.9999975280763
176,300,22694,6,0,B|214:289|259:324|236:315|284:369|337:355,1,161.999995056153
403,296,23123,1,0,0:0:0:0:
359,169,23266,2,0,P|339:204|340:244,1,80.9999975280763
498,365,23551,2,0,P|490:273|482:194,1,161.999995056153
483,203,24123,1,0,0:0:0:0:
512,130,24266,1,0,0:0:0:0:
317,0,24409,6,0,P|357:28|367:67,1,80.9999975280763
265,174,24694,2,0,P|275:130|284:88,1,80.9999975280763
213,45,24980,2,0,P|168:56|143:86,1,80.9999975280763
6,209,25266,2,0,P|58:228|138:252,1,121.499996292114
122,255,25551,2,0,P|172:248|211:239,1,80.9999975280763
311,360,25837,2,0,P|275:328|227:335,1,80.9999975280763
429,265,26123,6,0,P|410:186|394:106,1,161.999995056153
493,147,26551,1,0,0:0:0:0:
492,0,26694,2,0,P|465:37|466:76,1,80.9999975280763
318,50,26980,1,0,0:0:0:0:
411,162,27123,5,0,0:0:0:0:
351,224,27266,1,0,0:0:0:0:
407,272,27409,1,0,0:0:0:0:
227,363,27551,5,0,0:0:0:0:
247,287,27694,1,0,0:0:0:0:
89,147,27837,6,0,P|103:233|117:333,1,170.999995433807
21,263,28266,1,0,0:0:0:0:
197,175,28409,2,0,P|226:173|278:209,1,85.4999977169037
365,82,28694,2,0,P|372:32|373:-17,1,85.4999977169037
512,126,28980,2,0,P|482:152|437:157,1,85.4999977169037
206,62,29266,2,0,P|257:48|299:39,1,85.4999977169037
352,185,29551,2,0,P|373:218|373:263,1,85.4999977169037
267,372,29837,5,0,0:0:0:0:
203,333,29980,1,0,0:0:0:0:
221,215,30123,1,0,0:0:0:0:
68,336,30266,1,0,0:0:0:0:
0,132,30409,6,0,B|47:108|118:105|118:105|126:95|126:95|121:88|88:87,1,170.999995433807
7,19,30837,1,0,0:0:0:0:
121,194,30980,2,0,P|128:238|136:288,1,85.4999977169037
268,125,31266,6,0,B|312:109|357:144|334:135|382:189|438:158,1,170.999995433807
512,117,31694,1,0,0:0:0:0:
457,0,31837,2,0,P|447:48|436:84,1,85.4999977169037
438,237,32123,2,0,P|484:207|526:204,1,85.4999977169037
343,362,32409,2,0,P|350:318|357:271,1,85.4999977169037
264,171,32694,2,0,P|226:238|252:284,1,128.249996575356
246,255,32980,6,0,P|188:238|155:230,1,85.4999977169037
133,22,33266,2,0,P|137:62|145:108,1,85.4999977169037
0,212,33551,2,0,P|57:198|88:162,1,85.4999977169037
256,73,33837,5,0,0:0:0:0:
392,216,33980,1,0,0:0:0:0:
503,155,34123,1,0,0:0:0:0:
404,83,34266,1,0,0:0:0:0:
327,142,34409,1,0,0:0:0:0:
392,216,34551,1,0,0:0:0:0:
307,318,34694,5,0,0:0:0:0:
161,253,34837,1,0,0:0:0:0:
97,302,34980,1,0,0:0:0:0:
2,213,35123,1,0,0:0:0:0:
184,367,35266,1,0,0:0:0:0:
258,236,35409,1,0,0:0:0:0:
169,16,35551,6,0,P|135:64|143:143,1,135
205,167,35837,2,0,P|162:150|112:142,1,90
94,302,36123,2,0,P|47:309|2:332,1,90
350,364,36409,6,0,P|344:316|334:272,1,90
441,138,36694,2,0,P|444:184|427:226,1,90
342,350,36980,2,0,P|340:301|334:256,1,90
474,27,37266,2,0,P|510:71|510:114,1,90
354,173,37551,6,0,P|304:161|259:156,1,72
207,215,37837,2,0,P|160:222|122:232,1,72
0,2,38123,6,0,P|12:91|29:179,1,180
11,361,38551,1,0,0:0:0:0:
109,265,38694,1,0,0:0:0:0:
159,335,38837,1,0,0:0:0:0:
233,196,38980,1,0,0:0:0:0:
94,281,39123,1,0,0:0:0:0:
234,360,39266,1,0,0:0:0:0:
194,267,39409,1,0,0:0:0:0:
312,304,39551,2,0,P|366:310|416:319,1,90
512,90,39837,6,0,P|478:126|480:250,1,180
360,177,40266,1,0,0:0:0:0:
385,0,40409,2,0,P|389:57|396:101,1,90
283,230,40694,2,0,P|238:223|201:198,1,90
0,13,40980,2,0,B|56:21|150:43,1,135
202,0,41266,2,0,P|176:30|170:92,1,90
45,221,41551,6,0,P|84:274|92:340,1,135
3,351,41837,2,0,B|59:347|59:347|101:338,1,90
232,273,42123,2,0,P|264:230|268:189,1,90
417,368,42409,2,0,P|379:343|336:334,1,90
389,130,42694,2,0,P|394:174|397:219,1,90
477,291,42980,2,0,P|484:246|490:202,1,90
339,62,43266,6,0,B|290:31|237:79|256:77|207:117|156:90,1,180
118,212,43694,1,0,0:0:0:0:
0,111,43837,1,0,0:0:0:0:
109,17,43980,1,0,0:0:0:0:
69,146,44123,2,0,P|62:197|56:245,1,90
284,373,44409,2,0,P|256:316|271:212,1,135
305,187,44694,6,0,P|357:181|408:173,1,90
512,52,44980,1,0,0:0:0:0:
442,111,45123,1,0,0:0:0:0:
345,32,45266,1,0,0:0:0:0:
492,200,45409,1,0,0:0:0:0:
255,165,45551,1,0,0:0:0:0:
329,118,45694,1,0,0:0:0:0:
128,63,45837,6,0,P|64:56|29:-10,1,135
59,0,46123,2,0,P|65:54|73:103,1,90
106,254,46409,1,0,0:0:0:0:
12,204,46551,1,0,0:0:0:0:
142,349,46694,6,0,P|199:336|235:331,1,90
318,161,46980,2,0,P|314:205|293:244,1,90
428,363,47266,2,0,P|418:313|408:268,1,90
344,2,47551,5,0,0:0:0:0:
423,84,47694,1,0,0:0:0:0:
511,48,47837,1,0,0:0:0:0:
442,9,47980,1,0,0:0:0:0:
270,164,48123,1,0,0:0:0:0:
325,91,48266,1,0,0:0:0:0:
146,56,48409,6,0,P|91:48|43:28,1,90
253,162,48694,2,0,P|284:208|286:247,1,90
79,320,48980,2,0,P|90:262|99:214,1,90
373,279,49266,6,0,P|437:268|476:263,1,90
370,46,49551,2,0,P|339:87|349:137,1,90
212,360,49837,2,0,P|200:302|189:250,1,90
159,7,50123,5,0,0:0:0:0:
13,96,50266,1,0,0:0:0:0:
158,101,50409,1,0,0:0:0:0:
93,56,50551,1,0,0:0:0:0:
56,169,50694,2,0,P|50:226|43:309,1,135
43,303,50980,6,0,P|87:294|137:288,2,90
274,148,51837,6,0,P|328:156|365:193,1,94.499997116089
496,97,52123,2,0,P|507:33|512:-3,1,94.499997116089
512,290,52409,1,0,0:0:0:0:
462,219,52551,1,0,0:0:0:0:
304,355,52694,6,0,P|366:335|408:328,1,94.499997116089
154,111,52980,2,0,P|196:195|205:289,1,188.999994232178
292,63,53409,1,0,0:0:0:0:
106,218,53551,5,0,0:0:0:0:
14,171,53694,1,0,0:0:0:0:
200,22,53837,2,0,P|192:89|185:130,1,94.499997116089
100,59,54123,1,0,0:0:0:0:
262,202,54266,1,0,0:0:0:0:
510,105,54409,5,0,0:0:0:0:
422,33,54551,1,0,0:0:0:0:
343,135,54694,2,0,P|402:121|440:102,1,94.499997116089
282,356,54980,1,0,0:0:0:0:
200,313,55123,1,0,0:0:0:0:
442,212,55266,6,0,P|437:269|433:312,1,94.499997116089
321,62,55551,1,0,0:0:0:0:
284,231,55694,1,0,0:0:0:0:
430,122,55837,1,0,0:0:0:0:
344,161,55980,1,0,0:0:0:0:
193,90,56123,6,0,P|204:43|221:0,1,94.499997116089
0,212,56409,2,0,B|55:192|105:236|59:221|127:283|180:264,1,188.999994232178
266,148,56837,1,0,0:0:0:0:
368,355,56980,6,0,P|363:296|357:244,1,94.499997116089
512,60,57266,2,0,P|507:119|494:167,1,94.499997116089
230,76,57551,1,0,0:0:0:0:
266,148,57694,1,0,0:0:0:0:
71,49,57837,5,0,0:0:0:0:
141,14,57980,1,0,0:0:0:0:
121,257,58123,5,0,0:0:0:0:
63,204,58266,1,0,0:0:0:0:
333,90,58409,6,0,P|387:98|436:108,1,94.499997116089
291,360,58694,6,0,P|283:274|254:147,1,188.999994232178
442,209,59123,1,0,0:0:0:0:
471,18,59266,2,0,P|502:53|499:99,1,94.499997116089
465,297,59551,6,0,P|400:281|365:271,1,94.499997116089
198,235,59837,1,0,0:0:0:0:
318,125,59980,1,0,0:0:0:0:
197,0,60123,2,0,P|185:63|212:118,1,94.499997116089
145,367,60409,6,0,P|105:281|-9:277,1,188.999994232178
131,190,60837,1,0,0:0:0:0:
60,26,60980,1,0,0:0:0:0:
210,120,61123,1,0,0:0:0:0:
285,1,61266,5,0,0:0:0:0:
208,32,61409,1,0,0:0:0:0:
259,206,61551,2,0,P|323:213|366:223,1,94.499997116089
499,67,61837,1,0,0:0:0:0:
447,136,61980,1,0,0:0:0:0:
503,367,62123,6,0,P|486:310|455:262,1,94.499997116089
259,206,62409,1,0,0:0:0:0:
308,98,62551,1,0,0:0:0:0:
107,14,62694,1,0,0:0:0:0:
218,135,62837,1,0,0:0:0:0:
171,330,62980,6,0,P|120:332|72:346,1,94.499997116089
8,198,63266,1,0,0:0:0:0:
100,97,63409,1,0,0:0:0:0:
326,174,63551,2,0,P|335:228|346:281,1,94.499997116089
505,18,63837,6,0,B|446:0|411:60|435:38|404:109|320:82,1,188.999994232178
477,134,64266,1,0,0:0:0:0:
251,236,64409,2,0,P|205:227|168:197,1,94.499997116089
42,359,64694,5,0,0:0:0:0:
14,285,64837,1,0,0:0:0:0:
147,53,64980,5,0,0:0:0:0:
81,103,65123,1,0,0:0:0:0:
351,283,65266,5,0,0:0:0:0:
319,206,65409,1,0,0:0:0:0:
467,57,65551,6,0,P|475:122|482:166,1,94.499997116089
337,370,65837,2,0,P|333:310|376:266,1,94.499997116089
354,111,66123,1,0,0:0:0:0:
281,66,66266,1,0,0:0:0:0:
100,192,66409,6,0,P|35:209|5:223,1,94.499997116089
169,2,66694,2,0,P|182:75|193:129,1,94.499997116089
183,361,66980,1,0,0:0:0:0:
112,306,67123,1,0,0:0:0:0:
236,205,67266,6,0,P|274:179|321:176,1,94.499997116089
512,362,67551,2,0,P|463:286|373:292,1,188.999994232178
424,194,67980,1,0,0:0:0:0:
401,1,68123,5,0,0:0:0:0:
332,71,68266,1,0,0:0:0:0:
484,133,68409,2,0,P|493:86|503:40,1,94.499997116089
393,300,68694,1,0,0:0:0:0:
327,247,68837,1,0,0:0:0:0:
168,367,68980,6,0,P|156:298|134:165,1,188.999994232178
2,206,69409,1,0,0:0:0:0:
70,89,69551,1,0,0:0:0:0:
9,28,69694,1,0,0:0:0:0:
263,156,69837,6,0,B|316:136|366:172|336:163|407:215|463:183,1,188.999994232178
327,247,70266,1,0,0:0:0:0:
437,79,70409,1,0,0:0:0:0:
512,137,70551,1,0,0:0:0:0:
216,0,70694,6,0,P|211:46|206:93,1,94.499997116089
7,338,70980,2,0,P|63:267|154:272,1,188.999994232178
141,157,71409,1,0,0:0:0:0:
281,255,71551,1,0,0:0:0:0:
421,89,71694,5,0,0:0:0:0:
325,186,71837,1,0,0:0:0:0:
246,115,71980,1,0,0:0:0:0:
465,182,72123,1,0,0:0:0:0:
352,357,72266,1,0,0:0:0:0:
141,157,72409,6,0,P|75:149|16:194,1,141.749995674133
37,209,72694,2,0,P|31:158|20:89,1,94.499997116089
277,7,72980,1,0,0:0:0:0:
204,42,73123,1,0,0:0:0:0:
404,145,73266,6,0,P|470:159|509:172,1,94.499997116089
254,364,73551,2,0,P|274:316|280:254,1,94.499997116089
249,112,73837,1,0,0:0:0:0:
297,179,73980,1,0,0:0:0:0:
12,230,74123,6,0,B|72:214|126:257|86:240|142:288|216:263,1,188.999994232178
365,362,74551,1,0,0:0:0:0:
488,249,74694,1,0,0:0:0:0:
350,115,74837,1,0,0:0:0:0:
406,292,74980,6,0,P|395:204|374:70,1,188.999994232178
277,175,75409,1,0,0:0:0:0:
482,84,75551,2,0,P|512:28|497:-22,1,94.499997116089
330,264,75837,5,0,0:0:0:0:
168,158,75980,1,0,0:0:0:0:
355,77,76123,1,0,0:0:0:0:
277,175,76266,1,0,0:0:0:0:
137,60,76409,2,0,P|72:48|23:39,1,94.499997116089
196,364,76694,6,0,P|182:309|151:266,1,94.499997116089
381,202,76980,2,0,P|420:146|424:0,1,188.999994232178
412,296,77409,1,0,0:0:0:0:
493,174,77551,5,0,0:0:0:0:
353,97,77694,1,0,0:0:0:0:
243,190,77837,2,0,P|234:249|226:296,1,94.499997116089
51,105,78123,2,0,P|42:46|34:-1,1,94.499997116089
14,294,78409,5,0,0:0:0:0:
141,240,78551,1,0,0:0:0:0:
483,321,78694,5,0,0:0:0:0:
398,364,78837,1,0,0:0:0:0:
289,309,78980,1,0,0:0:0:0:
250,157,79123,1,0,0:0:0:0:
373,0,79266,6,0,P|376:57|380:108,1,108
379,107,81266,6,0,P|377:132|372:170,1,53.9999983520508
512,286,81837,5,0,0:0:0:0:
506,210,82123,1,0,0:0:0:0:
500,134,82409,1,0,0:0:0:0:
392,325,82694,6,0,P|326:326|267:362,1,135
157,286,83266,1,0,0:0:0:0:
157,286,83551,2,0,P|163:234|176:189,2,90
41,222,84409,6,0,P|12:164|-1:90,1,135
60,41,84980,2,0,P|103:48|125:52,1,45
240,138,85266,5,0,0:0:0:0:
326,74,85409,1,0,0:0:0:0:
244,0,85551,2,0,P|249:40|253:67,1,62.9999980773926
375,178,85837,6,0,P|369:204|362:230,1,40.4999987640381
202,366,86123,6,0,P|172:301|61:312,1,180
8,205,86551,1,0,0:0:0:0:
35,35,86694,2,0,P|58:69|64:120,1,90
111,209,86980,6,0,P|177:195|243:183,1,135
261,173,87266,1,0,0:0:0:0:
189,144,87409,1,0,0:0:0:0:
259,277,87551,1,0,0:0:0:0:
357,204,87694,1,0,0:0:0:0:
420,250,87837,2,0,P|480:256|543:268,1,90
455,0,88123,5,0,0:0:0:0:
473,69,88266,1,0,0:0:0:0:
315,125,88409,5,0,0:0:0:0:
333,56,88552,1,0,0:0:0:0:
189,144,88694,6,0,P|197:207|212:323,1,180
298,289,89123,1,0,0:0:0:0:
113,359,89266,2,0,P|63:361|22:316,1,90
325,208,89551,6,0,P|398:203|456:157,1,135
457,149,89837,1,0,0:0:0:0:
274,105,89980,1,0,0:0:0:0:
431,0,90123,1,0,0:0:0:0:
355,84,90266,1,0,0:0:0:0:
483,267,90409,6,0,P|488:311|494:356,1,90
96,199,90694,2,0,P|84:242|74:286,1,90
262,15,90980,2,0,P|267:59|273:104,1,90
219,337,91266,5,0,0:0:0:0:
355,278,91409,1,0,0:0:0:0:
294,216,91551,1,0,0:0:0:0:
340,372,91694,1,0,0:0:0:0:
196,212,91837,1,0,0:0:0:0:
259,135,91980,1,0,0:0:0:0:
113,13,92123,5,0,0:0:0:0:
163,101,92266,1,0,0:0:0:0:
1,191,92409,1,0,0:0:0:0:
69,110,92551,1,0,0:0:0:0:
101,284,92694,2,0,P|180:292|260:311,1,161.999995056153
468,224,93123,5,0,0:0:0:0:
403,332,93266,1,0,0:0:0:0:
347,265,93409,1,0,0:0:0:0:
481,368,93551,1,0,0:0:0:0:
511,156,93694,1,0,0:0:0:0:
346,41,93837,5,0,0:0:0:0:
435,79,93980,1,0,0:0:0:0:
305,192,94123,1,0,0:0:0:0:
264,123,94266,1,0,0:0:0:0:
146,253,94409,2,0,P|87:257|43:217,1,121.499996292114
39,191,94694,5,0,0:0:0:0:
168,76,94837,1,0,0:0:0:0:
1,2,94980,1,0,0:0:0:0:
93,108,95123,1,0,0:0:0:0:
244,11,95266,1,0,0:0:0:0:
332,36,95409,1,0,0:0:0:0:
246,232,95551,5,0,0:0:0:0:
396,159,95694,1,0,0:0:0:0:
305,297,95837,1,0,0:0:0:0:
328,113,95980,1,0,0:0:0:0:
439,237,96123,1,0,0:0:0:0:
508,176,96266,1,0,0:0:0:0:
456,366,96409,5,0,0:0:0:0:
381,298,96551,1,0,0:0:0:0:
230,340,96694,1,0,0:0:0:0:
155,192,96837,1,0,0:0:0:0:
288,262,96980,1,0,0:0:0:0:
359,200,97123,1,0,0:0:0:0:
228,0,97266,5,0,0:0:0:0:
282,116,97409,1,0,0:0:0:0:
500,85,97551,1,0,0:0:0:0:
398,40,97694,1,0,0:0:0:0:
122,79,97837,2,0,P|77:87|34:98,1,90
212,368,98123,5,0,0:0:0:0:
288,262,98266,1,0,0:0:0:0:
282,116,98409,1,0,0:0:0:0:
233,184,98551,1,0,0:0:0:0:
228,0,98694,1,0,0:0:0:0:
393,168,98837,1,0,0:0:0:0:
181,289,98980,6,0,B|119:264|70:319|111:301|51:367|-14:330|-27:306|4:257|40:254|61:277,1,270
