osu file format v14

[General]
AudioFilename: Flower.mp3
AudioLeadIn: 2000
PreviewTime: 35650
Countdown: 1
SampleSet: Normal
StackLeniency: 0.4
Mode: 0
LetterboxInBreaks: 1
WidescreenStoryboard: 1

[Editor]
DistanceSpacing: 0.1
BeatDivisor: 4
GridSize: 4
TimelineZoom: 1

[Metadata]
Title:Hana Ranman -Flowers-
TitleUnicode:華爛漫 - Flowers-
Artist:TERRA
ArtistUnicode:TERRA
Creator:yf_bmp
Version:Hana
Source:
Tags:Pending Cup PDC
BeatmapID:1178749
BeatmapSetID:557016

[Difficulty]
HPDrainRate:6
CircleSize:5
OverallDifficulty:8
ApproachRate:8
SliderMultiplier:1.6
SliderTickRate:1

[Events]
//Background and Video events
0,0,"Konachan.jpg",0,0
//Break Periods
2,62096,65721
//Storyboard Layer 0 (Background)
//Storyboard Layer 1 (Fail)
//Storyboard Layer 2 (Pass)
//Storyboard Layer 3 (Foreground)
//Storyboard Sound Samples

[TimingPoints]
-1104,375,4,2,1,80,1,0
4896,-100,4,2,1,70,0,0
5646,-66.6666666666667,4,2,1,60,0,0
6021,-66.6666666666667,4,2,1,85,0,0
6396,-90.9090909090909,4,1,1,85,0,0
12396,-100,4,1,1,75,0,0
17646,-100,4,1,2,80,0,0
18396,-100,4,1,1,80,0,0
26646,-133.333333333333,4,1,1,80,0,0
27396,-100,4,1,1,80,0,0
32646,-100,4,1,1,60,0,0
33208,-100,4,1,1,80,0,0
33396,-133.333333333333,4,1,1,80,0,0
34146,-100,4,1,1,80,0,0
34521,-100,4,1,1,60,0,0
35271,-133.333333333333,4,1,1,60,0,0
36021,-66.6666666666667,4,1,1,60,0,0
36396,-100,4,3,2,85,0,1
47646,-66.6666666666667,4,1,1,85,0,1
48021,-100,4,1,1,60,0,1
48396,-100,4,1,1,60,0,0
50552,-100,4,1,1,40,0,0
50739,-100,4,1,1,60,0,0
54396,-100,4,1,1,80,0,0
59646,-86.9565217391304,4,1,1,80,0,0
60021,-100,4,1,1,80,0,0
67521,-133.333333333333,4,2,1,50,0,0
67896,-100,4,1,1,80,0,0
71833,-100,4,1,1,60,0,0
72396,-133.333333333333,4,2,1,80,0,0
73896,-100,4,3,2,85,0,1
84396,-100,4,1,1,60,0,1
84771,-100,4,1,1,65,0,1
85146,-100,4,1,1,70,0,1
85521,-100,4,1,1,75,0,1
85802,-100,4,1,5,75,0,0
85896,-100,4,1,1,80,0,1
91521,-100,4,1,1,60,0,1
91896,-100,4,1,1,80,0,1
97146,-100,4,1,1,65,0,1
98083,-100,4,2,1,40,0,0

[Colours]
Combo1 : 99,250,90
Combo2 : 255,96,120
Combo3 : 250,202,122
Combo4 : 252,131,227

[HitObjects]
24,92,21,5,2,1:2:0:0:
40,12,208,1,2,2:0:0:0:
100,68,396,2,0,B|192:48|168:108|254:82,1,160,4|2,1:0|0:0,0:0:0:0:
307,223,958,1,0,0:0:0:0:
368,276,1146,2,0,P|384:240|380:192,1,80,2|0,1:2|0:0,0:0:0:0:
340,72,1521,2,0,P|324:108|328:156,1,80,2|0,0:0|0:0,0:0:0:0:
460,236,1896,5,2,1:2:0:0:
452,148,2083,1,0,0:0:0:0:
325,147,2271,5,2,0:0:0:0:
340,72,2458,1,0,0:2:0:0:
308,224,2646,5,0,1:0:0:0:
256,176,2833,1,0,0:0:0:0:
384,236,3021,5,2,0:0:0:0:
392,204,3208,1,2,0:0:0:0:
328,382,3396,6,0,B|306:212,1,160,2|2,1:2|1:2,0:0:0:0:
340,72,3958,1,0,0:0:0:0:
460,232,4146,2,0,P|459:275|440:316,1,80,2|0,1:2|0:0,0:0:0:0:
328,382,4521,2,0,P|268:384|216:352,1,120,2|0,1:2|0:0,0:0:0:0:
176,292,4896,6,0,L|184:264,7,20,0|0|0|0|0|0|0|0,1:0|0:0|0:0|0:0|0:0|0:0|0:0|0:0,0:0:0:0:
112,248,5271,2,0,L|56:256,1,40,0|0,1:0|0:0,0:0:0:0:
172,200,5458,2,0,L|228:208,1,40
104,176,5646,5,2,1:2:0:0:
128,140,5739,1,2,2:0:0:0:
136,96,5833,1,2,2:0:0:0:
132,52,5927,1,2,2:0:0:0:
112,12,6021,6,0,P|168:120|260:108,1,180.000006866455,8|0,0:0|0:0,0:0:0:0:
284,96,6396,6,0,L|368:44,1,88.000002685547,6|0,1:2|2:0,0:0:0:0:
196,36,6771,1,2,0:2:0:0:
276,172,6958,1,0,2:0:0:0:
464,132,7146,2,0,P|404:113|348:164,1,132.00000402832,2|0,1:2|2:0,0:0:0:0:
328,228,7521,2,0,L|336:320,1,88.000002685547,2|0,0:2|2:0,0:0:0:0:
244,336,7896,5,0,0:0:0:0:
424,372,8083,1,2,2:0:0:0:
240,324,8271,5,2,0:2:0:0:
420,360,8458,1,0,2:0:0:0:
168,360,8646,6,0,P|124:352|108:268,1,132.00000402832,2|0,0:2|2:0,0:0:0:0:
104,200,9021,2,0,L|124:100,1,88.000002685547,0|2,0:0|2:2,0:0:0:0:
256,8,9396,5,6,0:2:0:0:
176,44,9583,1,2,2:0:0:0:
336,44,9771,5,0,0:0:0:0:
256,8,9958,1,2,2:2:0:0:
121,113,10146,5,6,0:2:0:0:
104,200,10333,1,2,2:0:0:0:
408,200,10521,5,0,1:0:0:0:
391,113,10708,1,2,2:2:0:0:
132,280,10896,5,4,0:2:0:0:
256,336,11083,1,2,2:0:0:0:
380,280,11271,5,4,0:2:0:0:
256,224,11458,1,2,2:0:0:0:
172,356,11646,5,6,0:2:0:0:
340,356,11833,1,0,1:2:0:0:
380,364,11927,1,0,0:0:0:0:
420,356,12021,1,0,0:0:0:0:
452,332,12114,1,2,2:0:0:0:
468,296,12208,1,0,0:0:0:0:
464,256,12302,1,0,0:0:0:0:
444,220,12396,6,0,B|424:156|424:156|456:160|472:140,1,120,4|0,0:3|2:0,0:0:0:0:
432,80,12771,2,0,L|408:4,1,80,8|2,0:0|2:1,0:0:0:0:
284,120,13146,2,0,P|330:125|364:112,1,80,0|2,0:0|2:1,0:0:0:0:
432,80,13427,1,0,3:0:0:0:
432,80,13521,1,8,0:0:0:0:
216,160,13708,6,0,P|140:164|60:116,1,160,2|2,2:1|2:1,0:0:0:0:
260,276,14271,2,0,P|264:236|288:196,1,80,8|2,0:0|2:1,0:0:0:0:
204,336,14646,2,0,P|184:301|181:261,1,80,0|2,0:0|2:1,0:0:0:0:
416,260,15021,2,0,P|376:271|336:258,1,80,8|2,0:0|2:1,0:0:0:0:
260,276,15302,1,0,3:0:0:0:
260,276,15396,5,0,1:0:0:0:
316,352,15583,1,2,2:1:0:0:
416,260,15771,1,8,0:0:0:0:
204,336,15958,1,2,2:1:0:0:
428,339,16146,2,0,P|479:313|497:257,1,120,0|0,0:0|2:1,0:0:0:0:
456,192,16521,1,8,0:0:0:0:
432,36,16708,2,0,L|448:140,1,80,2|0,2:1|0:0,0:0:0:0:
497,257,17083,5,2,2:1:0:0:
428,339,17271,1,8,0:0:0:0:
320,336,17458,1,2,2:1:0:0:
256,248,17646,5,0,1:0:0:0:
248,212,17739,1,0,3:0:0:0:
256,176,17833,1,0,3:0:0:0:
280,148,17927,1,0,3:0:0:0:
312,136,18021,5,8,1:0:0:0:
265,146,18114,1,8,3:3:0:0:
218,136,18208,1,8,1:3:0:0:
182,104,18302,1,8,3:3:0:0:
160,28,18396,5,0,0:0:0:0:
152,176,18583,1,2,2:1:0:0:
328,212,18771,1,8,0:0:0:0:
336,42,18958,1,2,2:1:0:0:
259,63,19146,2,0,L|343:39,1,80,0|2,0:0|2:1,0:0:0:0:
248,212,19521,1,8,0:0:0:0:
181,103,19708,2,0,P|111:68|34:82,1,160,2|2,2:1|3:1,0:0:0:0:
72,184,20271,2,0,L|176:172,1,80,8|2,0:0|2:1,0:0:0:0:
236,300,20646,5,0,0:0:0:0:
206,365,20739,5,2,2:2:0:0:
180,383,20833,1,2,2:2:0:0:
149,381,20927,1,2,2:0:0:0:
88,343,21021,5,8,0:0:0:0:
117,277,21114,5,2,2:2:0:0:
143,260,21208,1,2,2:2:0:0:
175,262,21302,1,2,2:0:0:0:
240,304,21396,5,0,0:0:0:0:
140,376,21583,1,2,2:1:0:0:
48,284,21771,1,8,0:0:0:0:
240,232,21958,1,2,2:1:0:0:
404,348,22146,2,0,P|484:332|512:276,1,120,0|0,1:0|2:0,0:0:0:0:
512,236,22521,1,8,1:0:0:0:
484,128,22708,2,0,L|472:44,1,80,2|0,2:1|0:0,0:0:0:0:
300,244,23083,5,2,2:1:0:0:
220,236,23271,1,8,0:0:0:0:
140,228,23458,1,2,2:1:0:0:
240,148,23646,5,0,0:0:0:0:
272,84,23739,5,2,2:0:0:0:
272,52,23833,1,2,0:2:0:0:
252,28,23927,1,2,0:2:0:0:
184,4,24021,5,8,0:0:0:0:
152,68,24114,5,2,2:0:0:0:
152,100,24208,1,2,0:2:0:0:
172,124,24302,1,2,0:2:0:0:
240,148,24396,5,4,0:1:0:0:
468,324,24771,1,8,0:0:0:0:
476,244,24958,1,2,2:0:0:0:
324,344,25146,5,0,0:0:0:0:
244,352,25333,1,2,2:0:0:0:
196,288,25521,1,8,0:0:0:0:
276,280,25708,1,2,3:2:0:0:
284,260,25802,1,0,0:0:0:0:
292,240,25896,1,0,0:0:0:0:
80,356,26271,5,8,1:0:0:0:
4,336,26458,1,2,2:0:0:0:
120,288,26646,1,0,0:0:0:0:
120,288,26739,2,0,L|108:180,2,90.0000034332277,0|8|0,0:0|0:0|2:0,0:0:0:0:
120,288,27396,1,0,0:0:0:0:
44,60,27771,5,8,0:0:0:0:
36,140,27958,1,2,2:0:0:0:
188,40,28146,5,0,0:0:0:0:
316,96,28333,1,2,2:2:0:0:
268,32,28521,1,8,1:0:0:0:
236,104,28708,1,2,3:2:0:0:
228,124,28802,1,0,0:0:0:0:
219,143,28896,1,0,0:0:0:0:
508,48,29271,5,8,0:0:0:0:
432,28,29458,1,2,2:0:0:0:
392,96,29646,1,0,0:0:0:0:
392,96,29739,2,0,L|404:204,1,80,0|2,0:0|1:2,0:0:0:0:
400,175,30021,1,8,0:0:0:0:
432,368,30208,5,0,0:0:0:0:
456,304,30302,1,0,0:0:0:0:
480,240,30396,1,4,1:2:0:0:
400,175,30583,1,2,2:0:0:0:
252,272,30771,5,8,1:0:0:0:
280,372,30958,1,2,2:0:0:0:
432,368,31146,5,0,0:0:0:0:
328,232,31333,1,2,2:0:0:0:
200,344,31521,2,0,P|144:344|100:296,1,120,8|0,0:0|2:0,0:0:0:0:
88,224,31896,5,0,0:0:0:0:
476,44,32271,1,8,0:0:0:0:
476,44,32458,1,0,0:0:0:0:
420,104,32646,1,0,0:0:0:0:
384,118,32739,1,0,0:0:0:0:
344,118,32833,1,0,0:0:0:0:
306,106,32927,1,0,0:0:0:0:
278,79,33021,1,0,0:0:0:0:
240,8,33208,1,2,2:0:0:0:
96,104,33396,6,0,P|152:112|208:72,1,120.000004577637,0|8,0:0|0:0,0:0:0:0:
240,156,33958,1,2,2:0:0:0:
175,200,34146,6,0,L|96:192,1,80,0|2,0:0|0:0,0:0:0:0:
256,340,34521,1,8,0:0:0:0:
212,348,34614,1,0,0:0:0:0:
168,356,34708,1,2,0:0:0:0:
124,364,34802,1,0,0:0:0:0:
80,372,34896,5,4,1:2:0:0:
431,371,35271,6,0,B|418:269|485:313|472:204,1,180.000006866455,4|0,1:2|0:0,0:0:0:0:
472,203,35927,1,0,0:0:0:0:
472,203,36021,6,0,B|392:160|392:160|476:130,1,180.000006866455,8|0,2:2|2:0,0:0:0:0:
512,65,36396,6,0,P|440:92|379:46,1,160,4|8,0:1|1:0,0:0:0:0:
276,108,36958,1,4,0:0:0:0:
276,108,37052,1,0,0:0:0:0:
276,108,37146,2,0,P|244:140|244:188,1,80,2|0,0:0|0:0,0:0:0:0:
300,320,37521,2,0,L|392:352,1,80,8|4,1:0|0:0,0:0:0:0:
144,356,37896,6,0,P|80:348|44:304,1,120,2|0,0:0|0:0,0:0:0:0:
45,308,38271,1,8,1:0:0:0:
72,152,38458,1,8,0:0:0:0:
84,176,38552,1,8,0:0:0:0:
84,204,38646,1,2,0:0:0:0:
45,308,38833,1,8,0:0:0:0:
224,344,39021,1,8,1:0:0:0:
388,264,39208,1,6,0:0:0:0:
302,330,39396,6,0,L|144:356,1,160,2|8,0:0|1:0,0:0:0:0:
45,308,39958,1,4,0:0:0:0:
192,228,40146,2,0,P|246:252|305:250,1,120,2|0,0:0|0:0,0:0:0:0:
356,192,40521,2,0,L|364:100,1,80,8|4,1:0|0:0,0:0:0:0:
416,256,40896,6,0,P|414:315|434:371,1,120,2|0,0:0|0:0,0:0:0:0:
434,371,41271,1,8,1:0:0:0:
276,348,41458,1,8,0:0:0:0:
308,356,41552,1,8,0:0:0:0:
340,352,41646,1,8,0:0:0:0:
480,280,41833,1,0,1:0:0:0:
416,256,41927,1,0,1:0:0:0:
384,196,42021,1,8,1:0:0:0:
412,32,42208,1,4,1:3:0:0:
320,168,42396,6,0,P|216:168|176:112,1,160,4|8,0:1|1:0,0:0:0:0:
160,56,42958,1,4,0:0:0:0:
160,228,43146,2,0,P|132:276|72:300,1,120,2|0,0:2|2:0,0:0:0:0:
4,280,43521,1,8,1:0:0:0:
112,168,43708,1,4,0:0:0:0:
236,264,43896,6,0,L|348:256,1,80,2|8,0:0|0:0,0:0:0:0:
388,252,44177,1,8,0:0:0:0:
388,252,44271,1,8,1:0:0:0:
248,336,44458,5,4,0:0:0:0:
388,344,44646,1,0,0:0:0:0:
172,368,44833,5,8,1:3:0:0:
316,360,45021,1,8,1:0:0:0:
460,348,45208,1,4,0:0:0:0:
464,324,45302,1,8,0:0:0:0:
468,300,45396,5,4,0:2:0:0:
124,40,45771,1,8,1:0:0:0:
52,36,45958,1,8,0:0:0:0:
48,60,46052,1,8,0:0:0:0:
44,84,46146,5,4,0:2:0:0:
388,344,46521,1,8,1:0:0:0:
464,324,46708,1,4,0:0:0:0:
408,268,46896,6,0,L|416:160,1,80,8|4,0:0|2:0,0:0:0:0:
356,140,47177,1,0,1:0:0:0:
324,148,47271,1,8,1:0:0:0:
216,320,47458,1,4,1:2:0:0:
24,346,47646,6,0,P|104:319|101:235,1,180.000006866455,0|0,0:0|2:0,0:0:0:0:
84,248,48021,1,0,0:0:0:0:
72,268,48114,1,0,0:0:0:0:
72,292,48208,1,0,0:0:0:0:
84,312,48302,1,0,0:0:0:0:
104,324,48396,6,0,P|164:260|8:216,2,320,4|2|0,0:3|2:0|0:0,0:0:0:0:
84,248,50271,1,4,0:2:0:0:
428,248,50646,1,4,0:2:0:0:
428,248,51302,1,0,0:0:0:0:
428,248,51396,5,4,0:2:0:0:
84,248,52146,1,4,0:2:0:0:
260,316,52521,1,2,2:0:0:0:
332,256,52896,5,4,0:2:0:0:
180,256,53271,1,4,0:2:0:0:
180,256,53458,1,2,2:0:0:0:
192,176,53646,5,4,1:2:0:0:
320,176,53833,2,0,L|320:132,1,40
320,64,54021,5,0,0:0:0:0:
192,64,54208,2,0,L|192:24,1,40
36,44,54396,6,0,L|116:32,1,80,4|2,0:0|2:0,0:0:0:0:
80,124,54771,2,0,P|119:128|154:146,1,80,8|2,0:0|2:0,0:0:0:0:
20,188,55146,2,0,P|56:284|40:352,1,160,2|8,1:2|0:0,0:0:0:0:
204,364,55708,1,2,2:0:0:0:
204,364,55802,1,2,2:0:0:0:
204,364,55896,6,0,P|164:364|124:376,1,80,0|2,0:0|2:0,0:0:0:0:
256,292,56271,2,0,P|296:292|336:304,1,80,8|2,0:0|2:0,0:0:0:0:
256,120,56646,2,0,P|216:156|208:220,1,120,0|0,0:0|2:0,0:0:0:0:
208,220,57021,1,8,0:0:0:0:
334,303,57208,1,2,2:0:0:0:
476,248,57396,6,0,B|375:249,1,80,4|0,0:3|2:0,0:0:0:0:
256,292,57771,1,8,0:0:0:0:
256,292,57958,1,2,2:0:0:0:
476,168,58146,6,0,B|375:169,1,80,4|0,0:2|2:0,0:0:0:0:
256,212,58521,1,8,0:0:0:0:
256,212,58708,1,2,2:0:0:0:
260,188,58802,1,0,0:0:0:0:
264,164,58896,5,4,0:2:0:0:
240,88,59083,1,0,0:0:0:0:
128,24,59271,5,4,0:2:0:0:
88,92,59458,1,0,0:0:0:0:
36,244,59646,6,0,L|12:100,1,138.000002632141,4|0,0:2|2:0,0:0:0:0:
60,164,60021,5,4,0:2:0:0:
48,204,60114,1,0,0:0:0:0:
36,244,60208,1,0,0:0:0:0:
24,284,60302,1,0,0:0:0:0:
256,192,60396,12,4,61896,2:3:0:0:
400,236,67521,6,0,P|385:198|384:172,1,60.0000022888184,0|0,1:0|1:0,0:0:0:0:
436,124,67802,1,0,1:0:0:0:
436,124,67896,6,0,P|348:112|308:164,1,160,4|8,0:0|0:0,0:0:0:0:
400,236,68458,1,2,2:0:0:0:
476,268,68646,2,0,L|488:160,1,80,2|0,1:2|2:0,0:0:0:0:
484,188,68927,1,2,2:0:0:0:
484,188,69021,1,8,1:0:0:0:
383,179,69208,1,2,2:0:0:0:
292,232,69396,6,0,B|252:244|228:212|228:212|244:184|232:152,1,120,0|0,0:0|2:0,0:0:0:0:
224,148,69771,2,0,L|216:64,1,80,8|2,0:0|2:0,0:0:0:0:
88,20,70146,2,0,L|80:104,1,80,0|2,0:0|2:0,0:0:0:0:
0,216,70521,2,0,B|40:204|64:236|64:236|48:264|60:296,1,120,8|0,0:0|2:0,0:0:0:0:
68,300,70896,6,0,L|152:304,1,80,2|2,0:0|2:0,0:0:0:0:
228,308,71271,1,8,0:0:0:0:
228,308,71458,1,2,2:0:0:0:
300,272,71646,1,0,0:0:0:0:
380,260,71833,1,0,0:0:0:0:
380,284,71927,1,0,0:0:0:0:
372,308,72021,1,0,0:0:0:0:
360,328,72114,1,0,0:0:0:0:
340,344,72208,1,0,0:0:0:0:
316,352,72302,1,0,0:0:0:0:
292,352,72396,6,0,B|237:339|234:390|178:377,1,120.000004577637,2|0,0:0|0:0,0:0:0:0:
104,364,72958,1,0,0:0:0:0:
108,240,73146,1,2,0:0:0:0:
109,215,73239,1,8,0:0:0:0:
196,156,73427,1,0,0:0:0:0:
195,181,73520,1,8,0:0:0:0:
300,272,73708,1,8,0:0:0:0:
436,272,73896,6,0,P|409:200|455:139,1,160,4|8,0:1|1:0,0:0:0:0:
393,36,74458,1,6,0:3:0:0:
393,36,74552,1,0,0:2:0:0:
393,36,74646,2,0,P|367:7|329:1,1,80,2|0,0:2|0:0,0:0:0:0:
181,60,75021,2,0,L|149:152,1,80,8|4,1:0|0:3,0:0:0:0:
140,296,75396,6,0,P|76:288|40:244,1,120,2|0,0:2|0:0,0:0:0:0:
41,248,75771,1,8,1:0:0:0:
154,135,75958,1,8,0:0:0:0:
168,160,76052,1,8,0:0:0:0:
172,188,76146,1,0,0:2:0:0:
140,296,76333,1,2,1:2:0:0:
28,344,76521,1,8,1:0:0:0:
220,376,76708,1,6,0:0:0:0:
368,247,76896,6,0,P|445:239|502:292,1,160,2|8,0:2|1:0,0:0:0:0:
508,380,77458,1,6,0:3:0:0:
312,324,77646,2,0,P|284:272|292:200,1,120,2|0,0:2|0:0,0:0:0:0:
332,148,78021,2,0,L|344:52,1,80,8|4,1:0|0:3,0:0:0:0:
208,8,78396,6,0,B|248:-4|272:28|272:28|256:56|268:88,1,120,2|0,0:2|0:0,0:0:0:0:
341,68,78771,1,8,1:0:0:0:
188,80,78958,2,0,L|96:88,1,80,6|0,0:3|0:0,0:0:0:0:
24,200,79333,1,0,1:3:0:0:
24,232,79427,1,0,1:3:0:0:
36,264,79521,1,8,1:0:0:0:
228,228,79708,1,4,1:3:0:0:
232,296,79802,1,0,1:0:0:0:
188,348,79896,6,0,B|102:380|122:304|37:334,1,160,4|8,0:1|1:0,0:0:0:0:
256,360,80458,1,6,0:0:0:0:
228,228,80646,2,0,P|152:248|88:200,1,160,2|8,0:2|1:0,0:0:0:0:
16,88,81208,1,4,0:0:0:0:
180,80,81396,2,0,L|168:188,1,80,2|8,0:2|0:0,0:0:0:0:
171,159,81677,1,8,0:0:0:0:
171,159,81771,1,8,1:0:0:0:
228,228,81958,1,6,0:0:0:0:
180,80,82146,5,2,0:2:0:0:
89,203,82333,1,8,1:3:0:0:
228,228,82521,1,8,1:0:0:0:
296,380,82708,1,4,1:3:0:0:
308,360,82802,1,0,1:0:0:0:
324,348,82896,6,8,B|410:380|390:304|475:334,1,160,4|8,0:1|1:0,0:0:0:0:
256,360,83458,1,6,0:0:0:0:
284,228,83646,2,0,P|360:248|424:200,1,160,2|8,0:2|1:0,0:0:0:0:
496,88,84208,1,6,0:0:0:0:
332,88,84396,5,4,0:2:0:0:
300,108,84489,1,0,0:0:0:0:
264,116,84583,1,0,0:0:0:0:
228,112,84677,1,0,0:0:0:0:
196,96,84771,1,0,0:0:0:0:
172,68,84864,1,0,0:0:0:0:
160,36,84958,1,4,0:2:0:0:
164,0,85052,1,0,0:0:0:0:
231,16,85146,5,0,0:2:0:0:
220,59,85239,1,0,0:0:0:0:
196,96,85333,1,0,0:0:0:0:
162,124,85427,1,0,0:0:0:0:
121,137,85521,1,4,0:2:0:0:
77,133,85614,1,0,0:0:0:0:
40,116,85708,1,0,0:2:0:0:
12,83,85802,1,0,0:0:0:0:
0,12,85896,5,4,1:0:0:0:
92,60,86083,1,2,2:0:0:0:
0,152,86271,5,8,0:0:0:0:
77,133,86458,1,2,2:0:0:0:
92,168,86552,1,2,2:0:0:0:
108,204,86646,5,0,0:0:0:0:
48,256,86833,1,2,2:0:0:0:
96,368,87021,5,8,0:0:0:0:
120,280,87208,1,2,2:0:0:0:
24,344,87396,5,0,0:0:0:0:
168,340,87583,1,2,2:0:0:0:
120,280,87771,5,8,0:0:0:0:
96,368,87958,1,2,2:0:0:0:
256,368,88146,5,0,0:0:0:0:
256,296,88333,1,2,2:0:0:0:
392,280,88521,5,8,0:0:0:0:
416,368,88708,1,0,3:2:0:0:
452,372,88802,1,0,1:2:0:0:
488,376,88896,5,2,0:2:0:0:
348,344,89083,1,2,2:0:0:0:
372,204,89271,5,8,0:0:0:0:
448,188,89458,1,2,2:0:0:0:
392,280,89646,5,0,0:0:0:0:
256,296,89833,1,0,1:0:0:0:
120,280,90021,1,8,0:0:0:0:
64,188,90208,5,0,1:0:0:0:
64,188,90302,1,0,0:0:0:0:
64,188,90396,2,0,L|148:176,1,80,6|0,1:2|0:2,0:0:0:0:
294,137,90771,2,0,P|256:149|218:137,1,80,0|4,0:2|0:2,0:0:0:0:
368,176,91052,1,0,0:0:0:0:
368,176,91146,2,0,L|448:188,1,80,2|4,1:2|0:2,0:0:0:0:
496,356,91521,1,4,0:2:0:0:
500,360,91614,1,0,0:0:0:0:
504,364,91708,1,0,0:0:0:0:
508,368,91802,1,0,0:0:0:0:
512,372,91896,5,4,1:0:0:0:
420,324,92083,1,2,2:0:0:0:
512,232,92271,5,8,0:0:0:0:
435,251,92458,1,2,2:0:0:0:
420,216,92552,1,2,2:0:0:0:
404,180,92646,5,0,0:0:0:0:
464,128,92833,1,2,2:0:0:0:
416,16,93021,5,8,0:0:0:0:
392,104,93208,1,2,2:0:0:0:
488,40,93396,5,0,0:0:0:0:
344,44,93583,1,2,2:0:0:0:
392,104,93771,5,8,0:0:0:0:
416,16,93958,1,2,2:0:0:0:
256,16,94146,5,0,0:0:0:0:
256,88,94333,1,2,2:0:0:0:
120,104,94521,5,8,0:0:0:0:
96,16,94708,1,0,3:0:0:0:
60,12,94802,1,0,1:0:0:0:
24,8,94896,5,2,0:2:0:0:
164,40,95083,1,2,2:0:0:0:
140,180,95271,5,8,0:0:0:0:
64,196,95458,1,2,2:0:0:0:
256,88,95646,5,0,1:0:0:0:
120,104,95833,1,0,0:0:0:0:
392,104,96021,1,8,0:0:0:0:
448,196,96208,5,0,1:0:0:0:
448,196,96302,1,0,0:0:0:0:
448,196,96396,2,0,L|364:208,1,80,2|0,1:2|0:0,0:0:0:0:
228,240,96771,2,0,P|265:227|303:239,1,80,0|2,0:0|0:2,0:0:0:0:
360,280,97052,1,2,0:2:0:0:
344,348,97146,5,2,0:2:0:0:
340,348,97239,1,0,0:0:0:0:
336,348,97333,1,0,0:0:0:0:
332,348,97427,1,0,0:0:0:0:
328,348,97521,1,0,0:0:0:0:
324,348,97614,1,0,0:0:0:0:
320,348,97708,1,0,0:0:0:0:
316,348,97802,1,0,0:0:0:0:
312,348,97896,1,4,0:0:0:0:
256,192,98083,12,2,100146,0:0:0:0:
