osu file format v14

[General]
AudioFilename: audio.mp3
AudioLeadIn: 0
PreviewTime: 35625
Countdown: 0
SampleSet: Soft
StackLeniency: 0.7
Mode: 3
LetterboxInBreaks: 0
SpecialStyle: 0
WidescreenStoryboard: 1

[Editor]
DistanceSpacing: 0.8
BeatDivisor: 4
GridSize: 32
TimelineZoom: 1.9

[Metadata]
Title:Hana Ranman -Flowers-
TitleUnicode:華爛漫 -Flowers-
Artist:TERRA
ArtistUnicode:TЁЯRA
Creator:Tamaki Iroha
Version:Normal
Source:DanceDanceRevolution SuperNOVA
Tags:Beatmania iidx 15 iidx15 troopers jubeat saucer pop'n music popn ddr ds dancing stage maeda naoki 前田 尚紀 jun tomori naotoshi HYPER JAPANESQUE 2 Video game japanese FAMoss Madoka2574
BeatmapID:2050784
BeatmapSetID:939363

[Difficulty]
HPDrainRate:7
CircleSize:4
OverallDifficulty:7
ApproachRate:5
SliderMultiplier:1.4
SliderTickRate:1

[Events]
//Background and Video events
0,0,"f867b91f683be1f6199af99af341a7a653479c35.jpg",0,0
//Break Periods
//Storyboard Layer 0 (Background)
//Storyboard Layer 1 (Fail)
//Storyboard Layer 2 (Pass)
//Storyboard Layer 3 (Foreground)
//Storyboard Layer 4 (Overlay)
//Storyboard Sound Samples
Sample,4125,0,"Clap2.wav",50
Sample,4875,0,"Clap2.wav",50
Sample,5625,0,"Clap2.wav",50
Sample,12375,0,"S.wav",70
Sample,13125,0,"Clap.wav",50
Sample,13875,0,"Clap.wav",50
Sample,14625,0,"Clap.wav",50
Sample,15375,0,"Clap.wav",50
Sample,16125,0,"Clap.wav",50
Sample,16875,0,"Clap.wav",50
Sample,17625,0,"Clap.wav",50
Sample,19125,0,"Clap.wav",50
Sample,19875,0,"Clap.wav",50
Sample,20625,0,"Clap.wav",50
Sample,21375,0,"Clap.wav",50
Sample,22125,0,"Clap.wav",50
Sample,22875,0,"Clap.wav",50
Sample,23625,0,"Clap.wav",50
Sample,24375,0,"Clap.wav",50
Sample,30375,0,"Clap.wav",50
Sample,33375,0,"Clap.wav",50
Sample,34125,0,"Clap.wav",50
Sample,36375,0,"S.wav",70

[TimingPoints]
750,375,4,2,1,70,1,0
36750,-100,4,2,1,70,0,1
48562,-100,4,2,1,70,0,0
74250,-100,4,2,1,70,0,1
98250,-100,4,2,1,70,0,0

[HitObjects]
448,192,375,5,2,0:0:0:0:
320,192,562,1,0,0:0:0:0:
64,192,750,1,2,0:0:0:0:
192,192,750,1,4,0:0:0:0:
448,192,1125,1,0,0:0:0:50:Clap2.wav
192,192,1500,1,2,0:0:0:0:
320,192,1500,1,0,0:0:0:0:
64,192,1875,1,0,0:0:0:50:Clap2.wav
192,192,2250,1,2,0:0:0:0:
448,192,2250,1,0,0:0:0:0:
320,192,2625,1,0,0:0:0:50:Clap2.wav
64,192,3000,128,2,3375:0:0:0:0:
192,192,3000,1,0,0:0:0:0:
448,192,3375,1,0,0:0:0:50:Clap2.wav
192,192,3750,1,2,0:0:0:0:
320,192,3750,1,0,0:0:0:0:
64,192,4125,1,2,0:0:0:0:
192,192,4500,1,2,0:0:0:0:
448,192,4500,1,0,0:0:0:0:
320,192,4875,1,2,0:0:0:0:
64,192,5250,1,2,0:0:0:0:
448,192,5250,1,4,0:0:0:0:
192,192,5625,1,6,0:0:0:0:
320,192,6000,128,2,6375:0:0:0:0:
448,192,6000,1,4,0:0:0:0:
64,192,6375,1,0,0:0:0:70:S.wav
192,192,6375,1,0,0:0:0:0:
320,192,6750,1,4,0:0:0:0:
448,192,6750,1,2,0:0:0:0:
192,192,7125,1,8,0:0:0:0:
64,192,7500,1,2,0:0:0:0:
448,192,7500,1,0,0:0:0:0:
320,192,7875,1,8,0:0:0:0:
64,192,8250,1,2,0:0:0:0:
448,192,8250,1,0,0:0:0:0:
192,192,8625,1,8,0:0:0:0:
64,192,9000,1,2,0:0:0:0:
320,192,9000,128,0,9375:0:0:0:0:
448,192,9375,1,8,0:0:0:0:
192,192,9750,1,4,0:0:0:0:
320,192,9750,1,2,0:0:0:0:
64,192,10125,1,8,0:0:0:0:
192,192,10500,1,4,0:0:0:0:
448,192,10500,1,2,0:0:0:0:
320,192,10875,1,8,0:0:0:0:
64,192,11250,1,4,0:0:0:0:
192,192,11250,1,2,0:0:0:0:
448,192,11625,1,8,0:0:0:0:
320,192,11625,1,4,0:0:0:0:
64,192,12000,1,4,0:0:0:0:
192,192,12000,128,2,12375:0:0:0:0:
320,192,12375,1,8,0:0:0:0:
64,192,12750,1,4,0:0:0:0:
448,192,12750,128,2,13125:0:0:0:0:
192,192,13125,1,2,0:0:0:0:
320,192,13312,1,0,0:0:0:0:
192,192,13500,128,2,13875:0:0:0:0:
448,192,13500,1,0,0:0:0:0:
320,192,13875,1,2,0:0:0:0:
64,192,14062,1,0,0:0:0:0:
192,192,14250,1,2,0:0:0:0:
448,192,14250,1,0,0:0:0:0:
320,192,14437,1,0,0:0:0:0:
64,192,14625,1,2,0:0:0:0:
192,192,14812,1,0,0:0:0:0:
320,192,15000,1,2,0:0:0:0:
448,192,15000,128,0,15375:0:0:0:0:
192,192,15375,1,2,0:0:0:0:
64,192,15750,128,2,16125:0:0:0:0:
448,192,15750,1,0,0:0:0:0:
320,192,16125,1,2,0:0:0:0:
192,192,16312,1,0,0:0:0:0:
320,192,16500,128,2,16875:0:0:0:0:
448,192,16500,1,0,0:0:0:0:
64,192,16875,1,2,0:0:0:0:
192,192,17062,1,0,0:0:0:0:
320,192,17250,1,2,0:0:0:0:
448,192,17250,1,0,0:0:0:0:
64,192,17437,1,0,0:0:0:0:
192,192,17625,1,2,0:0:0:0:
320,192,17812,1,0,0:0:0:0:
64,192,18000,1,2,0:0:0:0:
448,192,18000,1,0,0:0:0:0:
192,192,18187,1,0,0:0:0:0:
320,192,18375,1,2,0:0:0:0:
448,192,18375,1,0,0:0:0:50:Clap.wav
64,192,18562,1,2,0:0:0:0:
192,192,18750,1,2,0:0:0:0:
320,192,18750,128,0,19125:0:0:0:0:
448,192,19125,1,2,0:0:0:0:
192,192,19312,1,0,0:0:0:0:
64,192,19500,1,2,0:0:0:0:
320,192,19500,128,0,19875:0:0:0:0:
192,192,19875,1,2,0:0:0:0:
320,192,20062,1,0,0:0:0:0:
64,192,20250,1,2,0:0:0:0:
192,192,20250,1,0,0:0:0:0:
448,192,20437,1,0,0:0:0:0:
320,192,20625,1,2,0:0:0:0:
192,192,20812,1,0,0:0:0:0:
64,192,21000,1,2,0:0:0:0:
448,192,21000,128,0,21375:0:0:0:0:
192,192,21375,1,2,0:0:0:0:
64,192,21750,1,2,0:0:0:0:
320,192,21750,128,0,22125:0:0:0:0:
192,192,22125,1,2,0:0:0:0:
320,192,22312,1,0,0:0:0:0:
64,192,22500,128,2,22875:0:0:0:0:
448,192,22500,1,0,0:0:0:0:
320,192,22875,1,2,0:0:0:0:
192,192,23062,1,0,0:0:0:0:
64,192,23250,1,2,0:0:0:0:
448,192,23250,1,0,0:0:0:0:
320,192,23437,1,0,0:0:0:0:
192,192,23625,1,2,0:0:0:0:
64,192,23812,1,0,0:0:0:0:
192,192,24000,128,2,24375:0:0:0:0:
448,192,24000,1,0,0:0:0:0:
64,192,24375,1,2,0:0:0:0:
320,192,24562,1,2,0:0:0:0:
64,192,24750,128,4,25125:0:0:0:0:
448,192,24750,1,2,0:0:0:0:
192,192,25125,128,2,25500:0:0:0:0:
320,192,25125,1,0,0:0:0:50:Clap.wav
64,192,25500,1,2,0:0:0:0:
448,192,25500,128,0,25875:0:0:0:0:
192,192,25875,1,2,0:0:0:0:
320,192,25875,128,0,26250:0:0:0:50:Clap.wav
64,192,26250,1,2,0:0:0:0:
448,192,26250,1,0,0:0:0:0:
320,192,26625,1,2,0:0:0:0:
448,192,26625,1,0,0:0:0:50:Clap.wav
192,192,26812,1,0,0:0:0:0:
64,192,27000,1,2,0:0:0:0:
448,192,27000,1,0,0:0:0:0:
320,192,27187,1,2,0:0:0:0:
64,192,27375,1,2,0:0:0:0:
192,192,27375,1,0,0:0:0:50:Clap.wav
192,192,27750,1,2,0:0:0:0:
448,192,27750,128,0,28125:0:0:0:0:
64,192,28125,1,2,0:0:0:0:
320,192,28125,128,0,28500:0:0:0:50:Clap.wav
192,192,28500,128,2,28875:0:0:0:0:
448,192,28500,1,0,0:0:0:0:
64,192,28875,128,2,29250:0:0:0:0:
320,192,28875,1,0,0:0:0:50:Clap.wav
192,192,29250,1,2,0:0:0:0:
448,192,29250,1,0,0:0:0:0:
320,192,29625,1,2,0:0:0:0:
448,192,29625,1,0,0:0:0:50:Clap.wav
64,192,29812,1,0,0:0:0:0:
192,192,30000,1,2,0:0:0:0:
448,192,30000,1,0,0:0:0:0:
64,192,30375,1,2,0:0:0:0:
192,192,30562,1,2,0:0:0:0:
320,192,30750,128,2,31125:0:0:0:0:
448,192,30750,1,4,0:0:0:0:
64,192,31125,1,2,0:0:0:0:
448,192,31125,128,0,31500:0:0:0:50:Clap.wav
64,192,31500,128,2,31875:0:0:0:0:
192,192,31500,1,0,0:0:0:0:
192,192,31875,128,2,32250:0:0:0:0:
320,192,31875,1,0,0:0:0:50:Clap.wav
448,192,32250,1,2,0:0:0:0:
64,192,32625,1,2,0:0:0:0:
192,192,32625,1,0,0:0:0:50:Clap.wav
448,192,32812,1,0,0:0:0:0:
320,192,33000,1,2,0:0:0:0:
64,192,33187,1,2,0:0:0:0:
192,192,33375,1,2,0:0:0:0:
320,192,33562,1,0,0:0:0:0:
192,192,33750,1,2,0:0:0:0:
448,192,33750,1,0,0:0:0:0:
448,192,34125,1,2,0:0:0:0:
320,192,34312,1,0,0:0:0:0:
64,192,34500,1,2,0:0:0:0:
192,192,34500,128,0,34875:0:0:0:0:
320,192,34875,1,2,0:0:0:0:
448,192,34875,128,0,35250:0:0:0:50:Clap.wav
64,192,35062,1,2,0:0:0:0:
192,192,35250,1,2,0:0:0:0:
320,192,35250,1,4,0:0:0:0:
320,192,35625,1,2,0:0:0:0:
448,192,35625,1,4,0:0:0:0:
192,192,36000,128,0,36375:0:0:0:0:
448,192,36000,1,0,0:0:0:0:
320,192,36375,128,2,36750:0:0:0:0:
64,192,36750,1,2,0:0:0:0:
448,192,36750,1,4,0:0:0:0:
192,192,37125,1,8,0:0:0:0:
320,192,37312,1,0,0:0:0:0:
64,192,37500,1,2,0:0:0:0:
448,192,37500,1,0,0:0:0:0:
320,192,37875,1,8,0:0:0:0:
192,192,38062,1,0,0:0:0:0:
64,192,38250,1,2,0:0:0:0:
448,192,38250,1,0,0:0:0:0:
320,192,38531,1,0,0:0:0:0:
192,192,38625,1,8,0:0:0:0:
320,192,38812,1,0,0:0:0:0:
64,192,39000,1,2,0:0:0:0:
448,192,39000,128,0,39375:0:0:0:0:
192,192,39375,1,8,0:0:0:0:
64,192,39562,1,0,0:0:0:0:
320,192,39750,1,2,0:0:0:0:
448,192,39750,1,4,0:0:0:0:
192,192,40125,1,8,0:0:0:0:
320,192,40312,1,0,0:0:0:0:
64,192,40500,1,2,0:0:0:0:
448,192,40500,1,0,0:0:0:0:
320,192,40875,1,8,0:0:0:0:
192,192,41062,1,0,0:0:0:0:
64,192,41250,1,2,0:0:0:0:
448,192,41250,1,0,0:0:0:0:
320,192,41531,1,0,0:0:0:0:
64,192,41625,1,8,0:0:0:0:
192,192,41812,1,0,0:0:0:0:
64,192,42000,128,2,42375:0:0:0:0:
448,192,42000,1,0,0:0:0:0:
320,192,42375,1,12,0:0:0:0:
192,192,42562,1,0,0:0:0:0:
64,192,42750,1,2,0:0:0:0:
448,192,42750,1,4,0:0:0:0:
64,192,43125,1,8,0:0:0:0:
192,192,43312,1,0,0:0:0:0:
320,192,43500,1,2,0:0:0:0:
448,192,43500,1,0,0:0:0:0:
448,192,43875,1,8,0:0:0:0:
320,192,44062,1,0,0:0:0:0:
64,192,44250,1,2,0:0:0:0:
192,192,44250,1,0,0:0:0:0:
448,192,44531,1,0,0:0:0:0:
64,192,44625,1,8,0:0:0:0:
192,192,44812,1,0,0:0:0:0:
320,192,45000,128,2,45375:0:0:0:0:
448,192,45000,1,0,0:0:0:0:
64,192,45375,1,8,0:0:0:0:
192,192,45562,1,0,0:0:0:0:
320,192,45750,1,2,0:0:0:0:
448,192,45750,1,4,0:0:0:0:
192,192,46125,1,8,0:0:0:0:
448,192,46312,1,0,0:0:0:0:
64,192,46500,1,2,0:0:0:0:
320,192,46500,1,4,0:0:0:0:
448,192,46875,1,8,0:0:0:0:
320,192,47062,1,0,0:0:0:0:
64,192,47250,1,2,0:0:0:0:
192,192,47250,1,4,0:0:0:0:
448,192,47531,1,2,0:0:0:0:
64,192,47625,1,12,0:0:0:0:
192,192,47812,1,2,0:0:0:0:
320,192,48000,1,2,0:0:0:0:
448,192,48000,128,4,48375:0:0:0:0:
64,192,48375,128,8,48750:0:0:0:0:
192,192,48375,1,4,0:0:0:0:
192,192,48750,128,4,49500:0:0:0:0:
320,192,48750,1,2,0:0:0:0:
320,192,49500,128,0,50250:0:0:0:0:
192,192,50250,128,2,51750:0:0:0:0:
448,192,50250,1,0,0:0:0:0:
64,192,50625,1,6,0:0:0:0:
320,192,51000,1,6,0:0:0:0:
64,192,51750,128,2,52500:0:0:0:0:
448,192,51750,1,4,0:0:0:0:
192,192,52500,128,4,52875:0:0:0:0:
448,192,52500,1,2,0:0:0:0:
320,192,52875,128,0,53250:0:0:0:0:
64,192,53250,128,2,54375:0:0:0:0:
448,192,53250,1,4,0:0:0:0:
192,192,53625,1,6,0:0:0:0:
448,192,54000,1,6,0:0:0:0:
320,192,54187,1,2,0:0:0:0:
192,192,54375,1,6,0:0:0:0:
320,192,54562,1,2,0:0:0:0:
64,192,54750,1,2,0:0:0:0:
448,192,54750,128,4,55125:0:0:0:0:
192,192,55125,1,8,0:0:0:0:
64,192,55312,1,0,0:0:0:0:
320,192,55500,128,2,55875:0:0:0:0:
448,192,55500,1,0,0:0:0:0:
64,192,55875,1,8,0:0:0:0:
192,192,56062,1,0,0:0:0:0:
320,192,56250,1,2,0:0:0:0:
448,192,56250,1,0,0:0:0:0:
64,192,56437,1,0,0:0:0:0:
448,192,56625,1,8,0:0:0:0:
64,192,56812,1,0,0:0:0:0:
320,192,57000,128,2,57375:0:0:0:0:
192,192,57000,1,0,0:0:0:0:
64,192,57375,1,8,0:0:0:0:
192,192,57562,1,0,0:0:0:0:
320,192,57750,1,2,0:0:0:0:
448,192,57750,128,4,58125:0:0:0:0:
192,192,58125,1,8,0:0:0:0:
320,192,58312,1,0,0:0:0:0:
64,192,58500,128,2,58875:0:0:0:0:
448,192,58500,1,4,0:0:0:0:
320,192,58875,1,8,0:0:0:0:
448,192,59062,1,8,0:0:0:0:
64,192,59250,1,2,0:0:0:0:
192,192,59250,1,4,0:0:0:0:
320,192,59437,1,0,0:0:0:0:
192,192,59625,1,4,0:0:0:0:
448,192,59625,1,8,0:0:0:0:
64,192,59812,1,0,0:0:0:0:
320,192,60000,1,2,0:0:0:0:
448,192,60000,128,4,60375:0:0:0:0:
64,192,60375,1,8,0:0:0:0:
320,192,60375,128,4,60750:0:0:0:0:
64,192,60750,128,0,61875:0:0:0:70:LR3_BassDropPDG.wav
192,192,60750,1,0,0:0:0:0:
448,192,61875,1,0,0:0:0:0:
320,192,62062,1,0,0:0:0:0:
192,192,62250,1,0,0:0:0:70:cymbal.wav
448,192,62250,1,0,0:0:0:0:
64,192,62625,1,0,0:0:0:70:LR_Tom Hit 3.wav
192,192,62812,1,0,0:0:0:0:
320,192,63000,1,0,0:0:0:70:LR_Tom Hit 2.wav
448,192,63375,1,0,0:0:0:0:
320,192,63562,1,0,0:0:0:70:LR_Tom Hit 3.wav
64,192,63750,1,0,0:0:0:0:
192,192,63937,1,0,0:0:0:0:
320,192,64125,1,0,0:0:0:0:
448,192,64312,1,0,0:0:0:0:
192,192,64500,1,0,0:0:0:50:LR_J Hit Pong Drop.wav
64,192,64875,1,0,0:0:0:70:LR_Tom Hit 3.wav
192,192,65062,1,0,0:0:0:0:
320,192,65250,1,0,0:0:0:70:LR_Tom Hit 2.wav
192,192,65625,1,0,0:0:0:0:
320,192,65812,1,0,0:0:0:70:LR_Tom Hit 3.wav
448,192,66000,1,0,0:0:0:0:
320,192,66375,1,0,0:0:0:0:
192,192,66562,1,0,0:0:0:0:
64,192,66750,1,0,0:0:0:70:LR_Tom Hit 2.wav
448,192,66937,1,0,0:0:0:0:
320,192,67125,1,0,0:0:0:70:LR_J Hit Edge F.wav
192,192,67312,1,0,0:0:0:70:LR_J Hit Edge F.wav
64,192,67500,1,0,0:0:0:70:LR_Tom Hit 3.wav
320,192,67875,1,0,0:0:0:70:LR_Tom Hit 2.wav
192,192,68062,1,2,0:0:0:0:
64,192,68250,1,6,0:0:0:0:
448,192,68250,1,0,0:0:0:0:
320,192,68625,1,8,0:0:0:0:
192,192,68812,1,0,0:0:0:0:
448,192,69000,1,2,0:0:0:0:
64,192,69375,1,8,0:0:0:0:
192,192,69562,1,0,0:0:0:0:
448,192,69750,1,2,0:0:0:0:
320,192,69937,1,0,0:0:0:0:
192,192,70125,1,8,0:0:0:0:
64,192,70312,1,0,0:0:0:0:
448,192,70500,1,2,0:0:0:0:
320,192,70875,1,8,0:0:0:0:
192,192,71062,1,0,0:0:0:0:
64,192,71250,1,2,0:0:0:0:
192,192,71625,1,8,0:0:0:0:
320,192,71812,1,0,0:0:0:0:
448,192,72000,1,2,0:0:0:0:
192,192,72375,1,8,0:0:0:0:
64,192,72562,1,2,0:0:0:0:
448,192,72750,1,0,0:0:0:0:
320,192,72937,1,0,0:0:0:0:
192,192,73125,1,0,0:0:0:0:
64,192,73312,1,0,0:0:0:0:
448,192,73500,1,0,0:0:0:0:
320,192,73875,1,0,0:0:0:70:S.wav
192,192,74062,1,0,0:0:0:0:
64,192,74250,1,2,0:0:0:0:
448,192,74250,1,4,0:0:0:0:
192,192,74625,1,8,0:0:0:0:
320,192,74812,1,0,0:0:0:0:
64,192,75000,1,2,0:0:0:0:
448,192,75000,1,0,0:0:0:0:
320,192,75375,1,8,0:0:0:0:
192,192,75562,1,0,0:0:0:0:
64,192,75750,1,2,0:0:0:0:
448,192,75750,1,0,0:0:0:0:
320,192,76031,1,0,0:0:0:0:
192,192,76125,1,8,0:0:0:0:
320,192,76312,1,0,0:0:0:0:
192,192,76500,128,2,76875:0:0:0:0:
448,192,76500,1,0,0:0:0:0:
64,192,76875,1,8,0:0:0:0:
192,192,77062,1,0,0:0:0:0:
320,192,77250,1,2,0:0:0:0:
448,192,77250,1,4,0:0:0:0:
448,192,77625,1,8,0:0:0:0:
192,192,77812,1,0,0:0:0:0:
64,192,78000,1,2,0:0:0:0:
320,192,78000,1,0,0:0:0:0:
192,192,78375,1,8,0:0:0:0:
320,192,78562,1,0,0:0:0:0:
64,192,78750,1,2,0:0:0:0:
448,192,78750,1,0,0:0:0:0:
192,192,79031,1,0,0:0:0:0:
320,192,79125,1,8,0:0:0:0:
192,192,79312,1,0,0:0:0:0:
64,192,79500,1,2,0:0:0:0:
448,192,79500,128,0,79875:0:0:0:0:
320,192,79875,1,12,0:0:0:0:
192,192,80062,1,2,0:0:0:0:
64,192,80250,1,2,0:0:0:0:
448,192,80250,1,4,0:0:0:0:
192,192,80625,1,8,0:0:0:0:
448,192,80812,1,0,0:0:0:0:
64,192,81000,1,2,0:0:0:0:
320,192,81000,1,0,0:0:0:0:
192,192,81375,1,8,0:0:0:0:
320,192,81562,1,0,0:0:0:0:
64,192,81750,1,2,0:0:0:0:
448,192,81750,1,0,0:0:0:0:
320,192,82031,1,0,0:0:0:0:
192,192,82125,1,8,0:0:0:0:
448,192,82312,1,0,0:0:0:0:
64,192,82500,1,2,0:0:0:0:
320,192,82500,128,0,82875:0:0:0:0:
192,192,82875,1,8,0:0:0:0:
64,192,83062,1,0,0:0:0:0:
320,192,83250,1,2,0:0:0:0:
448,192,83250,1,4,0:0:0:0:
192,192,83625,1,8,0:0:0:0:
448,192,83812,1,0,0:0:0:0:
64,192,84000,1,2,0:0:0:0:
320,192,84000,1,0,0:0:0:0:
192,192,84375,1,12,0:0:0:0:
320,192,84562,1,0,0:0:0:0:
64,192,84750,1,2,0:0:0:0:
448,192,84750,1,4,0:0:0:0:
320,192,84937,1,2,0:0:0:0:
64,192,85125,1,8,0:0:0:0:
192,192,85125,1,4,0:0:0:0:
448,192,85312,1,2,0:0:0:0:
192,192,85500,1,2,0:0:0:0:
320,192,85500,128,4,85875:0:0:0:0:
64,192,85875,1,12,0:0:0:0:
448,192,85875,128,0,86250:0:0:0:70:S.wav
64,192,86250,128,4,86812:0:0:0:0:
192,192,86250,1,2,0:0:0:0:
320,192,86625,1,8,0:0:0:0:
192,192,86812,1,0,0:0:0:0:
448,192,86812,1,0,0:0:0:0:
320,192,87187,1,0,0:0:0:0:
448,192,87187,1,0,0:0:0:0:
192,192,87375,1,8,0:0:0:0:
64,192,87562,1,0,0:0:0:0:
192,192,87750,128,2,88312:0:0:0:0:
320,192,87750,1,0,0:0:0:0:
448,192,88125,1,8,0:0:0:0:
64,192,88312,1,0,0:0:0:0:
320,192,88312,1,0,0:0:0:0:
192,192,88687,1,0,0:0:0:0:
448,192,88687,1,0,0:0:0:0:
320,192,88875,1,8,0:0:0:0:
192,192,89062,1,0,0:0:0:0:
64,192,89250,128,2,89812:0:0:0:0:
320,192,89250,1,4,0:0:0:0:
448,192,89625,1,8,0:0:0:0:
192,192,89812,1,0,0:0:0:0:
320,192,89812,1,0,0:0:0:0:
64,192,90187,1,0,0:0:0:0:
448,192,90187,1,0,0:0:0:0:
320,192,90375,1,8,0:0:0:0:
192,192,90562,1,0,0:0:0:0:
64,192,90750,1,2,0:0:0:0:
320,192,90750,1,0,0:0:0:0:
192,192,91125,1,8,0:0:0:0:
448,192,91125,1,0,0:0:0:0:
64,192,91500,1,2,0:0:0:0:
320,192,91500,1,0,0:0:0:0:
192,192,91875,1,8,0:0:0:0:
448,192,91875,1,4,0:0:0:0:
320,192,92250,1,2,0:0:0:0:
448,192,92250,128,4,92812:0:0:0:0:
64,192,92625,1,8,0:0:0:0:
192,192,92812,1,0,0:0:0:0:
320,192,92812,1,0,0:0:0:0:
64,192,93187,1,0,0:0:0:0:
448,192,93187,1,0,0:0:0:0:
320,192,93375,1,8,0:0:0:0:
192,192,93562,1,0,0:0:0:0:
64,192,93750,128,2,94312:0:0:0:0:
320,192,93750,1,0,0:0:0:0:
192,192,94125,1,8,0:0:0:0:
320,192,94312,1,0,0:0:0:0:
448,192,94312,1,0,0:0:0:0:
64,192,94687,1,0,0:0:0:0:
192,192,94687,1,0,0:0:0:0:
320,192,94875,1,8,0:0:0:0:
448,192,95062,1,0,0:0:0:0:
64,192,95250,128,2,95812:0:0:0:0:
192,192,95250,1,4,0:0:0:0:
320,192,95625,1,8,0:0:0:0:
192,192,95812,1,0,0:0:0:0:
448,192,95812,1,0,0:0:0:0:
192,192,96187,1,0,0:0:0:0:
320,192,96187,1,0,0:0:0:0:
64,192,96375,1,8,0:0:0:0:
192,192,96562,1,0,0:0:0:0:
64,192,96750,128,4,97125:0:0:0:0:
448,192,96750,1,2,0:0:0:0:
192,192,97125,128,4,97500:0:0:0:0:
320,192,97125,1,8,0:0:0:0:
64,192,97500,1,4,0:0:0:0:
448,192,97500,128,2,98250:0:0:0:0:
320,192,97687,1,2,0:0:0:0:
192,192,97875,1,12,0:0:0:0:
64,192,98062,1,2,0:0:0:0:
192,192,98250,1,2,0:0:0:0:
320,192,98250,1,0,0:0:0:100:cymbal.wav
64,192,98625,1,0,0:0:0:0:
192,192,99000,1,0,0:0:0:0:
320,192,99375,1,0,0:0:0:0:
448,192,99750,1,0,0:0:0:0:
64,192,100125,1,0,0:0:0:0:
320,192,100500,1,0,0:0:0:0:
