osu file format v14

[General]
AudioFilename: audio.mp3
AudioLeadIn: 0
PreviewTime: 35625
Countdown: 0
SampleSet: Soft
StackLeniency: 0.7
Mode: 3
LetterboxInBreaks: 0
SpecialStyle: 0
WidescreenStoryboard: 1

[Editor]
Bookmarks: 750,6750,12750,24750,36750,48750,54750,62250,68250,74250,86250,98250
DistanceSpacing: 0.8
BeatDivisor: 4
GridSize: 32
TimelineZoom: 1.8

[Metadata]
Title:Hana Ranman -Flowers-
TitleUnicode:華爛漫 -Flowers-
Artist:TERRA
ArtistUnicode:TЁЯRA
Creator:Tamaki Iroha
Version:Madoka's Blossom
Source:DanceDanceRevolution SuperNOVA
Tags:Beatmania iidx 15 iidx15 troopers jubeat saucer pop'n music popn ddr ds dancing stage maeda naoki 前田 尚紀 jun tomori naotoshi HYPER JAPANESQUE 2 Video game japanese FAMoss Madoka2574
BeatmapID:2266574
BeatmapSetID:939363

[Difficulty]
HPDrainRate:8.5
CircleSize:4
OverallDifficulty:8.5
ApproachRate:5
SliderMultiplier:1.4
SliderTickRate:1

[Events]
//Background and Video events
0,0,"f867b91f683be1f6199af99af341a7a653479c35.jpg",0,0
//Break Periods
//Storyboard Layer 0 (Background)
//Storyboard Layer 1 (Fail)
//Storyboard Layer 2 (Pass)
//Storyboard Layer 3 (Foreground)
//Storyboard Layer 4 (Overlay)
//Storyboard Sound Samples

[TimingPoints]
750,375,4,2,1,70,1,0
36750,-100,4,2,1,70,0,1
48750,-100,4,2,1,70,0,0
74250,-100,4,2,1,70,0,1
98250,-100,4,2,1,70,0,0

[HitObjects]
192,192,375,5,2,0:0:0:0:
320,192,562,1,0,0:0:0:0:
64,192,750,1,2,0:0:0:0:
192,192,750,1,4,0:0:0:0:
320,192,750,1,0,0:0:0:0:
448,192,750,128,0,937:0:0:0:0:
192,192,937,1,0,0:0:0:0:
64,192,1125,128,0,1312:0:0:0:50:Clap2.wav
320,192,1125,1,0,0:0:0:0:
448,192,1312,1,0,0:0:0:0:
64,192,1500,1,2,0:0:0:0:
192,192,1500,1,0,0:0:0:0:
320,192,1500,128,0,1687:0:0:0:0:
448,192,1687,1,0,0:0:0:0:
64,192,1875,128,0,2062:0:0:0:50:Clap2.wav
192,192,1875,1,0,0:0:0:0:
320,192,2062,1,0,0:0:0:0:
64,192,2250,1,2,0:0:0:0:
192,192,2250,128,0,2437:0:0:0:0:
448,192,2250,1,0,0:0:0:0:
320,192,2437,1,0,0:0:0:0:
192,192,2625,1,0,0:0:0:50:Clap2.wav
448,192,2625,128,0,2812:0:0:0:0:
320,192,2812,1,0,0:0:0:0:
64,192,3000,1,2,0:0:0:0:
192,192,3000,128,0,3187:0:0:0:0:
448,192,3000,1,0,0:0:0:0:
320,192,3187,1,0,0:0:0:0:
64,192,3375,1,0,0:0:0:50:Clap2.wav
448,192,3375,1,0,0:0:0:0:
192,192,3562,1,0,0:0:0:0:
64,192,3750,1,2,0:0:0:0:
320,192,3750,1,0,0:0:0:0:
448,192,3750,128,0,3937:0:0:0:0:
64,192,3937,1,0,0:0:0:0:
192,192,4125,1,2,0:0:0:0:
320,192,4125,1,0,0:0:0:50:Clap2.wav
448,192,4125,128,0,4312:0:0:0:0:
192,192,4312,1,0,0:0:0:0:
64,192,4500,128,2,4687:0:0:0:0:
320,192,4500,1,0,0:0:0:0:
448,192,4500,1,0,0:0:0:0:
448,192,4687,1,0,0:0:0:0:
64,192,4875,128,2,5062:0:0:0:0:
192,192,4875,1,0,0:0:0:50:Clap2.wav
320,192,4875,1,0,0:0:0:0:
320,192,5062,1,0,0:0:0:0:
64,192,5250,1,2,0:0:0:0:
448,192,5250,1,4,0:0:0:0:
192,192,5343,1,0,0:0:0:0:
320,192,5437,1,0,0:0:0:0:
448,192,5484,1,0,0:0:0:0:
192,192,5531,1,0,0:0:0:0:
64,192,5578,1,0,0:0:0:0:
320,192,5625,1,6,0:0:0:0:
448,192,5625,1,0,0:0:0:50:Clap2.wav
192,192,5718,1,0,0:0:0:0:
64,192,5812,1,0,0:0:0:0:
192,192,5906,1,0,0:0:0:0:
64,192,6000,1,2,0:0:0:0:
448,192,6000,1,4,0:0:0:0:
320,192,6093,1,0,0:0:0:0:
448,192,6187,1,0,0:0:0:50:Clap2.wav
320,192,6281,1,0,0:0:0:0:
64,192,6375,1,0,0:0:0:70:S.wav
192,192,6375,1,0,0:0:0:0:
448,192,6375,1,0,0:0:0:0:
64,192,6750,1,4,0:0:0:0:
320,192,6750,1,2,0:0:0:0:
448,192,6750,1,0,0:0:0:0:
192,192,6937,1,0,0:0:0:0:
320,192,6937,1,0,0:0:0:0:
64,192,7125,1,8,0:0:0:0:
192,192,7125,1,0,0:0:0:0:
448,192,7125,1,0,0:0:0:0:
320,192,7312,1,0,0:0:0:0:
448,192,7312,1,0,0:0:0:0:
64,192,7500,1,2,0:0:0:0:
192,192,7500,1,0,0:0:0:0:
448,192,7500,1,0,0:0:0:0:
192,192,7687,1,0,0:0:0:0:
320,192,7687,1,0,0:0:0:0:
64,192,7875,1,8,0:0:0:0:
192,192,7875,1,0,0:0:0:0:
448,192,7875,1,0,0:0:0:0:
64,192,8062,1,0,0:0:0:0:
320,192,8062,1,0,0:0:0:0:
192,192,8250,1,2,0:0:0:0:
320,192,8250,1,0,0:0:0:0:
448,192,8250,1,0,0:0:0:0:
64,192,8437,1,0,0:0:0:0:
448,192,8437,1,0,0:0:0:0:
64,192,8625,1,8,0:0:0:0:
192,192,8625,1,0,0:0:0:0:
320,192,8625,1,0,0:0:0:0:
192,192,8812,1,0,0:0:0:0:
448,192,8812,1,0,0:0:0:0:
64,192,9000,1,2,0:0:0:0:
320,192,9000,1,0,0:0:0:0:
448,192,9000,1,0,0:0:0:0:
192,192,9187,1,0,0:0:0:0:
320,192,9187,1,0,0:0:0:0:
64,192,9375,1,8,0:0:0:0:
192,192,9375,1,0,0:0:0:0:
448,192,9375,1,0,0:0:0:0:
192,192,9562,1,0,0:0:0:0:
320,192,9562,1,0,0:0:0:0:
64,192,9750,1,4,0:0:0:0:
320,192,9750,1,2,0:0:0:0:
448,192,9750,1,0,0:0:0:0:
64,192,9937,1,0,0:0:0:0:
320,192,9937,1,0,0:0:0:0:
64,192,10125,1,8,0:0:0:0:
192,192,10125,1,0,0:0:0:0:
448,192,10125,1,0,0:0:0:0:
192,192,10312,1,0,0:0:0:0:
448,192,10312,1,0,0:0:0:0:
64,192,10500,1,4,0:0:0:0:
192,192,10500,1,2,0:0:0:0:
448,192,10500,1,0,0:0:0:0:
64,192,10687,1,0,0:0:0:0:
192,192,10687,1,0,0:0:0:0:
64,192,10875,1,8,0:0:0:0:
320,192,10875,1,0,0:0:0:0:
448,192,10875,1,0,0:0:0:0:
320,192,11062,1,0,0:0:0:0:
448,192,11062,1,0,0:0:0:0:
64,192,11250,1,4,0:0:0:0:
192,192,11250,1,2,0:0:0:0:
448,192,11250,1,0,0:0:0:0:
192,192,11437,1,0,0:0:0:0:
320,192,11437,1,0,0:0:0:0:
64,192,11625,1,4,0:0:0:0:
320,192,11625,1,8,0:0:0:0:
448,192,11625,1,0,0:0:0:0:
64,192,11812,1,0,0:0:0:0:
448,192,11812,1,0,0:0:0:0:
64,192,12000,1,4,0:0:0:0:
192,192,12000,1,2,0:0:0:0:
320,192,12000,1,0,0:0:0:0:
320,192,12187,1,2,0:0:0:0:
320,192,12281,1,2,0:0:0:0:
64,192,12375,1,8,0:0:0:0:
192,192,12375,1,0,0:0:0:70:S.wav
448,192,12375,1,0,0:0:0:0:
192,192,12562,1,2,0:0:0:0:
192,192,12656,1,2,0:0:0:0:
64,192,12750,1,4,0:0:0:0:
448,192,12750,1,2,0:0:0:0:
320,192,12843,1,0,0:0:0:0:
192,192,12937,1,0,0:0:0:0:
64,192,13031,1,0,0:0:0:0:
320,192,13125,1,2,0:0:0:0:
448,192,13125,1,0,0:0:0:50:Clap.wav
192,192,13218,1,0,0:0:0:0:
320,192,13312,1,0,0:0:0:0:
448,192,13406,1,0,0:0:0:0:
64,192,13500,1,2,0:0:0:0:
192,192,13500,1,0,0:0:0:0:
320,192,13593,1,0,0:0:0:0:
448,192,13687,1,0,0:0:0:0:
64,192,13781,1,0,0:0:0:0:
192,192,13875,1,2,0:0:0:0:
448,192,13875,1,0,0:0:0:50:Clap.wav
320,192,13968,1,0,0:0:0:0:
192,192,14062,1,0,0:0:0:0:
64,192,14156,1,0,0:0:0:0:
320,192,14250,1,2,0:0:0:0:
448,192,14250,1,0,0:0:0:0:
192,192,14343,1,0,0:0:0:0:
320,192,14437,1,0,0:0:0:0:
192,192,14531,1,0,0:0:0:0:
64,192,14625,1,2,0:0:0:0:
448,192,14625,1,0,0:0:0:50:Clap.wav
320,192,14718,1,0,0:0:0:0:
192,192,14812,1,0,0:0:0:0:
320,192,14906,1,0,0:0:0:0:
64,192,15000,1,2,0:0:0:0:
448,192,15000,1,0,0:0:0:0:
192,192,15093,1,0,0:0:0:0:
320,192,15187,1,0,0:0:0:0:
448,192,15281,1,0,0:0:0:0:
64,192,15375,1,2,0:0:0:0:
192,192,15375,1,0,0:0:0:50:Clap.wav
320,192,15468,1,0,0:0:0:0:
448,192,15562,1,0,0:0:0:0:
320,192,15656,1,0,0:0:0:0:
64,192,15750,1,2,0:0:0:0:
192,192,15750,1,0,0:0:0:0:
448,192,15843,1,0,0:0:0:0:
320,192,15937,1,0,0:0:0:0:
192,192,16031,1,0,0:0:0:0:
64,192,16125,1,2,0:0:0:0:
448,192,16125,1,0,0:0:0:50:Clap.wav
320,192,16218,1,0,0:0:0:0:
448,192,16312,1,0,0:0:0:0:
320,192,16406,1,0,0:0:0:0:
64,192,16500,1,2,0:0:0:0:
192,192,16500,1,0,0:0:0:0:
320,192,16593,1,0,0:0:0:0:
448,192,16687,1,0,0:0:0:0:
64,192,16781,1,0,0:0:0:0:
192,192,16875,1,2,0:0:0:0:
320,192,16875,1,0,0:0:0:50:Clap.wav
448,192,16968,1,0,0:0:0:0:
64,192,17062,1,0,0:0:0:0:
192,192,17156,1,0,0:0:0:0:
64,192,17250,1,2,0:0:0:0:
448,192,17250,1,0,0:0:0:0:
192,192,17343,1,0,0:0:0:0:
320,192,17437,1,0,0:0:0:0:
192,192,17531,1,0,0:0:0:0:
64,192,17625,1,2,0:0:0:0:
448,192,17625,1,0,0:0:0:50:Clap.wav
320,192,17718,1,0,0:0:0:0:
192,192,17812,1,0,0:0:0:0:
320,192,17906,1,0,0:0:0:0:
64,192,18000,1,2,0:0:0:0:
448,192,18000,1,0,0:0:0:0:
192,192,18093,1,0,0:0:0:0:
320,192,18093,1,0,0:0:0:0:
64,192,18187,1,0,0:0:0:0:
448,192,18187,1,0,0:0:0:0:
320,192,18281,1,0,0:0:0:0:
64,192,18375,1,2,0:0:0:0:
192,192,18375,1,0,0:0:0:50:Clap.wav
320,192,18468,1,0,0:0:0:0:
448,192,18468,1,0,0:0:0:0:
64,192,18562,1,2,0:0:0:0:
192,192,18562,1,0,0:0:0:0:
320,192,18656,1,0,0:0:0:0:
448,192,18656,1,0,0:0:0:0:
64,192,18750,1,2,0:0:0:0:
192,192,18750,1,0,0:0:0:0:
448,192,18843,1,0,0:0:0:0:
320,192,18937,1,0,0:0:0:0:
192,192,19031,1,0,0:0:0:0:
320,192,19125,1,2,0:0:0:0:
448,192,19125,1,0,0:0:0:50:Clap.wav
64,192,19218,1,0,0:0:0:0:
192,192,19312,1,0,0:0:0:0:
320,192,19406,1,0,0:0:0:0:
64,192,19500,1,2,0:0:0:0:
448,192,19500,1,0,0:0:0:0:
192,192,19593,1,0,0:0:0:0:
320,192,19687,1,0,0:0:0:0:
448,192,19781,1,0,0:0:0:0:
64,192,19875,1,2,0:0:0:0:
192,192,19875,1,0,0:0:0:50:Clap.wav
320,192,19968,1,0,0:0:0:0:
448,192,20062,1,0,0:0:0:0:
192,192,20156,1,0,0:0:0:0:
64,192,20250,1,2,0:0:0:0:
320,192,20250,1,0,0:0:0:0:
448,192,20343,1,0,0:0:0:0:
192,192,20437,1,0,0:0:0:0:
64,192,20531,1,0,0:0:0:0:
320,192,20625,1,2,0:0:0:0:
448,192,20625,1,0,0:0:0:50:Clap.wav
192,192,20718,1,0,0:0:0:0:
320,192,20812,1,0,0:0:0:0:
192,192,20906,1,0,0:0:0:0:
64,192,21000,1,2,0:0:0:0:
448,192,21000,128,0,21093:0:0:0:0:
320,192,21093,128,0,21187:0:0:0:0:
64,192,21187,128,0,21281:0:0:0:0:
192,192,21281,128,0,21375:0:0:0:0:
64,192,21375,1,2,0:0:0:0:
448,192,21375,128,0,21468:0:0:0:50:Clap.wav
320,192,21468,128,0,21562:0:0:0:0:
192,192,21562,128,0,21656:0:0:0:0:
64,192,21656,128,0,21750:0:0:0:0:
320,192,21750,1,2,0:0:0:0:
448,192,21750,1,0,0:0:0:0:
192,192,21843,1,0,0:0:0:0:
448,192,21937,1,0,0:0:0:0:
320,192,22031,1,0,0:0:0:0:
64,192,22125,1,2,0:0:0:0:
192,192,22125,1,0,0:0:0:50:Clap.wav
448,192,22218,1,0,0:0:0:0:
320,192,22312,1,0,0:0:0:0:
448,192,22406,1,0,0:0:0:0:
64,192,22500,1,2,0:0:0:0:
320,192,22500,1,0,0:0:0:0:
192,192,22593,1,0,0:0:0:0:
320,192,22687,1,0,0:0:0:0:
448,192,22781,1,0,0:0:0:0:
64,192,22875,1,2,0:0:0:0:
192,192,22875,1,0,0:0:0:50:Clap.wav
320,192,22968,1,0,0:0:0:0:
192,192,23062,1,0,0:0:0:0:
320,192,23156,1,0,0:0:0:0:
64,192,23250,1,2,0:0:0:0:
448,192,23250,1,0,0:0:0:0:
192,192,23343,1,0,0:0:0:0:
320,192,23437,1,0,0:0:0:0:
192,192,23531,1,0,0:0:0:0:
64,192,23625,1,2,0:0:0:0:
448,192,23625,1,0,0:0:0:50:Clap.wav
320,192,23718,1,0,0:0:0:0:
192,192,23812,1,0,0:0:0:0:
64,192,23906,1,0,0:0:0:0:
320,192,24000,128,2,24093:0:0:0:0:
448,192,24000,1,0,0:0:0:0:
192,192,24093,128,0,24187:0:0:0:0:
64,192,24187,128,2,24281:0:0:0:0:
448,192,24187,1,0,0:0:0:0:
192,192,24281,128,2,24375:0:0:0:0:
320,192,24281,1,0,0:0:0:0:
64,192,24375,1,2,0:0:0:0:
448,192,24375,128,0,24468:0:0:0:50:Clap.wav
320,192,24468,128,0,24562:0:0:0:0:
64,192,24562,1,2,0:0:0:0:
192,192,24562,128,0,24656:0:0:0:0:
320,192,24656,128,2,24750:0:0:0:0:
448,192,24656,1,0,0:0:0:0:
64,192,24750,128,4,24937:0:0:0:0:
192,192,24750,1,2,0:0:0:0:
448,192,24843,1,0,0:0:0:0:
320,192,24937,1,0,0:0:0:0:
192,192,25031,1,0,0:0:0:0:
320,192,25125,1,2,0:0:0:0:
448,192,25125,128,0,25312:0:0:0:50:Clap.wav
192,192,25312,1,0,0:0:0:0:
320,192,25406,1,0,0:0:0:0:
64,192,25500,1,2,0:0:0:0:
192,192,25500,128,0,25687:0:0:0:0:
320,192,25593,1,0,0:0:0:0:
448,192,25687,128,0,25875:0:0:0:0:
64,192,25875,128,2,26062:0:0:0:0:
192,192,25875,1,0,0:0:0:50:Clap.wav
320,192,25968,1,0,0:0:0:0:
448,192,26062,1,0,0:0:0:0:
192,192,26156,1,0,0:0:0:0:
64,192,26250,1,2,0:0:0:0:
320,192,26250,1,0,0:0:0:0:
192,192,26343,1,0,0:0:0:0:
448,192,26437,1,0,0:0:0:0:
320,192,26531,1,0,0:0:0:0:
64,192,26625,1,2,0:0:0:0:
192,192,26625,1,0,0:0:0:50:Clap.wav
448,192,26718,1,0,0:0:0:0:
64,192,26812,1,0,0:0:0:0:
192,192,26906,1,0,0:0:0:0:
320,192,27000,1,2,0:0:0:0:
448,192,27000,1,0,0:0:0:0:
64,192,27093,1,2,0:0:0:0:
192,192,27093,1,0,0:0:0:0:
448,192,27187,1,2,0:0:0:0:
320,192,27281,1,2,0:0:0:0:
64,192,27375,128,2,27750:0:0:0:0:
192,192,27375,1,0,0:0:0:50:Clap.wav
448,192,27375,1,0,0:0:0:0:
320,192,27562,1,0,0:0:0:0:
192,192,27750,1,2,0:0:0:0:
448,192,27750,128,0,27937:0:0:0:0:
320,192,27843,1,0,0:0:0:0:
64,192,27937,1,0,0:0:0:0:
320,192,28031,1,0,0:0:0:0:
192,192,28125,128,2,28312:0:0:0:0:
448,192,28125,1,0,0:0:0:50:Clap.wav
320,192,28312,1,0,0:0:0:0:
64,192,28406,1,0,0:0:0:0:
192,192,28500,1,2,0:0:0:0:
448,192,28500,128,0,28687:0:0:0:0:
320,192,28593,1,0,0:0:0:0:
192,192,28687,128,0,28875:0:0:0:0:
320,192,28875,128,2,29062:0:0:0:0:
448,192,28875,1,0,0:0:0:50:Clap.wav
64,192,28968,1,0,0:0:0:0:
192,192,29062,1,0,0:0:0:0:
320,192,29156,1,0,0:0:0:0:
64,192,29250,1,2,0:0:0:0:
448,192,29250,1,0,0:0:0:0:
192,192,29343,1,0,0:0:0:0:
448,192,29437,1,0,0:0:0:0:
320,192,29531,1,0,0:0:0:0:
64,192,29625,1,2,0:0:0:0:
192,192,29625,1,0,0:0:0:50:Clap.wav
320,192,29718,1,0,0:0:0:0:
448,192,29812,1,0,0:0:0:0:
64,192,29906,1,0,0:0:0:0:
192,192,30000,1,2,0:0:0:0:
320,192,30000,1,0,0:0:0:0:
64,192,30093,1,2,0:0:0:0:
448,192,30093,1,0,0:0:0:0:
192,192,30187,1,2,0:0:0:0:
320,192,30281,1,2,0:0:0:0:
64,192,30375,1,2,0:0:0:0:
192,192,30375,1,0,0:0:0:50:Clap.wav
448,192,30375,128,0,30750:0:0:0:0:
64,192,30562,1,2,0:0:0:0:
64,192,30656,1,2,0:0:0:0:
192,192,30750,128,2,30937:0:0:0:0:
320,192,30750,1,4,0:0:0:0:
448,192,30843,1,0,0:0:0:0:
320,192,30937,1,0,0:0:0:0:
192,192,31031,1,0,0:0:0:0:
64,192,31125,128,2,31312:0:0:0:0:
448,192,31125,1,0,0:0:0:50:Clap.wav
320,192,31312,1,0,0:0:0:0:
64,192,31406,1,0,0:0:0:0:
192,192,31500,1,2,0:0:0:0:
448,192,31500,128,0,31687:0:0:0:0:
320,192,31593,1,0,0:0:0:0:
64,192,31687,128,0,31875:0:0:0:0:
320,192,31875,128,2,32062:0:0:0:0:
448,192,31875,1,0,0:0:0:50:Clap.wav
64,192,31968,1,0,0:0:0:0:
192,192,32062,1,0,0:0:0:0:
320,192,32156,1,0,0:0:0:0:
64,192,32250,1,2,0:0:0:0:
448,192,32250,1,0,0:0:0:0:
192,192,32343,1,0,0:0:0:0:
320,192,32437,1,0,0:0:0:0:
192,192,32531,1,0,0:0:0:0:
320,192,32625,1,2,0:0:0:0:
448,192,32625,1,0,0:0:0:50:Clap.wav
64,192,32718,1,0,0:0:0:0:
192,192,32812,1,0,0:0:0:0:
64,192,32906,1,0,0:0:0:0:
320,192,33000,1,2,0:0:0:0:
448,192,33000,1,0,0:0:0:0:
64,192,33093,1,2,0:0:0:0:
192,192,33093,1,0,0:0:0:0:
448,192,33187,1,2,0:0:0:0:
320,192,33281,1,0,0:0:0:0:
64,192,33375,1,2,0:0:0:0:
192,192,33375,128,0,33750:0:0:0:50:Clap.wav
448,192,33375,1,0,0:0:0:0:
320,192,33562,1,0,0:0:0:0:
64,192,33750,1,2,0:0:0:0:
448,192,33750,1,0,0:0:0:0:
320,192,33843,1,0,0:0:0:0:
192,192,33937,1,0,0:0:0:0:
64,192,34031,1,0,0:0:0:0:
320,192,34125,1,2,0:0:0:0:
448,192,34125,128,0,34312:0:0:0:50:Clap.wav
192,192,34312,1,0,0:0:0:0:
320,192,34406,1,0,0:0:0:0:
64,192,34500,1,2,0:0:0:0:
448,192,34500,1,0,0:0:0:0:
192,192,34593,1,0,0:0:0:0:
64,192,34687,1,2,0:0:0:0:
448,192,34687,128,0,34875:0:0:0:0:
192,192,34875,1,2,0:0:0:0:
320,192,34875,1,0,0:0:0:50:Clap.wav
64,192,34968,1,2,0:0:0:0:
448,192,34968,1,0,0:0:0:0:
192,192,35062,1,2,0:0:0:0:
320,192,35062,1,0,0:0:0:0:
64,192,35156,1,2,0:0:0:0:
448,192,35156,1,0,0:0:0:0:
192,192,35250,1,2,0:0:0:0:
320,192,35250,1,4,0:0:0:0:
192,192,35625,1,2,0:0:0:0:
320,192,35625,1,4,0:0:0:0:
64,192,36000,128,0,36375:0:0:0:0:
448,192,36187,1,2,0:0:0:0:
320,192,36281,1,2,0:0:0:0:
192,192,36375,128,2,36750:0:0:0:0:
448,192,36375,1,0,0:0:0:70:S.wav
320,192,36562,128,0,36750:0:0:0:0:
64,192,36750,1,2,0:0:0:0:
448,192,36750,128,4,36937:0:0:0:0:
192,192,36937,1,0,0:0:0:0:
64,192,37125,128,8,37312:0:0:0:0:
320,192,37125,1,0,0:0:0:0:
448,192,37125,1,0,0:0:0:0:
192,192,37312,128,0,37500:0:0:0:0:
448,192,37312,1,0,0:0:0:0:
320,192,37500,1,2,0:0:0:0:
448,192,37500,128,0,37687:0:0:0:0:
64,192,37687,1,0,0:0:0:0:
64,192,37875,1,8,0:0:0:0:
320,192,37875,1,0,0:0:0:0:
448,192,37875,1,0,0:0:0:0:
192,192,38062,1,0,0:0:0:0:
448,192,38062,1,0,0:0:0:0:
64,192,38250,1,2,0:0:0:0:
320,192,38250,1,0,0:0:0:0:
192,192,38437,1,0,0:0:0:0:
320,192,38531,1,0,0:0:0:0:
64,192,38625,1,8,0:0:0:0:
192,192,38625,1,0,0:0:0:0:
448,192,38625,1,0,0:0:0:0:
320,192,38812,1,0,0:0:0:0:
64,192,38906,1,0,0:0:0:0:
192,192,39000,1,2,0:0:0:0:
448,192,39000,1,0,0:0:0:0:
320,192,39187,1,0,0:0:0:0:
448,192,39187,1,0,0:0:0:0:
64,192,39375,1,8,0:0:0:0:
192,192,39375,1,0,0:0:0:0:
320,192,39375,128,0,39562:0:0:0:0:
64,192,39562,128,0,39750:0:0:0:0:
448,192,39562,1,0,0:0:0:0:
192,192,39750,1,2,0:0:0:0:
320,192,39750,1,4,0:0:0:0:
448,192,39750,128,0,39937:0:0:0:0:
64,192,39937,1,0,0:0:0:0:
64,192,40125,1,8,0:0:0:0:
192,192,40125,1,0,0:0:0:0:
320,192,40125,128,0,40312:0:0:0:0:
64,192,40312,128,0,40500:0:0:0:0:
448,192,40312,1,0,0:0:0:0:
192,192,40500,1,2,0:0:0:0:
448,192,40500,128,0,40687:0:0:0:0:
320,192,40687,1,0,0:0:0:0:
64,192,40875,1,8,0:0:0:0:
192,192,40875,1,0,0:0:0:0:
448,192,40875,1,0,0:0:0:0:
192,192,41062,1,0,0:0:0:0:
320,192,41062,1,0,0:0:0:0:
64,192,41250,1,2,0:0:0:0:
448,192,41250,1,0,0:0:0:0:
192,192,41437,1,0,0:0:0:0:
448,192,41531,1,0,0:0:0:0:
64,192,41625,1,8,0:0:0:0:
192,192,41625,1,0,0:0:0:0:
320,192,41625,1,0,0:0:0:0:
320,192,41812,1,0,0:0:0:0:
192,192,41906,1,0,0:0:0:0:
64,192,42000,1,2,0:0:0:0:
448,192,42000,1,0,0:0:0:0:
320,192,42187,1,0,0:0:0:0:
64,192,42281,1,2,0:0:0:0:
192,192,42281,1,0,0:0:0:0:
320,192,42375,1,8,0:0:0:0:
448,192,42375,128,4,42562:0:0:0:0:
192,192,42562,1,0,0:0:0:0:
320,192,42656,1,2,0:0:0:0:
448,192,42656,1,0,0:0:0:0:
64,192,42750,128,2,42937:0:0:0:0:
192,192,42750,1,4,0:0:0:0:
320,192,42937,1,0,0:0:0:0:
64,192,43125,1,8,0:0:0:0:
192,192,43125,1,0,0:0:0:0:
448,192,43125,128,0,43312:0:0:0:0:
192,192,43312,1,0,0:0:0:0:
320,192,43312,128,0,43500:0:0:0:0:
64,192,43500,128,2,43687:0:0:0:0:
448,192,43500,1,0,0:0:0:0:
320,192,43687,1,0,0:0:0:0:
64,192,43875,1,8,0:0:0:0:
192,192,43875,1,0,0:0:0:0:
448,192,43875,1,0,0:0:0:0:
192,192,44062,1,0,0:0:0:0:
320,192,44062,1,0,0:0:0:0:
64,192,44250,1,2,0:0:0:0:
448,192,44250,1,0,0:0:0:0:
320,192,44437,1,0,0:0:0:0:
192,192,44531,1,0,0:0:0:0:
64,192,44625,1,8,0:0:0:0:
320,192,44625,1,0,0:0:0:0:
448,192,44625,1,0,0:0:0:0:
320,192,44812,1,0,0:0:0:0:
448,192,44906,1,0,0:0:0:0:
64,192,45000,1,2,0:0:0:0:
192,192,45000,1,0,0:0:0:0:
192,192,45187,1,0,0:0:0:0:
320,192,45187,1,0,0:0:0:0:
64,192,45375,128,8,45562:0:0:0:0:
320,192,45375,1,0,0:0:0:0:
448,192,45375,1,0,0:0:0:0:
192,192,45562,1,0,0:0:0:0:
448,192,45562,128,0,45750:0:0:0:0:
64,192,45750,1,2,0:0:0:0:
192,192,45750,128,4,45937:0:0:0:0:
320,192,45750,1,0,0:0:0:0:
448,192,45937,1,0,0:0:0:0:
64,192,46125,128,8,46312:0:0:0:0:
320,192,46125,1,0,0:0:0:0:
448,192,46125,1,0,0:0:0:0:
192,192,46312,1,0,0:0:0:0:
448,192,46312,128,0,46500:0:0:0:0:
64,192,46500,1,2,0:0:0:0:
192,192,46500,128,4,46687:0:0:0:0:
320,192,46500,1,0,0:0:0:0:
448,192,46687,1,0,0:0:0:0:
64,192,46875,1,8,0:0:0:0:
192,192,46875,1,0,0:0:0:0:
448,192,46875,1,0,0:0:0:0:
192,192,47062,1,0,0:0:0:0:
320,192,47062,1,0,0:0:0:0:
64,192,47250,1,2,0:0:0:0:
320,192,47250,1,4,0:0:0:0:
448,192,47250,1,0,0:0:0:0:
192,192,47437,1,0,0:0:0:0:
320,192,47531,1,2,0:0:0:0:
448,192,47531,1,0,0:0:0:0:
64,192,47625,1,8,0:0:0:0:
192,192,47625,1,4,0:0:0:0:
320,192,47812,1,2,0:0:0:0:
448,192,47812,1,0,0:0:0:0:
192,192,47906,1,0,0:0:0:0:
64,192,48000,1,2,0:0:0:0:
448,192,48000,1,4,0:0:0:0:
320,192,48093,1,0,0:0:0:0:
192,192,48187,1,0,0:0:0:0:
64,192,48375,1,8,0:0:0:0:
448,192,48375,1,4,0:0:0:0:
192,192,48468,1,2,0:0:0:0:
320,192,48468,1,0,0:0:0:0:
64,192,48562,1,2,0:0:0:0:
448,192,48562,1,0,0:0:0:0:
192,192,48656,1,2,0:0:0:0:
320,192,48656,1,0,0:0:0:0:
64,192,48750,1,4,0:0:0:0:
448,192,48750,128,2,49500:0:0:0:0:
192,192,49125,1,0,0:0:0:0:
64,192,49500,128,0,50250:0:0:0:0:
448,192,49875,1,0,0:0:0:0:
320,192,50156,1,2,0:0:0:0:
192,192,50250,1,2,0:0:0:0:
448,192,50250,128,0,51750:0:0:0:0:
64,192,50625,1,2,0:0:0:0:
320,192,50625,1,4,0:0:0:0:
64,192,51000,1,2,0:0:0:0:
320,192,51000,1,4,0:0:0:0:
192,192,51375,1,0,0:0:0:0:
320,192,51656,1,2,0:0:0:0:
64,192,51750,1,2,0:0:0:0:
192,192,51750,128,4,52500:0:0:0:0:
320,192,52125,1,0,0:0:0:0:
64,192,52500,1,4,0:0:0:0:
448,192,52500,128,2,53250:0:0:0:0:
320,192,52875,128,0,53250:0:0:0:0:
64,192,53250,128,2,54000:0:0:0:0:
192,192,53250,1,4,0:0:0:0:
320,192,53625,1,4,0:0:0:0:
448,192,53625,1,2,0:0:0:0:
320,192,54000,1,2,0:0:0:0:
448,192,54000,1,4,0:0:0:0:
192,192,54187,1,2,0:0:0:0:
448,192,54187,1,0,0:0:0:0:
320,192,54281,1,2,0:0:0:0:
192,192,54375,1,4,0:0:0:0:
448,192,54375,1,2,0:0:0:0:
64,192,54562,1,2,0:0:0:0:
320,192,54562,1,0,0:0:0:0:
192,192,54656,1,2,0:0:0:0:
64,192,54750,1,2,0:0:0:0:
320,192,54750,1,4,0:0:0:0:
448,192,54750,128,0,55125:0:0:0:0:
192,192,54937,1,0,0:0:0:0:
64,192,55125,1,8,0:0:0:0:
192,192,55125,1,0,0:0:0:0:
192,192,55312,1,0,0:0:0:0:
320,192,55312,1,0,0:0:0:0:
320,192,55500,1,2,0:0:0:0:
448,192,55500,128,0,55875:0:0:0:0:
64,192,55687,1,0,0:0:0:0:
192,192,55875,1,8,0:0:0:0:
320,192,55875,1,0,0:0:0:0:
64,192,56062,1,0,0:0:0:0:
192,192,56062,1,0,0:0:0:0:
320,192,56250,1,2,0:0:0:0:
448,192,56250,1,0,0:0:0:0:
64,192,56437,1,0,0:0:0:0:
448,192,56437,1,0,0:0:0:0:
64,192,56625,1,8,0:0:0:0:
320,192,56625,1,0,0:0:0:0:
192,192,56812,1,0,0:0:0:0:
448,192,56812,1,0,0:0:0:0:
192,192,57000,128,2,57375:0:0:0:0:
320,192,57000,1,0,0:0:0:0:
448,192,57187,1,0,0:0:0:0:
64,192,57375,1,8,0:0:0:0:
320,192,57375,1,0,0:0:0:0:
192,192,57562,1,0,0:0:0:0:
448,192,57562,1,0,0:0:0:0:
64,192,57750,128,2,58125:0:0:0:0:
320,192,57750,1,4,0:0:0:0:
448,192,57750,1,0,0:0:0:0:
192,192,57937,1,0,0:0:0:0:
192,192,58125,1,8,0:0:0:0:
320,192,58125,1,0,0:0:0:0:
320,192,58312,1,0,0:0:0:0:
448,192,58312,1,0,0:0:0:0:
64,192,58500,128,2,58875:0:0:0:0:
192,192,58500,1,4,0:0:0:0:
448,192,58500,1,0,0:0:0:0:
320,192,58687,1,0,0:0:0:0:
320,192,58875,1,8,0:0:0:0:
448,192,58875,1,0,0:0:0:0:
64,192,59062,1,8,0:0:0:0:
192,192,59062,1,0,0:0:0:0:
320,192,59156,1,8,0:0:0:0:
64,192,59250,1,2,0:0:0:0:
192,192,59250,1,4,0:0:0:0:
448,192,59250,1,0,0:0:0:0:
320,192,59437,1,0,0:0:0:0:
64,192,59625,1,4,0:0:0:0:
192,192,59625,1,8,0:0:0:0:
448,192,59625,1,0,0:0:0:0:
192,192,59812,1,0,0:0:0:0:
64,192,60000,1,2,0:0:0:0:
320,192,60000,1,4,0:0:0:0:
448,192,60000,1,0,0:0:0:0:
192,192,60187,1,0,0:0:0:0:
320,192,60375,1,8,0:0:0:0:
448,192,60375,1,4,0:0:0:0:
64,192,60468,1,2,0:0:0:0:
192,192,60468,1,0,0:0:0:0:
320,192,60562,1,2,0:0:0:0:
448,192,60562,1,0,0:0:0:0:
64,192,60656,1,2,0:0:0:0:
192,192,60656,1,0,0:0:0:0:
448,192,60750,128,0,61406:0:0:0:70:LR3_BassDropPDG.wav
320,192,60937,128,0,61500:0:0:0:0:
192,192,61125,128,0,61593:0:0:0:0:
64,192,61312,128,0,61687:0:0:0:0:
448,192,61500,128,0,61593:0:0:0:0:
320,192,61593,128,0,61687:0:0:0:0:
192,192,61687,128,0,61781:0:0:0:0:
64,192,61781,128,0,61875:0:0:0:0:
320,192,61875,1,0,0:0:0:0:
448,192,62062,1,0,0:0:0:0:
64,192,62250,1,0,0:0:0:70:cymbal.wav
192,192,62250,1,0,0:0:0:0:
448,192,62250,1,0,0:0:0:0:
320,192,62437,1,0,0:0:0:0:
64,192,62625,1,0,0:0:0:70:LR_Tom Hit 3.wav
192,192,62625,1,0,0:0:0:0:
448,192,62812,1,0,0:0:0:0:
64,192,62906,1,0,0:0:0:0:
192,192,63000,1,0,0:0:0:70:LR_Tom Hit 2.wav
320,192,63000,1,0,0:0:0:0:
64,192,63187,1,0,0:0:0:0:
320,192,63375,1,0,0:0:0:0:
64,192,63562,1,0,0:0:0:70:LR_Tom Hit 3.wav
448,192,63562,1,0,0:0:0:0:
192,192,63750,1,0,0:0:0:0:
448,192,63937,1,0,0:0:0:0:
320,192,64125,1,0,0:0:0:0:
64,192,64312,1,0,0:0:0:0:
192,192,64406,1,0,0:0:0:0:
448,192,64500,1,0,0:0:0:50:LR_J Hit Pong Drop.wav
448,192,64687,1,0,0:0:0:50:LR_J Hit Pong Drop.wav
64,192,64875,1,0,0:0:0:70:LR_Tom Hit 3.wav
320,192,64875,1,0,0:0:0:0:
192,192,65062,1,0,0:0:0:0:
320,192,65250,1,0,0:0:0:70:LR_Tom Hit 2.wav
448,192,65250,1,0,0:0:0:0:
64,192,65437,1,0,0:0:0:0:
448,192,65625,1,0,0:0:0:0:
64,192,65812,1,0,0:0:0:70:LR_Tom Hit 3.wav
320,192,65812,1,0,0:0:0:0:
448,192,65906,1,0,0:0:0:0:
192,192,66000,1,0,0:0:0:0:
320,192,66187,1,0,0:0:0:0:
448,192,66375,1,0,0:0:0:0:
64,192,66562,1,0,0:0:0:0:
320,192,66656,1,0,0:0:0:0:
192,192,66750,1,0,0:0:0:70:LR_Tom Hit 2.wav
448,192,66750,1,0,0:0:0:0:
320,192,66937,1,0,0:0:0:0:
64,192,67125,1,0,0:0:0:70:LR_J Hit Edge F.wav
64,192,67312,1,0,0:0:0:70:LR_J Hit Edge F.wav
192,192,67406,1,0,0:0:0:70:LR_J Hit Edge F.wav
320,192,67500,1,0,0:0:0:70:LR_Tom Hit 3.wav
448,192,67500,1,0,0:0:0:0:
192,192,67687,1,0,0:0:0:0:
64,192,67875,1,0,0:0:0:70:LR_Tom Hit 2.wav
320,192,67875,1,0,0:0:0:0:
192,192,68062,1,2,0:0:0:0:
448,192,68062,1,0,0:0:0:0:
320,192,68156,1,2,0:0:0:0:
64,192,68250,1,2,0:0:0:0:
192,192,68250,1,4,0:0:0:0:
448,192,68250,1,0,0:0:0:0:
320,192,68437,1,0,0:0:0:0:
64,192,68625,1,8,0:0:0:0:
448,192,68625,1,0,0:0:0:0:
192,192,68812,1,0,0:0:0:0:
320,192,68812,1,0,0:0:0:0:
320,192,69000,1,2,0:0:0:0:
448,192,69000,1,0,0:0:0:0:
192,192,69187,1,2,0:0:0:0:
64,192,69375,1,8,0:0:0:0:
448,192,69375,1,0,0:0:0:0:
192,192,69562,1,0,0:0:0:0:
320,192,69562,1,0,0:0:0:0:
64,192,69750,1,2,0:0:0:0:
192,192,69750,1,0,0:0:0:0:
448,192,69937,1,0,0:0:0:0:
192,192,70031,1,0,0:0:0:0:
64,192,70125,1,8,0:0:0:0:
320,192,70125,1,0,0:0:0:0:
192,192,70312,1,0,0:0:0:0:
448,192,70312,1,0,0:0:0:0:
320,192,70500,1,2,0:0:0:0:
448,192,70500,1,0,0:0:0:0:
192,192,70687,1,0,0:0:0:0:
64,192,70875,1,8,0:0:0:0:
448,192,70875,1,0,0:0:0:0:
192,192,71062,1,0,0:0:0:0:
320,192,71062,1,0,0:0:0:0:
64,192,71250,1,2,0:0:0:0:
448,192,71250,1,0,0:0:0:0:
192,192,71437,1,0,0:0:0:0:
320,192,71625,1,8,0:0:0:0:
448,192,71625,1,0,0:0:0:0:
64,192,71812,1,0,0:0:0:0:
192,192,71812,1,0,0:0:0:0:
320,192,72000,1,2,0:0:0:0:
448,192,72000,1,0,0:0:0:0:
64,192,72187,1,2,0:0:0:0:
192,192,72187,1,0,0:0:0:0:
320,192,72281,1,2,0:0:0:0:
448,192,72281,1,0,0:0:0:0:
64,192,72375,1,8,0:0:0:0:
192,192,72375,1,0,0:0:0:0:
320,192,72468,1,2,0:0:0:0:
64,192,72562,1,2,0:0:0:0:
448,192,72562,1,0,0:0:0:0:
192,192,72656,1,2,0:0:0:0:
320,192,72750,1,0,0:0:0:0:
192,192,72937,1,0,0:0:0:0:
448,192,73031,1,0,0:0:0:0:
64,192,73125,1,0,0:0:0:0:
192,192,73312,1,0,0:0:0:0:
192,192,73406,1,0,0:0:0:0:
448,192,73500,1,0,0:0:0:0:
320,192,73593,1,0,0:0:0:0:
320,192,73687,1,0,0:0:0:0:
64,192,73875,1,0,0:0:0:70:S.wav
448,192,73875,1,0,0:0:0:0:
64,192,74062,1,0,0:0:0:0:
448,192,74062,1,0,0:0:0:0:
64,192,74250,1,2,0:0:0:0:
320,192,74250,1,4,0:0:0:0:
448,192,74250,128,0,74437:0:0:0:0:
192,192,74437,1,0,0:0:0:0:
64,192,74625,128,8,74812:0:0:0:0:
320,192,74625,1,0,0:0:0:0:
448,192,74625,1,0,0:0:0:0:
192,192,74812,128,0,75000:0:0:0:0:
448,192,74812,1,0,0:0:0:0:
320,192,75000,1,2,0:0:0:0:
448,192,75000,128,0,75187:0:0:0:0:
192,192,75187,1,0,0:0:0:0:
64,192,75375,1,8,0:0:0:0:
320,192,75375,1,0,0:0:0:0:
448,192,75375,1,0,0:0:0:0:
192,192,75562,1,0,0:0:0:0:
320,192,75562,1,0,0:0:0:0:
64,192,75750,1,2,0:0:0:0:
448,192,75750,1,0,0:0:0:0:
320,192,75843,1,0,0:0:0:0:
192,192,75937,1,0,0:0:0:0:
320,192,76031,1,0,0:0:0:0:
64,192,76125,1,8,0:0:0:0:
192,192,76125,1,0,0:0:0:0:
448,192,76125,1,0,0:0:0:0:
448,192,76312,1,0,0:0:0:0:
320,192,76406,1,0,0:0:0:0:
64,192,76500,1,2,0:0:0:0:
192,192,76500,1,0,0:0:0:0:
448,192,76593,1,0,0:0:0:0:
320,192,76687,1,0,0:0:0:0:
64,192,76781,1,0,0:0:0:0:
192,192,76875,128,8,77062:0:0:0:0:
320,192,76875,1,0,0:0:0:0:
448,192,76875,1,0,0:0:0:0:
64,192,77062,1,0,0:0:0:0:
448,192,77062,128,0,77250:0:0:0:0:
64,192,77250,128,2,77437:0:0:0:0:
192,192,77250,1,4,0:0:0:0:
320,192,77250,1,0,0:0:0:0:
448,192,77437,1,0,0:0:0:0:
192,192,77625,128,8,77812:0:0:0:0:
320,192,77625,1,0,0:0:0:0:
448,192,77625,1,0,0:0:0:0:
64,192,77812,1,0,0:0:0:0:
448,192,77812,128,0,78000:0:0:0:0:
64,192,78000,128,2,78187:0:0:0:0:
320,192,78000,1,0,0:0:0:0:
192,192,78187,1,0,0:0:0:0:
64,192,78375,1,8,0:0:0:0:
320,192,78375,1,0,0:0:0:0:
448,192,78375,1,0,0:0:0:0:
192,192,78562,1,0,0:0:0:0:
320,192,78562,1,0,0:0:0:0:
64,192,78750,1,2,0:0:0:0:
448,192,78750,1,0,0:0:0:0:
192,192,78843,1,0,0:0:0:0:
320,192,78937,1,0,0:0:0:0:
64,192,79031,1,0,0:0:0:0:
192,192,79125,1,8,0:0:0:0:
320,192,79125,1,0,0:0:0:0:
448,192,79125,1,0,0:0:0:0:
448,192,79312,1,0,0:0:0:0:
320,192,79406,1,0,0:0:0:0:
64,192,79500,1,2,0:0:0:0:
192,192,79500,1,0,0:0:0:0:
448,192,79593,1,0,0:0:0:0:
64,192,79687,1,2,0:0:0:0:
192,192,79687,1,0,0:0:0:0:
320,192,79781,1,2,0:0:0:0:
64,192,79875,1,8,0:0:0:0:
192,192,79875,1,4,0:0:0:0:
448,192,79875,1,0,0:0:0:0:
320,192,80062,1,2,0:0:0:0:
448,192,80062,1,0,0:0:0:0:
192,192,80156,1,2,0:0:0:0:
64,192,80250,1,2,0:0:0:0:
320,192,80250,128,4,80437:0:0:0:0:
448,192,80250,1,0,0:0:0:0:
192,192,80437,1,0,0:0:0:0:
64,192,80625,1,8,0:0:0:0:
320,192,80625,1,0,0:0:0:0:
448,192,80625,128,0,80812:0:0:0:0:
64,192,80812,128,0,81000:0:0:0:0:
192,192,80812,1,0,0:0:0:0:
320,192,81000,128,2,81187:0:0:0:0:
448,192,81000,1,0,0:0:0:0:
192,192,81187,1,0,0:0:0:0:
64,192,81375,1,8,0:0:0:0:
320,192,81375,1,0,0:0:0:0:
448,192,81375,1,0,0:0:0:0:
192,192,81562,1,0,0:0:0:0:
320,192,81562,1,0,0:0:0:0:
64,192,81750,1,2,0:0:0:0:
448,192,81750,1,0,0:0:0:0:
192,192,81843,1,0,0:0:0:0:
448,192,81937,1,0,0:0:0:0:
320,192,82031,1,0,0:0:0:0:
64,192,82125,1,8,0:0:0:0:
192,192,82125,1,0,0:0:0:0:
448,192,82125,1,0,0:0:0:0:
320,192,82312,1,0,0:0:0:0:
192,192,82406,1,0,0:0:0:0:
64,192,82500,1,2,0:0:0:0:
448,192,82500,1,0,0:0:0:0:
320,192,82593,1,0,0:0:0:0:
64,192,82687,1,0,0:0:0:0:
192,192,82781,1,0,0:0:0:0:
64,192,82875,128,8,83062:0:0:0:0:
320,192,82875,1,0,0:0:0:0:
448,192,82875,1,0,0:0:0:0:
192,192,83062,1,0,0:0:0:0:
448,192,83062,128,0,83250:0:0:0:0:
64,192,83250,1,2,0:0:0:0:
192,192,83250,128,4,83437:0:0:0:0:
320,192,83250,1,0,0:0:0:0:
320,192,83437,1,0,0:0:0:0:
64,192,83625,128,8,83812:0:0:0:0:
320,192,83625,1,0,0:0:0:0:
448,192,83625,1,0,0:0:0:0:
192,192,83812,1,0,0:0:0:0:
448,192,83812,128,0,84000:0:0:0:0:
64,192,84000,1,2,0:0:0:0:
192,192,84000,128,0,84187:0:0:0:0:
320,192,84000,1,0,0:0:0:0:
320,192,84187,1,0,0:0:0:0:
64,192,84375,1,8,0:0:0:0:
320,192,84375,1,4,0:0:0:0:
448,192,84375,1,0,0:0:0:0:
64,192,84562,1,0,0:0:0:0:
192,192,84562,1,0,0:0:0:0:
320,192,84750,1,2,0:0:0:0:
448,192,84750,1,4,0:0:0:0:
192,192,84843,1,2,0:0:0:0:
64,192,84937,1,2,0:0:0:0:
448,192,84937,1,0,0:0:0:0:
320,192,85031,1,2,0:0:0:0:
64,192,85125,1,8,0:0:0:0:
192,192,85125,1,4,0:0:0:0:
448,192,85218,1,2,0:0:0:0:
192,192,85312,1,2,0:0:0:0:
320,192,85312,1,0,0:0:0:0:
64,192,85406,1,2,0:0:0:0:
320,192,85500,1,2,0:0:0:0:
448,192,85500,1,4,0:0:0:0:
64,192,85593,1,2,0:0:0:0:
192,192,85687,1,2,0:0:0:0:
448,192,85687,1,0,0:0:0:0:
320,192,85781,1,2,0:0:0:0:
64,192,85875,1,12,0:0:0:0:
192,192,85875,1,0,0:0:0:70:S.wav
320,192,85968,1,2,0:0:0:0:
64,192,86062,1,2,0:0:0:0:
448,192,86062,1,0,0:0:0:0:
192,192,86156,1,2,0:0:0:0:
64,192,86250,128,4,87000:0:0:0:0:
320,192,86250,1,2,0:0:0:0:
448,192,86250,1,0,0:0:0:0:
192,192,86437,1,0,0:0:0:0:
192,192,86625,1,8,0:0:0:0:
320,192,86625,1,0,0:0:0:0:
448,192,86625,1,0,0:0:0:0:
320,192,86812,1,0,0:0:0:0:
192,192,87000,1,2,0:0:0:0:
448,192,87000,128,0,87750:0:0:0:0:
320,192,87187,1,0,0:0:0:0:
64,192,87375,1,8,0:0:0:0:
192,192,87375,1,0,0:0:0:0:
320,192,87375,1,0,0:0:0:0:
64,192,87562,1,0,0:0:0:0:
192,192,87750,128,2,88500:0:0:0:0:
320,192,87750,1,0,0:0:0:0:
448,192,87937,1,0,0:0:0:0:
64,192,88125,1,8,0:0:0:0:
320,192,88125,1,0,0:0:0:0:
448,192,88125,1,0,0:0:0:0:
64,192,88312,1,0,0:0:0:0:
320,192,88500,1,2,0:0:0:0:
448,192,88500,128,0,89250:0:0:0:0:
192,192,88687,1,0,0:0:0:0:
64,192,88875,1,8,0:0:0:0:
192,192,88875,1,0,0:0:0:0:
320,192,88875,1,0,0:0:0:0:
64,192,89062,1,0,0:0:0:0:
64,192,89250,1,2,0:0:0:0:
192,192,89250,1,4,0:0:0:0:
320,192,89250,128,0,90000:0:0:0:0:
448,192,89437,1,0,0:0:0:0:
64,192,89625,1,8,0:0:0:0:
192,192,89625,1,0,0:0:0:0:
448,192,89625,1,0,0:0:0:0:
192,192,89812,1,0,0:0:0:0:
64,192,90000,128,2,90750:0:0:0:0:
448,192,90000,1,0,0:0:0:0:
320,192,90187,1,0,0:0:0:0:
192,192,90375,1,8,0:0:0:0:
320,192,90375,1,0,0:0:0:0:
448,192,90375,1,0,0:0:0:0:
192,192,90562,1,0,0:0:0:0:
320,192,90750,1,2,0:0:0:0:
448,192,90750,1,0,0:0:0:0:
192,192,90937,1,0,0:0:0:0:
64,192,91125,1,8,0:0:0:0:
320,192,91125,1,0,0:0:0:0:
448,192,91125,1,0,0:0:0:0:
64,192,91312,1,0,0:0:0:0:
192,192,91406,1,0,0:0:0:0:
320,192,91500,1,2,0:0:0:0:
448,192,91500,1,0,0:0:0:0:
192,192,91687,1,0,0:0:0:0:
64,192,91875,1,8,0:0:0:0:
320,192,91875,1,4,0:0:0:0:
192,192,91968,1,2,0:0:0:0:
448,192,91968,1,0,0:0:0:0:
64,192,92062,1,2,0:0:0:0:
320,192,92062,1,0,0:0:0:0:
192,192,92156,1,2,0:0:0:0:
448,192,92156,1,0,0:0:0:0:
64,192,92250,128,2,93000:0:0:0:0:
320,192,92250,1,4,0:0:0:0:
448,192,92437,1,0,0:0:0:0:
192,192,92625,1,8,0:0:0:0:
320,192,92625,1,0,0:0:0:0:
448,192,92625,1,0,0:0:0:0:
320,192,92812,1,0,0:0:0:0:
192,192,93000,1,2,0:0:0:0:
448,192,93000,128,0,93750:0:0:0:0:
320,192,93187,1,0,0:0:0:0:
64,192,93375,1,8,0:0:0:0:
192,192,93375,1,0,0:0:0:0:
320,192,93375,1,0,0:0:0:0:
192,192,93562,1,0,0:0:0:0:
64,192,93750,1,2,0:0:0:0:
320,192,93750,128,0,94500:0:0:0:0:
192,192,93937,1,0,0:0:0:0:
64,192,94125,1,8,0:0:0:0:
192,192,94125,1,0,0:0:0:0:
448,192,94125,1,0,0:0:0:0:
448,192,94312,1,0,0:0:0:0:
64,192,94500,1,2,0:0:0:0:
192,192,94500,128,0,95250:0:0:0:0:
448,192,94687,1,0,0:0:0:0:
64,192,94875,1,8,0:0:0:0:
320,192,94875,1,0,0:0:0:0:
448,192,94875,1,0,0:0:0:0:
320,192,95062,1,0,0:0:0:0:
64,192,95250,128,2,96000:0:0:0:0:
320,192,95250,1,4,0:0:0:0:
448,192,95250,1,0,0:0:0:0:
192,192,95437,1,0,0:0:0:0:
192,192,95625,1,8,0:0:0:0:
320,192,95625,1,0,0:0:0:0:
448,192,95625,1,0,0:0:0:0:
448,192,95812,1,0,0:0:0:0:
192,192,96000,1,2,0:0:0:0:
320,192,96000,128,0,96750:0:0:0:0:
64,192,96187,1,0,0:0:0:0:
64,192,96375,1,8,0:0:0:0:
192,192,96375,1,0,0:0:0:0:
448,192,96375,1,0,0:0:0:0:
448,192,96562,1,0,0:0:0:0:
64,192,96750,1,4,0:0:0:0:
192,192,96750,1,2,0:0:0:0:
448,192,96750,1,0,0:0:0:0:
192,192,96937,1,0,0:0:0:0:
64,192,97125,1,4,0:0:0:0:
320,192,97125,1,8,0:0:0:0:
448,192,97125,1,0,0:0:0:0:
448,192,97312,1,0,0:0:0:0:
320,192,97406,1,0,0:0:0:0:
64,192,97500,1,4,0:0:0:0:
192,192,97500,1,2,0:0:0:0:
320,192,97593,1,2,0:0:0:0:
448,192,97593,1,0,0:0:0:0:
64,192,97687,1,2,0:0:0:0:
192,192,97687,1,0,0:0:0:0:
320,192,97781,1,2,0:0:0:0:
448,192,97781,1,0,0:0:0:0:
64,192,97875,1,4,0:0:0:0:
192,192,97875,1,8,0:0:0:0:
320,192,97968,1,2,0:0:0:0:
448,192,97968,1,0,0:0:0:0:
64,192,98062,1,2,0:0:0:0:
192,192,98062,1,0,0:0:0:0:
320,192,98156,1,2,0:0:0:0:
448,192,98156,1,0,0:0:0:0:
64,192,98250,1,2,0:0:0:0:
192,192,98250,1,0,0:0:0:100:cymbal.wav
448,192,98625,1,0,0:0:0:0:
320,192,98648,1,0,0:0:0:0:
64,192,98812,1,0,0:0:0:0:
192,192,98835,1,0,0:0:0:0:
320,192,99000,1,0,0:0:0:0:
448,192,99023,1,0,0:0:0:0:
192,192,99187,1,0,0:0:0:0:
64,192,99210,1,0,0:0:0:0:
320,192,99375,1,0,0:0:0:0:
192,192,99398,1,0,0:0:0:0:
64,192,99562,1,0,0:0:0:0:
448,192,99585,1,0,0:0:0:0:
192,192,99750,1,0,0:0:0:0:
448,192,99773,1,0,0:0:0:0:
320,192,99937,1,0,0:0:0:0:
64,192,99960,1,0,0:0:0:0:
192,192,100125,1,0,0:0:0:0:
320,192,100148,1,0,0:0:0:0:
64,192,100312,1,0,0:0:0:0:
192,192,100335,1,0,0:0:0:0:
320,192,100500,1,0,0:0:0:0:
448,192,100523,1,0,0:0:0:0:
