osu file format v14

[General]
AudioFilename: audio.mp3
AudioLeadIn: 0
PreviewTime: -1
Countdown: 0
SampleSet: Normal
StackLeniency: 0.7
Mode: 3
LetterboxInBreaks: 0
SpecialStyle: 0
WidescreenStoryboard: 1

[Editor]
DistanceSpacing: 1.3
BeatDivisor: 4
GridSize: 4
TimelineZoom: 2.2

[Metadata]
Title:Hana Ranman -Flowers- (2nd EDITION)
TitleUnicode:Hana Ranman -Flowers- (2nd EDITION)
Artist:TERRA
ArtistUnicode:TERRA
Creator:IngNite
Version:MX
Source:REFLEC BEAT limelight
Tags:
BeatmapID:1958458
BeatmapSetID:937533

[Difficulty]
HPDrainRate:8
CircleSize:4
OverallDifficulty:8
ApproachRate:5
SliderMultiplier:1.4
SliderTickRate:1

[Events]
//Background and Video events
0,0,"6e272cbc82e4384e102f48ed65ff2b1c.jpg",0,0
//Break Periods
//Storyboard Layer 0 (Background)
//Storyboard Layer 1 (Fail)
//Storyboard Layer 2 (Pass)
//Storyboard Layer 3 (Foreground)
//Storyboard Sound Samples

[TimingPoints]
750,375,4,1,0,100,1,0
3421,-20,4,1,0,100,0,0
3468,-100,4,1,0,100,0,0
38250,-100,4,1,0,100,0,1
50250,-100,4,1,0,100,0,0
66750,-55.5555555555556,4,1,0,100,0,0
66937,-133.333333333333,4,1,0,100,0,0
67125,-55.5555555555556,4,1,0,100,0,0
67312,-133.333333333333,4,1,0,100,0,0
67500,-55.5555555555556,4,1,0,100,0,0
67593,-100,4,1,0,100,0,0
81750,-100,4,1,0,100,0,1
93750,-100,4,1,0,100,0,0

[HitObjects]
192,192,375,5,0,0:0:0:0:
320,192,375,1,0,0:0:0:0:
64,192,562,1,0,0:0:0:0:
448,192,750,1,0,0:0:0:0:
320,192,750,1,0,0:0:0:0:
320,192,1125,1,0,0:0:0:0:
448,192,1125,1,0,0:0:0:0:
192,192,1500,1,0,0:0:0:0:
64,192,1500,1,0,0:0:0:0:
448,192,1500,1,0,0:0:0:0:
320,192,1875,1,0,0:0:0:0:
192,192,2250,1,0,0:0:0:0:
448,192,2250,1,0,0:0:0:0:
64,192,2625,1,0,0:0:0:0:
192,192,3000,1,0,0:0:0:0:
320,192,3000,1,0,0:0:0:0:
448,192,3000,1,0,0:0:0:0:
320,192,3375,1,0,0:0:0:0:
448,192,3375,1,0,0:0:0:0:
192,192,3750,1,0,0:0:0:0:
64,192,3750,1,0,0:0:0:0:
320,192,4125,1,0,0:0:0:0:
448,192,4125,1,0,0:0:0:0:
64,192,4500,1,0,0:0:0:0:
320,192,4500,1,0,0:0:0:0:
448,192,4500,1,0,0:0:0:0:
192,192,4875,1,0,0:0:0:0:
320,192,5250,1,0,0:0:0:0:
448,192,5250,1,0,0:0:0:0:
192,192,5250,1,0,0:0:0:0:
64,192,5625,1,0,0:0:0:0:
192,192,5625,1,0,0:0:0:0:
320,192,5625,1,0,0:0:0:0:
448,192,6000,1,0,0:0:0:0:
192,192,6000,1,0,0:0:0:0:
64,192,6000,1,0,0:0:0:0:
64,192,6375,1,0,0:0:0:0:
192,192,6375,1,0,0:0:0:0:
320,192,6750,1,0,0:0:0:0:
448,192,6750,1,0,0:0:0:0:
64,192,7125,1,0,0:0:0:0:
192,192,7218,1,0,0:0:0:0:
320,192,7312,1,0,0:0:0:0:
192,192,7406,1,0,0:0:0:0:
64,192,7500,1,0,0:0:0:0:
192,192,7593,1,0,0:0:0:0:
320,192,7687,1,0,0:0:0:0:
448,192,7781,1,0,0:0:0:0:
320,192,7875,1,0,0:0:0:0:
192,192,7968,1,0,0:0:0:0:
320,192,8062,1,0,0:0:0:0:
448,192,8156,1,0,0:0:0:0:
192,192,8250,1,0,0:0:0:0:
64,192,8250,1,0,0:0:0:0:
320,192,8250,1,0,0:0:0:0:
192,192,8437,1,0,0:0:0:0:
320,192,8625,1,0,0:0:0:0:
448,192,8625,1,0,0:0:0:0:
64,192,8625,1,0,0:0:0:0:
320,192,8812,1,0,0:0:0:0:
192,192,9000,1,0,0:0:0:0:
64,192,9000,1,0,0:0:0:0:
448,192,9000,1,0,0:0:0:0:
64,192,9187,1,0,0:0:0:0:
192,192,9375,1,0,0:0:0:0:
320,192,9375,1,0,0:0:0:0:
448,192,9375,1,0,0:0:0:0:
448,192,9562,1,0,0:0:0:0:
320,192,9750,1,0,0:0:0:0:
192,192,9750,1,0,0:0:0:0:
64,192,9750,1,0,0:0:0:0:
192,192,9937,1,0,0:0:0:0:
320,192,10125,1,0,0:0:0:0:
448,192,10125,1,0,0:0:0:0:
64,192,10125,1,0,0:0:0:0:
448,192,10312,1,0,0:0:0:0:
192,192,10500,1,0,0:0:0:0:
64,192,10500,1,0,0:0:0:0:
320,192,10687,1,0,0:0:0:0:
448,192,10875,1,0,0:0:0:0:
64,192,10875,1,0,0:0:0:0:
192,192,11062,1,0,0:0:0:0:
320,192,11250,1,0,0:0:0:0:
448,192,11250,1,0,0:0:0:0:
64,192,11250,1,0,0:0:0:0:
192,192,11437,1,0,0:0:0:0:
64,192,11625,1,0,0:0:0:0:
192,192,11625,1,0,0:0:0:0:
448,192,11625,1,0,0:0:0:0:
320,192,11812,1,0,0:0:0:0:
320,192,12000,1,0,0:0:0:0:
192,192,12000,1,0,0:0:0:0:
64,192,12000,1,0,0:0:0:0:
448,192,12187,1,0,0:0:0:0:
448,192,12375,1,0,0:0:0:0:
192,192,12375,1,0,0:0:0:0:
64,192,12375,1,0,0:0:0:0:
320,192,12562,1,0,0:0:0:0:
320,192,12750,1,0,0:0:0:0:
448,192,12750,1,0,0:0:0:0:
64,192,12750,1,0,0:0:0:0:
192,192,12937,1,0,0:0:0:0:
192,192,13125,1,0,0:0:0:0:
320,192,13125,1,0,0:0:0:0:
64,192,13125,1,0,0:0:0:0:
448,192,13312,1,0,0:0:0:0:
448,192,13500,1,0,0:0:0:0:
192,192,13500,1,0,0:0:0:0:
320,192,13500,1,0,0:0:0:0:
64,192,13687,1,0,0:0:0:0:
192,192,13687,1,0,0:0:0:0:
320,192,13781,1,0,0:0:0:0:
448,192,13781,1,0,0:0:0:0:
192,192,13875,1,0,0:0:0:0:
64,192,13875,1,0,0:0:0:0:
320,192,14062,1,0,0:0:0:0:
448,192,14062,1,0,0:0:0:0:
192,192,14156,1,0,0:0:0:0:
64,192,14156,1,0,0:0:0:0:
448,192,14250,1,0,0:0:0:0:
320,192,14250,1,0,0:0:0:0:
192,192,14437,1,0,0:0:0:0:
64,192,14437,1,0,0:0:0:0:
320,192,14531,1,0,0:0:0:0:
448,192,14625,1,0,0:0:0:0:
192,192,14625,1,0,0:0:0:0:
64,192,14812,1,0,0:0:0:0:
320,192,14812,1,0,0:0:0:0:
192,192,14906,1,0,0:0:0:0:
320,192,15000,1,0,0:0:0:0:
448,192,15000,1,0,0:0:0:0:
192,192,15187,1,0,0:0:0:0:
320,192,15187,1,0,0:0:0:0:
64,192,15281,1,0,0:0:0:0:
320,192,15375,1,0,0:0:0:0:
448,192,15375,1,0,0:0:0:0:
64,192,15562,1,0,0:0:0:0:
192,192,15562,1,0,0:0:0:0:
320,192,15656,1,0,0:0:0:0:
448,192,15750,1,0,0:0:0:0:
64,192,15750,1,0,0:0:0:0:
192,192,15937,1,0,0:0:0:0:
320,192,15937,1,0,0:0:0:0:
448,192,16031,1,0,0:0:0:0:
64,192,16125,1,0,0:0:0:0:
192,192,16125,1,0,0:0:0:0:
448,192,16312,1,0,0:0:0:0:
320,192,16312,1,0,0:0:0:0:
192,192,16406,1,0,0:0:0:0:
64,192,16500,1,0,0:0:0:0:
448,192,16500,1,0,0:0:0:0:
192,192,16687,1,0,0:0:0:0:
64,192,16687,1,0,0:0:0:0:
320,192,16781,1,0,0:0:0:0:
448,192,16875,1,0,0:0:0:0:
192,192,16875,1,0,0:0:0:0:
64,192,17062,1,0,0:0:0:0:
192,192,17062,1,0,0:0:0:0:
320,192,17156,1,0,0:0:0:0:
448,192,17250,1,0,0:0:0:0:
64,192,17250,1,0,0:0:0:0:
192,192,17437,1,0,0:0:0:0:
320,192,17437,1,0,0:0:0:0:
448,192,17531,1,0,0:0:0:0:
64,192,17625,1,0,0:0:0:0:
192,192,17625,1,0,0:0:0:0:
320,192,17812,1,0,0:0:0:0:
448,192,17812,1,0,0:0:0:0:
192,192,17906,1,0,0:0:0:0:
64,192,18000,1,0,0:0:0:0:
320,192,18000,1,0,0:0:0:0:
448,192,18187,1,0,0:0:0:0:
320,192,18187,1,0,0:0:0:0:
192,192,18281,1,0,0:0:0:0:
64,192,18375,1,0,0:0:0:0:
448,192,18375,1,0,0:0:0:0:
192,192,18562,1,0,0:0:0:0:
320,192,18562,1,0,0:0:0:0:
448,192,18656,1,0,0:0:0:0:
64,192,18750,1,0,0:0:0:0:
192,192,18750,1,0,0:0:0:0:
192,192,18937,1,0,0:0:0:0:
320,192,18937,1,0,0:0:0:0:
448,192,19031,1,0,0:0:0:0:
64,192,19125,1,0,0:0:0:0:
320,192,19125,1,0,0:0:0:0:
192,192,19312,1,0,0:0:0:0:
320,192,19312,1,0,0:0:0:0:
448,192,19406,1,0,0:0:0:0:
64,192,19500,1,0,0:0:0:0:
192,192,19500,1,0,0:0:0:0:
320,192,19593,1,0,0:0:0:0:
448,192,19593,1,0,0:0:0:0:
64,192,19687,1,0,0:0:0:0:
192,192,19687,1,0,0:0:0:0:
320,192,19781,1,0,0:0:0:0:
448,192,19781,1,0,0:0:0:0:
192,192,19875,1,0,0:0:0:0:
64,192,19875,1,0,0:0:0:0:
320,192,19968,1,0,0:0:0:0:
448,192,19968,1,0,0:0:0:0:
192,192,20062,1,0,0:0:0:0:
64,192,20062,1,0,0:0:0:0:
320,192,20156,1,0,0:0:0:0:
448,192,20156,1,0,0:0:0:0:
192,192,20250,1,0,0:0:0:0:
64,192,20250,1,0,0:0:0:0:
320,192,20437,1,0,0:0:0:0:
448,192,20437,1,0,0:0:0:0:
192,192,20531,1,0,0:0:0:0:
64,192,20625,1,0,0:0:0:0:
448,192,20625,1,0,0:0:0:0:
192,192,20812,1,0,0:0:0:0:
320,192,20812,1,0,0:0:0:0:
448,192,20906,1,0,0:0:0:0:
192,192,21000,1,0,0:0:0:0:
64,192,21000,1,0,0:0:0:0:
320,192,21187,1,0,0:0:0:0:
448,192,21187,1,0,0:0:0:0:
192,192,21281,1,0,0:0:0:0:
64,192,21375,1,0,0:0:0:0:
448,192,21375,1,0,0:0:0:0:
192,192,21562,1,0,0:0:0:0:
320,192,21562,1,0,0:0:0:0:
448,192,21656,1,0,0:0:0:0:
64,192,21750,1,0,0:0:0:0:
320,192,21750,1,0,0:0:0:0:
192,192,21937,1,0,0:0:0:0:
448,192,21937,1,0,0:0:0:0:
320,192,22031,1,0,0:0:0:0:
192,192,22125,1,0,0:0:0:0:
64,192,22125,1,0,0:0:0:0:
320,192,22312,1,0,0:0:0:0:
448,192,22312,1,0,0:0:0:0:
192,192,22406,1,0,0:0:0:0:
64,192,22500,1,0,0:0:0:0:
448,192,22500,1,0,0:0:0:0:
192,192,22593,1,0,0:0:0:0:
320,192,22593,1,0,0:0:0:0:
64,192,22687,1,0,0:0:0:0:
448,192,22687,1,0,0:0:0:0:
192,192,22781,1,0,0:0:0:0:
320,192,22781,1,0,0:0:0:0:
64,192,22875,1,0,0:0:0:0:
448,192,22875,1,0,0:0:0:0:
192,192,22968,1,0,0:0:0:0:
320,192,22968,1,0,0:0:0:0:
64,192,23062,1,0,0:0:0:0:
448,192,23062,1,0,0:0:0:0:
192,192,23156,1,0,0:0:0:0:
320,192,23156,1,0,0:0:0:0:
64,192,23250,1,0,0:0:0:0:
448,192,23250,1,0,0:0:0:0:
192,192,23437,1,0,0:0:0:0:
320,192,23437,1,0,0:0:0:0:
448,192,23531,1,0,0:0:0:0:
192,192,23625,1,0,0:0:0:0:
64,192,23625,1,0,0:0:0:0:
448,192,23812,1,0,0:0:0:0:
64,192,23812,1,0,0:0:0:0:
192,192,23906,1,0,0:0:0:0:
320,192,24000,1,0,0:0:0:0:
448,192,24000,1,0,0:0:0:0:
192,192,24187,1,0,0:0:0:0:
64,192,24187,1,0,0:0:0:0:
320,192,24281,1,0,0:0:0:0:
448,192,24375,1,0,0:0:0:0:
64,192,24375,1,0,0:0:0:0:
192,192,24562,1,0,0:0:0:0:
448,192,24562,1,0,0:0:0:0:
320,192,24656,1,0,0:0:0:0:
64,192,24750,1,0,0:0:0:0:
192,192,24750,1,0,0:0:0:0:
448,192,24750,128,0,25500:0:0:0:0:
320,192,24843,1,0,0:0:0:0:
192,192,24937,1,0,0:0:0:0:
64,192,25031,1,0,0:0:0:0:
320,192,25125,1,0,0:0:0:0:
192,192,25218,1,0,0:0:0:0:
64,192,25312,1,0,0:0:0:0:
192,192,25406,1,0,0:0:0:0:
320,192,25500,1,0,0:0:0:0:
64,192,25500,1,0,0:0:0:0:
64,192,25687,1,0,0:0:0:0:
192,192,25687,1,0,0:0:0:0:
320,192,25781,1,0,0:0:0:0:
448,192,25781,1,0,0:0:0:0:
192,192,25875,1,0,0:0:0:0:
64,192,25875,1,0,0:0:0:0:
320,192,26062,1,0,0:0:0:0:
448,192,26062,1,0,0:0:0:0:
192,192,26156,1,0,0:0:0:0:
64,192,26156,1,0,0:0:0:0:
320,192,26250,1,0,0:0:0:0:
448,192,26250,128,0,26625:0:0:0:0:
64,192,26437,1,0,0:0:0:0:
64,192,26625,128,0,27000:0:0:0:0:
320,192,26625,1,0,0:0:0:0:
192,192,26625,1,0,0:0:0:0:
448,192,26812,1,0,0:0:0:0:
192,192,27000,128,0,27375:0:0:0:0:
320,192,27000,1,0,0:0:0:0:
448,192,27000,1,0,0:0:0:0:
64,192,27187,1,0,0:0:0:0:
448,192,27375,128,0,27750:0:0:0:0:
320,192,27375,1,0,0:0:0:0:
64,192,27375,1,0,0:0:0:0:
192,192,27562,1,0,0:0:0:0:
192,192,27750,128,0,28125:0:0:0:0:
320,192,27750,1,0,0:0:0:0:
64,192,27750,1,0,0:0:0:0:
448,192,27937,1,0,0:0:0:0:
64,192,28125,128,0,28312:0:0:0:0:
320,192,28125,1,0,0:0:0:0:
448,192,28125,1,0,0:0:0:0:
448,192,28312,128,0,28500:0:0:0:0:
192,192,28312,1,0,0:0:0:0:
192,192,28500,128,0,28875:0:0:0:0:
320,192,28500,1,0,0:0:0:0:
64,192,28500,1,0,0:0:0:0:
320,192,28875,128,0,29250:0:0:0:0:
448,192,28875,128,0,29250:0:0:0:0:
64,192,28875,1,0,0:0:0:0:
64,192,29250,128,0,29625:0:0:0:0:
192,192,29250,1,0,0:0:0:0:
320,192,29437,1,0,0:0:0:0:
320,192,29625,128,0,30000:0:0:0:0:
448,192,29625,1,0,0:0:0:0:
192,192,29625,1,0,0:0:0:0:
64,192,29812,1,0,0:0:0:0:
192,192,30000,128,0,30375:0:0:0:0:
448,192,30000,1,0,0:0:0:0:
64,192,30000,1,0,0:0:0:0:
320,192,30187,1,0,0:0:0:0:
448,192,30375,128,0,30750:0:0:0:0:
320,192,30375,1,0,0:0:0:0:
64,192,30375,1,0,0:0:0:0:
192,192,30562,1,0,0:0:0:0:
64,192,30750,128,0,31125:0:0:0:0:
320,192,30750,1,0,0:0:0:0:
192,192,30750,1,0,0:0:0:0:
448,192,30937,1,0,0:0:0:0:
448,192,31125,128,0,31312:0:0:0:0:
320,192,31125,1,0,0:0:0:0:
192,192,31125,1,0,0:0:0:0:
192,192,31312,128,0,31500:0:0:0:0:
64,192,31312,1,0,0:0:0:0:
320,192,31500,128,0,31875:0:0:0:0:
448,192,31500,1,0,0:0:0:0:
64,192,31593,1,0,0:0:0:0:
192,192,31875,128,0,32250:0:0:0:0:
64,192,31875,128,0,32250:0:0:0:0:
448,192,31875,1,0,0:0:0:0:
448,192,32250,128,0,32625:0:0:0:0:
320,192,32250,1,0,0:0:0:0:
192,192,32437,1,0,0:0:0:0:
192,192,32625,128,0,33000:0:0:0:0:
64,192,32625,1,0,0:0:0:0:
320,192,32625,1,0,0:0:0:0:
448,192,32812,1,0,0:0:0:0:
320,192,33000,128,0,33375:0:0:0:0:
448,192,33000,1,0,0:0:0:0:
64,192,33000,1,0,0:0:0:0:
192,192,33187,1,0,0:0:0:0:
192,192,33375,128,0,33750:0:0:0:0:
64,192,33375,1,0,0:0:0:0:
448,192,33375,1,0,0:0:0:0:
320,192,33562,1,0,0:0:0:0:
64,192,33750,128,0,34312:0:0:0:0:
448,192,33750,1,0,0:0:0:0:
320,192,33750,1,0,0:0:0:0:
320,192,33937,1,0,0:0:0:0:
192,192,34125,128,0,34312:0:0:0:0:
448,192,34125,1,0,0:0:0:0:
448,192,34312,128,0,34687:0:0:0:0:
320,192,34312,1,0,0:0:0:0:
192,192,34500,1,0,0:0:0:0:
64,192,34500,1,0,0:0:0:0:
192,192,34687,128,0,35062:0:0:0:0:
320,192,34687,1,0,0:0:0:0:
448,192,34875,1,0,0:0:0:0:
64,192,34875,1,0,0:0:0:0:
320,192,35062,128,0,35250:0:0:0:0:
64,192,35250,128,0,35625:0:0:0:0:
448,192,35250,1,0,0:0:0:0:
320,192,35437,1,0,0:0:0:0:
192,192,35625,1,0,0:0:0:0:
448,192,35625,1,0,0:0:0:0:
64,192,35812,1,0,0:0:0:0:
192,192,36000,1,0,0:0:0:0:
320,192,36000,1,0,0:0:0:0:
448,192,36187,1,0,0:0:0:0:
64,192,36375,1,0,0:0:0:0:
192,192,36421,1,0,0:0:0:0:
320,192,36468,1,0,0:0:0:0:
448,192,36515,1,0,0:0:0:0:
64,192,36562,1,0,0:0:0:0:
192,192,36609,1,0,0:0:0:0:
320,192,36656,1,0,0:0:0:0:
448,192,36703,1,0,0:0:0:0:
64,192,36750,1,0,0:0:0:0:
192,192,36750,1,0,0:0:0:0:
448,192,37125,1,0,0:0:0:0:
320,192,37125,1,0,0:0:0:0:
64,192,37125,1,0,0:0:0:0:
64,192,37500,128,0,38250:0:0:0:0:
192,192,37500,128,0,37875:0:0:0:0:
448,192,37875,128,0,38250:0:0:0:0:
192,192,38250,1,0,0:0:0:0:
320,192,38250,1,0,0:0:0:0:
64,192,38343,1,0,0:0:0:0:
448,192,38437,1,0,0:0:0:0:
320,192,38531,1,0,0:0:0:0:
192,192,38625,1,0,0:0:0:0:
64,192,38625,1,0,0:0:0:0:
448,192,38718,1,0,0:0:0:0:
320,192,38812,1,0,0:0:0:0:
192,192,38906,1,0,0:0:0:0:
64,192,39000,1,0,0:0:0:0:
448,192,39000,1,0,0:0:0:0:
192,192,39093,1,0,0:0:0:0:
448,192,39187,1,0,0:0:0:0:
320,192,39281,1,0,0:0:0:0:
192,192,39375,1,0,0:0:0:0:
64,192,39375,1,0,0:0:0:0:
320,192,39468,1,0,0:0:0:0:
448,192,39562,1,0,0:0:0:0:
64,192,39687,1,0,0:0:0:0:
192,192,39750,1,0,0:0:0:0:
320,192,39750,1,0,0:0:0:0:
448,192,39937,1,0,0:0:0:0:
320,192,40000,1,0,0:0:0:0:
192,192,40062,1,0,0:0:0:0:
448,192,40125,1,0,0:0:0:0:
320,192,40125,1,0,0:0:0:0:
64,192,40125,1,0,0:0:0:0:
192,192,40312,1,0,0:0:0:0:
320,192,40406,1,0,0:0:0:0:
448,192,40500,1,0,0:0:0:0:
64,192,40500,1,0,0:0:0:0:
192,192,40593,1,0,0:0:0:0:
448,192,40687,1,0,0:0:0:0:
320,192,40781,1,0,0:0:0:0:
64,192,40875,1,0,0:0:0:0:
192,192,40875,1,0,0:0:0:0:
320,192,40968,1,0,0:0:0:0:
448,192,41062,1,0,0:0:0:0:
64,192,41156,1,0,0:0:0:0:
192,192,41250,1,0,0:0:0:0:
320,192,41250,1,0,0:0:0:0:
448,192,41343,1,0,0:0:0:0:
64,192,41437,1,0,0:0:0:0:
448,192,41531,1,0,0:0:0:0:
320,192,41625,1,0,0:0:0:0:
192,192,41625,1,0,0:0:0:0:
64,192,41718,1,0,0:0:0:0:
448,192,41812,1,0,0:0:0:0:
320,192,41906,1,0,0:0:0:0:
192,192,42000,1,0,0:0:0:0:
64,192,42000,1,0,0:0:0:0:
448,192,42093,1,0,0:0:0:0:
320,192,42187,1,0,0:0:0:0:
192,192,42281,1,0,0:0:0:0:
320,192,42375,1,0,0:0:0:0:
448,192,42375,1,0,0:0:0:0:
64,192,42468,1,0,0:0:0:0:
320,192,42562,1,0,0:0:0:0:
448,192,42562,1,0,0:0:0:0:
192,192,42656,1,0,0:0:0:0:
64,192,42750,1,0,0:0:0:0:
320,192,42750,1,0,0:0:0:0:
448,192,42937,1,0,0:0:0:0:
320,192,43000,1,0,0:0:0:0:
192,192,43062,1,0,0:0:0:0:
64,192,43125,1,0,0:0:0:0:
320,192,43125,1,0,0:0:0:0:
448,192,43125,1,0,0:0:0:0:
448,192,43312,1,0,0:0:0:0:
320,192,43406,1,0,0:0:0:0:
64,192,43500,1,0,0:0:0:0:
192,192,43500,1,0,0:0:0:0:
320,192,43593,1,0,0:0:0:0:
448,192,43687,1,0,0:0:0:0:
64,192,43781,1,0,0:0:0:0:
192,192,43875,1,0,0:0:0:0:
320,192,43875,1,0,0:0:0:0:
448,192,43968,1,0,0:0:0:0:
320,192,44062,1,0,0:0:0:0:
192,192,44156,1,0,0:0:0:0:
64,192,44250,1,0,0:0:0:0:
448,192,44250,1,0,0:0:0:0:
320,192,44343,1,0,0:0:0:0:
192,192,44437,1,0,0:0:0:0:
64,192,44531,1,0,0:0:0:0:
320,192,44625,1,0,0:0:0:0:
448,192,44625,1,0,0:0:0:0:
192,192,44718,1,0,0:0:0:0:
64,192,44812,1,0,0:0:0:0:
448,192,44906,1,0,0:0:0:0:
320,192,45000,1,0,0:0:0:0:
192,192,45000,1,0,0:0:0:0:
64,192,45093,1,0,0:0:0:0:
448,192,45187,1,0,0:0:0:0:
64,192,45281,1,0,0:0:0:0:
192,192,45375,1,0,0:0:0:0:
320,192,45375,1,0,0:0:0:0:
448,192,45468,1,0,0:0:0:0:
64,192,45562,1,0,0:0:0:0:
192,192,45656,1,0,0:0:0:0:
320,192,45750,1,0,0:0:0:0:
448,192,45750,1,0,0:0:0:0:
192,192,46000,1,0,0:0:0:0:
64,192,46062,1,0,0:0:0:0:
320,192,46125,1,0,0:0:0:0:
448,192,46125,1,0,0:0:0:0:
192,192,46125,1,0,0:0:0:0:
64,192,46218,1,0,0:0:0:0:
192,192,46312,1,0,0:0:0:0:
320,192,46406,1,0,0:0:0:0:
448,192,46500,1,0,0:0:0:0:
64,192,46500,1,0,0:0:0:0:
192,192,46593,1,0,0:0:0:0:
320,192,46687,1,0,0:0:0:0:
448,192,46781,1,0,0:0:0:0:
64,192,46875,1,0,0:0:0:0:
192,192,46875,1,0,0:0:0:0:
320,192,46968,1,0,0:0:0:0:
448,192,47062,1,0,0:0:0:0:
64,192,47156,1,0,0:0:0:0:
192,192,47250,1,0,0:0:0:0:
448,192,47250,1,0,0:0:0:0:
320,192,47343,1,0,0:0:0:0:
448,192,47437,1,0,0:0:0:0:
320,192,47531,1,0,0:0:0:0:
192,192,47625,1,0,0:0:0:0:
64,192,47625,1,0,0:0:0:0:
448,192,47718,1,0,0:0:0:0:
320,192,47812,1,0,0:0:0:0:
192,192,47906,1,0,0:0:0:0:
448,192,48000,1,0,0:0:0:0:
64,192,48000,1,0,0:0:0:0:
192,192,48093,1,0,0:0:0:0:
320,192,48187,1,0,0:0:0:0:
448,192,48281,1,0,0:0:0:0:
64,192,48375,1,0,0:0:0:0:
192,192,48375,1,0,0:0:0:0:
320,192,48468,1,0,0:0:0:0:
448,192,48562,1,0,0:0:0:0:
64,192,48687,1,0,0:0:0:0:
192,192,48750,1,0,0:0:0:0:
320,192,48750,1,0,0:0:0:0:
448,192,48937,1,0,0:0:0:0:
320,192,48937,1,0,0:0:0:0:
64,192,49031,1,0,0:0:0:0:
192,192,49031,1,0,0:0:0:0:
64,192,49312,1,0,0:0:0:0:
192,192,49312,1,0,0:0:0:0:
448,192,49312,1,0,0:0:0:0:
192,192,49500,1,0,0:0:0:0:
64,192,49500,1,0,0:0:0:0:
320,192,49500,1,0,0:0:0:0:
448,192,49875,1,0,0:0:0:0:
320,192,49875,1,0,0:0:0:0:
192,192,49968,1,0,0:0:0:0:
64,192,49968,1,0,0:0:0:0:
320,192,50062,1,0,0:0:0:0:
448,192,50062,1,0,0:0:0:0:
64,192,50156,1,0,0:0:0:0:
192,192,50156,1,0,0:0:0:0:
320,192,50250,1,0,0:0:0:0:
448,192,50250,1,0,0:0:0:0:
64,192,50812,1,0,0:0:0:0:
448,192,51000,1,0,0:0:0:0:
320,192,51000,1,0,0:0:0:0:
64,192,51656,1,0,0:0:0:0:
448,192,51656,1,0,0:0:0:0:
64,192,51750,1,0,0:0:0:0:
448,192,51750,1,0,0:0:0:0:
192,192,52125,1,0,0:0:0:0:
320,192,52125,1,0,0:0:0:0:
320,192,52500,1,0,0:0:0:0:
448,192,52500,1,0,0:0:0:0:
64,192,52687,1,0,0:0:0:0:
320,192,52875,1,0,0:0:0:0:
448,192,53062,1,0,0:0:0:0:
64,192,53156,1,0,0:0:0:0:
192,192,53156,1,0,0:0:0:0:
448,192,53250,1,0,0:0:0:0:
320,192,53250,1,0,0:0:0:0:
64,192,53437,1,0,0:0:0:0:
448,192,53625,1,0,0:0:0:0:
320,192,53812,1,0,0:0:0:0:
64,192,54000,1,0,0:0:0:0:
192,192,54000,1,0,0:0:0:0:
320,192,54187,1,0,0:0:0:0:
448,192,54375,1,0,0:0:0:0:
320,192,54562,1,0,0:0:0:0:
64,192,54750,1,0,0:0:0:0:
192,192,54750,1,0,0:0:0:0:
448,192,54937,1,0,0:0:0:0:
320,192,55031,1,0,0:0:0:0:
192,192,55125,1,0,0:0:0:0:
64,192,55125,1,0,0:0:0:0:
320,192,55500,1,0,0:0:0:0:
448,192,55500,1,0,0:0:0:0:
64,192,55500,1,0,0:0:0:0:
64,192,55875,1,0,0:0:0:0:
192,192,55875,1,0,0:0:0:0:
448,192,55968,1,0,0:0:0:0:
320,192,56062,1,0,0:0:0:0:
448,192,56156,1,0,0:0:0:0:
64,192,56250,128,0,57000:0:0:0:0:
320,192,56250,1,0,0:0:0:0:
192,192,56250,1,0,0:0:0:0:
448,192,56625,1,0,0:0:0:0:
192,192,57000,128,0,57750:0:0:0:0:
448,192,57000,1,0,0:0:0:0:
320,192,57000,1,0,0:0:0:0:
320,192,57375,1,0,0:0:0:0:
448,192,57562,1,0,0:0:0:0:
64,192,57656,1,0,0:0:0:0:
448,192,57750,1,0,0:0:0:0:
320,192,57750,128,0,59250:0:0:0:0:
192,192,57937,1,0,0:0:0:0:
448,192,58125,1,0,0:0:0:0:
64,192,58125,1,0,0:0:0:0:
192,192,58312,1,0,0:0:0:0:
192,192,58500,1,0,0:0:0:0:
448,192,58500,1,0,0:0:0:0:
448,192,58687,1,0,0:0:0:0:
64,192,58875,1,0,0:0:0:0:
448,192,59062,1,0,0:0:0:0:
192,192,59156,1,0,0:0:0:0:
448,192,59250,128,0,60000:0:0:0:0:
64,192,59250,1,0,0:0:0:0:
320,192,59437,1,0,0:0:0:0:
192,192,59812,1,0,0:0:0:0:
192,192,60000,128,0,60375:0:0:0:0:
64,192,60000,1,0,0:0:0:0:
320,192,60000,1,0,0:0:0:0:
448,192,60187,1,0,0:0:0:0:
320,192,60375,128,0,60750:0:0:0:0:
64,192,60375,1,0,0:0:0:0:
192,192,60562,1,0,0:0:0:0:
64,192,60750,128,0,61500:0:0:0:0:
448,192,60750,1,0,0:0:0:0:
192,192,60750,1,0,0:0:0:0:
320,192,60937,1,0,0:0:0:0:
448,192,61125,1,0,0:0:0:0:
192,192,61500,1,0,0:0:0:0:
448,192,61500,1,0,0:0:0:0:
64,192,61687,1,0,0:0:0:0:
320,192,61687,1,0,0:0:0:0:
192,192,61781,1,0,0:0:0:0:
448,192,61781,1,0,0:0:0:0:
320,192,61875,1,0,0:0:0:0:
64,192,61875,1,0,0:0:0:0:
448,192,62062,1,0,0:0:0:0:
192,192,62062,1,0,0:0:0:0:
320,192,62156,1,0,0:0:0:0:
64,192,62156,1,0,0:0:0:0:
192,192,62250,1,0,0:0:0:0:
448,192,62250,1,0,0:0:0:0:
64,192,62437,1,0,0:0:0:0:
192,192,62531,1,0,0:0:0:0:
320,192,62625,1,0,0:0:0:0:
448,192,62625,1,0,0:0:0:0:
192,192,62812,1,0,0:0:0:0:
64,192,62812,1,0,0:0:0:0:
320,192,63000,1,0,0:0:0:0:
448,192,63000,1,0,0:0:0:0:
192,192,63093,1,0,0:0:0:0:
64,192,63187,1,0,0:0:0:0:
448,192,63281,1,0,0:0:0:0:
320,192,63375,1,0,0:0:0:0:
192,192,63375,1,0,0:0:0:0:
64,192,63468,1,0,0:0:0:0:
320,192,63562,1,0,0:0:0:0:
448,192,63562,1,0,0:0:0:0:
192,192,63750,1,0,0:0:0:0:
64,192,63750,1,0,0:0:0:0:
192,192,63937,1,0,0:0:0:0:
320,192,63937,1,0,0:0:0:0:
320,192,64125,1,0,0:0:0:0:
448,192,64125,1,0,0:0:0:0:
192,192,64312,1,0,0:0:0:0:
64,192,64312,1,0,0:0:0:0:
320,192,64500,1,0,0:0:0:0:
448,192,64500,1,0,0:0:0:0:
192,192,64593,1,0,0:0:0:0:
64,192,64687,1,0,0:0:0:0:
448,192,64781,1,0,0:0:0:0:
320,192,64875,1,0,0:0:0:0:
192,192,64875,1,0,0:0:0:0:
64,192,65062,1,0,0:0:0:0:
448,192,65062,1,0,0:0:0:0:
192,192,65250,1,0,0:0:0:0:
320,192,65250,1,0,0:0:0:0:
448,192,65343,1,0,0:0:0:0:
64,192,65437,1,0,0:0:0:0:
192,192,65531,1,0,0:0:0:0:
320,192,65625,1,0,0:0:0:0:
448,192,65625,1,0,0:0:0:0:
192,192,65812,1,0,0:0:0:0:
320,192,65812,1,0,0:0:0:0:
64,192,66000,1,0,0:0:0:0:
192,192,66000,1,0,0:0:0:0:
320,192,66093,1,0,0:0:0:0:
448,192,66187,1,0,0:0:0:0:
64,192,66281,1,0,0:0:0:0:
192,192,66375,1,0,0:0:0:0:
320,192,66375,1,0,0:0:0:0:
448,192,66468,1,0,0:0:0:0:
64,192,66562,1,0,0:0:0:0:
192,192,66562,1,0,0:0:0:0:
320,192,66656,1,0,0:0:0:0:
448,192,66656,1,0,0:0:0:0:
192,192,66750,1,0,0:0:0:0:
64,192,66750,1,0,0:0:0:0:
320,192,67125,1,0,0:0:0:0:
448,192,67125,1,0,0:0:0:0:
192,192,67500,1,0,0:0:0:0:
64,192,67500,1,0,0:0:0:0:
320,192,67875,1,0,0:0:0:0:
448,192,67875,1,0,0:0:0:0:
320,192,67968,1,0,0:0:0:0:
448,192,67968,1,0,0:0:0:0:
192,192,68062,1,0,0:0:0:0:
64,192,68062,1,0,0:0:0:0:
64,192,68156,1,0,0:0:0:0:
192,192,68156,1,0,0:0:0:0:
64,192,69375,128,0,69468:0:0:0:0:
64,192,69562,128,0,69656:0:0:0:0:
320,192,69750,1,0,0:0:0:0:
448,192,69750,1,0,0:0:0:0:
192,192,69937,1,0,0:0:0:0:
64,192,70125,1,0,0:0:0:0:
448,192,70312,1,0,0:0:0:0:
320,192,70312,1,0,0:0:0:0:
192,192,70406,1,0,0:0:0:0:
64,192,70406,1,0,0:0:0:0:
320,192,70687,1,0,0:0:0:0:
192,192,70875,1,0,0:0:0:0:
64,192,71062,1,0,0:0:0:0:
192,192,71250,1,0,0:0:0:0:
448,192,71250,1,0,0:0:0:0:
64,192,71250,1,0,0:0:0:0:
320,192,71437,1,0,0:0:0:0:
192,192,71625,1,0,0:0:0:0:
64,192,71812,1,0,0:0:0:0:
448,192,72000,1,0,0:0:0:0:
320,192,72187,1,0,0:0:0:0:
64,192,72375,1,0,0:0:0:0:
448,192,72375,1,0,0:0:0:0:
192,192,72375,1,0,0:0:0:0:
320,192,72562,1,0,0:0:0:0:
320,192,72750,1,0,0:0:0:0:
448,192,72750,1,0,0:0:0:0:
64,192,72750,1,0,0:0:0:0:
192,192,72937,1,0,0:0:0:0:
192,192,73125,1,0,0:0:0:0:
64,192,73125,1,0,0:0:0:0:
448,192,73125,1,0,0:0:0:0:
320,192,73312,1,0,0:0:0:0:
192,192,73500,1,0,0:0:0:0:
64,192,73500,1,0,0:0:0:0:
448,192,73593,1,0,0:0:0:0:
192,192,73687,1,0,0:0:0:0:
64,192,73875,1,0,0:0:0:0:
448,192,74062,1,0,0:0:0:0:
320,192,74250,1,0,0:0:0:0:
192,192,74250,1,0,0:0:0:0:
64,192,74250,1,0,0:0:0:0:
448,192,74437,1,0,0:0:0:0:
64,192,74625,1,0,0:0:0:0:
320,192,74625,1,0,0:0:0:0:
192,192,74812,1,0,0:0:0:0:
320,192,75000,1,0,0:0:0:0:
448,192,75000,1,0,0:0:0:0:
192,192,75187,1,0,0:0:0:0:
64,192,75187,1,0,0:0:0:0:
320,192,75375,1,0,0:0:0:0:
448,192,75375,1,0,0:0:0:0:
64,192,75375,1,0,0:0:0:0:
64,192,75562,1,0,0:0:0:0:
192,192,75562,1,0,0:0:0:0:
192,192,75656,1,0,0:0:0:0:
320,192,75656,1,0,0:0:0:0:
320,192,75750,1,0,0:0:0:0:
448,192,75750,1,0,0:0:0:0:
192,192,75843,1,0,0:0:0:0:
64,192,75937,1,0,0:0:0:0:
320,192,75937,1,0,0:0:0:0:
448,192,76031,1,0,0:0:0:0:
64,192,76125,1,0,0:0:0:0:
192,192,76125,1,0,0:0:0:0:
320,192,76218,1,0,0:0:0:0:
448,192,76312,1,0,0:0:0:0:
64,192,76312,1,0,0:0:0:0:
192,192,76406,1,0,0:0:0:0:
320,192,76500,1,0,0:0:0:0:
448,192,76500,1,0,0:0:0:0:
192,192,76593,1,0,0:0:0:0:
64,192,76687,1,0,0:0:0:0:
448,192,76687,1,0,0:0:0:0:
320,192,76781,1,0,0:0:0:0:
192,192,76875,1,0,0:0:0:0:
64,192,76875,1,0,0:0:0:0:
320,192,76968,1,0,0:0:0:0:
448,192,77062,1,0,0:0:0:0:
192,192,77062,1,0,0:0:0:0:
64,192,77156,1,0,0:0:0:0:
192,192,77250,1,0,0:0:0:0:
320,192,77250,1,0,0:0:0:0:
448,192,77343,1,0,0:0:0:0:
64,192,77437,1,0,0:0:0:0:
192,192,77437,1,0,0:0:0:0:
320,192,77531,1,0,0:0:0:0:
448,192,77625,1,0,0:0:0:0:
64,192,77625,1,0,0:0:0:0:
192,192,77718,1,0,0:0:0:0:
320,192,77812,1,0,0:0:0:0:
448,192,77812,1,0,0:0:0:0:
192,192,77906,1,0,0:0:0:0:
64,192,78000,1,0,0:0:0:0:
320,192,78000,1,0,0:0:0:0:
448,192,78093,1,0,0:0:0:0:
320,192,78187,1,0,0:0:0:0:
192,192,78187,1,0,0:0:0:0:
64,192,78281,1,0,0:0:0:0:
448,192,78375,1,0,0:0:0:0:
320,192,78375,1,0,0:0:0:0:
192,192,78468,1,0,0:0:0:0:
64,192,78562,1,0,0:0:0:0:
448,192,78562,1,0,0:0:0:0:
320,192,78656,1,0,0:0:0:0:
192,192,78750,1,0,0:0:0:0:
64,192,78750,1,0,0:0:0:0:
320,192,78843,1,0,0:0:0:0:
448,192,78937,1,0,0:0:0:0:
192,192,78937,1,0,0:0:0:0:
64,192,79031,1,0,0:0:0:0:
192,192,79125,1,0,0:0:0:0:
320,192,79125,1,0,0:0:0:0:
448,192,79218,1,0,0:0:0:0:
64,192,79312,1,0,0:0:0:0:
192,192,79312,1,0,0:0:0:0:
320,192,79406,1,0,0:0:0:0:
448,192,79500,1,0,0:0:0:0:
64,192,79500,1,0,0:0:0:0:
192,192,79593,1,0,0:0:0:0:
320,192,79687,1,0,0:0:0:0:
448,192,79687,1,0,0:0:0:0:
192,192,79781,1,0,0:0:0:0:
64,192,79781,1,0,0:0:0:0:
320,192,79875,1,0,0:0:0:0:
448,192,79875,1,0,0:0:0:0:
192,192,79968,1,0,0:0:0:0:
64,192,79968,1,0,0:0:0:0:
320,192,80062,1,0,0:0:0:0:
448,192,80062,1,0,0:0:0:0:
192,192,80156,1,0,0:0:0:0:
64,192,80156,1,0,0:0:0:0:
320,192,80250,1,0,0:0:0:0:
448,192,80250,128,0,81187:0:0:0:0:
320,192,80437,1,0,0:0:0:0:
320,192,80625,1,0,0:0:0:0:
320,192,80812,1,0,0:0:0:0:
320,192,81000,1,0,0:0:0:0:
192,192,81093,1,0,0:0:0:0:
320,192,81187,1,0,0:0:0:0:
192,192,81281,1,0,0:0:0:0:
320,192,81375,1,0,0:0:0:0:
448,192,81562,1,0,0:0:0:0:
192,192,81750,1,0,0:0:0:0:
320,192,81750,1,0,0:0:0:0:
64,192,81843,1,0,0:0:0:0:
448,192,81937,1,0,0:0:0:0:
320,192,82031,1,0,0:0:0:0:
192,192,82125,1,0,0:0:0:0:
64,192,82125,1,0,0:0:0:0:
448,192,82218,1,0,0:0:0:0:
320,192,82312,1,0,0:0:0:0:
192,192,82406,1,0,0:0:0:0:
64,192,82500,1,0,0:0:0:0:
448,192,82500,1,0,0:0:0:0:
192,192,82593,1,0,0:0:0:0:
448,192,82687,1,0,0:0:0:0:
320,192,82781,1,0,0:0:0:0:
192,192,82875,1,0,0:0:0:0:
64,192,82875,1,0,0:0:0:0:
320,192,82968,1,0,0:0:0:0:
448,192,83062,1,0,0:0:0:0:
64,192,83187,1,0,0:0:0:0:
192,192,83250,1,0,0:0:0:0:
320,192,83250,1,0,0:0:0:0:
320,192,83500,1,0,0:0:0:0:
192,192,83562,1,0,0:0:0:0:
448,192,83625,1,0,0:0:0:0:
320,192,83625,1,0,0:0:0:0:
64,192,83625,1,0,0:0:0:0:
192,192,83812,1,0,0:0:0:0:
320,192,83906,1,0,0:0:0:0:
448,192,84000,1,0,0:0:0:0:
64,192,84000,1,0,0:0:0:0:
192,192,84093,1,0,0:0:0:0:
448,192,84187,1,0,0:0:0:0:
320,192,84281,1,0,0:0:0:0:
64,192,84375,1,0,0:0:0:0:
192,192,84375,1,0,0:0:0:0:
320,192,84468,1,0,0:0:0:0:
448,192,84562,1,0,0:0:0:0:
64,192,84656,1,0,0:0:0:0:
192,192,84750,1,0,0:0:0:0:
320,192,84750,1,0,0:0:0:0:
448,192,84843,1,0,0:0:0:0:
64,192,84937,1,0,0:0:0:0:
448,192,85031,1,0,0:0:0:0:
320,192,85125,1,0,0:0:0:0:
192,192,85125,1,0,0:0:0:0:
64,192,85218,1,0,0:0:0:0:
448,192,85312,1,0,0:0:0:0:
320,192,85406,1,0,0:0:0:0:
192,192,85500,1,0,0:0:0:0:
64,192,85500,1,0,0:0:0:0:
448,192,85593,1,0,0:0:0:0:
320,192,85687,1,0,0:0:0:0:
192,192,85781,1,0,0:0:0:0:
320,192,85875,1,0,0:0:0:0:
448,192,85875,1,0,0:0:0:0:
64,192,85968,1,0,0:0:0:0:
320,192,86062,1,0,0:0:0:0:
448,192,86062,1,0,0:0:0:0:
192,192,86156,1,0,0:0:0:0:
64,192,86250,1,0,0:0:0:0:
320,192,86250,1,0,0:0:0:0:
448,192,86437,1,0,0:0:0:0:
320,192,86500,1,0,0:0:0:0:
192,192,86562,1,0,0:0:0:0:
64,192,86625,1,0,0:0:0:0:
320,192,86625,1,0,0:0:0:0:
448,192,86625,1,0,0:0:0:0:
448,192,86812,1,0,0:0:0:0:
320,192,86906,1,0,0:0:0:0:
64,192,87000,1,0,0:0:0:0:
192,192,87000,1,0,0:0:0:0:
320,192,87093,1,0,0:0:0:0:
448,192,87187,1,0,0:0:0:0:
192,192,87187,1,0,0:0:0:0:
64,192,87281,1,0,0:0:0:0:
192,192,87375,1,0,0:0:0:0:
320,192,87375,1,0,0:0:0:0:
448,192,87468,1,0,0:0:0:0:
320,192,87562,1,0,0:0:0:0:
64,192,87562,1,0,0:0:0:0:
192,192,87656,1,0,0:0:0:0:
64,192,87750,1,0,0:0:0:0:
448,192,87750,1,0,0:0:0:0:
320,192,87843,1,0,0:0:0:0:
192,192,87937,1,0,0:0:0:0:
64,192,88031,1,0,0:0:0:0:
320,192,88125,1,0,0:0:0:0:
448,192,88125,1,0,0:0:0:0:
192,192,88218,1,0,0:0:0:0:
64,192,88312,1,0,0:0:0:0:
448,192,88406,1,0,0:0:0:0:
320,192,88500,1,0,0:0:0:0:
192,192,88500,1,0,0:0:0:0:
64,192,88593,1,0,0:0:0:0:
448,192,88687,1,0,0:0:0:0:
64,192,88781,1,0,0:0:0:0:
192,192,88875,1,0,0:0:0:0:
320,192,88875,1,0,0:0:0:0:
448,192,88968,1,0,0:0:0:0:
64,192,89062,1,0,0:0:0:0:
192,192,89156,1,0,0:0:0:0:
320,192,89250,1,0,0:0:0:0:
448,192,89250,1,0,0:0:0:0:
192,192,89500,1,0,0:0:0:0:
64,192,89562,1,0,0:0:0:0:
320,192,89625,1,0,0:0:0:0:
448,192,89625,1,0,0:0:0:0:
192,192,89625,1,0,0:0:0:0:
64,192,89718,1,0,0:0:0:0:
192,192,89812,1,0,0:0:0:0:
320,192,89906,1,0,0:0:0:0:
448,192,90000,1,0,0:0:0:0:
64,192,90000,1,0,0:0:0:0:
192,192,90093,1,0,0:0:0:0:
320,192,90187,1,0,0:0:0:0:
448,192,90281,1,0,0:0:0:0:
64,192,90375,1,0,0:0:0:0:
192,192,90375,1,0,0:0:0:0:
320,192,90468,1,0,0:0:0:0:
448,192,90562,1,0,0:0:0:0:
64,192,90656,1,0,0:0:0:0:
192,192,90750,1,0,0:0:0:0:
448,192,90750,1,0,0:0:0:0:
320,192,90843,1,0,0:0:0:0:
448,192,90937,1,0,0:0:0:0:
320,192,91031,1,0,0:0:0:0:
192,192,91125,1,0,0:0:0:0:
64,192,91125,1,0,0:0:0:0:
448,192,91218,1,0,0:0:0:0:
320,192,91312,1,0,0:0:0:0:
192,192,91406,1,0,0:0:0:0:
448,192,91500,1,0,0:0:0:0:
64,192,91500,1,0,0:0:0:0:
192,192,91593,1,0,0:0:0:0:
320,192,91687,1,0,0:0:0:0:
448,192,91781,1,0,0:0:0:0:
64,192,91875,1,0,0:0:0:0:
192,192,91875,1,0,0:0:0:0:
320,192,91968,1,0,0:0:0:0:
448,192,92062,1,0,0:0:0:0:
64,192,92156,1,0,0:0:0:0:
320,192,92250,1,0,0:0:0:0:
448,192,92250,1,0,0:0:0:0:
192,192,92343,1,0,0:0:0:0:
64,192,92343,1,0,0:0:0:0:
320,192,92437,1,0,0:0:0:0:
448,192,92437,1,0,0:0:0:0:
64,192,92531,1,0,0:0:0:0:
192,192,92531,1,0,0:0:0:0:
320,192,92625,1,0,0:0:0:0:
448,192,92625,1,0,0:0:0:0:
192,192,92718,1,0,0:0:0:0:
64,192,92718,1,0,0:0:0:0:
320,192,92812,1,0,0:0:0:0:
448,192,92812,1,0,0:0:0:0:
192,192,92906,1,0,0:0:0:0:
64,192,92906,1,0,0:0:0:0:
320,192,93000,1,0,0:0:0:0:
448,192,93000,1,0,0:0:0:0:
192,192,93093,1,0,0:0:0:0:
64,192,93093,1,0,0:0:0:0:
320,192,93187,1,0,0:0:0:0:
448,192,93187,1,0,0:0:0:0:
192,192,93281,1,0,0:0:0:0:
64,192,93281,1,0,0:0:0:0:
320,192,93375,1,0,0:0:0:0:
448,192,93375,1,0,0:0:0:0:
192,192,93468,1,0,0:0:0:0:
64,192,93468,1,0,0:0:0:0:
320,192,93562,1,0,0:0:0:0:
448,192,93562,1,0,0:0:0:0:
192,192,93656,1,0,0:0:0:0:
64,192,93656,1,0,0:0:0:0:
448,192,93750,128,0,94125:0:0:0:0:
320,192,93750,1,0,0:0:0:0:
192,192,93937,1,0,0:0:0:0:
64,192,94125,1,0,0:0:0:0:
320,192,94125,128,0,94218:0:0:0:0:
448,192,94312,1,0,0:0:0:0:
320,192,94312,128,0,94406:0:0:0:0:
192,192,94500,1,0,0:0:0:0:
64,192,94500,1,0,0:0:0:0:
448,192,94687,128,0,94875:0:0:0:0:
320,192,94687,1,0,0:0:0:0:
64,192,94875,128,0,94968:0:0:0:0:
192,192,94875,1,0,0:0:0:0:
64,192,95062,128,0,95156:0:0:0:0:
448,192,95062,1,0,0:0:0:0:
320,192,95250,1,0,0:0:0:0:
192,192,95250,128,0,95625:0:0:0:0:
448,192,95437,1,0,0:0:0:0:
448,192,95625,128,0,95718:0:0:0:0:
64,192,95625,1,0,0:0:0:0:
448,192,95812,128,0,95906:0:0:0:0:
192,192,95812,1,0,0:0:0:0:
64,192,96000,1,0,0:0:0:0:
320,192,96000,128,0,96375:0:0:0:0:
448,192,96187,1,0,0:0:0:0:
192,192,96375,1,0,0:0:0:0:
64,192,96375,128,0,96468:0:0:0:0:
64,192,96562,128,0,96656:0:0:0:0:
448,192,96562,1,0,0:0:0:0:
320,192,96750,1,0,0:0:0:0:
192,192,96750,128,0,97125:0:0:0:0:
448,192,96937,1,0,0:0:0:0:
448,192,97125,128,0,97218:0:0:0:0:
64,192,97125,1,0,0:0:0:0:
448,192,97312,128,0,97406:0:0:0:0:
192,192,97312,1,0,0:0:0:0:
64,192,97500,1,0,0:0:0:0:
320,192,97500,128,0,97875:0:0:0:0:
448,192,97687,1,0,0:0:0:0:
192,192,97875,1,0,0:0:0:0:
64,192,97875,128,0,97968:0:0:0:0:
64,192,98062,128,0,98156:0:0:0:0:
320,192,98062,1,0,0:0:0:0:
448,192,98250,128,0,99375:0:0:0:0:
320,192,98250,128,0,98625:0:0:0:0:
192,192,98250,1,0,0:0:0:0:
192,192,98625,128,0,99000:0:0:0:0:
64,192,98625,1,0,0:0:0:0:
64,192,99000,128,0,99750:0:0:0:0:
320,192,99000,1,0,0:0:0:0:
320,192,99375,128,0,99750:0:0:0:0:
192,192,99375,1,0,0:0:0:0:
448,192,99750,128,0,100125:0:0:0:0:
192,192,99750,1,0,0:0:0:0:
320,192,99937,1,0,0:0:0:0:
192,192,100125,128,0,100218:0:0:0:0:
64,192,100125,1,0,0:0:0:0:
192,192,100312,128,0,100406:0:0:0:0:
320,192,100312,1,0,0:0:0:0:
64,192,100500,128,0,100875:0:0:0:0:
448,192,100500,1,0,0:0:0:0:
192,192,100687,1,0,0:0:0:0:
320,192,100875,128,0,100968:0:0:0:0:
448,192,100875,1,0,0:0:0:0:
320,192,101062,128,0,101156:0:0:0:0:
192,192,101062,1,0,0:0:0:0:
192,192,101250,128,0,101625:0:0:0:0:
64,192,101250,1,0,0:0:0:0:
320,192,101437,1,0,0:0:0:0:
64,192,101625,128,0,101718:0:0:0:0:
448,192,101625,1,0,0:0:0:0:
64,192,101812,128,0,101906:0:0:0:0:
320,192,101812,1,0,0:0:0:0:
320,192,102000,128,0,102375:0:0:0:0:
192,192,102000,1,0,0:0:0:0:
64,192,102187,1,0,0:0:0:0:
448,192,102375,128,0,102468:0:0:0:0:
192,192,102375,1,0,0:0:0:0:
448,192,102562,128,0,102656:0:0:0:0:
320,192,102562,1,0,0:0:0:0:
64,192,102750,1,0,0:0:0:0:
192,192,102750,128,0,103125:0:0:0:0:
320,192,102937,1,0,0:0:0:0:
448,192,103125,128,0,103218:0:0:0:0:
64,192,103125,1,0,0:0:0:0:
448,192,103312,128,0,103406:0:0:0:0:
192,192,103312,1,0,0:0:0:0:
320,192,103500,128,0,103875:0:0:0:0:
448,192,103500,1,0,0:0:0:0:
192,192,103687,1,0,0:0:0:0:
192,192,103875,128,0,103968:0:0:0:0:
64,192,103875,1,0,0:0:0:0:
192,192,104062,128,0,104156:0:0:0:0:
448,192,104062,1,0,0:0:0:0:
320,192,104250,1,0,0:0:0:0:
64,192,104250,1,0,0:0:0:0:
192,192,104437,1,0,0:0:0:0:
320,192,104625,1,0,0:0:0:0:
448,192,104625,1,0,0:0:0:0:
192,192,104812,1,0,0:0:0:0:
64,192,105000,1,0,0:0:0:0:
192,192,105000,1,0,0:0:0:0:
320,192,105093,1,0,0:0:0:0:
448,192,105093,1,0,0:0:0:0:
64,192,105187,1,0,0:0:0:0:
192,192,105187,1,0,0:0:0:0:
320,192,105281,1,0,0:0:0:0:
448,192,105281,1,0,0:0:0:0:
192,192,105375,1,0,0:0:0:0:
64,192,105375,1,0,0:0:0:0:
320,192,105468,1,0,0:0:0:0:
448,192,105468,1,0,0:0:0:0:
192,192,105562,1,0,0:0:0:0:
64,192,105562,1,0,0:0:0:0:
320,192,105656,1,0,0:0:0:0:
448,192,105656,1,0,0:0:0:0:
192,192,105750,1,0,0:0:0:0:
64,192,105750,1,0,0:0:0:0:
320,192,105937,1,0,0:0:0:0:
448,192,106125,1,0,0:0:0:0:
192,192,106312,1,0,0:0:0:0:
320,192,106500,1,0,0:0:0:0:
64,192,106687,1,0,0:0:0:0:
192,192,106875,1,0,0:0:0:0:
448,192,107062,1,0,0:0:0:0:
192,192,107250,1,0,0:0:0:0:
64,192,107437,1,0,0:0:0:0:
320,192,107625,1,0,0:0:0:0:
192,192,107812,1,0,0:0:0:0:
448,192,108000,1,0,0:0:0:0:
