osu file format v14

[General]
AudioFilename: Hana Ranman -Flowers-.mp3
AudioLeadIn: 1004
PreviewTime: 74118
Countdown: 0
SampleSet: Soft
StackLeniency: 0.7
Mode: 0
LetterboxInBreaks: 1
WidescreenStoryboard: 0

[Editor]
Bookmarks: 12610,24518,36519,48615,54615,62210,68117,74119,86119,98308
DistanceSpacing: 1
BeatDivisor: 4
GridSize: 16
TimelineZoom: 1

[Metadata]
Title:Hana Ranman
TitleUnicode:Hana Ranman
Artist:TERRA
ArtistUnicode:TERRA
Creator:mayosiiiiii
Version:Normal
Source:
Tags:oppai Apriy
BeatmapID:145134
BeatmapSetID:45947

[Difficulty]
HPDrainRate:3
CircleSize:3
OverallDifficulty:5
ApproachRate:5
SliderMultiplier:1.4
SliderTickRate:2

[Events]
//Background and Video events
0,0,"bg.jpg",0,0
//Break Periods
2,48819,53419
2,62319,66544
//Storyboard Layer 0 (Background)
//Storyboard Layer 1 (Fail)
//Storyboard Layer 2 (Pass)
//Storyboard Layer 3 (Foreground)
//Storyboard Sound Samples

[TimingPoints]
619,375,4,2,1,90,1,0
36619,-100,4,2,1,90,0,1
36712,-100,4,2,1,90,0,0
60619,-100,4,2,1,5,0,0
67744,-100,4,2,1,90,0,0
72619,-100,4,2,1,5,0,0
74119,-100,4,2,1,90,0,1
84619,-100,4,2,1,90,0,0
86119,-100,4,2,1,90,0,1
86212,-100,4,2,1,90,0,0
90619,-100,4,1,1,69,0,0
91942,-100,4,2,1,90,0,0

[Colours]
Combo1 : 68,255,255
Combo2 : 255,68,162
Combo3 : 128,128,255
Combo4 : 255,128,64

[HitObjects]
72,280,619,6,0,B|208:360|328:232,1,280,4|0,0:0|0:0,0:0:0:0:
380,108,1744,1,0,0:0:0:0:
428,240,2119,2,0,B|292:160|172:288,1,280,0|0,0:0|0:0,0:0:0:0:
60,208,3244,1,0,0:0:0:0:
168,116,3619,2,0,B|304:196|424:68,1,280,0|0,0:0|0:0,0:0:0:0:
419,72,4744,1,0,0:0:0:0:
256,192,5119,12,0,6244,0:0:0:0:
336,120,6619,6,0,B|200:88,3,140,4|0|0|0,0:0|0:0|0:0|0:0,0:0:0:0:
72,152,8119,2,0,B|208:184,3,140
272,304,9619,2,0,B|136:272,3,140,4|0|4|0,0:0|0:0|0:0|0:0,0:0:0:0:
48,168,11119,1,4,0:0:0:0:
184,192,11494,1,4,0:0:0:0:
320,216,11869,1,4,0:0:0:0:
444,152,12244,5,0,0:0:0:0:
444,152,12619,2,0,B|500:336|316:360,1,280,4|0,0:0|0:0,0:0:0:0:
192,332,13744,1,0,0:0:0:0:
156,272,13931,2,0,B|-12:240,2,140,0|2|2,0:0|0:0|0:0,0:0:0:0:
156,272,14869,1,0,0:0:0:0:
276,196,15244,1,2,0:0:0:0:
348,316,15619,6,0,B|532:332|476:132,1,280
340,104,16744,1,0,0:0:0:0:
308,40,16931,2,0,B|284:184,2,140,0|2|2,0:0|0:0|0:0,0:0:0:0:
308,40,17869,1,0,0:0:0:0:
308,40,18244,1,2,0:0:0:0:
168,64,18619,6,0,B|24:104|72:296,1,280
200,340,19744,1,0,0:0:0:0:
260,304,19931,2,0,B|276:160,2,140,0|2|2,0:0|0:0|0:0,0:0:0:0:
260,304,20869,1,0,0:0:0:0:
396,336,21244,1,2,0:0:0:0:
464,216,21619,6,0,B|288:176|256:360,1,280
136,280,22744,1,0,0:0:0:0:
72,248,22931,2,0,B|32:144|32:144|88:168,2,140,0|2|2,0:0|0:0|0:0,0:0:0:0:
72,248,23869,1,0,0:0:0:0:
208,216,24244,1,2,0:0:0:0:
328,296,24619,6,0,B|368:352|492:368|528:240|344:184|168:200|424:224|568:224|520:200|493:74|463:22|312:64,1,560,4|0,0:0|0:0,0:0:0:0:
200,128,26494,2,0,B|208:200,2,70
200,128,27244,1,0,0:0:0:0:
64,152,27619,6,0,B|91:62|155:54|259:102|227:334|83:-34|352:-104|456:32|488:152,1,560,0|0,0:0|0:0,0:0:0:0:
376,232,29494,2,0,B|352:168,2,70
376,232,30244,1,0,0:0:0:0:
472,336,30619,6,4,B|392:368|360:296|440:216|400:304|328:352|64:352|72:176|352:112,1,560,4|0,0:0|0:0,0:0:0:0:
444,188,32494,1,0,0:0:0:0:
444,188,32681,2,0,B|308:220,2,140
256,192,33619,12,0,35494,0:0:0:0:
104,304,35869,6,0,B|80:160,1,140
160,48,36619,2,0,B|272:112|272:112|216:272,3,280,4|4|4|4,0:0|0:0|0:0|0:0,0:0:0:0:
104,320,39244,1,4,0:0:0:0:
224,256,39619,6,4,B|368:232|368:232|448:352,3,280,4|4|4|4,0:0|0:0|0:0|0:0,0:0:0:0:
304,344,42244,1,4,0:0:0:0:
424,272,42619,6,0,B|480:144|480:144|384:40,3,280,4|4|4|4,0:0|0:0|0:0|0:0,0:0:0:0:
312,160,45244,1,4,0:0:0:0:
200,72,45619,2,0,B|144:200|144:200|240:304,1,280,4|4,0:0|0:0,0:0:0:0:
239,303,46744,1,0,0:0:0:0:
256,192,47119,12,4,48619,0:0:0:0:
80,56,54619,6,0,B|384:56,1,280,4|4,0:0|0:0,0:0:0:0:
464,152,55744,1,0,0:0:0:0:
464,152,56119,2,0,B|160:152,1,280,4|4,0:0|0:0,0:0:0:0:
80,248,57244,5,0,0:0:0:0:
80,248,57619,2,0,B|384:248,1,280,4|4,0:0|0:0,0:0:0:0:
464,344,58744,1,0,0:0:0:0:
464,344,59119,2,0,B|160:344,1,280,4|4,0:0|0:0,0:0:0:0:
184,344,60244,1,4,0:0:0:0:
256,192,60619,12,0,62119,0:0:0:0:
80,120,67744,5,0,0:0:0:0:
80,120,68119,2,0,B|248:96,3,140,4|0|4|0,0:0|0:0|0:0|0:0,0:0:0:0:
328,188,69619,2,0,B|160:212,3,140,4|0|4|4,0:0|0:0|0:0|0:0,0:0:0:0:
292,304,71119,2,0,B|460:280,3,140,4|0|4|0,0:0|0:0|0:0|0:0,0:0:0:0:
256,192,72619,12,4,74119,0:0:0:0:
368,288,74494,6,0,B|456:304,2,70,0|2|4,0:0|0:0|0:0,0:0:0:0:
272,184,75244,1,0,0:0:0:0:
272,184,75619,2,0,B|240:88|288:24|368:24|440:80,1,280,4|4,0:0|0:0,0:0:0:0:
408,208,76744,2,0,B|432:288,2,70,4|2|4,0:0|0:0|0:0,0:0:0:0:
272,184,77494,2,0,B|288:112,2,70,0|2|4,0:0|0:0|0:0,0:0:0:0:
184,296,78244,1,0,0:0:0:0:
184,296,78619,2,0,B|88:328|24:280|24:200|80:128,1,280,4|4,0:0|0:0,0:0:0:0:
208,160,79744,6,0,B|296:128,2,70,4|2|4,0:0|0:0|0:0,0:0:0:0:
184,296,80494,2,0,B|96:264,2,70,0|2|4,0:0|0:0|0:0,0:0:0:0:
288,208,81244,1,0,0:0:0:0:
288,208,81619,2,0,B|256:304|304:368|384:368|456:312,1,280,4|4,0:0|0:0,0:0:0:0:
400,184,82744,2,0,B|488:216,2,70,4|2|4,0:0|0:0|0:0,0:0:0:0:
272,240,83494,2,0,B|360:272,2,70,0|2|4,0:0|0:0|0:0,0:0:0:0:
272,240,84244,1,0,0:0:0:0:
256,192,84619,12,4,86119,0:0:0:0:
224,104,86494,6,0,B|192:184,1,70,2|0,0:0|0:0,0:0:0:0:
56,192,87056,2,0,B|96:240|96:240|160:232|160:232|176:320,1,210,0|4,0:0|0:0,0:0:0:0:
312,344,87994,2,0,B|392:320,1,70,2|0,0:0|0:0,0:0:0:0:
472,224,88556,2,0,B|432:176|432:176|368:184|368:184|352:96,1,210,0|4,0:0|0:0,0:0:0:0:
272,216,89494,2,0,B|288:312,1,70,2|0,0:0|0:0,0:0:0:0:
168,200,90056,2,0,B|144:40,1,140
147,61,90619,5,0,0:0:0:0:
44,156,90994,1,0,0:0:0:0:
168,216,91369,1,0,0:0:0:0:
60,308,91744,1,0,0:0:0:0:
196,348,92119,6,0,B|404:300,1,210,4|0,0:0|0:0,0:0:0:0:
428,164,93056,1,2,0:0:0:0:
316,76,93431,1,2,0:0:0:0:
316,76,93619,2,0,B|268:284,1,210,4|0,0:0|0:0,0:0:0:0:
132,320,94556,1,2,0:0:0:0:
36,216,94931,1,2,0:0:0:0:
36,216,95119,2,0,B|244:264,1,210,4|0,0:0|0:0,0:0:0:0:
364,200,96056,1,2,0:0:0:0:
364,200,96431,1,2,0:0:0:0:
256,192,96619,12,4,98119,0:0:0:0:
