osu file format v14

[General]
AudioFilename: Hana Ranman -Flowers-.mp3
AudioLeadIn: 1004
PreviewTime: 74118
Countdown: 0
SampleSet: Soft
StackLeniency: 0.4
Mode: 0
LetterboxInBreaks: 1
WidescreenStoryboard: 0

[Editor]
Bookmarks: 12610,24518,36519,48615,54615,62210,68117,74119,86119,98308
DistanceSpacing: 1.1
BeatDivisor: 4
GridSize: 8
TimelineZoom: 1

[Metadata]
Title:Hana Ranman
TitleUnicode:Hana Ranman
Artist:TERRA
ArtistUnicode:TERRA
Creator:mayosiiiiii
Version:Insane
Source:
Tags:oppai Apriy
BeatmapID:143218
BeatmapSetID:45947

[Difficulty]
HPDrainRate:8
CircleSize:5
OverallDifficulty:8
ApproachRate:8
SliderMultiplier:1.7
SliderTickRate:2

[Events]
//Background and Video events
0,0,"bg.jpg",0,0
//Break Periods
2,62309,66984
//Storyboard Layer 0 (Background)
//Storyboard Layer 1 (Fail)
//Storyboard Layer 2 (Pass)
//Storyboard Layer 3 (Foreground)
//Storyboard Sound Samples

[TimingPoints]
609,375,4,2,1,90,1,0
35859,750,4,2,1,90,1,0
35859,-166.666666666667,4,2,1,5,0,0
36609,375,4,2,1,90,1,1
45234,-100,4,2,1,90,0,0
60609,-100,4,2,1,5,0,0
67734,-100,4,2,1,90,0,0
72046,-100,4,1,1,69,0,0
72609,-100,4,2,1,5,0,0
74109,-100,4,2,1,90,0,1
84609,-100,4,1,1,69,0,0
86109,-100,4,2,1,90,0,1
86202,-100,4,2,1,90,0,0
90609,-100,4,1,1,69,0,0
91921,-100,4,2,1,90,0,0
98296,-100,4,2,1,60,0,0

[Colours]
Combo1 : 68,255,255
Combo2 : 255,68,162
Combo3 : 128,128,255
Combo4 : 255,128,64

[HitObjects]
64,96,234,5,0,0:0:0:0:
64,96,421,1,0,0:0:0:0:
64,96,609,1,4,0:0:0:0:
88,224,984,1,0,0:0:0:0:
192,144,1359,1,0,0:0:0:0:
216,272,1734,1,0,0:0:0:0:
320,192,2109,1,0,0:0:0:0:
344,320,2484,1,0,0:0:0:0:
448,248,2859,1,0,0:0:0:0:
448,248,3046,1,0,0:0:0:0:
448,248,3234,1,0,0:0:0:0:
344,320,3609,5,0,0:0:0:0:
448,248,3984,1,0,0:0:0:0:
360,152,4359,1,0,0:0:0:0:
464,80,4734,1,0,0:0:0:0:
256,192,5109,12,0,6234,0:0:0:0:
448,72,6609,5,4,0:0:0:0:
380,64,6796,1,2,0:0:0:0:
316,84,6984,1,0,0:0:0:0:
268,132,7171,1,2,0:0:0:0:
208,100,7359,1,0,0:0:0:0:
140,96,7546,1,2,0:0:0:0:
76,120,7734,1,0,0:0:0:0:
36,176,7921,1,2,0:0:0:0:
56,212,8109,5,0,0:0:0:0:
124,208,8296,1,2,0:0:0:0:
192,220,8484,1,0,0:0:0:0:
244,264,8671,1,2,0:0:0:0:
280,324,8859,1,0,0:0:0:0:
336,284,9046,1,2,0:0:0:0:
404,276,9234,1,0,0:0:0:0:
468,300,9421,1,2,0:0:0:0:
488,264,9609,5,4,0:0:0:0:
432,224,9796,1,2,0:0:0:0:
416,204,9890,1,0,0:0:0:0:
416,180,9984,1,0,0:0:0:0:
420,112,10171,1,2,0:0:0:0:
380,168,10359,1,4,0:0:0:0:
312,180,10546,1,2,0:0:0:0:
288,176,10640,1,0,0:0:0:0:
272,160,10734,1,0,0:0:0:0:
236,100,10921,1,2,0:0:0:0:
264,36,11109,5,4,0:0:0:0:
284,144,11484,1,4,0:0:0:0:
248,244,11859,1,4,0:0:0:0:
276,348,12140,1,0,0:0:0:0:
288,328,12234,2,0,B|272:232,1,85,0|2,0:0|0:0,0:0:0:0:
200,204,12609,5,4,0:0:0:0:
156,276,12796,1,0,0:0:0:0:
232,316,12984,2,0,B|332:292,1,85,0|0,0:0|0:0,0:0:0:0:
461,219,13359,2,0,B|405:187|405:187|337:207,1,127.5
344,204,13734,1,0,0:0:0:0:
280,264,13921,5,0,0:0:0:0:
196,232,14109,1,0,0:0:0:0:
180,148,14296,1,2,0:0:0:0:
180,148,14390,1,0,0:0:0:0:
180,148,14484,1,0,0:0:0:0:
244,88,14671,1,2,0:0:0:0:
324,120,14859,1,0,0:0:0:0:
344,204,15046,1,2,0:0:0:0:
344,204,15140,1,0,0:0:0:0:
344,204,15234,1,0,0:0:0:0:
280,264,15421,1,2,0:0:0:0:
196,232,15609,6,0,B|208:124,1,85
88,96,15984,2,0,B|124:184,1,85
32,268,16359,2,0,B|92:284|92:284|160:236,1,127.5
145,246,16734,1,0,0:0:0:0:
216,196,16921,2,0,B|296:168|296:168|276:280,1,170
332,320,17484,1,0,0:0:0:0:
408,280,17671,1,0,0:0:0:0:
448,204,17859,5,0,0:0:0:0:
432,168,17952,1,0,0:0:0:0:
392,164,18046,1,2,0:0:0:0:
356,152,18140,1,0,0:0:0:0:
352,112,18234,1,0,0:0:0:0:
324,88,18327,1,0,0:0:0:0:
288,96,18421,1,2,0:0:0:0:
260,72,18515,1,0,0:0:0:0:
224,64,18609,5,0,0:0:0:0:
148,32,18796,1,0,0:0:0:0:
96,100,18984,2,0,B|108:192,1,85
204,276,19359,2,0,B|184:136,1,127.5
185,149,19734,1,0,0:0:0:0:
248,88,19921,5,0,0:0:0:0:
328,120,20109,1,0,0:0:0:0:
348,204,20296,1,2,0:0:0:0:
348,204,20390,1,0,0:0:0:0:
348,204,20484,1,0,0:0:0:0:
284,264,20671,1,2,0:0:0:0:
204,232,20859,1,0,0:0:0:0:
184,148,21046,1,2,0:0:0:0:
184,148,21140,1,0,0:0:0:0:
184,148,21234,1,0,0:0:0:0:
248,88,21421,1,2,0:0:0:0:
328,120,21609,6,0,B|360:200,1,85
444,200,21984,2,0,B|408:288,1,85
328,296,22359,2,0,B|192:264,1,127.5
203,266,22734,1,0,0:0:0:0:
128,304,22921,2,0,B|36:332|36:332|60:232,1,170
112,200,23484,1,0,0:0:0:0:
36,160,23671,1,0,0:0:0:0:
88,92,23859,5,0,0:0:0:0:
104,56,23952,1,0,0:0:0:0:
140,68,24046,1,2,0:0:0:0:
176,60,24140,1,0,0:0:0:0:
208,40,24234,1,0,0:0:0:0:
232,72,24327,1,0,0:0:0:0:
268,84,24421,1,2,0:0:0:0:
292,56,24515,1,0,0:0:0:0:
324,36,24609,5,4,0:0:0:0:
408,24,24796,1,2,0:0:0:0:
484,64,24984,1,0,0:0:0:0:
508,144,25171,1,2,0:0:0:0:
424,140,25359,1,0,0:0:0:0:
356,188,25546,1,2,0:0:0:0:
328,268,25734,1,0,0:0:0:0:
348,352,25921,1,2,0:0:0:0:
268,320,26109,6,0,B|239:340|224:365|224:365|176:326|100:360,1,170
52,304,26671,2,0,B|-8:288,1,42.5,0|0,0:0|0:0,0:0:0:0:
52,304,26859,2,0,B|88:252,1,42.5,0|2,0:0|0:0,0:0:0:0:
136,332,27140,1,0,0:0:0:0:
136,332,27234,2,0,B|184:320|184:320|208:332|208:332|272:316,1,127.5,2|0,0:0|0:0,0:0:0:0:
324,340,27609,5,0,0:0:0:0:
292,260,27796,1,2,0:0:0:0:
220,212,27984,1,0,0:0:0:0:
136,212,28171,1,2,0:0:0:0:
60,252,28359,1,0,0:0:0:0:
24,176,28546,1,2,0:0:0:0:
40,92,28734,1,0,0:0:0:0:
104,36,28921,1,2,0:0:0:0:
176,80,29109,6,0,B|205:100|220:125|220:125|268:86|344:120,1,170
396,68,29671,2,0,B|360:16,1,42.5
396,68,29859,2,0,B|456:52,1,42.5,0|2,0:0|0:0,0:0:0:0:
460,140,30140,1,0,0:0:0:0:
460,140,30234,2,0,B|448:188|448:188|460:212|460:212|444:276,1,127.5,2|0,0:0|0:0,0:0:0:0:
392,312,30609,5,4,0:0:0:0:
308,324,30796,1,2,0:0:0:0:
240,276,30984,1,0,0:0:0:0:
300,216,31171,1,2,0:0:0:0:
224,184,31359,1,0,0:0:0:0:
140,180,31546,1,2,0:0:0:0:
64,220,31734,1,0,0:0:0:0:
24,296,31921,1,2,0:0:0:0:
108,316,32109,6,0,B|137:336|152:361|152:361|200:322|276:356,1,170
320,292,32671,2,0,B|284:240,1,42.5
320,292,32859,2,0,B|380:276,1,42.5,0|2,0:0|0:0,0:0:0:0:
480,308,33140,2,0,B|420:324,1,42.5,0|2,0:0|0:0,0:0:0:0:
360,280,33421,1,0,0:0:0:0:
420,216,33609,5,0,0:0:0:0:
404,180,33702,1,0,0:0:0:0:
372,156,33796,1,2,0:0:0:0:
332,152,33890,1,0,0:0:0:0:
296,160,33984,1,2,0:0:0:0:
208,180,34171,5,0,0:0:0:0:
176,156,34265,1,0,0:0:0:0:
160,120,34359,1,2,0:0:0:0:
164,84,34452,1,0,0:0:0:0:
180,48,34546,1,2,0:0:0:0:
260,100,34734,5,0,0:0:0:0:
260,140,34827,1,0,0:0:0:0:
244,176,34921,1,2,0:0:0:0:
212,196,35015,1,0,0:0:0:0:
172,196,35109,1,0,0:0:0:0:
136,184,35202,1,0,0:0:0:0:
112,156,35296,1,2,0:0:0:0:
76,140,35390,1,0,0:0:0:0:
40,148,35484,1,2,0:0:0:0:
16,180,35577,1,0,0:0:0:0:
12,216,35671,1,2,0:0:0:0:
32,256,35765,1,0,0:0:0:0:
68,264,35859,6,0,B|56:168,1,89.2499972763062
56,175,36609,1,12,0:0:0:0:
216,32,36984,5,8,0:0:0:0:
332,76,37171,1,2,0:0:0:0:
232,148,37359,1,12,0:0:0:0:
332,280,37734,5,8,0:0:0:0:
464,176,37921,1,2,0:0:0:0:
492,340,38109,1,12,0:0:0:0:
332,280,38296,1,2,0:0:0:0:
332,280,38390,1,0,0:0:0:0:
332,280,38484,1,8,0:0:0:0:
464,176,38671,1,2,0:0:0:0:
492,340,38859,1,12,0:0:0:0:
296,304,39234,5,12,0:0:0:0:
192,352,39421,1,2,0:0:0:0:
200,248,39609,1,12,0:0:0:0:
144,152,39984,5,8,0:0:0:0:
24,88,40171,1,2,0:0:0:0:
32,224,40359,1,12,0:0:0:0:
344,24,40734,5,8,0:0:0:0:
304,200,40921,1,2,0:0:0:0:
160,80,41109,1,12,0:0:0:0:
344,24,41296,1,2,0:0:0:0:
344,24,41390,1,0,0:0:0:0:
344,24,41484,1,8,0:0:0:0:
304,200,41671,1,2,0:0:0:0:
160,80,41859,1,12,0:0:0:0:
484,280,42234,5,12,0:0:0:0:
384,232,42421,1,2,0:0:0:0:
384,344,42609,1,12,0:0:0:0:
360,120,42984,5,8,0:0:0:0:
216,192,43171,1,2,0:0:0:0:
208,36,43359,1,12,0:0:0:0:
40,340,43734,5,8,0:0:0:0:
56,156,43921,1,2,0:0:0:0:
216,264,44109,1,12,0:0:0:0:
40,340,44296,1,2,0:0:0:0:
40,340,44390,1,0,0:0:0:0:
40,340,44484,1,8,0:0:0:0:
56,156,44671,1,2,0:0:0:0:
216,264,44859,1,12,0:0:0:0:
416,56,45234,5,12,0:0:0:0:
328,72,45421,1,2,0:0:0:0:
240,88,45609,1,12,0:0:0:0:
64,312,45984,5,8,0:0:0:0:
152,296,46171,1,2,0:0:0:0:
240,280,46359,1,12,0:0:0:0:
452,260,46734,5,8,0:0:0:0:
372,244,46921,1,2,0:0:0:0:
292,228,47109,1,12,0:0:0:0:
212,212,47296,1,2,0:0:0:0:
212,212,47390,1,0,0:0:0:0:
212,212,47484,1,8,0:0:0:0:
132,196,47671,1,2,0:0:0:0:
56,224,47859,1,8,0:0:0:0:
56,224,48234,1,8,0:0:0:0:
92,52,48609,5,4,0:0:0:0:
132,196,48984,1,0,0:0:0:0:
252,100,49359,1,0,0:0:0:0:
292,244,49734,1,0,0:0:0:0:
404,148,50109,1,0,0:0:0:0:
420,220,50484,1,4,0:0:0:0:
436,292,50859,1,0,0:0:0:0:
464,176,51234,5,0,0:0:0:0:
464,176,51421,1,0,0:0:0:0:
464,176,51609,1,4,0:0:0:0:
424,320,51984,1,0,0:0:0:0:
304,200,52359,1,0,0:0:0:0:
264,344,52734,1,0,0:0:0:0:
144,224,53109,1,0,0:0:0:0:
128,328,53390,1,2,0:0:0:0:
40,272,53671,1,0,0:0:0:0:
120,256,53859,1,4,0:0:0:0:
200,240,54046,1,2,0:0:0:0:
280,224,54234,1,0,0:0:0:0:
360,256,54421,1,2,0:0:0:0:
420,196,54609,6,0,B|441:146|441:146|428:98|428:98|366:76,1,170,4|0,0:0|0:0,0:0:0:0:
324,164,55171,1,0,0:0:0:0:
232,124,55359,2,0,B|211:174|211:174|224:222|224:222|286:244,1,170,4|0,0:0|0:0,0:0:0:0:
324,164,55921,1,0,0:0:0:0:
265,102,56109,6,0,B|330:170,1,85,4|2,0:0|0:0,0:0:0:0:
314,275,56484,2,0,B|342:182,1,85,4|2,0:0|0:0,0:0:0:0:
442,142,56859,2,0,B|350:166,1,85,4|2,0:0|0:0,0:0:0:0:
344,152,57140,1,0,0:0:0:0:
328,140,57234,2,0,B|236:164,1,85,0|2,0:0|0:0,0:0:0:0:
80,48,57609,6,0,L|344:48,1,255,4|2,0:0|0:0,0:0:0:0:
448,176,58359,2,0,L|184:176,1,255,4|2,0:0|0:0,0:0:0:0:
112,272,59109,2,0,B|136:360,1,85,4|2,0:0|0:0,0:0:0:0:
112,272,59484,2,0,B|-3:240,1,85,4|2,0:0|0:0,0:0:0:0:
112,272,59859,2,0,B|172:205,1,85,4|2,0:0|0:0,0:0:0:0:
244,276,60234,1,4,0:0:0:0:
256,192,60609,12,4,62109,0:0:0:0:
140,64,67734,5,0,0:0:0:0:
140,64,67921,1,2,0:0:0:0:
140,64,68109,2,0,B|60:104,1,85,4|2,0:0|0:0,0:0:0:0:
220,140,68484,2,0,B|192:220,1,85,0|2,0:0|0:0,0:0:0:0:
340,152,68859,2,0,B|356:252,1,85,4|2,0:0|0:0,0:0:0:0:
440,100,69234,2,0,B|528:176,1,85,0|2,0:0|0:0,0:0:0:0:
464,272,69609,5,4,0:0:0:0:
408,336,69796,1,2,0:0:0:0:
324,316,69984,1,0,0:0:0:0:
300,236,70171,1,2,0:0:0:0:
356,172,70359,1,4,0:0:0:0:
440,192,70546,1,2,0:0:0:0:
440,192,70640,1,0,0:0:0:0:
440,192,70734,1,4,0:0:0:0:
464,272,70921,1,2,0:0:0:0:
348,296,71109,6,0,B|280:372,1,85,4|2,0:0|0:0,0:0:0:0:
216,280,71484,2,0,B|128:268,1,85,0|2,0:0|0:0,0:0:0:0:
131,268,71859,1,4,0:0:0:0:
76,180,72046,1,0,0:0:0:0:
100,148,72140,1,0,0:0:0:0:
136,156,72234,1,0,0:0:0:0:
172,148,72327,1,0,0:0:0:0:
192,116,72421,1,0,0:0:0:0:
256,192,72609,12,0,73921,0:0:0:0:
364,344,74109,5,12,0:0:0:0:
252,332,74296,1,2,0:0:0:0:
188,240,74484,1,8,0:0:0:0:
204,132,74671,1,2,0:0:0:0:
292,64,74859,1,12,0:0:0:0:
400,84,75046,1,2,0:0:0:0:
468,168,75234,1,8,0:0:0:0:
460,280,75421,1,2,0:0:0:0:
364,344,75609,5,12,0:0:0:0:
252,332,75796,1,2,0:0:0:0:
312,240,75984,1,8,0:0:0:0:
200,228,76171,1,2,0:0:0:0:
152,128,76359,1,12,0:0:0:0:
264,140,76546,1,2,0:0:0:0:
212,36,76734,1,12,0:0:0:0:
100,24,76921,1,2,0:0:0:0:
40,116,77109,5,12,0:0:0:0:
24,224,77296,1,2,0:0:0:0:
84,316,77484,1,8,0:0:0:0:
192,340,77671,1,2,0:0:0:0:
296,304,77859,1,12,0:0:0:0:
328,200,78046,1,2,0:0:0:0:
292,96,78234,1,8,0:0:0:0:
188,56,78421,1,2,0:0:0:0:
156,160,78609,5,12,0:0:0:0:
264,204,78796,1,2,0:0:0:0:
292,96,78984,1,12,0:0:0:0:
188,56,79171,1,2,0:0:0:0:
156,160,79359,1,12,0:0:0:0:
293,96,79546,1,6,0:0:0:0:
156,160,79734,1,8,0:0:0:0:
293,97,79921,1,6,0:0:0:0:
156,160,80109,6,0,B|84:256,1,85,12|2,0:0|0:0,0:0:0:0:
212,260,80484,2,0,B|224:368,1,85,8|2,0:0|0:0,0:0:0:0:
328,308,80859,2,0,B|424:340,1,85,12|2,0:0|0:0,0:0:0:0:
452,232,81234,2,0,B|520:184,1,85,8|2,0:0|0:0,0:0:0:0:
444,104,81609,5,12,0:0:0:0:
364,28,81796,1,2,0:0:0:0:
256,56,81984,1,8,0:0:0:0:
224,164,82171,1,2,0:0:0:0:
308,236,82359,1,12,0:0:0:0:
416,212,82546,1,2,0:0:0:0:
444,104,82734,1,12,0:0:0:0:
340,136,82921,1,2,0:0:0:0:
308,236,83109,6,0,B|280:332,3,85,12|2|8|2,0:0|0:0|0:0|0:0,0:0:0:0:
184,272,83859,2,0,B|104:328,1,85,12|2,0:0|0:0,0:0:0:0:
80,224,84234,2,0,B|-8:196,1,85,12|2,0:0|0:0,0:0:0:0:
96,88,84608,5,0,0:0:0:0:
120,124,84702,1,0,0:0:0:0:
132,164,84796,1,0,0:0:0:0:
164,136,84890,1,0,0:0:0:0:
184,96,84983,1,0,0:0:0:0:
204,136,85077,1,0,0:0:0:0:
212,176,85171,1,0,0:0:0:0:
248,156,85265,1,0,0:0:0:0:
276,124,85358,1,0,0:0:0:0:
288,164,85452,1,0,0:0:0:0:
292,208,85546,1,0,0:0:0:0:
332,192,85640,1,0,0:0:0:0:
364,168,85733,1,0,0:0:0:0:
374,210,85827,1,0,0:0:0:0:
380,252,85921,1,0,0:0:0:0:
416,236,86015,1,0,0:0:0:0:
416,236,86109,6,0,B|468:132|468:132|388:152,2,170,4|2|0,0:0|0:0|0:0,0:0:0:0:
348,300,87046,1,2,0:0:0:0:
268,256,87234,2,0,B|244:148,1,85,0|2,0:0|0:0,0:0:0:0:
176,116,87609,2,0,B|113:133|113:133|84:120|84:120|24:180,2,170,4|2|0,0:0|0:0|0:0,0:0:0:0:
236,44,88546,1,2,0:0:0:0:
304,112,88734,2,0,L|320:208,1,85
409,173,89109,2,0,B|488:141|488:141|460:225,2,170,4|2|0,0:0|0:0|0:0,0:0:0:0:
318,195,90046,1,2,0:0:0:0:
232,176,90234,1,0,0:0:0:0:
144,160,90421,1,2,0:0:0:0:
59,143,90609,5,0,0:0:0:0:
464,260,90984,1,0,0:0:0:0:
59,143,91359,1,0,0:0:0:0:
464,260,91734,1,0,0:0:0:0:
464,260,91921,5,0,0:0:0:0:
464,260,92015,1,0,0:0:0:0:
464,260,92109,2,0,B|404:320|404:320|300:296,1,170,4|2,0:0|0:0,0:0:0:0:
172,240,92671,2,0,B|232:180|232:180|336:204,1,170,2|2,0:0|0:0,0:0:0:0:
152,324,93234,2,0,B|56:312,1,85,0|2,0:0|0:0,0:0:0:0:
56,172,93609,6,0,B|120:152|120:152|152:176|152:176|232:156,1,170,4|2,0:0|0:0,0:0:0:0:
432,192,94171,2,0,B|364:208|364:208|344:240|344:240|264:260,1,170,2|2,0:0|0:0,0:0:0:0:
268,244,94640,1,0,0:0:0:0:
255,232,94734,2,0,B|243:140,1,85,0|2,0:0|0:0,0:0:0:0:
312,36,95109,6,0,B|368:96|368:96|340:192,1,170,4|2,0:0|0:0,0:0:0:0:
188,332,95671,2,0,B|132:272|132:272|160:176,2,170,2|2|2,0:0|0:0|0:0,0:0:0:0:
260,288,96609,1,0,0:0:0:0:
260,288,96796,1,2,0:0:0:0:
324,348,96984,1,0,0:0:0:0:
324,348,97171,1,2,0:0:0:0:
404,300,97359,2,8,B|482:295|514:216|494:150|444:113|363:134|333:178|331:235,1,340,0|4,0:0|0:0,0:0:0:0:
144,112,98484,5,2,0:0:0:0:
116,172,98671,1,0,0:0:0:0:
152,228,98859,1,2,0:0:0:0:
220,224,99046,1,0,0:0:0:0:
240,160,99234,1,2,0:0:0:0:
193,210,99421,1,0,0:0:0:0:
204,276,99609,1,2,0:0:0:0:
264,304,99796,1,0,0:0:0:0:
334,300,99984,1,2,0:0:0:0:
390,253,100171,1,0,0:0:0:0:
412,176,100359,1,2,0:0:0:0:
