osu file format v14

[General]
AudioFilename: audio.mp3
AudioLeadIn: 0
PreviewTime: 58378
Countdown: 0
SampleSet: Soft
StackLeniency: 0.7
Mode: 2
LetterboxInBreaks: 0
WidescreenStoryboard: 1

[Editor]
DistanceSpacing: 0.9
BeatDivisor: 4
GridSize: 8
TimelineZoom: 2.5

[Metadata]
Title:EDEN
TitleUnicode:EDEN
Artist:TERRA
ArtistUnicode:TЁЯRA
Creator:alienflybot
Version:Tenshichan's SALAD
Source:beatmania IIDX 12 HAPPY SKY
Tags:jun Junko Karashima 辛島純子 NAOKI MAEDA 前田尚紀 GOLI HYPER J-POP SIX KONAMI AFB Tenshichan Prophecy iloveyou4ever -Hex- Ascendance Skylish
BeatmapID:1703696
BeatmapSetID:810279

[Difficulty]
HPDrainRate:4
CircleSize:3.2
OverallDifficulty:7
ApproachRate:7
SliderMultiplier:1.4
SliderTickRate:2

[Events]
//Background and Video events
0,0,"meteor_pylon_mclelun.jpg",0,0
//Break Periods
2,78491,85491
//Storyboard Layer 0 (Background)
//Storyboard Layer 1 (Fail)
//Storyboard Layer 2 (Pass)
//Storyboard Layer 3 (Foreground)
//Storyboard Sound Samples

[TimingPoints]
291,300,4,2,0,20,1,0
1491,-100,4,2,1,50,0,0
1641,-100,4,2,1,30,0,0
2391,-100,4,2,1,50,0,0
2541,-100,4,2,1,30,0,0
2691,-100,4,2,1,50,0,0
2841,-100,4,2,1,30,0,0
3891,-100,4,2,1,50,0,0
4041,-100,4,2,1,30,0,0
4791,-100,4,2,1,50,0,0
4941,-100,4,2,1,30,0,0
5091,-100,4,2,1,50,0,0
5241,-100,4,2,1,30,0,0
6291,-100,4,2,1,50,0,0
6441,-100,4,2,1,30,0,0
7191,-100,4,2,1,50,0,0
7341,-100,4,2,1,30,0,0
7491,-100,4,2,1,50,0,0
7641,-100,4,2,1,30,0,0
8691,-100,4,2,1,50,0,0
8841,-100,4,2,1,30,0,0
9591,-100,4,2,1,50,0,0
9741,-100,4,2,1,30,0,0
9891,-100,4,2,1,50,0,0
10041,-100,4,2,1,30,0,0
11091,-100,4,2,1,50,0,0
11241,-100,4,2,1,30,0,0
11991,-100,4,2,1,50,0,0
12141,-100,4,2,1,30,0,0
12291,-100,4,2,1,50,0,0
12441,-100,4,2,1,30,0,0
13491,-100,4,2,1,50,0,0
13641,-100,4,2,1,30,0,0
14391,-100,4,2,1,50,0,0
14541,-100,4,2,1,30,0,0
14691,-100,4,2,1,50,0,0
14841,-100,4,2,1,30,0,0
15891,-100,4,2,1,40,0,0
16041,-100,4,2,1,30,0,0
16491,-100,4,2,1,50,0,0
16641,-100,4,2,1,30,0,0
17091,-100,4,2,1,50,0,0
17241,-100,4,2,1,30,0,0
17691,-100,4,2,1,50,0,0
17841,-100,4,2,1,30,0,0
18291,-100,4,2,1,60,0,0
18441,-100,4,2,1,30,0,0
18891,-100,4,2,1,50,0,0
19041,-100,4,2,1,30,0,0
19491,-100,4,2,1,50,0,0
19566,-100,4,2,1,30,0,0
19641,-100,4,2,1,20,0,0
19791,-100,4,2,1,30,0,0
19941,-100,4,2,1,40,0,0
20091,-100,4,2,1,50,0,0
20166,-100,4,2,1,30,0,0
20241,-100,4,2,1,20,0,0
20391,-100,4,2,1,30,0,0
20541,-100,4,2,1,40,0,0
20691,-100,4,2,1,50,0,0
20841,-100,4,2,1,30,0,0
21141,-100,4,2,1,50,0,0
21291,-100,4,2,1,30,0,0
21591,-100,4,2,1,50,0,0
21741,-100,4,2,1,30,0,0
21891,-100,4,2,2,40,0,0
22041,-100,4,2,1,30,0,0
22341,-100,4,2,1,50,0,0
22491,-100,4,2,1,30,0,0
22791,-100,4,2,1,50,0,0
22941,-100,4,2,1,30,0,0
23091,-100,4,2,1,50,0,0
23241,-100,4,2,1,30,0,0
23541,-100,4,2,1,50,0,0
23691,-100,4,2,1,30,0,0
23991,-100,4,2,1,50,0,0
24141,-100,4,2,1,30,0,0
24291,-100,4,2,2,42,0,0
24441,-100,4,2,1,30,0,0
24741,-100,4,2,1,50,0,0
24891,-100,4,2,1,30,0,0
25041,-100,4,2,1,50,0,0
25341,-100,4,2,1,30,0,0
25491,-100,4,2,1,50,0,0
25641,-100,4,2,1,30,0,0
25941,-100,4,2,1,50,0,0
26091,-100,4,2,1,30,0,0
26391,-100,4,2,1,50,0,0
26541,-100,4,2,1,30,0,0
26691,-100,4,2,2,44,0,0
26841,-100,4,2,1,30,0,0
27141,-100,4,2,1,50,0,0
27291,-100,4,2,1,30,0,0
27441,-100,4,2,1,50,0,0
27741,-100,4,2,1,30,0,0
27891,-100,4,2,1,50,0,0
28041,-100,4,2,1,30,0,0
28341,-100,4,2,1,50,0,0
28491,-100,4,2,1,30,0,0
28791,-100,4,2,1,50,0,0
28941,-100,4,2,1,30,0,0
29091,-100,4,2,2,46,0,0
29241,-100,4,2,1,30,0,0
29541,-100,4,2,1,50,0,0
29691,-100,4,2,1,30,0,0
29841,-100,4,2,1,50,0,0
30441,-100,4,2,1,30,0,0
30741,-100,4,2,1,50,0,0
30891,-100,4,2,1,30,0,0
31191,-100,4,2,1,50,0,0
31341,-100,4,2,1,30,0,0
31491,-100,4,2,2,48,0,0
31641,-100,4,2,1,30,0,0
31941,-100,4,2,1,50,0,0
32091,-100,4,2,1,30,0,0
32241,-100,4,2,1,30,0,0
32391,-100,4,2,1,50,0,0
32541,-100,4,2,1,30,0,0
32691,-100,4,2,2,50,0,0
32841,-100,4,2,1,30,0,0
33141,-100,4,2,1,50,0,0
33291,-100,4,2,1,30,0,0
33591,-100,4,2,1,50,0,0
33741,-100,4,2,1,30,0,0
33891,-100,4,2,2,52,0,0
34041,-100,4,2,1,30,0,0
34341,-100,4,2,1,50,0,0
34491,-100,4,2,1,30,0,0
34641,-100,4,2,1,50,0,0
34941,-100,4,2,1,30,0,0
35091,-100,4,2,2,54,0,0
35241,-100,4,2,1,30,0,0
35541,-100,4,2,1,50,0,0
35691,-100,4,2,1,30,0,0
35991,-100,4,2,1,50,0,0
36141,-100,4,2,1,30,0,0
36291,-100,4,2,2,56,0,0
36441,-100,4,2,1,30,0,0
36741,-100,4,2,1,50,0,0
36891,-100,4,2,1,30,0,0
37041,-100,4,2,1,50,0,0
37341,-100,4,2,1,30,0,0
37491,-100,4,2,2,58,0,0
37641,-100,4,2,1,30,0,0
37941,-100,4,2,1,50,0,0
38091,-100,4,2,1,30,0,0
38241,-100,4,2,1,50,0,0
38541,-100,4,2,1,30,0,0
38691,-100,4,2,2,60,0,0
38841,-100,4,2,1,30,0,0
39141,-100,4,2,1,50,0,0
39366,-100,4,2,1,30,0,0
39441,-100,4,2,1,20,0,0
39591,-100,4,2,1,30,0,0
39741,-100,4,2,1,40,0,0
39891,-100,4,2,1,50,0,0
40041,-100,4,2,1,30,0,0
40491,-100,4,2,1,40,0,0
40791,-100,4,2,1,30,0,0
41091,-100,4,2,1,40,0,0
41391,-100,4,2,1,30,0,0
41691,-100,4,2,1,40,0,0
41991,-100,4,2,1,30,0,0
42291,-100,4,2,1,40,0,0
42591,-100,4,2,1,30,0,0
42741,-100,4,2,1,40,0,0
43341,-100,4,2,1,30,0,0
43491,-100,4,2,1,40,0,0
43791,-100,4,2,1,30,0,0
44091,-100,4,2,1,40,0,0
44391,-100,4,2,1,30,0,0
44691,-100,4,2,1,50,0,0
44841,-100,4,2,1,30,0,0
45291,-100,4,2,1,40,0,0
45591,-100,4,2,1,30,0,0
45891,-100,4,2,1,40,0,0
46191,-100,4,2,1,30,0,0
46491,-100,4,2,1,40,0,0
46791,-100,4,2,1,30,0,0
47091,-100,4,2,1,40,0,0
47241,-100,4,2,1,30,0,0
47541,-100,4,2,1,40,0,0
47691,-100,4,2,10,30,0,0
47841,-100,4,2,1,30,0,0
47991,-100,4,2,1,40,0,0
48141,-100,4,2,1,30,0,0
48291,-100,4,2,1,40,0,0
48441,-100,4,2,1,30,0,0
48891,-100,4,2,1,40,0,0
49191,-100,4,2,1,50,0,0
49341,-100,4,2,1,60,0,0
49491,-100,4,2,1,50,0,0
49641,-100,4,2,1,30,0,0
50091,-100,4,2,1,40,0,0
50391,-100,4,2,1,30,0,0
50691,-100,4,2,1,40,0,0
50991,-100,4,2,1,30,0,0
51291,-100,4,2,1,40,0,0
51591,-100,4,2,1,30,0,0
51891,-100,4,2,1,40,0,0
52191,-100,4,2,1,30,0,0
52341,-100,4,2,1,40,0,0
52491,-100,4,2,10,40,0,0
52641,-100,4,2,1,40,0,0
52791,-100,4,2,1,30,0,0
53091,-100,4,2,1,40,0,0
53391,-100,4,2,1,30,0,0
53691,-100,4,2,1,40,0,0
53991,-100,4,2,1,30,0,0
54291,-100,4,2,2,50,0,0
54441,-100,4,2,1,30,0,0
54891,-100,4,2,1,40,0,0
55191,-100,4,2,1,30,0,0
55491,-100,4,2,2,50,0,0
55641,-100,4,2,1,30,0,0
55791,-100,4,2,1,50,0,0
56091,-100,4,2,1,40,0,0
56241,-100,4,2,1,30,0,0
56691,-100,4,2,2,50,0,0
56841,-100,4,2,1,30,0,0
57291,-100,4,2,1,40,0,0
57591,-100,4,2,1,50,0,0
57891,-100,4,2,1,60,0,0
58641,-100,4,2,1,30,0,0
58791,-100,4,2,2,40,0,0
58866,-100,4,2,0,48,0,0
58941,-100,4,2,0,54,0,0
59016,-100,4,2,0,58,0,0
59091,-100,4,2,3,60,0,1
59241,-100,4,2,3,40,0,1
59391,-100,4,2,3,60,0,1
59541,-100,4,2,3,40,0,1
59991,-100,4,2,3,60,0,1
60141,-100,4,2,3,40,0,1
60591,-100,4,2,3,60,0,1
60741,-100,4,2,3,40,0,1
61191,-100,4,2,3,60,0,1
61341,-100,4,2,3,40,0,1
61791,-100,4,2,3,60,0,1
61941,-100,4,2,3,40,0,1
62391,-100,4,2,3,60,0,1
62541,-100,4,2,3,40,0,1
62991,-100,4,2,3,60,0,1
63141,-100,4,2,3,40,0,1
63291,-100,4,2,3,60,0,1
63441,-100,4,2,3,30,0,1
63591,-100,4,2,2,60,0,1
63666,-100,4,2,0,34,0,1
63741,-100,4,2,0,42,0,1
63816,-100,4,2,0,46,0,1
63891,-100,4,2,3,60,0,1
64041,-100,4,2,3,40,0,1
64191,-100,4,2,3,60,0,1
64341,-100,4,2,3,40,0,1
64791,-100,4,2,3,60,0,1
64941,-100,4,2,3,40,0,1
65391,-100,4,2,3,60,0,1
65541,-100,4,2,3,40,0,1
65991,-100,4,2,3,60,0,1
66141,-100,4,2,3,40,0,1
66591,-100,4,2,3,60,0,1
66741,-100,4,2,3,40,0,1
67191,-100,4,2,3,60,0,1
67341,-100,4,2,3,40,0,1
67491,-100,4,2,3,20,0,0
67791,-100,4,2,3,40,0,0
67941,-100,4,2,3,20,0,0
68241,-100,4,2,3,30,0,0
68391,-100,4,2,2,20,0,0
68466,-100,4,2,0,28,0,0
68541,-100,4,2,0,34,0,0
68616,-100,4,2,0,38,0,0
68691,-100,4,2,2,60,0,1
68841,-100,4,2,3,40,0,1
68991,-100,4,2,3,60,0,1
69141,-100,4,2,3,40,0,1
69591,-100,4,2,3,60,0,1
69741,-100,4,2,3,40,0,1
70191,-100,4,2,3,60,0,1
70341,-100,4,2,3,40,0,1
70791,-100,4,2,3,60,0,1
70941,-100,4,2,3,40,0,1
71391,-100,4,2,3,60,0,1
71541,-100,4,2,3,40,0,1
71991,-100,4,2,3,60,0,1
72141,-100,4,2,3,40,0,1
72591,-100,4,2,3,60,0,1
72741,-100,4,2,3,40,0,1
72891,-100,4,2,11,40,0,1
73041,-100,4,2,3,40,0,1
73191,-100,4,2,2,60,0,1
73266,-100,4,2,0,40,0,1
73341,-100,4,2,0,50,0,1
73491,-100,4,2,3,60,0,1
73641,-100,4,2,3,40,0,1
73791,-100,4,2,3,60,0,1
73941,-100,4,2,3,40,0,1
74391,-100,4,2,3,60,0,1
74541,-100,4,2,3,40,0,1
74691,-100,4,2,3,45,0,1
74841,-100,4,2,3,40,0,1
74991,-100,4,2,3,60,0,1
75141,-100,4,2,3,40,0,1
75291,-100,4,2,3,45,0,1
75441,-100,4,2,3,40,0,1
75591,-100,4,2,3,60,0,1
75741,-100,4,2,3,40,0,1
75891,-100,4,2,3,50,0,1
76041,-100,4,2,3,40,0,1
76191,-100,4,2,3,60,0,1
76341,-100,4,2,3,40,0,1
76491,-100,4,2,3,50,0,1
76641,-100,4,2,3,40,0,1
76791,-100,4,2,3,55,0,1
76941,-100,4,2,3,40,0,1
77091,-100,4,2,3,60,0,1
77241,-100,4,2,3,20,0,1
77391,-100,4,2,3,55,0,1
77541,-100,4,2,3,20,0,1
77691,-100,4,2,1,40,0,1
77991,-100,4,2,1,50,0,1
78291,-100,4,2,3,40,0,0
86391,-100,4,2,1,20,0,0
86541,-100,4,2,3,30,0,0
86691,-100,4,2,3,40,0,0
86841,-100,4,2,3,30,0,0
86991,-100,4,2,1,40,0,0
87141,-100,4,2,1,50,0,0
87291,-100,4,2,1,60,0,0
87366,-100,4,2,1,48,0,0
87441,-100,4,2,1,38,0,0
87516,-100,4,2,1,30,0,0
87666,-100,4,2,1,38,0,0
87741,-100,4,2,1,48,0,0
87816,-100,4,2,1,60,0,0
87891,-100,4,2,1,45,0,0
88041,-100,4,2,1,20,0,0
88491,-100,4,2,1,30,0,0
88791,-100,4,2,1,20,0,0
89091,-100,4,2,1,30,0,0
89391,-100,4,2,1,20,0,0
89691,-100,4,2,1,30,0,0
89991,-100,4,2,1,20,0,0
90291,-100,4,2,1,30,0,0
90591,-100,4,2,1,20,0,0
90891,-100,4,2,1,30,0,0
91191,-100,4,2,1,20,0,0
91491,-100,4,2,1,30,0,0
91791,-100,4,2,1,20,0,0
92091,-100,4,2,1,30,0,0
92391,-100,4,2,1,20,0,0
92691,-100,4,2,1,50,0,0
92841,-100,4,2,1,20,0,0
93291,-100,4,2,1,30,0,0
93591,-100,4,2,1,20,0,0
93891,-100,4,2,1,55,0,0
94041,-100,4,2,1,20,0,0
94491,-100,4,2,1,30,0,0
94791,-100,4,2,1,20,0,0
95091,-100,4,2,1,60,0,0
95241,-100,4,2,1,20,0,0
95691,-100,4,2,1,30,0,0
95991,-100,4,2,1,20,0,0
96291,-100,4,2,0,40,0,0
96366,-100,4,2,1,20,0,0
96441,-100,4,2,1,30,0,0
96591,-100,4,2,0,40,0,0
96666,-100,4,2,1,20,0,0
96741,-100,4,2,1,30,0,0
96891,-100,4,2,1,50,0,0
96966,-100,4,2,1,30,0,0
97041,-100,4,2,1,40,0,0
97191,-100,4,2,1,30,0,0
97341,-100,4,2,1,40,0,0
97491,-100,4,2,3,60,0,1
97641,-100,4,2,3,40,0,1
97791,-100,4,2,3,60,0,1
97941,-100,4,2,3,40,0,1
98391,-100,4,2,3,60,0,1
98541,-100,4,2,3,40,0,1
98991,-100,4,2,3,60,0,1
99141,-100,4,2,3,40,0,1
99591,-100,4,2,3,60,0,1
99741,-100,4,2,3,40,0,1
100191,-100,4,2,3,60,0,1
100341,-100,4,2,3,40,0,1
100791,-100,4,2,3,60,0,1
100941,-100,4,2,3,40,0,1
101391,-100,4,2,3,60,0,1
101541,-100,4,2,3,40,0,1
101691,-100,4,2,3,60,0,1
101841,-100,4,2,3,30,0,1
101991,-100,4,2,2,60,0,1
102066,-100,4,2,0,34,0,1
102141,-100,4,2,0,42,0,1
102216,-100,4,2,0,46,0,1
102291,-100,4,2,3,60,0,1
102441,-100,4,2,3,40,0,1
102591,-100,4,2,3,60,0,1
102741,-100,4,2,3,40,0,1
103191,-100,4,2,3,60,0,1
103341,-100,4,2,3,40,0,1
103791,-100,4,2,3,60,0,1
103941,-100,4,2,3,40,0,1
104391,-100,4,2,3,60,0,1
104541,-100,4,2,3,40,0,1
104991,-100,4,2,3,60,0,1
105141,-100,4,2,3,40,0,1
105591,-100,4,2,3,60,0,1
105741,-100,4,2,3,40,0,1
105891,-100,4,2,3,20,0,0
106191,-100,4,2,3,40,0,0
106341,-100,4,2,3,20,0,0
106641,-100,4,2,3,30,0,0
106791,-100,4,2,2,20,0,0
106866,-100,4,2,0,28,0,0
106941,-100,4,2,0,34,0,0
107016,-100,4,2,0,38,0,0
107091,-100,4,2,3,60,0,1
107241,-100,4,2,3,40,0,1
107391,-100,4,2,3,60,0,1
107541,-100,4,2,3,40,0,1
107991,-100,4,2,3,60,0,1
108141,-100,4,2,3,40,0,1
108591,-100,4,2,3,60,0,1
108741,-100,4,2,3,40,0,1
109191,-100,4,2,3,60,0,1
109341,-100,4,2,3,40,0,1
109791,-100,4,2,3,60,0,1
109941,-100,4,2,3,40,0,1
110391,-100,4,2,3,60,0,1
110541,-100,4,2,3,40,0,1
110991,-100,4,2,3,60,0,1
111141,-100,4,2,3,40,0,1
111291,-100,4,2,11,40,0,1
111441,-100,4,2,3,40,0,1
111591,-100,4,2,2,60,0,1
111666,-100,4,2,0,40,0,1
111741,-100,4,2,0,50,0,1
111891,-100,4,2,3,60,0,1
112041,-100,4,2,3,40,0,1
112191,-100,4,2,3,60,0,1
112341,-100,4,2,3,40,0,1
112791,-100,4,2,3,60,0,1
112941,-100,4,2,3,40,0,1
113091,-100,4,2,3,45,0,1
113241,-100,4,2,3,40,0,1
113391,-100,4,2,3,60,0,1
113541,-100,4,2,3,40,0,1
113691,-100,4,2,3,45,0,1
113841,-100,4,2,3,40,0,1
113991,-100,4,2,3,60,0,1
114141,-100,4,2,3,40,0,1
114291,-100,4,2,3,50,0,1
114441,-100,4,2,3,40,0,1
114591,-100,4,2,3,60,0,1
114741,-100,4,2,3,40,0,1
114891,-100,4,2,3,50,0,1
115041,-100,4,2,3,40,0,1
115191,-100,4,2,3,55,0,1
115341,-100,4,2,3,40,0,1
115491,-100,4,2,3,60,0,1
115641,-100,4,2,3,20,0,1
115791,-100,4,2,3,55,0,1
115941,-100,4,2,3,20,0,1
116091,-100,4,2,1,40,0,1
116391,-100,4,2,1,50,0,1
116691,-100,4,2,3,40,0,0
116991,-100,4,2,3,40,0,0
117291,-100,4,2,3,32,0,0
117591,-100,4,2,3,26,0,0
117891,-100,4,2,3,32,0,0
118191,-100,4,2,3,26,0,0
118491,-100,4,2,3,22,0,0
118791,-100,4,2,3,20,0,0
119091,-100,4,2,3,22,0,0
119691,-100,4,2,3,15,0,0
120291,-100,4,2,3,10,0,0
120891,-100,4,2,20,7,0,0

[Colours]
Combo1 : 253,222,72
Combo2 : 189,128,73
Combo3 : 76,91,110
Combo4 : 216,169,134

[HitObjects]
216,192,1491,6,0,L|64:192,1,140,0|0,1:0|0:0,0:0:0:0:
184,88,2091,1,2,0:0:0:0:
296,88,2391,1,8,0:0:0:0:
56,88,2691,2,0,P|32:136|80:224,1,140,8|0,0:0|0:0,0:0:0:0:
200,256,3291,2,0,L|352:256,1,140,8|0,0:0|0:0,0:0:0:0:
104,104,3891,6,0,P|48:144|56:224,1,140,8|0,0:0|0:0,0:0:0:0:
176,240,4491,1,2,0:0:0:0:
304,240,4791,1,8,0:0:0:0:
376,232,4941,2,0,L|440:192,1,70,0|8,0:0|0:0,0:0:0:0:
368,168,5241,2,0,P|304:144|304:72,1,140,2|0,0:0|0:0,0:0:0:0:
360,56,5691,1,8,0:0:0:0:
432,56,5991,1,0,0:0:0:0:
184,56,6291,6,0,L|40:104,1,140,0|0,1:0|0:0,0:0:0:0:
208,184,6891,1,2,0:0:0:0:
48,184,7191,1,8,0:0:0:0:
304,56,7491,2,0,L|448:80,1,140,8|0,0:0|0:0,0:0:0:0:
288,160,8091,2,0,L|144:192,1,140,8|0,0:0|0:0,0:0:0:0:
408,272,8691,6,0,P|464:208|440:152,1,140,8|0,0:0|0:0,0:0:0:0:
320,104,9291,1,2,0:0:0:0:
192,104,9591,1,8,0:0:0:0:
120,104,9741,2,0,L|64:152,1,70,0|8,0:0|0:0,0:0:0:0:
136,184,10041,2,0,P|168:224|120:304,1,140,2|0,0:0|0:0,0:0:0:0:
64,304,10491,1,8,0:0:0:0:
40,304,10791,1,0,0:0:0:0:
280,304,11091,6,0,P|352:296|416:240,1,140,0|0,1:0|0:0,0:0:0:0:
480,176,11541,2,0,L|488:96,1,70,2|2,0:0|0:0,0:0:0:0:
344,72,11991,1,8,0:0:0:0:
96,80,12291,2,0,P|48:144|80:208,1,140,8|0,0:0|0:0,0:0:0:0:
144,256,12741,2,0,L|216:280,1,70,2|10,0:0|0:0,0:0:0:0:
344,288,13191,1,0,0:0:0:0:
104,56,13491,6,0,P|48:88|56:176,1,140,8|0,0:0|0:0,0:0:0:0:
192,240,14091,2,0,L|336:264,1,140,2|8,0:0|0:0,0:0:0:0:
416,248,14541,2,0,L|464:176,1,70,0|8,0:0|0:0,0:0:0:0:
368,168,14841,2,0,P|328:144|352:64,1,140,2|0,0:0|0:0,0:0:0:0:
432,48,15291,1,10,0:0:0:0:
464,48,15591,1,2,0:0:0:0:
208,48,15891,6,0,L|48:80,1,140,4|0,0:0|0:0,0:0:0:0:
216,160,16491,1,8,0:0:0:0:
56,160,16791,1,8,0:0:0:0:
312,176,17091,6,0,L|456:240,1,140,4|0,0:0|0:0,0:0:0:0:
288,272,17691,1,8,0:0:0:0:
440,288,17991,1,8,0:0:0:0:
184,288,18291,6,0,P|104:264|184:128,1,280,4|10,0:0|0:0,0:0:0:0:
320,128,19191,1,8,0:0:0:0:
80,72,19491,1,2,0:1:0:0:
184,72,19791,1,8,0:0:0:0:
288,72,20091,1,2,0:1:0:0:
392,72,20391,1,8,0:0:0:0:
152,168,20691,6,0,L|8:192,1,140,4|8,0:0|0:1,0:0:0:0:
96,232,21141,1,8,0:0:0:0:
184,256,21291,2,0,P|240:224|248:128,1,140,0|8,0:0|0:0,0:0:0:0:
8,64,21891,6,0,L|168:64,1,140,2|8,0:0|0:1,0:0:0:0:
208,144,22341,1,8,0:0:0:0:
264,224,22491,2,0,L|416:224,1,140,0|8,0:0|0:0,0:0:0:0:
160,64,23091,6,0,P|112:112|136:176,1,140,8|8,0:0|0:1,0:0:0:0:
224,176,23541,1,8,0:0:0:0:
312,176,23691,2,0,P|352:208|328:304,1,140,0|8,0:0|0:0,0:0:0:0:
96,248,24291,6,0,P|24:200|24:120,1,140,2|8,0:2|0:1,0:0:0:0:
176,56,24891,2,0,P|248:80|296:152,1,140,0|8,0:0|0:0,0:0:0:0:
48,248,25491,5,8,0:0:0:0:
184,248,25791,2,0,L|248:192,2,70,8|8|0,0:1|0:0|0:0,0:0:0:0:
48,248,26391,1,8,0:0:0:0:
288,248,26691,5,2,0:0:0:0:
424,224,26991,2,0,L|480:176,2,70,8|8|0,0:1|0:0|0:0,0:0:0:0:
288,248,27591,1,8,0:0:0:0:
40,192,27891,6,0,L|192:168,1,140,0|8,0:0|0:1,0:0:0:0:
248,112,28341,1,8,0:0:0:0:
320,40,28491,2,0,P|352:104|320:168,1,140,0|8,0:0|0:0,0:0:0:0:
64,152,29091,6,0,P|40:184|88:256,1,140,2|8,0:0|0:1,0:0:0:0:
168,264,29541,1,8,0:0:0:0:
248,264,29691,2,0,L|392:264,1,140,0|8,0:0|0:0,0:0:0:0:
136,88,30291,5,8,0:0:0:0:
256,88,30591,2,0,L|312:144,1,70,8|8,0:1|0:0,0:0:0:0:
224,160,30891,2,0,P|176:184|152:272,1,140,0|8,0:0|0:0,0:0:0:0:
408,272,31491,5,2,0:0:0:0:
304,208,31791,2,0,L|248:152,1,70,8|8,0:1|0:0,0:0:0:0:
344,136,32091,2,0,P|400:88|352:24,1,140,0|8,0:0|0:0,0:0:0:0:
136,32,32691,5,2,0:0:0:0:
32,144,32991,2,0,L|32:216,1,70,8|8,0:1|0:0,0:0:0:0:
96,288,33291,2,0,P|144:312|232:320,1,140,0|8,0:0|0:0,0:0:0:0:
480,224,33891,6,0,L|325:182,1,140,2|8,0:0|0:0,0:0:0:0:
416,80,34491,1,0,0:0:0:0:
488,80,34791,1,8,0:0:0:0:
224,64,35091,6,0,L|80:64,1,140,2|8,0:0|0:1,0:0:0:0:
160,64,35541,2,0,L|300:64,1,140,8|0,0:0|0:0,0:0:0:0:
300,64,35991,1,8,0:0:0:0:
40,200,36291,6,0,L|200:200,1,140,2|8,0:0|0:1,0:0:0:0:
180,200,36741,2,0,L|32:200,1,140,8|8,0:0|0:0,0:0:0:0:
40,200,37191,1,8,0:0:0:0:
280,64,37491,6,0,L|430:64,1,140,2|8,0:0|0:1,0:0:0:0:
320,200,38091,2,0,L|480:200,1,140,0|8,0:0|0:0,0:0:0:0:
216,88,38691,6,0,L|66:88,1,140,2|8,0:0|0:1,0:0:0:0:
208,224,39291,1,2,0:1:0:0:
40,224,39591,1,8,0:1:0:0:
344,64,39891,6,0,L|512:64,1,140,4|2,0:0|0:0,0:0:0:0:
424,176,40491,2,0,L|264:176,1,140,2|2,0:0|0:0,0:0:0:0:
32,64,41091,2,0,L|184:64,1,140,10|2,0:0|0:0,0:0:0:0:
304,64,41691,2,0,L|472:64,1,140,2|2,0:0|0:0,0:0:0:0:
200,192,42291,6,0,L|32:192,1,140,10|2,0:0|0:0,0:0:0:0:
128,144,42741,2,0,L|272:144,1,140,8|0,0:0|0:0,0:0:0:0:
304,144,43191,1,10,0:0:0:0:
48,56,43491,2,0,L|48:224,1,140,10|2,0:0|0:0,0:0:0:0:
208,264,44091,2,0,L|376:264,1,140,2|2,0:0|0:0,0:0:0:0:
88,48,44691,6,0,P|56:72|48:184,1,140,4|2,0:0|0:0,0:0:0:0:
184,152,45291,1,2,0:0:0:0:
33,149,45591,1,2,0:0:0:0:
272,296,45891,2,0,L|432:296,1,140,10|2,0:0|0:0,0:0:0:0:
272,224,46491,1,2,0:0:0:0:
424,224,46791,1,2,0:0:0:0:
176,192,47091,6,0,L|32:192,1,140,10|2,0:0|0:0,0:0:0:0:
36,192,47541,2,0,L|184:192,1,140,8|0,0:0|0:0,0:0:0:0:
208,192,47991,1,10,0:0:0:0:
472,144,48291,5,10,0:0:0:0:
368,144,48591,1,2,0:0:0:0:
368,144,48891,1,2,0:0:0:0:
472,144,49191,1,8,0:0:0:0:
208,56,49491,6,0,L|56:56,1,140,4|2,0:0|0:0,0:0:0:0:
152,120,50091,2,0,P|160:160|96:232,1,140,2|2,0:0|0:0,0:0:0:0:
344,296,50691,2,0,L|488:296,1,140,10|2,0:0|0:0,0:0:0:0:
360,224,51291,2,0,P|344:192|416:112,1,140,2|2,0:0|0:0,0:0:0:0:
152,64,51891,6,0,L|0:64,1,140,10|2,0:0|0:0,0:0:0:0:
88,136,52341,2,0,P|120:168|112:264,1,140,8|0,0:0|0:0,0:0:0:0:
72,272,52791,1,10,0:0:0:0:
328,288,53091,6,0,L|488:288,1,140,10|2,0:0|0:0,0:0:0:0:
344,152,53691,2,0,L|496:152,1,140,2|2,0:0|0:0,0:0:0:0:
240,80,54291,6,0,L|88:80,1,140,4|2,0:0|0:0,0:0:0:0:
40,192,54891,2,0,P|56:248|120:304,1,140,2|0,0:0|0:0,0:0:0:0:
376,352,55491,5,4,0:0:0:0:
476,260,55791,1,8,0:0:0:0:
471,125,56091,1,10,0:0:0:0:
363,42,56391,1,2,0:0:0:0:
256,192,56691,12,4,57891,0:0:0:0:
80,120,58491,5,2,0:1:0:0:
464,88,59091,6,0,P|496:128|448:208,1,140,4|8,0:0|0:0,0:0:0:0:
304,200,59691,1,2,0:0:0:0:
463,202,59991,1,8,0:0:0:0:
224,56,60291,6,0,L|72:56,1,140,2|8,0:0|0:0,0:0:0:0:
40,56,60741,2,0,P|8:96|56:184,1,140
88,176,61191,1,8,0:0:0:0:
344,176,61491,6,0,L|496:176,1,140,2|8,0:0|0:0,0:0:0:0:
344,96,62091,1,2,0:0:0:0:
488,96,62391,1,8,0:0:0:0:
240,80,62691,6,0,P|144:96|112:152,1,140,2|8,0:0|0:0,0:0:0:0:
168,160,63141,2,0,P|208:200|184:280,1,140
128,272,63591,1,10,0:0:0:0:
384,280,63891,6,0,P|440:264|480:184,1,140,4|8,0:0|0:0,0:0:0:0:
368,152,64491,2,0,P|392:104|480:56,1,140,2|8,0:0|0:0,0:0:0:0:
216,48,65091,6,0,L|72:48,1,140,2|8,0:0|0:0,0:0:0:0:
48,48,65541,2,0,P|24:96|64:184,1,140,0|0,0:0|0:0,0:0:0:0:
112,176,65991,1,8,0:0:0:0:
392,176,66291,6,0,P|448:208|408:336,2,210,2|0|8,0:0|0:0|0:0,0:0:0:0:
152,128,67491,1,2,0:0:0:0:
40,128,67791,1,8,0:0:0:0:
152,128,68091,1,2,0:0:0:0:
40,128,68391,1,10,0:0:0:0:
288,80,68691,6,0,L|440:80,1,140,4|8,0:0|0:0,0:0:0:0:
488,184,69291,2,0,L|328:184,1,140,2|8,0:0|0:0,0:0:0:0:
88,184,69891,6,0,P|48:240|80:320,1,140,2|8,0:0|0:0,0:0:0:0:
120,320,70341,2,0,L|264:320,1,140
320,320,70791,1,8,0:0:0:0:
72,184,71091,6,0,P|32:128|40:56,1,140,2|8,0:0|0:0,0:0:0:0:
168,56,71691,2,0,P|216:96|216:192,1,140,2|8,0:0|0:0,0:0:0:0:
480,184,72291,6,0,L|320:184,1,140,2|8,0:0|0:0,0:0:0:0:
304,184,72741,2,0,P|272:232|312:312,1,140
352,304,73191,1,10,0:0:0:0:
96,304,73491,6,0,P|40:272|32:192,1,140,4|8,0:0|0:0,0:0:0:0:
152,136,74091,2,0,L|304:136,1,140,6|8,0:0|0:0,0:0:0:0:
40,48,74691,6,0,P|152:88|208:192,2,210,4|0|8,0:0|0:0|0:0,0:0:0:0:
304,56,75891,2,0,L|456:56,1,140,4|8,0:0|0:0,0:0:0:0:
444,56,76341,2,0,L|296:56,1,140,0|0,0:0|0:0,0:0:0:0:
304,56,76791,1,8,0:0:0:0:
256,192,77091,12,4,78291,0:0:0:0:
256,192,86391,12,0,87591,0:0:0:0:
200,104,87891,6,0,L|56:104,1,140,4|2,0:0|0:0,0:0:0:0:
192,152,88491,1,2,0:0:0:0:
60,104,88791,1,2,0:0:0:0:
216,200,89091,6,0,L|360:200,1,140,10|2,0:0|0:0,0:0:0:0:
216,288,89691,1,2,0:0:0:0:
360,232,89991,1,2,0:0:0:0:
200,56,90291,6,0,P|152:64|112:160,1,140,10|2,0:0|0:0,0:0:0:0:
248,160,90891,1,2,0:0:0:0:
108,137,91191,1,2,0:0:0:0:
344,168,91491,6,0,P|368:208|304:296,1,140,10|2,0:0|0:0,0:0:0:0:
208,288,92091,2,0,L|40:288,1,140,10|2,0:0|0:0,0:0:0:0:
320,64,92691,6,0,L|480:64,1,140,4|2,0:0|0:0,0:0:0:0:
320,128,93291,1,2,0:0:0:0:
460,64,93591,1,2,0:0:0:0:
208,152,93891,6,0,P|176:184|216:272,1,140,4|2,0:0|0:0,0:0:0:0:
360,264,94491,1,2,0:0:0:0:
360,264,94791,1,2,0:0:0:0:
88,264,95091,5,4,0:0:0:0:
256,192,95391,12,8,97191,0:0:0:0:
192,72,97491,6,0,L|40:72,1,140,4|8,0:0|0:0,0:0:0:0:
192,152,98091,2,0,P|216:224|176:280,1,140,2|8,0:0|0:0,0:0:0:0:
432,48,98691,6,0,P|456:104|400:176,1,140,2|8,0:0|0:0,0:0:0:0:
360,168,99141,2,0,L|208:168,1,140
160,168,99591,1,8,0:0:0:0:
416,48,99891,6,0,P|472:80|496:176,1,140,2|8,0:0|0:0,0:0:0:0:
376,168,100491,2,0,L|272:280,1,140,2|8,0:0|0:0,0:0:0:0:
32,88,101091,6,0,L|184:88,1,140,2|8,0:0|0:0,0:0:0:0:
172,88,101541,2,0,L|28:88,1,140,2|0,0:0|0:0,0:0:0:0:
32,88,101991,1,10,0:0:0:0:
288,192,102291,6,0,L|440:192,1,140,4|8,0:0|0:0,0:0:0:0:
344,64,102891,2,0,L|496:64,1,140,2|8,0:0|0:0,0:0:0:0:
216,64,103491,6,0,P|168:88|160:184,1,140,2|8,0:0|0:0,0:0:0:0:
216,184,103941,2,0,L|360:184,1,140
424,184,104391,1,8,0:0:0:0:
152,48,104691,6,0,P|72:80|56:200,2,210,2|0|8,0:0|0:0|0:0,0:0:0:0:
304,56,105891,2,0,L|472:56,1,140,2|8,0:0|0:0,0:0:0:0:
312,208,106491,1,0,0:0:0:0:
467,207,106791,1,10,0:0:0:0:
208,56,107091,6,0,L|48:56,1,140,4|8,0:0|0:0,0:0:0:0:
152,152,107691,2,0,L|0:152,1,140,2|8,0:0|0:0,0:0:0:0:
256,208,108291,6,0,P|312:232|344:304,1,140,2|8,0:0|0:0,0:0:0:0:
280,312,108741,2,0,L|112:312,1,140,0|2,0:0|0:0,0:0:0:0:
112,312,109191,1,8,0:0:0:0:
368,272,109491,6,0,P|408:240|392:152,1,140,2|8,0:0|0:0,0:0:0:0:
240,96,110091,2,0,L|88:96,1,140,2|8,0:0|0:0,0:0:0:0:
352,48,110691,6,0,L|520:48,1,140,2|8,0:0|0:0,0:0:0:0:
492,48,111141,2,0,L|328:48,1,140,0|0,0:0|0:0,0:0:0:0:
320,48,111591,1,10,0:0:0:0:
40,48,111891,6,0,P|16:128|40:176,1,140,4|8,0:0|0:0,0:0:0:0:
176,200,112491,2,0,P|136:280|80:304,1,140,6|8,0:0|0:0,0:0:0:0:
344,104,113091,6,0,L|504:104,1,140,4|8,0:0|0:0,0:0:0:0:
408,176,113541,2,0,L|264:176,1,140
192,176,113991,1,8,0:0:0:0:
432,40,114291,6,0,P|480:104|416:224,2,210,4|0|8,0:0|0:0|0:0,0:0:0:0:
184,48,115491,2,0,L|40:48,1,140,4|4,0:0|0:0,0:0:0:0:
192,160,116091,1,8,0:0:0:0:
48,160,116391,1,8,0:0:0:0:
320,160,116691,5,4,0:0:0:0:
256,192,116991,12,0,121491,0:0:0:0:
