osu file format v14

[General]
AudioFilename: audio.mp3
AudioLeadIn: 0
PreviewTime: 58378
Countdown: 0
SampleSet: Soft
StackLeniency: 0.7
Mode: 2
LetterboxInBreaks: 0
WidescreenStoryboard: 1

[Editor]
Bookmarks: 92691
DistanceSpacing: 1
BeatDivisor: 4
GridSize: 4
TimelineZoom: 2.5

[Metadata]
Title:EDEN
TitleUnicode:EDEN
Artist:TERRA
ArtistUnicode:TЁЯRA
Creator:alienflybot
Version:RAIN
Source:beatmania IIDX 12 HAPPY SKY
Tags:jun Junko Karashima 辛島純子 NAOKI MAEDA 前田尚紀 GOLI HYPER J-POP SIX KONAMI AFB Tenshichan Prophecy iloveyou4ever -Hex- Ascendance Skylish
BeatmapID:1703695
BeatmapSetID:810279

[Difficulty]
HPDrainRate:6
CircleSize:3.6
OverallDifficulty:9
ApproachRate:9
SliderMultiplier:1.6
SliderTickRate:2

[Events]
//Background and Video events
0,0,"meteor_pylon_mclelun.jpg",0,0
//Break Periods
2,78491,85491
//Storyboard Layer 0 (Background)
//Storyboard Layer 1 (Fail)
//Storyboard Layer 2 (Pass)
//Storyboard Layer 3 (Foreground)
//Storyboard Sound Samples

[TimingPoints]
291,300,4,2,0,20,1,0
1491,-100,4,2,1,50,0,0
1641,-100,4,2,1,30,0,0
2391,-100,4,2,1,50,0,0
2541,-100,4,2,1,30,0,0
2691,-100,4,2,1,50,0,0
2841,-100,4,2,1,30,0,0
3891,-100,4,2,1,50,0,0
4041,-100,4,2,1,30,0,0
4791,-100,4,2,1,50,0,0
4941,-100,4,2,1,30,0,0
5091,-100,4,2,1,50,0,0
5241,-100,4,2,1,30,0,0
6291,-100,4,2,1,50,0,0
6441,-100,4,2,1,30,0,0
7191,-100,4,2,1,50,0,0
7341,-100,4,2,1,30,0,0
7491,-100,4,2,1,50,0,0
7641,-100,4,2,1,30,0,0
8691,-100,4,2,1,50,0,0
8841,-100,4,2,1,30,0,0
9591,-100,4,2,1,50,0,0
9741,-100,4,2,1,30,0,0
9891,-100,4,2,1,50,0,0
10041,-100,4,2,1,30,0,0
11091,-100,4,2,1,50,0,0
11241,-100,4,2,1,30,0,0
11991,-100,4,2,1,50,0,0
12141,-100,4,2,1,30,0,0
12291,-100,4,2,1,50,0,0
12441,-100,4,2,1,30,0,0
13491,-100,4,2,1,50,0,0
13641,-100,4,2,1,30,0,0
14391,-100,4,2,1,50,0,0
14541,-100,4,2,1,30,0,0
14691,-100,4,2,1,50,0,0
14841,-100,4,2,1,30,0,0
15891,-100,4,2,1,40,0,0
16041,-100,4,2,1,30,0,0
16491,-100,4,2,1,50,0,0
16641,-100,4,2,1,30,0,0
17091,-100,4,2,1,50,0,0
17241,-100,4,2,1,30,0,0
17691,-100,4,2,1,50,0,0
17841,-100,4,2,1,30,0,0
18291,-100,4,2,1,60,0,0
18441,-100,4,2,1,30,0,0
18891,-100,4,2,1,50,0,0
19041,-100,4,2,1,30,0,0
19491,-100,4,2,1,50,0,0
19566,-100,4,2,1,30,0,0
19641,-100,4,2,1,20,0,0
19791,-100,4,2,1,30,0,0
19941,-100,4,2,1,40,0,0
20091,-100,4,2,1,50,0,0
20166,-100,4,2,1,30,0,0
20241,-100,4,2,1,20,0,0
20391,-100,4,2,1,30,0,0
20541,-100,4,2,1,40,0,0
20691,-100,4,2,1,50,0,0
20841,-100,4,2,1,30,0,0
21141,-100,4,2,1,50,0,0
21291,-100,4,2,1,30,0,0
21591,-100,4,2,1,50,0,0
21741,-100,4,2,1,30,0,0
21891,-100,4,2,2,40,0,0
22041,-100,4,2,1,30,0,0
22341,-100,4,2,1,50,0,0
22491,-100,4,2,1,30,0,0
22791,-100,4,2,1,50,0,0
22941,-100,4,2,1,30,0,0
23091,-100,4,2,1,50,0,0
23241,-100,4,2,1,30,0,0
23541,-100,4,2,1,50,0,0
23691,-100,4,2,1,30,0,0
23991,-100,4,2,1,50,0,0
24141,-100,4,2,1,30,0,0
24291,-100,4,2,2,42,0,0
24441,-100,4,2,1,30,0,0
24741,-100,4,2,1,50,0,0
24891,-100,4,2,1,30,0,0
25041,-100,4,2,1,50,0,0
25341,-100,4,2,1,30,0,0
25491,-100,4,2,1,50,0,0
25641,-100,4,2,1,30,0,0
25941,-100,4,2,1,50,0,0
26091,-100,4,2,1,30,0,0
26391,-100,4,2,1,50,0,0
26541,-100,4,2,1,30,0,0
26691,-100,4,2,2,44,0,0
26841,-100,4,2,1,30,0,0
27141,-100,4,2,1,50,0,0
27291,-100,4,2,1,30,0,0
27441,-100,4,2,1,50,0,0
27741,-100,4,2,1,30,0,0
27891,-100,4,2,1,50,0,0
28041,-100,4,2,1,30,0,0
28341,-100,4,2,1,50,0,0
28491,-100,4,2,1,30,0,0
28791,-100,4,2,1,50,0,0
28941,-100,4,2,1,30,0,0
29091,-100,4,2,2,46,0,0
29241,-100,4,2,1,30,0,0
29541,-100,4,2,1,50,0,0
29691,-100,4,2,1,30,0,0
29841,-100,4,2,1,50,0,0
30441,-100,4,2,1,30,0,0
30741,-100,4,2,1,50,0,0
30891,-100,4,2,1,30,0,0
31191,-100,4,2,1,50,0,0
31341,-100,4,2,1,30,0,0
31491,-100,4,2,2,48,0,0
31641,-100,4,2,1,30,0,0
31941,-100,4,2,1,50,0,0
32091,-100,4,2,1,30,0,0
32391,-100,4,2,1,50,0,0
32541,-100,4,2,1,30,0,0
32691,-100,4,2,2,50,0,0
32841,-100,4,2,1,30,0,0
33141,-100,4,2,1,50,0,0
33291,-100,4,2,1,30,0,0
33591,-100,4,2,1,50,0,0
33741,-100,4,2,1,30,0,0
33891,-100,4,2,2,52,0,0
34041,-100,4,2,1,30,0,0
34341,-100,4,2,1,50,0,0
34491,-100,4,2,1,30,0,0
34641,-100,4,2,1,50,0,0
34941,-100,4,2,1,30,0,0
35091,-100,4,2,2,54,0,0
35241,-100,4,2,1,30,0,0
35541,-100,4,2,1,50,0,0
35691,-100,4,2,1,30,0,0
35991,-100,4,2,1,50,0,0
36141,-100,4,2,1,30,0,0
36291,-100,4,2,2,56,0,0
36441,-100,4,2,1,30,0,0
36741,-100,4,2,1,50,0,0
36891,-100,4,2,1,30,0,0
37041,-100,4,2,1,50,0,0
37341,-100,4,2,1,30,0,0
37491,-100,4,2,2,58,0,0
37641,-100,4,2,1,30,0,0
37941,-100,4,2,1,50,0,0
38091,-100,4,2,1,30,0,0
38241,-100,4,2,1,50,0,0
38541,-100,4,2,1,30,0,0
38691,-100,4,2,2,60,0,0
38841,-100,4,2,1,30,0,0
39141,-100,4,2,1,50,0,0
39366,-100,4,2,1,30,0,0
39441,-100,4,2,1,20,0,0
39591,-100,4,2,1,30,0,0
39741,-100,4,2,1,40,0,0
39891,-100,4,2,1,50,0,0
40041,-100,4,2,1,30,0,0
40491,-100,4,2,1,40,0,0
40791,-100,4,2,1,30,0,0
41091,-100,4,2,1,40,0,0
41391,-100,4,2,1,30,0,0
41691,-100,4,2,1,40,0,0
41991,-100,4,2,1,30,0,0
42291,-100,4,2,1,40,0,0
42591,-100,4,2,1,30,0,0
42741,-100,4,2,1,40,0,0
43341,-100,4,2,1,30,0,0
43491,-100,4,2,1,40,0,0
43791,-100,4,2,1,30,0,0
44091,-100,4,2,1,40,0,0
44391,-100,4,2,1,30,0,0
44691,-100,4,2,1,50,0,0
44841,-100,4,2,1,30,0,0
45291,-100,4,2,1,40,0,0
45591,-100,4,2,1,30,0,0
45891,-100,4,2,1,40,0,0
46191,-100,4,2,1,30,0,0
46491,-100,4,2,1,40,0,0
46791,-100,4,2,1,30,0,0
47091,-100,4,2,1,40,0,0
47241,-100,4,2,1,30,0,0
47541,-100,4,2,1,40,0,0
47691,-100,4,2,10,30,0,0
47841,-100,4,2,1,30,0,0
47991,-100,4,2,1,40,0,0
48141,-100,4,2,1,30,0,0
48291,-100,4,2,1,40,0,0
48441,-100,4,2,1,30,0,0
48891,-100,4,2,1,40,0,0
49191,-100,4,2,1,50,0,0
49341,-100,4,2,1,60,0,0
49491,-100,4,2,1,50,0,0
49641,-100,4,2,1,30,0,0
50091,-100,4,2,1,40,0,0
50391,-100,4,2,1,30,0,0
50691,-100,4,2,1,40,0,0
50991,-100,4,2,1,30,0,0
51291,-100,4,2,1,40,0,0
51591,-100,4,2,1,30,0,0
51891,-100,4,2,1,40,0,0
52191,-100,4,2,1,30,0,0
52341,-100,4,2,1,40,0,0
52791,-100,4,2,1,30,0,0
53091,-100,4,2,1,40,0,0
53391,-100,4,2,1,30,0,0
53691,-100,4,2,1,40,0,0
53991,-100,4,2,1,30,0,0
54291,-100,4,2,2,50,0,0
54441,-100,4,2,1,30,0,0
54891,-100,4,2,1,40,0,0
55191,-100,4,2,1,30,0,0
55491,-100,4,2,2,50,0,0
55641,-100,4,2,1,30,0,0
55791,-100,4,2,1,50,0,0
56091,-100,4,2,1,40,0,0
56241,-100,4,2,1,30,0,0
56691,-100,4,2,2,50,0,0
56841,-100,4,2,1,30,0,0
57291,-100,4,2,1,40,0,0
57591,-100,4,2,1,50,0,0
57891,-100,4,2,1,60,0,0
58641,-100,4,2,1,30,0,0
58791,-100,4,2,2,40,0,0
58866,-100,4,2,0,48,0,0
58941,-100,4,2,0,54,0,0
59016,-100,4,2,0,58,0,0
59091,-100,4,2,3,60,0,1
59241,-100,4,2,3,40,0,1
59391,-100,4,2,3,60,0,1
59541,-100,4,2,3,40,0,1
59991,-100,4,2,3,60,0,1
60141,-100,4,2,3,40,0,1
60591,-100,4,2,3,60,0,1
60741,-100,4,2,3,40,0,1
60891,-100,4,2,11,40,0,1
61041,-100,4,2,3,40,0,1
61191,-100,4,2,3,60,0,1
61341,-100,4,2,3,40,0,1
61791,-100,4,2,3,60,0,1
61941,-100,4,2,3,40,0,1
62391,-100,4,2,3,60,0,1
62541,-100,4,2,3,40,0,1
62991,-100,4,2,3,60,0,1
63141,-100,4,2,3,40,0,1
63291,-100,4,2,3,60,0,1
63441,-100,4,2,3,30,0,1
63591,-100,4,2,2,60,0,1
63666,-100,4,2,0,34,0,1
63741,-100,4,2,0,42,0,1
63816,-100,4,2,0,46,0,1
63891,-100,4,2,3,60,0,1
64041,-100,4,2,3,40,0,1
64191,-100,4,2,3,60,0,1
64341,-100,4,2,3,40,0,1
64791,-100,4,2,3,60,0,1
64941,-100,4,2,3,40,0,1
65391,-100,4,2,3,60,0,1
65541,-100,4,2,3,40,0,1
65991,-100,4,2,3,60,0,1
66141,-100,4,2,3,40,0,1
66591,-100,4,2,3,60,0,1
66741,-100,4,2,3,40,0,1
67191,-100,4,2,3,60,0,1
67341,-100,4,2,3,40,0,1
67491,-100,4,2,3,20,0,0
67791,-100,4,2,3,40,0,0
67941,-100,4,2,3,20,0,0
68241,-100,4,2,3,30,0,0
68391,-100,4,2,2,20,0,0
68466,-100,4,2,0,28,0,0
68541,-100,4,2,0,34,0,0
68616,-100,4,2,0,38,0,0
68691,-100,4,2,2,60,0,1
68841,-100,4,2,3,40,0,1
68991,-100,4,2,3,60,0,1
69141,-100,4,2,3,40,0,1
69591,-100,4,2,3,60,0,1
69741,-100,4,2,3,40,0,1
70191,-100,4,2,3,60,0,1
70341,-100,4,2,3,40,0,1
70491,-100,4,2,11,40,0,1
70641,-100,4,2,3,40,0,1
70791,-100,4,2,3,60,0,1
70941,-100,4,2,3,40,0,1
71391,-100,4,2,3,60,0,1
71541,-100,4,2,3,40,0,1
71991,-100,4,2,3,60,0,1
72141,-100,4,2,3,40,0,1
72591,-100,4,2,3,60,0,1
72741,-100,4,2,3,40,0,1
72891,-100,4,2,11,40,0,1
73041,-100,4,2,3,40,0,1
73191,-100,4,2,2,60,0,1
73266,-100,4,2,0,40,0,1
73341,-100,4,2,0,50,0,1
73491,-100,4,2,3,60,0,1
73641,-100,4,2,3,40,0,1
73791,-100,4,2,3,60,0,1
73941,-100,4,2,3,40,0,1
74391,-100,4,2,3,60,0,1
74541,-100,4,2,3,40,0,1
74691,-100,4,2,3,45,0,1
74841,-100,4,2,3,40,0,1
74991,-100,4,2,3,60,0,1
75141,-100,4,2,3,40,0,1
75291,-100,4,2,3,45,0,1
75441,-100,4,2,3,40,0,1
75591,-100,4,2,3,60,0,1
75741,-100,4,2,3,40,0,1
75891,-100,4,2,3,50,0,1
76041,-100,4,2,3,40,0,1
76191,-100,4,2,3,60,0,1
76341,-100,4,2,3,40,0,1
76491,-100,4,2,11,50,0,1
76641,-100,4,2,3,40,0,1
76791,-100,4,2,3,55,0,1
76941,-100,4,2,3,40,0,1
77091,-100,4,2,3,60,0,1
77241,-100,4,2,3,20,0,1
77391,-100,4,2,3,55,0,1
77541,-100,4,2,3,20,0,1
77691,-100,4,2,1,40,0,1
77991,-100,4,2,1,50,0,1
78291,-100,4,2,3,40,0,0
86391,-100,4,2,1,20,0,0
86541,-100,4,2,3,30,0,0
86691,-100,4,2,3,40,0,0
86841,-100,4,2,3,30,0,0
86991,-100,4,2,1,40,0,0
87141,-100,4,2,1,50,0,0
87291,-100,4,2,1,60,0,0
87366,-100,4,2,1,48,0,0
87441,-100,4,2,1,38,0,0
87516,-100,4,2,1,30,0,0
87666,-100,4,2,1,38,0,0
87741,-100,4,2,1,48,0,0
87816,-100,4,2,1,60,0,0
87891,-100,4,2,1,45,0,0
88041,-100,4,2,1,20,0,0
88491,-100,4,2,1,30,0,0
88791,-100,4,2,1,20,0,0
89091,-100,4,2,1,30,0,0
89391,-100,4,2,1,20,0,0
89691,-100,4,2,1,30,0,0
89991,-100,4,2,1,20,0,0
90291,-100,4,2,1,30,0,0
90591,-100,4,2,1,20,0,0
90891,-100,4,2,1,30,0,0
91191,-100,4,2,1,20,0,0
91491,-100,4,2,1,30,0,0
91791,-100,4,2,1,20,0,0
92091,-100,4,2,1,30,0,0
92391,-100,4,2,1,20,0,0
92691,-100,4,2,1,50,0,0
92841,-100,4,2,1,20,0,0
93291,-100,4,2,1,30,0,0
93591,-100,4,2,1,20,0,0
93891,-100,4,2,1,55,0,0
94041,-100,4,2,1,20,0,0
94491,-100,4,2,1,30,0,0
94791,-100,4,2,1,20,0,0
95091,-100,4,2,1,60,0,0
95241,-100,4,2,1,20,0,0
95691,-100,4,2,1,30,0,0
95991,-100,4,2,1,20,0,0
96291,-100,4,2,0,40,0,0
96366,-100,4,2,1,20,0,0
96441,-100,4,2,1,30,0,0
96591,-100,4,2,0,40,0,0
96666,-100,4,2,1,20,0,0
96741,-100,4,2,1,30,0,0
96891,-100,4,2,1,50,0,0
96966,-100,4,2,1,30,0,0
97041,-100,4,2,1,40,0,0
97191,-100,4,2,1,30,0,0
97341,-100,4,2,1,40,0,0
97491,-100,4,2,3,60,0,1
97641,-100,4,2,3,40,0,1
97791,-100,4,2,3,60,0,1
97941,-100,4,2,3,40,0,1
98391,-100,4,2,3,60,0,1
98541,-100,4,2,3,40,0,1
98991,-100,4,2,3,60,0,1
99141,-100,4,2,3,40,0,1
99291,-100,4,2,11,40,0,1
99441,-100,4,2,3,40,0,1
99591,-100,4,2,3,60,0,1
99741,-100,4,2,3,40,0,1
100191,-100,4,2,3,60,0,1
100341,-100,4,2,3,40,0,1
100791,-100,4,2,3,60,0,1
100941,-100,4,2,3,40,0,1
101391,-100,4,2,3,60,0,1
101541,-100,4,2,3,40,0,1
101691,-100,4,2,3,60,0,1
101841,-100,4,2,3,30,0,1
101991,-100,4,2,2,60,0,1
102066,-100,4,2,0,34,0,1
102141,-100,4,2,0,42,0,1
102216,-100,4,2,0,46,0,1
102291,-100,4,2,3,60,0,1
102441,-100,4,2,3,40,0,1
102591,-100,4,2,3,60,0,1
102741,-100,4,2,3,40,0,1
103191,-100,4,2,3,60,0,1
103341,-100,4,2,3,40,0,1
103791,-100,4,2,3,60,0,1
103941,-100,4,2,3,40,0,1
104391,-100,4,2,3,60,0,1
104541,-100,4,2,3,40,0,1
104991,-100,4,2,3,60,0,1
105141,-100,4,2,3,40,0,1
105591,-100,4,2,3,60,0,1
105741,-100,4,2,3,40,0,1
105891,-100,4,2,3,20,0,0
106191,-100,4,2,3,40,0,0
106341,-100,4,2,3,20,0,0
106641,-100,4,2,3,30,0,0
106791,-100,4,2,2,20,0,0
106866,-100,4,2,0,28,0,0
106941,-100,4,2,0,34,0,0
107016,-100,4,2,0,38,0,0
107091,-100,4,2,3,60,0,1
107241,-100,4,2,3,40,0,1
107391,-100,4,2,3,60,0,1
107541,-100,4,2,3,40,0,1
107991,-100,4,2,3,60,0,1
108141,-100,4,2,3,40,0,1
108591,-100,4,2,3,60,0,1
108741,-100,4,2,3,40,0,1
108891,-100,4,2,11,40,0,1
109041,-100,4,2,3,40,0,1
109191,-100,4,2,3,60,0,1
109341,-100,4,2,3,40,0,1
109791,-100,4,2,3,60,0,1
109941,-100,4,2,3,40,0,1
110391,-100,4,2,3,60,0,1
110541,-100,4,2,3,40,0,1
110991,-100,4,2,3,60,0,1
111141,-100,4,2,3,40,0,1
111291,-100,4,2,11,40,0,1
111441,-100,4,2,3,40,0,1
111591,-100,4,2,2,60,0,1
111666,-100,4,2,0,40,0,1
111741,-100,4,2,0,50,0,1
111891,-100,4,2,3,60,0,1
112041,-100,4,2,3,40,0,1
112191,-100,4,2,3,60,0,1
112341,-100,4,2,3,40,0,1
112791,-100,4,2,3,60,0,1
112941,-100,4,2,3,40,0,1
113091,-100,4,2,3,45,0,1
113241,-100,4,2,3,40,0,1
113391,-100,4,2,3,60,0,1
113541,-100,4,2,3,40,0,1
113691,-100,4,2,3,45,0,1
113841,-100,4,2,3,40,0,1
113991,-100,4,2,3,60,0,1
114141,-100,4,2,3,40,0,1
114291,-100,4,2,3,50,0,1
114441,-100,4,2,3,40,0,1
114591,-100,4,2,3,60,0,1
114741,-100,4,2,3,40,0,1
114891,-100,4,2,11,40,0,1
115041,-100,4,2,3,40,0,1
115191,-100,4,2,3,55,0,1
115341,-100,4,2,3,40,0,1
115491,-100,4,2,3,60,0,1
115641,-100,4,2,3,20,0,1
115791,-100,4,2,3,55,0,1
115941,-100,4,2,3,20,0,1
116091,-100,4,2,1,40,0,1
116391,-100,4,2,1,50,0,1
116691,-100,4,2,3,40,0,0
116991,-100,4,2,3,40,0,0
117291,-100,4,2,3,32,0,0
117591,-100,4,2,3,26,0,0
117891,-100,4,2,3,32,0,0
118191,-100,4,2,3,26,0,0
118491,-100,4,2,3,22,0,0
118791,-100,4,2,3,20,0,0
119091,-100,4,2,3,22,0,0
119691,-100,4,2,3,15,0,0
120291,-100,4,2,3,10,0,0
120891,-100,4,2,20,7,0,0

[Colours]
Combo1 : 253,222,72
Combo2 : 189,128,73
Combo3 : 76,91,110
Combo4 : 216,169,134

[HitObjects]
176,376,891,5,2,0:0:0:0:
188,296,1041,1,0,0:0:0:0:
88,252,1191,1,2,0:0:0:0:
76,172,1341,1,0,0:0:0:0:
288,216,1491,6,0,P|340:172|282:137,1,160,0|0,1:0|0:0,0:0:0:0:
184,92,1941,1,2,0:0:0:0:
180,12,2091,1,2,0:0:0:0:
332,12,2391,1,8,0:0:0:0:
412,16,2541,1,0,0:0:0:0:
255,60,2691,6,0,P|232:135|254:210,1,160,8|0,0:0|0:0,0:0:0:0:
408,168,3291,2,0,P|430:243|406:318,1,160,8|0,0:0|0:0,0:0:0:0:
324,324,3741,1,0,0:0:0:0:
108,368,3891,5,8,0:0:0:0:
28,364,4041,1,0,0:0:0:0:
108,368,4191,1,0,0:0:0:0:
264,324,4341,1,2,0:0:0:0:
276,244,4491,1,2,0:0:0:0:
124,244,4791,1,8,0:0:0:0:
112,164,4941,1,0,0:0:0:0:
264,324,5091,5,8,0:0:0:0:
316,276,5241,1,2,0:0:0:0:
332,204,5391,1,2,0:0:0:0:
304,136,5541,1,0,0:0:0:0:
136,204,5691,2,0,L|122:44,1,160,8|8,0:0|0:0,0:0:0:0:
484,44,6291,6,0,P|459:116|384:128,1,160,0|0,1:0|0:0,0:0:0:0:
304,132,6741,1,2,0:0:0:0:
384,136,6891,1,2,0:0:0:0:
232,216,7191,1,8,0:0:0:0:
152,220,7341,1,0,0:0:0:0:
308,324,7491,6,0,P|330:248|307:173,1,160,8|0,0:0|0:0,0:0:0:0:
176,92,8091,1,8,0:0:0:0:
40,8,8391,1,0,0:0:0:0:
36,88,8541,1,0,0:0:0:0:
252,132,8691,5,8,0:0:0:0:
256,212,8841,1,0,0:0:0:0:
176,216,8991,1,0,0:0:0:0:
332,260,9141,1,2,0:0:0:0:
336,340,9291,1,2,0:0:0:0:
184,340,9591,1,8,0:0:0:0:
104,336,9741,1,0,0:0:0:0:
256,212,9891,5,8,0:0:0:0:
336,208,10041,1,2,0:0:0:0:
252,132,10191,1,2,0:0:0:0:
332,128,10341,1,0,0:0:0:0:
484,155,10491,2,0,P|507:80|484:5,1,160,8|8,0:0|0:0,0:0:0:0:
120,4,11091,5,0,1:0:0:0:
272,48,11391,1,0,0:0:0:0:
296,128,11541,1,2,0:0:0:0:
272,208,11691,1,2,0:0:0:0:
120,252,11991,1,8,0:0:0:0:
40,256,12141,1,0,0:0:0:0:
204,300,12291,6,0,P|279:288|304:216,1,160,8|0,0:0|0:0,0:0:0:0:
224,212,12741,1,2,0:0:0:0:
304,208,12891,1,2,0:0:0:0:
456,128,13191,1,8,0:0:0:0:
468,48,13341,1,0,0:0:0:0:
252,44,13491,5,8,0:0:0:0:
240,124,13641,1,0,0:0:0:0:
320,128,13791,1,0,0:0:0:0:
484,172,13941,1,2,0:0:0:0:
496,252,14091,1,2,0:0:0:0:
344,252,14391,1,8,0:0:0:0:
264,256,14541,1,0,0:0:0:0:
108,336,14691,5,8,0:0:0:0:
56,288,14841,1,2,0:0:0:0:
40,216,14991,1,2,0:0:0:0:
68,148,15141,1,0,0:0:0:0:
128,108,15291,1,10,0:0:0:0:
208,104,15441,1,0,0:0:0:0:
128,108,15591,1,10,0:0:0:0:
492,272,15891,5,4,0:0:0:0:
340,228,16191,1,0,0:0:0:0:
316,148,16341,1,0,0:0:0:0:
340,68,16491,1,8,0:0:0:0:
492,24,16791,1,8,0:0:0:0:
100,316,17091,5,4,0:0:0:0:
252,272,17391,1,0,0:0:0:0:
256,192,17541,1,0,0:0:0:0:
260,112,17691,1,8,0:0:0:0:
412,68,17991,1,8,0:0:0:0:
20,360,18291,5,4,0:0:0:0:
172,316,18591,1,0,0:0:0:0:
196,236,18741,1,0,0:0:0:0:
172,156,18891,1,10,0:0:0:0:
20,112,19191,1,0,0:0:0:0:
172,316,19491,5,2,0:1:0:0:
212,304,19566,1,0,0:0:0:0:
248,280,19641,1,0,0:0:0:0:
272,244,19716,1,0,0:0:0:0:
280,200,19791,1,8,0:0:0:0:
272,156,19866,1,0,0:0:0:0:
248,120,19941,1,0,0:0:0:0:
212,96,20016,1,0,0:0:0:0:
104,84,20091,5,2,0:1:0:0:
64,116,20166,1,0,0:0:0:0:
48,164,20241,1,0,0:0:0:0:
64,216,20316,1,0,0:0:0:0:
104,248,20391,1,8,0:0:0:0:
148,244,20466,1,0,0:0:0:0:
104,248,20541,1,8,0:0:0:0:
148,244,20616,1,0,0:0:0:0:
408,332,20691,6,0,P|482:314|511:242,1,160,4|8,0:0|0:1,0:0:0:0:
348,244,21141,2,0,P|273:226|244:155,1,160,8|0,0:0|0:0,0:0:0:0:
408,156,21591,1,8,0:0:0:0:
412,76,21741,1,0,0:0:0:0:
200,76,21891,6,0,P|148:120|206:155,1,160,2|8,0:0|0:1,0:0:0:0:
220,192,22266,1,0,0:0:0:0:
208,228,22341,1,8,0:0:0:0:
112,228,22491,1,0,0:0:0:0:
100,148,22641,1,0,0:0:0:0:
264,148,22791,1,8,0:0:0:0:
276,68,22941,1,0,0:0:0:0:
64,68,23091,6,0,P|92:139|166:158,1,160,8|8,0:0|0:1,0:0:0:0:
336,160,23541,2,0,P|307:231|233:250,1,160,8|0,0:0|0:0,0:0:0:0:
64,248,23991,1,8,0:0:0:0:
60,328,24141,1,0,0:0:0:0:
340,328,24291,6,0,L|499:320,1,160,2|8,0:0|0:1,0:0:0:0:
504,284,24666,1,0,0:0:0:0:
508,240,24741,1,8,0:0:0:0:
420,236,24891,1,0,0:0:0:0:
508,240,25041,1,0,0:0:0:0:
344,240,25191,1,8,0:0:0:0:
256,236,25341,1,0,0:0:0:0:
40,236,25491,6,0,P|68:164|143:146,1,160,8|8,0:0|0:1,0:0:0:0:
308,144,25941,2,0,P|382:125|411:54,1,160,8|8,0:0|0:1,0:0:0:0:
244,48,26391,1,8,0:0:0:0:
156,44,26541,1,0,0:0:0:0:
416,144,26691,6,0,P|468:188|410:223,1,160,2|8,0:0|0:1,0:0:0:0:
368,228,27066,1,0,0:0:0:0:
328,232,27141,1,8,0:0:0:0:
424,236,27291,1,0,0:0:0:0:
436,316,27441,1,8,0:0:0:0:
272,316,27591,1,8,0:0:0:0:
260,236,27741,1,0,0:0:0:0:
472,236,27891,6,0,P|444:164|369:146,1,160,8|8,0:0|0:1,0:0:0:0:
204,144,28341,2,0,P|130:125|101:54,1,160,8|8,0:0|0:1,0:0:0:0:
196,48,28791,1,8,0:0:0:0:
108,44,28941,1,0,0:0:0:0:
416,44,29091,5,2,0:0:0:0:
428,124,29241,1,0,0:0:0:0:
340,128,29391,1,8,0:1:0:0:
336,168,29466,1,0,0:0:0:0:
332,208,29541,1,8,0:0:0:0:
168,208,29691,1,0,0:0:0:0:
80,212,29841,1,8,0:0:0:0:
292,288,29991,1,8,0:0:0:0:
380,284,30141,1,8,0:0:0:0:
168,208,30291,6,0,P|116:164|174:129,1,160,8|8,0:0|0:1,0:0:0:0:
340,48,30741,2,0,L|181:40,1,160,8|0,0:0|0:0,0:0:0:0:
16,84,31191,1,8,0:0:0:0:
12,4,31341,1,0,0:0:0:0:
224,4,31491,6,0,P|298:22|326:94,1,160,2|8,0:0|0:1,0:0:0:0:
284,100,31866,1,0,0:0:0:0:
244,104,31941,1,8,0:0:0:0:
156,108,32091,1,0,0:0:0:0:
244,104,32241,1,0,0:0:0:0:
80,184,32391,1,8,0:0:0:0:
76,264,32541,1,0,0:0:0:0:
344,336,32691,6,0,P|396:292|338:257,1,160,2|8,0:0|0:1,0:0:0:0:
168,176,33141,2,0,L|327:168,1,160,8|0,0:0|0:0,0:0:0:0:
496,132,33591,1,8,0:0:0:0:
408,96,33741,1,0,0:0:0:0:
132,24,33891,6,0,P|159:95|233:114,1,160,2|8,0:0|0:1,0:0:0:0:
236,152,34266,1,0,0:0:0:0:
240,192,34341,1,8,0:0:0:0:
152,196,34491,1,0,0:0:0:0:
240,192,34641,1,0,0:0:0:0:
404,272,34791,1,8,0:0:0:0:
492,268,34941,1,0,0:0:0:0:
228,352,35091,6,0,P|153:334|125:262,1,160,2|8,0:0|0:1,0:0:0:0:
296,260,35541,2,0,P|348:216|290:181,1,160,8|0,0:0|0:0,0:0:0:0:
124,176,35991,1,8,0:0:0:0:
36,172,36141,1,0,0:0:0:0:
296,352,36291,6,0,P|370:333|398:261,1,160,2|8,0:0|0:1,0:0:0:0:
359,259,36666,1,0,0:0:0:0:
319,259,36741,1,8,0:0:0:0:
484,172,36891,1,8,0:0:0:0:
496,92,37041,1,8,0:0:0:0:
332,92,37191,1,8,0:0:0:0:
244,88,37341,1,0,0:0:0:0:
28,92,37491,5,2,0:0:0:0:
4,12,37641,1,0,0:0:0:0:
108,184,37791,1,8,0:0:0:0:
100,104,37941,1,8,0:0:0:0:
264,276,38091,1,0,0:0:0:0:
272,196,38241,1,8,0:0:0:0:
484,368,38391,1,8,0:0:0:0:
508,288,38541,1,0,0:0:0:0:
296,212,38691,5,2,0:0:0:0:
208,208,38841,1,0,0:0:0:0:
296,136,38991,1,8,0:1:0:0:
256,132,39066,1,0,0:0:0:0:
216,128,39141,1,8,0:0:0:0:
52,208,39291,5,2,0:1:0:0:
12,172,39366,1,0,0:0:0:0:
0,120,39441,1,0,0:0:0:0:
12,68,39516,1,0,0:0:0:0:
52,32,39591,1,8,0:1:0:0:
96,28,39666,1,0,0:0:0:0:
52,32,39741,1,8,0:1:0:0:
96,28,39816,1,0,0:0:0:0:
232,16,39891,6,0,P|306:33|334:105,1,160,4|2,0:0|0:0,0:0:0:0:
244,108,40341,1,0,0:0:0:0:
408,108,40491,1,2,0:0:0:0:
460,156,40641,1,0,0:0:0:0:
476,228,40791,1,2,0:0:0:0:
448,296,40941,1,0,0:0:0:0:
236,296,41091,6,0,P|184:252|242:217,1,160,10|2,0:0|0:0,0:0:0:0:
332,216,41541,1,0,0:0:0:0:
168,216,41691,1,2,0:0:0:0:
156,136,41841,1,0,0:0:0:0:
320,136,41991,1,2,0:0:0:0:
332,56,42141,1,0,0:0:0:0:
120,56,42291,6,0,P|46:74|19:146,1,160,10|2,0:0|0:0,0:0:0:0:
108,148,42741,1,8,0:0:0:0:
120,228,42891,1,2,0:0:0:0:
32,232,43041,1,0,0:0:0:0:
196,232,43191,1,2,0:0:0:0:
284,228,43341,1,0,0:0:0:0:
496,228,43491,5,10,0:0:0:0:
508,148,43641,1,0,0:0:0:0:
344,148,43791,1,2,0:0:0:0:
256,144,43941,1,0,0:0:0:0:
344,148,44091,1,2,0:0:0:0:
256,144,44241,1,0,0:0:0:0:
92,144,44391,1,2,0:0:0:0:
80,64,44541,1,0,0:0:0:0:
292,64,44691,6,0,P|344:108|286:143,1,160,4|2,0:0|0:0,0:0:0:0:
196,144,45141,1,0,0:0:0:0:
360,144,45291,1,2,0:0:0:0:
372,224,45441,1,0,0:0:0:0:
268,224,45591,1,2,0:0:0:0:
256,304,45741,1,0,0:0:0:0:
484,304,45891,6,0,P|456:232|382:214,1,160,10|2,0:0|0:0,0:0:0:0:
292,212,46341,1,0,0:0:0:0:
128,212,46491,1,2,0:0:0:0:
116,132,46641,1,0,0:0:0:0:
280,132,46791,1,2,0:0:0:0:
292,52,46941,1,0,0:0:0:0:
80,52,47091,6,0,P|28:96|86:131,1,160,10|2,0:0|0:0,0:0:0:0:
256,132,47541,2,0,P|308:176|250:211,1,160
80,212,47991,1,2,0:0:0:0:
68,292,48141,1,0,0:0:0:0:
280,292,48291,5,10,0:0:0:0:
368,288,48441,1,0,0:0:0:0:
156,212,48591,1,2,0:0:0:0:
68,208,48741,1,0,0:0:0:0:
280,292,48891,1,2,0:0:0:0:
348,252,49041,1,0,0:0:0:0:
372,176,49191,1,10,0:0:0:0:
348,100,49341,1,8,0:0:0:0:
108,104,49491,6,0,P|56:60|114:25,1,160,4|2,0:0|0:0,0:0:0:0:
204,24,49941,1,0,0:0:0:0:
368,24,50091,1,2,0:0:0:0:
380,104,50241,1,0,0:0:0:0:
280,108,50391,1,2,0:0:0:0:
268,188,50541,1,0,0:0:0:0:
496,188,50691,6,0,P|468:260|394:278,1,160,10|2,0:0|0:0,0:0:0:0:
304,280,51141,1,0,0:0:0:0:
140,280,51291,1,2,0:0:0:0:
208,236,51441,1,0,0:0:0:0:
372,160,51591,1,2,0:0:0:0:
440,116,51741,1,0,0:0:0:0:
228,116,51891,6,0,P|154:98|127:26,1,160,10|2,0:0|0:0,0:0:0:0:
216,24,52341,1,8,0:0:0:0:
300,28,52491,1,2,0:0:0:0:
216,24,52641,1,0,0:0:0:0:
52,24,52791,1,2,0:0:0:0:
40,104,52941,1,0,0:0:0:0:
252,104,53091,5,10,0:0:0:0:
264,184,53241,1,0,0:0:0:0:
100,184,53391,1,2,0:0:0:0:
112,264,53541,1,0,0:0:0:0:
168,320,53691,1,2,0:0:0:0:
248,336,53841,1,0,0:0:0:0:
84,336,53991,1,2,0:0:0:0:
0,340,54141,1,0,0:0:0:0:
212,340,54291,6,0,P|264:296|206:261,1,160,4|2,0:0|0:0,0:0:0:0:
116,260,54741,1,0,0:0:0:0:
280,260,54891,1,2,0:0:0:0:
292,180,55041,1,0,0:0:0:0:
204,176,55191,1,10,0:0:0:0:
368,176,55341,1,8,0:0:0:0:
155,175,55491,6,0,P|183:104|258:86,1,160,4|10,0:0|0:0,0:0:0:0:
328,132,55941,1,8,0:0:0:0:
492,176,56091,1,2,0:0:0:0:
424,220,56241,1,0,0:0:0:0:
260,296,56391,1,2,0:0:0:0:
192,340,56541,1,0,0:0:0:0:
424,292,56691,6,0,P|476:336|418:371,1,160,4|2,0:0|0:0,0:0:0:0:
328,328,57141,1,8,0:0:0:0:
416,284,57291,1,10,0:0:0:0:
252,240,57441,1,8,0:0:0:0:
416,196,57591,1,8,0:0:0:0:
428,116,57741,1,8,0:0:0:0:
172,72,57891,1,4,0:0:0:0:
332,64,58491,5,2,0:1:0:0:
180,64,58791,1,2,0:0:0:0:
164,116,58866,1,2,0:0:0:0:
180,164,58941,1,2,0:0:0:0:
220,196,59016,1,2,0:0:0:0:
368,208,59091,6,0,P|420:252|362:287,1,160,4|8,0:0|0:0,0:0:0:0:
272,288,59541,1,0,0:0:0:0:
436,288,59691,1,2,0:0:0:0:
448,208,59841,1,0,0:0:0:0:
364,204,59991,1,8,0:0:0:0:
448,208,60141,1,0,0:0:0:0:
164,208,60291,6,0,P|112:164|170:129,1,160,2|8,0:0|0:0,0:0:0:0:
336,48,60741,2,0,L|177:40,1,160
12,40,61191,1,8,0:0:0:0:
0,120,61341,1,0,0:0:0:0:
212,120,61491,6,0,P|286:138|314:209,1,160,2|8,0:0|0:0,0:0:0:0:
228,212,61941,1,0,0:0:0:0:
392,212,62091,1,2,0:0:0:0:
404,292,62241,1,0,0:0:0:0:
240,292,62391,1,8,0:0:0:0:
228,212,62541,1,0,0:0:0:0:
440,212,62691,6,0,P|492:168|434:133,1,160,2|8,0:0|0:0,0:0:0:0:
344,132,63141,1,0,0:0:0:0:
180,132,63291,1,8,0:0:0:0:
168,52,63441,1,0,0:0:0:0:
380,52,63591,1,10,0:0:0:0:
420,84,63666,1,2,0:0:0:0:
436,132,63741,1,2,0:0:0:0:
420,184,63816,1,2,0:0:0:0:
208,196,63891,6,0,P|156:240|214:275,1,160,4|8,0:0|0:0,0:0:0:0:
304,276,64341,1,0,0:0:0:0:
140,276,64491,1,2,0:0:0:0:
72,236,64641,1,0,0:0:0:0:
48,160,64791,1,8,0:0:0:0:
72,84,64941,1,0,0:0:0:0:
312,88,65091,6,0,P|284:160|210:178,1,160,2|8,0:0|0:0,0:0:0:0:
300,180,65541,1,0,0:0:0:0:
312,260,65691,1,2,0:0:0:0:
224,264,65841,1,0,0:0:0:0:
60,264,65991,1,8,0:0:0:0:
48,344,66141,1,0,0:0:0:0:
260,344,66291,5,2,0:0:0:0:
348,340,66441,1,0,0:0:0:0:
260,344,66591,1,8,0:0:0:0:
96,264,66741,1,0,0:0:0:0:
8,260,66891,1,2,0:0:0:0:
96,264,67041,1,0,0:0:0:0:
260,184,67191,1,8,0:0:0:0:
172,180,67341,1,0,0:0:0:0:
384,264,67491,5,2,0:0:0:0:
444,208,67641,1,0,0:0:0:0:
456,128,67791,1,8,0:0:0:0:
416,60,67941,1,0,0:0:0:0:
380,40,68016,1,0,0:0:0:0:
340,32,68091,1,2,0:0:0:0:
176,32,68241,5,0,0:0:0:0:
388,32,68391,1,10,0:0:0:0:
428,64,68466,1,2,0:0:0:0:
444,112,68541,1,2,0:0:0:0:
428,164,68616,1,2,0:0:0:0:
240,176,68691,6,0,P|165:194|137:265,1,160,4|8,0:0|0:0,0:0:0:0:
224,268,69141,1,0,0:0:0:0:
60,268,69291,1,2,0:0:0:0:
48,188,69441,1,0,0:0:0:0:
132,184,69591,1,8,0:0:0:0:
48,188,69741,1,0,0:0:0:0:
260,188,69891,6,0,P|335:170|363:99,1,160,2|8,0:0|0:0,0:0:0:0:
200,108,70341,2,0,P|148:64|206:29,1,160,0|8,0:0|0:0,0:0:0:0:
372,28,70791,1,8,0:0:0:0:
460,32,70941,1,0,0:0:0:0:
248,32,71091,6,0,P|226:107|250:182,1,160,2|8,0:0|0:0,0:0:0:0:
336,184,71541,1,0,0:0:0:0:
500,184,71691,1,2,0:0:0:0:
432,228,71841,1,0,0:0:0:0:
268,304,71991,1,8,0:0:0:0:
200,348,72141,1,0,0:0:0:0:
412,348,72291,6,0,P|383:276|309:258,1,160,2|8,0:0|0:0,0:0:0:0:
144,176,72741,2,0,L|303:168,1,160
468,172,73191,1,10,0:0:0:0:
460,132,73266,1,2,0:0:0:0:
436,100,73341,1,2,0:0:0:0:
400,84,73416,1,2,0:0:0:0:
216,72,73491,5,4,0:0:0:0:
204,152,73641,1,0,0:0:0:0:
308,152,73791,1,8,0:0:0:0:
320,232,73941,1,0,0:0:0:0:
100,232,74091,1,4,0:0:0:0:
32,192,74241,1,0,0:0:0:0:
8,116,74391,1,8,0:0:0:0:
32,40,74541,1,0,0:0:0:0:
256,40,74691,5,4,0:0:0:0:
344,44,74841,1,0,0:0:0:0:
256,40,74991,1,8,0:0:0:0:
168,44,75141,1,0,0:0:0:0:
392,44,75291,1,4,0:0:0:0:
404,124,75441,1,0,0:0:0:0:
240,124,75591,1,8,0:0:0:0:
228,204,75741,1,0,0:0:0:0:
440,204,75891,6,0,P|492:248|434:283,1,160,4|8,0:0|0:0,0:0:0:0:
268,284,76341,2,0,P|216:328|274:363,1,160
440,360,76791,1,8,0:0:0:0:
452,280,76941,1,0,0:0:0:0:
240,280,77091,5,4,0:0:0:0:
152,276,77241,1,0,0:0:0:0:
364,200,77391,1,4,0:0:0:0:
452,196,77541,1,0,0:0:0:0:
240,280,77691,1,8,0:0:0:0:
172,240,77841,1,8,0:0:0:0:
148,164,77991,1,8,0:0:0:0:
172,88,78141,1,8,0:0:0:0:
384,88,78291,1,4,0:0:0:0:
228,348,86391,5,2,0:0:0:0:
392,348,86541,1,8,0:0:0:0:
404,268,86691,1,0,0:0:0:0:
240,268,86841,1,8,0:0:0:0:
152,264,86991,1,8,0:0:0:0:
240,268,87141,1,8,0:0:0:0:
404,268,87291,5,2,0:1:0:0:
444,256,87366,1,0,0:0:0:0:
480,232,87441,1,0,0:0:0:0:
504,196,87516,1,0,0:0:0:0:
512,152,87591,1,0,0:0:0:0:
504,108,87666,1,0,0:0:0:0:
480,72,87741,1,0,0:0:0:0:
444,48,87816,1,0,0:0:0:0:
280,36,87891,5,4,0:0:0:0:
432,36,88191,1,2,0:0:0:0:
444,116,88341,1,0,0:0:0:0:
360,116,88491,1,2,0:0:0:0:
348,196,88641,1,0,0:0:0:0:
432,200,88791,1,2,0:0:0:0:
348,196,88941,1,0,0:0:0:0:
176,196,89091,5,10,0:0:0:0:
32,196,89391,1,2,0:0:0:0:
20,276,89541,1,0,0:0:0:0:
104,276,89691,1,2,0:0:0:0:
20,276,89841,1,0,0:0:0:0:
8,356,89991,1,2,0:0:0:0:
92,356,90141,1,0,0:0:0:0:
264,356,90291,5,10,0:0:0:0:
408,356,90591,1,2,0:0:0:0:
420,276,90741,1,0,0:0:0:0:
336,276,90891,1,2,0:0:0:0:
420,276,91041,1,0,0:0:0:0:
336,276,91191,1,2,0:0:0:0:
324,196,91341,1,0,0:0:0:0:
496,196,91491,5,10,0:0:0:0:
344,196,91791,1,2,0:0:0:0:
256,192,91941,1,0,0:0:0:0:
420,192,92091,1,10,0:0:0:0:
448,124,92241,1,0,0:0:0:0:
432,52,92391,1,2,0:0:0:0:
380,4,92541,1,0,0:0:0:0:
160,4,92691,5,4,0:0:0:0:
312,4,92991,1,2,0:0:0:0:
324,84,93141,1,0,0:0:0:0:
240,84,93291,1,2,0:0:0:0:
324,84,93441,1,0,0:0:0:0:
408,84,93591,1,2,0:0:0:0:
324,84,93741,1,0,0:0:0:0:
88,84,93891,5,4,0:0:0:0:
240,84,94191,1,2,0:0:0:0:
252,164,94341,1,0,0:0:0:0:
168,164,94491,1,2,0:0:0:0:
252,164,94641,1,0,0:0:0:0:
168,164,94791,1,2,0:0:0:0:
156,236,94941,1,0,0:0:0:0:
420,236,95091,5,4,0:0:0:0:
268,236,95391,1,2,0:0:0:0:
256,316,95541,1,0,0:0:0:0:
340,316,95691,1,2,0:0:0:0:
256,316,95841,1,0,0:0:0:0:
340,316,95991,1,2,0:0:0:0:
424,316,96141,1,2,0:0:0:0:
256,316,96291,5,2,0:0:0:0:
216,304,96366,1,0,0:0:0:0:
180,280,96441,1,0,0:0:0:0:
156,244,96516,1,0,0:0:0:0:
148,200,96591,1,2,0:0:0:0:
156,156,96666,1,0,0:0:0:0:
180,120,96741,1,0,0:0:0:0:
216,96,96816,1,0,0:0:0:0:
324,92,96891,5,2,0:1:0:0:
364,124,96966,1,0,0:0:0:0:
380,172,97041,1,8,0:0:0:0:
364,224,97116,1,0,0:0:0:0:
256,220,97191,1,8,0:0:0:0:
216,252,97266,1,0,0:0:0:0:
200,300,97341,1,8,0:0:0:0:
216,352,97416,1,0,0:0:0:0:
364,356,97491,6,0,P|438:338|466:267,1,160,4|8,0:0|0:0,0:0:0:0:
380,264,97941,1,0,0:0:0:0:
216,264,98091,1,2,0:0:0:0:
204,184,98241,1,0,0:0:0:0:
304,180,98391,1,8,0:0:0:0:
316,100,98541,1,0,0:0:0:0:
88,100,98691,6,0,P|36:56|94:21,1,160,2|8,0:0|0:0,0:0:0:0:
260,20,99141,2,0,P|334:38|362:109,1,160
196,108,99591,1,8,0:0:0:0:
108,112,99741,1,0,0:0:0:0:
320,112,99891,6,0,P|372:156|314:191,1,160,2|8,0:0|0:0,0:0:0:0:
224,192,100341,1,0,0:0:0:0:
388,192,100491,1,2,0:0:0:0:
376,272,100641,1,0,0:0:0:0:
212,272,100791,1,8,0:0:0:0:
200,352,100941,1,0,0:0:0:0:
412,352,101091,6,0,P|464:308|406:273,1,160,2|8,0:0|0:0,0:0:0:0:
316,268,101541,1,0,0:0:0:0:
480,188,101691,1,8,0:0:0:0:
392,184,101841,1,0,0:0:0:0:
180,184,101991,1,10,0:0:0:0:
164,132,102066,1,2,0:0:0:0:
180,84,102141,1,2,0:0:0:0:
220,52,102216,1,2,0:0:0:0:
420,40,102291,6,0,P|392:112|318:130,1,160,4|8,0:0|0:0,0:0:0:0:
228,132,102741,1,0,0:0:0:0:
64,132,102891,1,2,0:0:0:0:
52,212,103041,1,0,0:0:0:0:
136,216,103191,1,8,0:0:0:0:
52,212,103341,1,0,0:0:0:0:
264,212,103491,6,0,P|338:230|366:301,1,160,2|8,0:0|0:0,0:0:0:0:
276,380,103941,1,0,0:0:0:0:
360,384,104091,1,2,0:0:0:0:
372,304,104241,1,0,0:0:0:0:
208,304,104391,1,8,0:0:0:0:
196,224,104541,1,0,0:0:0:0:
408,224,104691,5,2,0:0:0:0:
380,148,104841,1,0,0:0:0:0:
312,108,104991,1,8,0:0:0:0:
148,28,105141,1,0,0:0:0:0:
236,24,105291,1,2,0:0:0:0:
324,20,105441,1,0,0:0:0:0:
160,100,105591,1,8,0:0:0:0:
72,96,105741,1,0,0:0:0:0:
284,12,105891,5,2,0:0:0:0:
296,92,106041,1,0,0:0:0:0:
208,96,106191,1,8,0:0:0:0:
372,96,106341,1,0,0:0:0:0:
376,136,106416,1,0,0:0:0:0:
380,176,106491,1,2,0:0:0:0:
292,180,106641,1,0,0:0:0:0:
80,180,106791,1,10,0:0:0:0:
64,232,106866,1,2,0:0:0:0:
80,280,106941,1,2,0:0:0:0:
120,312,107016,1,2,0:0:0:0:
268,324,107091,6,0,P|320:280|262:245,1,160,4|8,0:0|0:0,0:0:0:0:
172,244,107541,1,0,0:0:0:0:
336,244,107691,1,2,0:0:0:0:
348,164,107841,1,0,0:0:0:0:
264,160,107991,1,8,0:0:0:0:
252,80,108141,1,0,0:0:0:0:
464,80,108291,6,0,P|436:152|362:170,1,160,2|8,0:0|0:0,0:0:0:0:
196,172,108741,2,0,P|136:205|188:250,1,160
356,264,109191,1,8,0:0:0:0:
444,268,109341,1,0,0:0:0:0:
204,352,109491,6,0,L|45:344,1,160,2|8,0:0|0:0,0:0:0:0:
32,264,109941,1,0,0:0:0:0:
196,264,110091,1,2,0:0:0:0:
284,260,110241,1,0,0:0:0:0:
120,180,110391,1,8,0:0:0:0:
208,176,110541,1,0,0:0:0:0:
420,176,110691,6,0,P|472:132|414:97,1,160,2|8,0:0|0:0,0:0:0:0:
244,20,111141,2,0,L|403:12,1,160
236,104,111591,1,10,0:0:0:0:
200,120,111666,1,2,0:0:0:0:
176,152,111741,1,2,0:0:0:0:
168,192,111816,1,2,0:0:0:0:
352,204,111891,5,4,0:0:0:0:
364,284,112041,1,0,0:0:0:0:
260,284,112191,1,8,0:0:0:0:
248,364,112341,1,0,0:0:0:0:
468,364,112491,1,4,0:0:0:0:
492,288,112641,1,0,0:0:0:0:
468,212,112791,1,8,0:0:0:0:
400,172,112941,1,0,0:0:0:0:
176,172,113091,5,4,0:0:0:0:
88,168,113241,1,0,0:0:0:0:
176,172,113391,1,8,0:0:0:0:
88,168,113541,1,0,0:0:0:0:
312,88,113691,1,4,0:0:0:0:
400,84,113841,1,0,0:0:0:0:
236,4,113991,1,8,0:0:0:0:
148,0,114141,1,0,0:0:0:0:
424,80,114291,6,0,P|396:152|322:170,1,160,4|8,0:0|0:0,0:0:0:0:
156,172,114741,2,0,P|183:243|258:261,1,160
424,304,115191,1,8,0:0:0:0:
336,344,115341,1,0,0:0:0:0:
116,344,115491,5,4,0:0:0:0:
104,264,115641,1,0,0:0:0:0:
316,264,115791,1,4,0:0:0:0:
328,184,115941,1,0,0:0:0:0:
116,184,116091,1,8,0:0:0:0:
128,104,116241,1,8,0:0:0:0:
184,48,116391,1,8,0:0:0:0:
264,32,116541,1,8,0:0:0:0:
52,32,116691,5,4,0:0:0:0:
256,192,116841,12,0,121491,0:0:0:0:
