osu file format v14

[General]
AudioFilename: audio.mp3
AudioLeadIn: 0
PreviewTime: 58378
Countdown: 0
SampleSet: Normal
StackLeniency: 0.7
Mode: 1
LetterboxInBreaks: 0
WidescreenStoryboard: 0

[Editor]
Bookmarks: 3891,8691,78291,87891,92691
DistanceSpacing: 0.9
BeatDivisor: 2
GridSize: 4
TimelineZoom: 0.9000001

[Metadata]
Title:EDEN
TitleUnicode:EDEN
Artist:TERRA
ArtistUnicode:TЁЯRA
Creator:alienflybot
Version:Prophecy's KANTAN
Source:beatmania IIDX 12 HAPPY SKY
Tags:jun Junko Karashima 辛島純子 NAOKI MAEDA 前田尚紀 GOLI HYPER J-POP SIX KONAMI AFB Tenshichan Prophecy iloveyou4ever -Hex- Ascendance Skylish
BeatmapID:1726710
BeatmapSetID:810279

[Difficulty]
HPDrainRate:7
CircleSize:2
OverallDifficulty:3
ApproachRate:10
SliderMultiplier:1.4
SliderTickRate:1

[Events]
//Background and Video events
0,0,"meteor_pylon_mclelun.jpg",0,0
//Break Periods
//Storyboard Layer 0 (Background)
//Storyboard Layer 1 (Fail)
//Storyboard Layer 2 (Pass)
//Storyboard Layer 3 (Foreground)
//Storyboard Sound Samples

[TimingPoints]
291,300,4,1,0,60,1,0
20691,-100,4,1,0,70,0,0
39891,-100,4,1,0,80,0,0
59091,-100,4,1,0,100,0,1
78291,-100,4,1,0,70,0,0
87891,-100,4,1,0,60,0,0
92691,-100,4,1,0,80,0,0
97491,-100,4,1,0,100,0,1
116691,-100,4,1,0,70,0,0
117891,-100,4,1,0,60,0,0
119091,-100,4,1,0,50,0,0

[Colours]
Combo1 : 253,222,72
Combo2 : 189,128,73
Combo3 : 76,91,110
Combo4 : 216,169,134

[HitObjects]
258,192,1491,5,0,0:0:0:0:
258,192,2691,1,0,0:0:0:0:
258,192,3291,1,0,0:0:0:0:
258,192,3891,1,8,0:0:0:0:
258,192,5091,1,0,0:0:0:0:
258,192,5691,1,8,0:0:0:0:
258,192,6291,1,0,0:0:0:0:
258,192,7491,1,0,0:0:0:0:
258,192,8091,1,0,0:0:0:0:
258,192,8691,1,8,0:0:0:0:
258,192,9891,1,0,0:0:0:0:
258,192,11091,1,8,0:0:0:0:
258,192,12291,1,0,0:0:0:0:
258,192,12891,1,0,0:0:0:0:
258,192,13491,1,8,0:0:0:0:
258,192,14391,1,0,0:0:0:0:
258,192,15291,1,8,0:0:0:0:
258,192,15591,1,0,0:0:0:0:
258,192,15891,1,4,0:0:0:0:
258,192,16491,1,8,0:0:0:0:
258,192,17091,1,4,0:0:0:0:
258,192,17691,1,8,0:0:0:0:
258,192,17991,1,8,0:0:0:0:
258,192,18291,1,12,0:0:0:0:
256,192,18591,12,0,20391,0:0:0:0:
255,194,20691,5,4,0:0:0:0:
255,194,21891,1,8,0:0:0:0:
255,194,22491,1,0,0:0:0:0:
255,194,23091,1,0,0:0:0:0:
255,194,23991,1,0,0:0:0:0:
255,194,24291,1,8,0:0:0:0:
255,194,24891,1,0,0:0:0:0:
255,194,25491,1,8,0:0:0:0:
255,194,26391,1,0,0:0:0:0:
255,194,26691,1,0,0:0:0:0:
255,194,27291,1,0,0:0:0:0:
255,194,27891,1,8,0:0:0:0:
255,194,28791,1,0,0:0:0:0:
255,194,29091,1,8,0:0:0:0:
255,194,30291,1,8,0:0:0:0:
255,194,31191,1,0,0:0:0:0:
255,194,31491,1,0,0:0:0:0:
255,194,32691,1,0,0:0:0:0:
255,194,33591,1,0,0:0:0:0:
255,194,33891,1,8,0:0:0:0:
255,194,34491,1,8,0:0:0:0:
255,194,35091,1,0,0:0:0:0:
255,194,36291,1,0,0:0:0:0:
255,194,36891,1,0,0:0:0:0:
255,194,37491,1,8,0:0:0:0:
255,194,38091,1,0,0:0:0:0:
255,194,38691,1,8,0:0:0:0:
255,194,39891,1,0,0:0:0:0:
255,194,40491,1,0,0:0:0:0:
255,194,41091,1,8,0:0:0:0:
255,194,42291,1,8,0:0:0:0:
255,194,42891,1,0,0:0:0:0:
255,194,43491,1,8,0:0:0:0:
255,194,44091,1,8,0:0:0:0:
255,194,44391,1,8,0:0:0:0:
255,194,44691,1,0,0:0:0:0:
255,194,45291,1,0,0:0:0:0:
255,194,45891,1,0,0:0:0:0:
255,194,47091,1,8,0:0:0:0:
255,194,47691,1,0,0:0:0:0:
255,194,47991,1,0,0:0:0:0:
255,194,48291,1,8,0:0:0:0:
255,194,48891,1,0,0:0:0:0:
255,194,49491,1,8,0:0:0:0:
255,194,50691,1,8,0:0:0:0:
255,194,51891,1,0,0:0:0:0:
255,194,52491,1,0,0:0:0:0:
255,194,53091,1,8,0:0:0:0:
255,194,53391,1,0,0:0:0:0:
255,194,53691,1,0,0:0:0:0:
255,194,54291,1,8,0:0:0:0:
255,194,55491,1,0,0:0:0:0:
255,194,56091,1,0,0:0:0:0:
255,194,56691,1,8,0:0:0:0:
255,194,57291,1,8,0:0:0:0:
255,194,57891,1,0,0:0:0:0:
255,194,59091,1,4,0:0:0:0:
255,194,59691,1,0,0:0:0:0:
255,194,59991,1,0,0:0:0:0:
255,194,60291,1,8,0:0:0:0:
255,194,60891,1,0,0:0:0:0:
255,194,61491,1,8,0:0:0:0:
255,194,62091,1,0,0:0:0:0:
255,194,62391,1,0,0:0:0:0:
255,194,62691,1,0,0:0:0:0:
255,194,63291,1,8,0:0:0:0:
255,194,63891,1,0,0:0:0:0:
255,194,64491,1,0,0:0:0:0:
255,194,64791,1,0,0:0:0:0:
255,194,65091,1,8,0:0:0:0:
255,194,66291,1,0,0:0:0:0:
255,194,67191,1,8,0:0:0:0:
255,194,68091,1,0,0:0:0:0:
255,194,68691,1,4,0:0:0:0:
255,194,69291,1,8,0:0:0:0:
255,194,69591,1,0,0:0:0:0:
255,194,69891,1,0,0:0:0:0:
255,194,70491,1,8,0:0:0:0:
255,194,71091,1,0,0:0:0:0:
255,194,71691,1,0,0:0:0:0:
255,194,71991,1,0,0:0:0:0:
255,194,72291,1,8,0:0:0:0:
255,194,72891,1,8,0:0:0:0:
255,194,73491,1,0,0:0:0:0:
255,194,74091,1,0,0:0:0:0:
255,194,74391,1,0,0:0:0:0:
255,194,74691,1,8,0:0:0:0:
255,194,75891,1,0,0:0:0:0:
255,194,76491,1,0,0:0:0:0:
255,194,77091,1,8,0:0:0:0:
255,194,78291,1,4,0:0:0:0:
255,194,79491,1,8,0:0:0:0:
255,194,79791,1,0,0:0:0:0:
255,194,80091,1,0,0:0:0:0:
255,194,80691,1,4,0:0:0:0:
255,194,81291,1,0,0:0:0:0:
255,194,81891,1,8,0:0:0:0:
255,194,82191,1,0,0:0:0:0:
255,194,82491,1,8,0:0:0:0:
255,194,83091,1,4,0:0:0:0:
255,194,84291,1,8,0:0:0:0:
255,194,84591,1,8,0:0:0:0:
255,194,84891,1,0,0:0:0:0:
255,194,85491,1,0,0:0:0:0:
255,194,86691,1,0,0:0:0:0:
255,194,87291,1,0,0:0:0:0:
255,194,87891,1,12,0:0:0:0:
255,194,89091,1,8,0:0:0:0:
255,194,90291,1,8,0:0:0:0:
255,194,91491,1,8,0:0:0:0:
255,194,92091,1,8,0:0:0:0:
255,194,92691,1,4,0:0:0:0:
255,194,93891,1,8,0:0:0:0:
255,194,95091,1,8,0:0:0:0:
255,194,95691,1,0,0:0:0:0:
255,194,96291,1,8,0:0:0:0:
255,194,97491,1,4,0:0:0:0:
255,194,98091,1,0,0:0:0:0:
255,194,98391,1,0,0:0:0:0:
255,194,98691,1,8,0:0:0:0:
255,194,99291,1,0,0:0:0:0:
255,194,99891,1,8,0:0:0:0:
255,194,100491,1,0,0:0:0:0:
255,194,100791,1,0,0:0:0:0:
255,194,101091,1,0,0:0:0:0:
255,194,101691,1,8,0:0:0:0:
255,194,102291,1,0,0:0:0:0:
255,194,102891,1,0,0:0:0:0:
255,194,103191,1,0,0:0:0:0:
255,194,103491,1,8,0:0:0:0:
255,194,104091,1,0,0:0:0:0:
255,194,104691,1,0,0:0:0:0:
255,194,105591,1,8,0:0:0:0:
255,194,106791,1,8,0:0:0:0:
255,194,107091,1,4,0:0:0:0:
255,194,107691,1,0,0:0:0:0:
255,194,107991,1,0,0:0:0:0:
255,194,108291,1,8,0:0:0:0:
255,194,108891,1,0,0:0:0:0:
255,194,109491,1,8,0:0:0:0:
255,194,110091,1,8,0:0:0:0:
255,194,110391,1,0,0:0:0:0:
255,194,110691,1,8,0:0:0:0:
255,194,111291,1,8,0:0:0:0:
255,194,111891,1,0,0:0:0:0:
255,194,112491,1,0,0:0:0:0:
255,194,112791,1,0,0:0:0:0:
255,194,113091,1,8,0:0:0:0:
255,194,114291,1,8,0:0:0:0:
255,194,114891,1,0,0:0:0:0:
255,194,115491,1,4,0:0:0:0:
255,194,116691,1,8,0:0:0:0:
255,194,117891,1,8,0:0:0:0:
255,194,119091,1,4,0:0:0:0:
