osu file format v14

[General]
AudioFilename: audio.mp3
AudioLeadIn: 0
PreviewTime: 58378
Countdown: 0
SampleSet: Soft
StackLeniency: 0.7
Mode: 2
LetterboxInBreaks: 0
WidescreenStoryboard: 1

[Editor]
DistanceSpacing: 0.9
BeatDivisor: 4
GridSize: 8
TimelineZoom: 2.5

[Metadata]
Title:EDEN
TitleUnicode:EDEN
Artist:TERRA
ArtistUnicode:TЁЯRA
Creator:alienflybot
Version:Hex's PLATTER
Source:beatmania IIDX 12 HAPPY SKY
Tags:jun Junko Karashima 辛島純子 NAOKI MAEDA 前田尚紀 GOLI HYPER J-POP SIX KONAMI AFB Tenshichan Prophecy iloveyou4ever -Hex- Ascendance Skylish
BeatmapID:1732536
BeatmapSetID:810279

[Difficulty]
HPDrainRate:5
CircleSize:3.4
OverallDifficulty:8
ApproachRate:8
SliderMultiplier:1.6
SliderTickRate:2

[Events]
//Background and Video events
0,0,"meteor_pylon_mclelun.jpg",0,0
//Break Periods
2,78491,85641
//Storyboard Layer 0 (Background)
//Storyboard Layer 1 (Fail)
//Storyboard Layer 2 (Pass)
//Storyboard Layer 3 (Foreground)
//Storyboard Sound Samples

[TimingPoints]
291,300,4,2,0,20,1,0
1491,-100,4,2,1,50,0,0
1641,-100,4,2,1,30,0,0
2391,-100,4,2,1,50,0,0
2541,-100,4,2,1,30,0,0
2691,-100,4,2,1,50,0,0
2841,-100,4,2,1,30,0,0
3891,-100,4,2,1,50,0,0
4041,-100,4,2,1,30,0,0
4791,-100,4,2,1,50,0,0
4941,-100,4,2,1,30,0,0
5091,-100,4,2,1,50,0,0
5241,-100,4,2,1,30,0,0
6291,-100,4,2,1,50,0,0
6441,-100,4,2,1,30,0,0
7191,-100,4,2,1,50,0,0
7341,-100,4,2,1,30,0,0
7491,-100,4,2,1,50,0,0
7641,-100,4,2,1,30,0,0
8691,-100,4,2,1,50,0,0
8841,-100,4,2,1,30,0,0
9591,-100,4,2,1,50,0,0
9741,-100,4,2,1,30,0,0
9891,-100,4,2,1,50,0,0
10041,-100,4,2,1,30,0,0
11091,-100,4,2,1,50,0,0
11241,-100,4,2,1,30,0,0
11991,-100,4,2,1,50,0,0
12141,-100,4,2,1,30,0,0
12291,-100,4,2,1,50,0,0
12441,-100,4,2,1,30,0,0
13491,-100,4,2,1,50,0,0
13641,-100,4,2,1,30,0,0
14391,-100,4,2,1,50,0,0
14541,-100,4,2,1,30,0,0
14691,-100,4,2,1,50,0,0
14841,-100,4,2,1,30,0,0
15891,-100,4,2,1,40,0,0
16041,-100,4,2,1,30,0,0
16491,-100,4,2,1,50,0,0
16641,-100,4,2,1,30,0,0
17091,-100,4,2,1,50,0,0
17241,-100,4,2,1,30,0,0
17691,-100,4,2,1,50,0,0
17841,-100,4,2,1,30,0,0
18291,-100,4,2,1,60,0,0
18441,-100,4,2,1,30,0,0
18891,-100,4,2,1,50,0,0
19041,-100,4,2,1,30,0,0
19491,-100,4,2,1,50,0,0
19566,-100,4,2,1,30,0,0
19641,-100,4,2,1,20,0,0
19791,-100,4,2,1,30,0,0
19941,-100,4,2,1,40,0,0
20091,-100,4,2,1,50,0,0
20166,-100,4,2,1,30,0,0
20241,-100,4,2,1,20,0,0
20391,-100,4,2,1,30,0,0
20541,-100,4,2,1,40,0,0
20691,-100,4,2,1,50,0,0
20841,-100,4,2,1,30,0,0
21141,-100,4,2,1,50,0,0
21291,-100,4,2,1,30,0,0
21591,-100,4,2,1,50,0,0
21741,-100,4,2,1,30,0,0
21891,-100,4,2,2,40,0,0
22041,-100,4,2,1,30,0,0
22341,-100,4,2,1,50,0,0
22491,-100,4,2,1,30,0,0
22791,-100,4,2,1,50,0,0
22941,-100,4,2,1,30,0,0
23091,-100,4,2,1,50,0,0
23241,-100,4,2,1,30,0,0
23541,-100,4,2,1,50,0,0
23691,-100,4,2,1,30,0,0
23991,-100,4,2,1,50,0,0
24141,-100,4,2,1,30,0,0
24291,-100,4,2,2,42,0,0
24441,-100,4,2,1,30,0,0
24741,-100,4,2,1,50,0,0
24891,-100,4,2,1,30,0,0
25041,-100,4,2,1,50,0,0
25341,-100,4,2,1,30,0,0
25491,-100,4,2,1,50,0,0
25641,-100,4,2,1,30,0,0
25941,-100,4,2,1,50,0,0
26091,-100,4,2,1,30,0,0
26391,-100,4,2,1,50,0,0
26541,-100,4,2,1,30,0,0
26691,-100,4,2,2,44,0,0
26841,-100,4,2,1,30,0,0
27141,-100,4,2,1,50,0,0
27291,-100,4,2,1,30,0,0
27441,-100,4,2,1,50,0,0
27741,-100,4,2,1,30,0,0
27891,-100,4,2,1,50,0,0
28041,-100,4,2,1,30,0,0
28341,-100,4,2,1,50,0,0
28491,-100,4,2,1,30,0,0
28791,-100,4,2,1,50,0,0
28941,-100,4,2,1,30,0,0
29091,-100,4,2,2,46,0,0
29241,-100,4,2,1,30,0,0
29541,-100,4,2,1,50,0,0
29691,-100,4,2,1,30,0,0
29841,-100,4,2,1,50,0,0
30441,-100,4,2,1,30,0,0
30741,-100,4,2,1,50,0,0
30891,-100,4,2,1,30,0,0
31191,-100,4,2,1,50,0,0
31341,-100,4,2,1,30,0,0
31491,-100,4,2,2,48,0,0
31641,-100,4,2,1,30,0,0
31941,-100,4,2,1,50,0,0
32091,-100,4,2,1,30,0,0
32241,-100,4,2,1,50,0,0
32391,-100,4,2,1,30,0,0
32691,-100,4,2,2,50,0,0
32841,-100,4,2,1,30,0,0
33141,-100,4,2,1,50,0,0
33291,-100,4,2,1,30,0,0
33591,-100,4,2,1,50,0,0
33741,-100,4,2,1,30,0,0
33891,-100,4,2,2,52,0,0
34041,-100,4,2,1,30,0,0
34341,-100,4,2,1,50,0,0
34491,-100,4,2,1,30,0,0
34641,-100,4,2,1,50,0,0
34941,-100,4,2,1,30,0,0
35091,-100,4,2,2,54,0,0
35241,-100,4,2,1,30,0,0
35541,-100,4,2,1,50,0,0
35691,-100,4,2,1,30,0,0
35991,-100,4,2,1,50,0,0
36141,-100,4,2,1,30,0,0
36291,-100,4,2,2,56,0,0
36441,-100,4,2,1,30,0,0
36741,-100,4,2,1,50,0,0
36891,-100,4,2,1,30,0,0
37041,-100,4,2,1,50,0,0
37341,-100,4,2,1,30,0,0
37491,-100,4,2,2,58,0,0
37641,-100,4,2,1,30,0,0
37941,-100,4,2,1,50,0,0
38091,-100,4,2,1,30,0,0
38241,-100,4,2,1,50,0,0
38541,-100,4,2,1,30,0,0
38691,-100,4,2,2,60,0,0
38841,-100,4,2,1,30,0,0
39141,-100,4,2,1,50,0,0
39366,-100,4,2,1,30,0,0
39441,-100,4,2,1,20,0,0
39591,-100,4,2,1,30,0,0
39741,-100,4,2,1,40,0,0
39891,-100,4,2,1,50,0,0
40041,-100,4,2,1,30,0,0
40491,-100,4,2,1,40,0,0
40791,-100,4,2,1,30,0,0
41091,-100,4,2,1,40,0,0
41391,-100,4,2,1,30,0,0
41691,-100,4,2,1,40,0,0
41991,-100,4,2,1,30,0,0
42291,-100,4,2,1,40,0,0
42591,-100,4,2,1,30,0,0
42741,-100,4,2,1,40,0,0
43341,-100,4,2,1,30,0,0
43491,-100,4,2,1,40,0,0
43791,-100,4,2,1,30,0,0
44091,-100,4,2,1,40,0,0
44391,-100,4,2,1,30,0,0
44691,-100,4,2,1,50,0,0
44841,-100,4,2,1,30,0,0
45291,-100,4,2,1,40,0,0
45591,-100,4,2,1,30,0,0
45891,-100,4,2,1,40,0,0
46191,-100,4,2,1,30,0,0
46491,-100,4,2,1,40,0,0
46791,-100,4,2,1,30,0,0
47091,-100,4,2,1,40,0,0
47241,-100,4,2,1,30,0,0
47541,-100,4,2,1,40,0,0
47691,-100,4,2,10,30,0,0
47841,-100,4,2,1,30,0,0
47991,-100,4,2,1,40,0,0
48141,-100,4,2,1,30,0,0
48291,-100,4,2,1,40,0,0
48441,-100,4,2,1,30,0,0
48891,-100,4,2,1,40,0,0
49191,-100,4,2,1,50,0,0
49341,-100,4,2,1,60,0,0
49491,-100,4,2,1,50,0,0
49641,-100,4,2,1,30,0,0
50091,-100,4,2,1,40,0,0
50391,-100,4,2,1,30,0,0
50691,-100,4,2,1,40,0,0
50991,-100,4,2,1,30,0,0
51291,-100,4,2,1,40,0,0
51591,-100,4,2,1,30,0,0
51891,-100,4,2,1,40,0,0
52191,-100,4,2,1,30,0,0
52341,-100,4,2,1,40,0,0
52491,-100,4,2,10,40,0,0
52641,-100,4,2,1,40,0,0
52791,-100,4,2,1,30,0,0
53091,-100,4,2,1,40,0,0
53391,-100,4,2,1,30,0,0
53691,-100,4,2,1,40,0,0
53991,-100,4,2,1,30,0,0
54291,-100,4,2,2,50,0,0
54441,-100,4,2,1,30,0,0
54891,-100,4,2,1,40,0,0
55191,-100,4,2,1,30,0,0
55491,-100,4,2,2,50,0,0
55641,-100,4,2,1,30,0,0
55791,-100,4,2,1,50,0,0
56091,-100,4,2,1,40,0,0
56241,-100,4,2,1,30,0,0
56691,-100,4,2,2,50,0,0
56841,-100,4,2,1,30,0,0
57291,-100,4,2,1,40,0,0
57591,-100,4,2,1,50,0,0
57891,-100,4,2,1,60,0,0
58641,-100,4,2,1,30,0,0
58791,-100,4,2,2,40,0,0
58866,-100,4,2,0,48,0,0
58941,-100,4,2,0,54,0,0
59016,-100,4,2,0,58,0,0
59091,-100,4,2,3,60,0,1
59241,-100,4,2,3,40,0,1
59391,-100,4,2,3,60,0,1
59541,-100,4,2,3,40,0,1
59991,-100,4,2,3,60,0,1
60141,-100,4,2,3,40,0,1
60591,-100,4,2,3,60,0,1
60741,-100,4,2,3,40,0,1
61191,-100,4,2,3,60,0,1
61341,-100,4,2,3,40,0,1
61791,-100,4,2,3,60,0,1
61941,-100,4,2,3,40,0,1
62391,-100,4,2,3,60,0,1
62541,-100,4,2,3,40,0,1
62991,-100,4,2,3,60,0,1
63141,-100,4,2,3,40,0,1
63291,-100,4,2,3,60,0,1
63441,-100,4,2,3,30,0,1
63591,-100,4,2,2,60,0,1
63666,-100,4,2,0,34,0,1
63741,-100,4,2,0,42,0,1
63816,-100,4,2,0,46,0,1
63891,-100,4,2,3,60,0,1
64041,-100,4,2,3,40,0,1
64191,-100,4,2,3,60,0,1
64341,-100,4,2,3,40,0,1
64791,-100,4,2,3,60,0,1
64941,-100,4,2,3,40,0,1
65391,-100,4,2,3,60,0,1
65541,-100,4,2,3,40,0,1
65991,-100,4,2,3,60,0,1
66141,-100,4,2,3,40,0,1
66591,-100,4,2,3,60,0,1
66741,-100,4,2,3,40,0,1
67191,-100,4,2,3,60,0,1
67341,-100,4,2,3,40,0,1
67491,-100,4,2,3,20,0,0
67791,-100,4,2,3,40,0,0
67941,-100,4,2,3,20,0,0
68241,-100,4,2,3,30,0,0
68391,-100,4,2,2,20,0,0
68466,-100,4,2,0,28,0,0
68541,-100,4,2,0,34,0,0
68616,-100,4,2,0,38,0,0
68691,-100,4,2,2,60,0,1
68841,-100,4,2,3,40,0,1
68991,-100,4,2,3,60,0,1
69141,-100,4,2,3,40,0,1
69591,-100,4,2,3,60,0,1
69741,-100,4,2,3,40,0,1
70191,-100,4,2,3,60,0,1
70341,-100,4,2,3,40,0,1
70791,-100,4,2,3,60,0,1
70941,-100,4,2,3,40,0,1
71391,-100,4,2,3,60,0,1
71541,-100,4,2,3,40,0,1
71991,-100,4,2,3,60,0,1
72141,-100,4,2,3,40,0,1
72591,-100,4,2,3,60,0,1
72741,-100,4,2,3,40,0,1
72891,-100,4,2,11,40,0,1
73041,-100,4,2,3,40,0,1
73191,-100,4,2,2,60,0,1
73266,-100,4,2,0,40,0,1
73341,-100,4,2,0,50,0,1
73491,-100,4,2,3,60,0,1
73641,-100,4,2,3,40,0,1
73791,-100,4,2,3,60,0,1
73941,-100,4,2,3,40,0,1
74391,-100,4,2,3,60,0,1
74541,-100,4,2,3,40,0,1
74691,-100,4,2,3,45,0,1
74841,-100,4,2,3,40,0,1
74991,-100,4,2,3,60,0,1
75141,-100,4,2,3,40,0,1
75291,-100,4,2,3,45,0,1
75441,-100,4,2,3,40,0,1
75591,-100,4,2,3,60,0,1
75741,-100,4,2,3,40,0,1
75891,-100,4,2,3,50,0,1
76041,-100,4,2,3,40,0,1
76191,-100,4,2,3,60,0,1
76341,-100,4,2,3,40,0,1
76491,-100,4,2,3,50,0,1
76641,-100,4,2,3,40,0,1
76791,-100,4,2,3,55,0,1
76941,-100,4,2,3,40,0,1
77091,-100,4,2,3,60,0,1
77241,-100,4,2,3,20,0,1
77391,-100,4,2,3,55,0,1
77541,-100,4,2,3,20,0,1
77691,-100,4,2,1,40,0,1
77991,-100,4,2,1,50,0,1
78291,-100,4,2,3,40,0,0
86391,-100,4,2,1,20,0,0
86541,-100,4,2,3,30,0,0
86691,-100,4,2,3,40,0,0
86841,-100,4,2,3,30,0,0
86991,-100,4,2,1,40,0,0
87141,-100,4,2,1,50,0,0
87291,-100,4,2,1,60,0,0
87366,-100,4,2,1,48,0,0
87441,-100,4,2,1,38,0,0
87516,-100,4,2,1,30,0,0
87666,-100,4,2,1,38,0,0
87741,-100,4,2,1,48,0,0
87816,-100,4,2,1,60,0,0
87891,-100,4,2,1,45,0,0
88041,-100,4,2,1,20,0,0
88491,-100,4,2,1,30,0,0
88791,-100,4,2,1,20,0,0
89091,-100,4,2,1,30,0,0
89391,-100,4,2,1,20,0,0
89691,-100,4,2,1,30,0,0
89991,-100,4,2,1,20,0,0
90291,-100,4,2,1,30,0,0
90591,-100,4,2,1,20,0,0
90891,-100,4,2,1,30,0,0
91191,-100,4,2,1,20,0,0
91491,-100,4,2,1,30,0,0
91791,-100,4,2,1,20,0,0
92091,-100,4,2,1,30,0,0
92391,-100,4,2,1,20,0,0
92691,-100,4,2,1,50,0,0
92841,-100,4,2,1,20,0,0
93291,-100,4,2,1,30,0,0
93591,-100,4,2,1,20,0,0
93891,-100,4,2,1,55,0,0
94041,-100,4,2,1,20,0,0
94491,-100,4,2,1,30,0,0
94791,-100,4,2,1,20,0,0
95091,-100,4,2,1,60,0,0
95241,-100,4,2,1,20,0,0
95691,-100,4,2,1,30,0,0
95991,-100,4,2,1,20,0,0
96291,-100,4,2,0,40,0,0
96366,-100,4,2,1,20,0,0
96441,-100,4,2,1,30,0,0
96591,-100,4,2,0,40,0,0
96666,-100,4,2,1,20,0,0
96741,-100,4,2,1,30,0,0
96891,-100,4,2,1,50,0,0
96966,-100,4,2,1,30,0,0
97041,-100,4,2,1,40,0,0
97191,-100,4,2,1,30,0,0
97341,-100,4,2,1,40,0,0
97491,-100,4,2,3,60,0,1
97641,-100,4,2,3,40,0,1
97791,-100,4,2,3,60,0,1
97941,-100,4,2,3,40,0,1
98391,-100,4,2,3,60,0,1
98541,-100,4,2,3,40,0,1
98991,-100,4,2,3,60,0,1
99141,-100,4,2,3,40,0,1
99591,-100,4,2,3,60,0,1
99741,-100,4,2,3,40,0,1
100191,-100,4,2,3,60,0,1
100341,-100,4,2,3,40,0,1
100791,-100,4,2,3,60,0,1
100941,-100,4,2,3,40,0,1
101391,-100,4,2,3,60,0,1
101541,-100,4,2,3,40,0,1
101691,-100,4,2,3,60,0,1
101841,-100,4,2,3,30,0,1
101991,-100,4,2,2,60,0,1
102066,-100,4,2,0,34,0,1
102141,-100,4,2,0,42,0,1
102216,-100,4,2,0,46,0,1
102291,-100,4,2,3,60,0,1
102441,-100,4,2,3,40,0,1
102591,-100,4,2,3,60,0,1
102741,-100,4,2,3,40,0,1
103191,-100,4,2,3,60,0,1
103341,-100,4,2,3,40,0,1
103791,-100,4,2,3,60,0,1
103941,-100,4,2,3,40,0,1
104391,-100,4,2,3,60,0,1
104541,-100,4,2,3,40,0,1
104991,-100,4,2,3,60,0,1
105141,-100,4,2,3,40,0,1
105591,-100,4,2,3,60,0,1
105741,-100,4,2,3,40,0,1
105891,-100,4,2,3,20,0,0
106191,-100,4,2,3,40,0,0
106341,-100,4,2,3,20,0,0
106641,-100,4,2,3,30,0,0
106791,-100,4,2,2,20,0,0
106866,-100,4,2,0,28,0,0
106941,-100,4,2,0,34,0,0
107016,-100,4,2,0,38,0,0
107091,-100,4,2,3,60,0,1
107241,-100,4,2,3,40,0,1
107391,-100,4,2,3,60,0,1
107541,-100,4,2,3,40,0,1
107991,-100,4,2,3,60,0,1
108141,-100,4,2,3,40,0,1
108591,-100,4,2,3,60,0,1
108741,-100,4,2,3,40,0,1
109191,-100,4,2,3,60,0,1
109341,-100,4,2,3,40,0,1
109791,-100,4,2,3,60,0,1
109941,-100,4,2,3,40,0,1
110391,-100,4,2,3,60,0,1
110541,-100,4,2,3,40,0,1
110991,-100,4,2,3,60,0,1
111141,-100,4,2,3,40,0,1
111291,-100,4,2,11,40,0,1
111441,-100,4,2,3,40,0,1
111591,-100,4,2,2,60,0,1
111666,-100,4,2,0,40,0,1
111741,-100,4,2,0,50,0,1
111891,-100,4,2,3,60,0,1
112041,-100,4,2,3,40,0,1
112191,-100,4,2,3,60,0,1
112341,-100,4,2,3,40,0,1
112791,-100,4,2,3,60,0,1
112941,-100,4,2,3,40,0,1
113091,-100,4,2,3,45,0,1
113241,-100,4,2,3,40,0,1
113391,-100,4,2,3,60,0,1
113541,-100,4,2,3,40,0,1
113691,-100,4,2,3,45,0,1
113841,-100,4,2,3,40,0,1
113991,-100,4,2,3,60,0,1
114141,-100,4,2,3,40,0,1
114291,-100,4,2,3,50,0,1
114441,-100,4,2,3,40,0,1
114591,-100,4,2,3,60,0,1
114741,-100,4,2,3,40,0,1
114891,-100,4,2,3,50,0,1
115041,-100,4,2,3,40,0,1
115191,-100,4,2,3,55,0,1
115341,-100,4,2,3,40,0,1
115491,-100,4,2,3,60,0,1
115641,-100,4,2,3,20,0,1
115791,-100,4,2,3,55,0,1
115941,-100,4,2,3,20,0,1
116091,-100,4,2,1,40,0,1
116391,-100,4,2,1,50,0,1
116691,-100,4,2,3,40,0,0
116991,-100,4,2,3,40,0,0
117291,-100,4,2,3,32,0,0
117591,-100,4,2,3,26,0,0
117891,-100,4,2,3,32,0,0
118191,-100,4,2,3,26,0,0
118491,-100,4,2,3,22,0,0
118791,-100,4,2,3,20,0,0
119091,-100,4,2,3,22,0,0
119691,-100,4,2,3,15,0,0
120291,-100,4,2,3,10,0,0
120891,-100,4,2,20,7,0,0

[Colours]
Combo1 : 253,222,72
Combo2 : 189,128,73
Combo3 : 76,91,110
Combo4 : 216,169,134

[HitObjects]
131,226,1491,6,0,P|85:152|151:107,1,160,0|0,1:0|0:0,0:0:0:0:
198,80,1941,1,2,0:0:0:0:
270,128,2091,1,2,0:0:0:0:
126,240,2391,1,8,0:0:0:0:
374,283,2691,2,0,L|390:115,1,160,8|0,0:0|0:0,0:0:0:0:
230,232,3291,2,0,L|214:64,1,160,8|0,0:0|0:0,0:0:0:0:
462,176,3891,6,0,L|306:247,2,160,8|0|2,0:0|0:0|0:0,0:0:0:0:
318,168,4791,1,8,0:0:0:0:
246,120,4941,2,0,L|111:213,2,160,0|2|0,0:0|0:0|0:0,0:0:0:0:
318,80,5691,2,0,P|222:80|158:112,1,160,8|0,0:0|0:0,0:0:0:0:
406,232,6291,6,0,P|446:160|406:80,1,160,0|0,1:0|0:0,0:0:0:0:
350,128,6741,1,2,0:0:0:0:
278,184,6891,1,2,0:0:0:0:
422,224,7191,1,8,0:0:0:0:
173,146,7491,2,0,P|85:114|21:154,1,160,8|0,0:0|0:0,0:0:0:0:
182,224,8091,2,0,P|278:208|326:256,1,160,8|0,0:0|0:0,0:0:0:0:
72,162,8691,6,0,L|218:235,2,160,8|0|2,0:0|0:0|0:0,0:0:0:0:
224,130,9591,1,8,0:0:0:0:
296,178,9741,2,0,L|424:298,2,160,0|2|0,0:0|0:0|0:0,0:0:0:0:
216,146,10491,1,8,0:0:0:0:
56,90,10791,1,0,0:0:0:0:
430,256,11091,6,0,P|478:184|438:120,1,160,0|0,1:0|0:0,0:0:0:0:
374,144,11541,1,2,0:0:0:0:
454,96,11691,1,2,0:0:0:0:
294,192,11991,1,8,0:0:0:0:
47,209,12291,2,0,P|15:145|95:97,1,160,8|0,0:0|0:0,0:0:0:0:
159,129,12741,1,2,0:0:0:0:
239,193,12891,2,0,P|151:177|79:209,1,160,10|0,0:0|0:0,0:0:0:0:
342,200,13491,6,0,L|182:270,2,160,8|0|2,0:0|0:0|0:0,0:0:0:0:
190,136,14391,1,8,0:0:0:0:
262,184,14541,2,0,L|409:277,2,160,0|2|0,0:0|0:0|0:0,0:0:0:0:
342,160,15291,2,0,P|406:120|502:136,1,160,10|2,0:0|0:0,0:0:0:0:
110,248,15891,6,0,P|102:176|182:128,1,160,4|0,0:0|0:0,0:0:0:0:
246,120,16341,1,0,0:0:0:0:
326,160,16491,1,8,0:0:0:0:
166,200,16791,1,8,0:0:0:0:
421,264,17091,2,0,P|469:192|413:144,1,160,4|0,0:0|0:0,0:0:0:0:
349,144,17541,1,0,0:0:0:0:
269,184,17691,1,8,0:0:0:0:
429,240,17991,1,8,0:0:0:0:
174,160,18291,6,0,L|334:112,1,160,4|0,0:0|0:0,0:0:0:0:
406,144,18741,1,0,0:0:0:0:
326,136,18891,1,10,0:0:0:0:
478,224,19191,1,8,0:0:0:0:
230,248,19491,2,0,L|78:168,3,160,2|8|2|8,0:1|0:0|0:1|0:0,0:0:0:0:
470,240,20691,6,0,P|486:176|406:128,1,160,4|8,0:0|0:1,0:0:0:0:
334,144,21141,2,0,L|502:128,1,160,8|0,0:0|0:0,0:0:0:0:
406,72,21591,1,8,0:0:0:0:
158,242,21891,2,0,P|122:167|176:116,1,160,2|8,0:0|0:1,0:0:0:0:
246,320,22341,2,0,P|294:248|238:208,1,160,8|0,0:0|0:0,0:0:0:0:
158,192,22791,1,8,0:0:0:0:
398,232,23091,6,0,P|478:176|494:112,1,160,8|8,0:0|0:1,0:0:0:0:
406,112,23541,2,0,P|318:88|254:112,1,160,8|0,0:0|0:0,0:0:0:0:
342,176,23991,2,0,L|358:256,1,80,8|0,0:0|0:0,0:0:0:0:
190,216,24291,2,0,P|142:128|198:96,1,160,2|8,0:2|0:1,0:0:0:0:
262,96,24741,1,8,0:0:0:0:
350,144,24891,2,0,P|430:160|494:216,1,160,0|8,0:0|0:0,0:0:0:0:
118,240,25491,6,0,P|62:160|110:112,1,160,8|8,0:0|0:1,0:0:0:0:
182,144,25941,2,0,P|262:128|342:168,1,160,8|0,0:0|0:0,0:0:0:0:
238,208,26391,1,8,0:0:0:0:
478,224,26691,2,0,P|510:128|454:88,1,160,2|8,0:0|0:1,0:0:0:0:
382,120,27141,2,0,L|302:120,2,80,8|0|8,0:0|0:0|0:0,0:0:0:0:
478,176,27591,1,8,0:0:0:0:
222,232,27891,6,0,L|390:232,1,160,0|8,0:0|0:1,0:0:0:0:
286,168,28341,2,0,L|102:168,1,160,8|0,0:0|0:0,0:0:0:0:
214,102,28791,2,0,L|302:102,1,80,8|0,0:0|0:0,0:0:0:0:
128,288,29091,2,0,P|55:210|152:147,1,240,2|8,0:0|0:0,0:0:0:0:
247,113,29691,1,0,0:0:0:0:
427,168,29841,2,0,L|509:172,2,80,8|8|8,0:0|0:0|0:0,0:0:0:0:
214,216,30291,6,0,P|158:176|206:112,1,160,8|8,0:0|0:1,0:0:0:0:
294,216,30741,2,0,P|334:144|270:96,1,160,8|0,0:0|0:0,0:0:0:0:
190,96,31191,1,8,0:0:0:0:
438,208,31491,2,0,P|486:128|430:96,1,160,2|8,0:0|0:1,0:0:0:0:
358,128,31941,2,0,P|422:112|518:152,1,160,8|0,0:0|0:0,0:0:0:0:
414,200,32391,1,8,0:0:0:0:
150,170,32691,6,0,P|246:162|318:178,1,160,2|8,0:0|0:1,0:0:0:0:
213,97,33141,2,0,P|132:101|37:105,1,160,8|0,0:0|0:0,0:0:0:0:
141,179,33591,2,0,L|237:179,1,80,8|0,0:0|0:0,0:0:0:0:
459,271,33891,2,0,P|455:191|375:159,1,160,2|8,0:0|0:1,0:0:0:0:
302,136,34341,2,0,L|214:144,2,80,8|0|8,0:0|0:0|0:0,0:0:0:0:
398,192,34791,1,8,0:0:0:0:
30,224,35091,6,0,P|14:288|102:312,1,160,2|8,0:0|0:1,0:0:0:0:
190,224,35541,2,0,L|350:224,1,160,8|0,0:0|0:0,0:0:0:0:
254,160,35991,1,8,0:0:0:0:
494,256,36291,2,0,L|326:256,1,160,2|8,0:0|0:1,0:0:0:0:
430,208,36741,2,0,P|470:128|414:104,1,160,8|8,0:0|0:0,0:0:0:0:
326,96,37191,1,8,0:0:0:0:
54,168,37491,6,0,P|62:288|254:160,1,480,2|8,0:0|0:0,0:0:0:0:
62,152,38691,2,0,L|158:152,2,80,2|0|8,0:0|0:0|0:1,0:0:0:0:
222,264,39141,2,0,P|270:184|206:152,1,160,8|0,0:0|0:0,0:0:0:0:
134,176,39591,2,0,L|126:88,1,80,8|8,0:1|0:1,0:0:0:0:
350,288,39891,6,0,P|398:216|342:184,1,160,4|2,0:0|0:0,0:0:0:0:
174,216,40491,2,0,P|150:144|222:88,1,160,2|2,0:0|0:0,0:0:0:0:
460,162,41091,2,0,L|502:336,1,160,10|2,0:0|0:0,0:0:0:0:
321,213,41691,2,0,L|465:312,1,160,2|2,0:0|0:0,0:0:0:0:
190,224,42291,6,0,P|142:144|198:112,1,160,10|2,0:0|0:0,0:0:0:0:
278,144,42741,2,0,L|438:144,1,160,8|0,0:0|0:0,0:0:0:0:
342,88,43191,1,10,0:0:0:0:
86,288,43491,2,0,L|70:128,1,160,10|2,0:0|0:0,0:0:0:0:
254,208,44091,2,0,L|78:208,1,160,2|2,0:0|0:0,0:0:0:0:
462,297,44691,6,0,P|480:210|414:177,1,160,4|2,0:0|0:0,0:0:0:0:
236,247,45291,2,0,L|101:124,1,160,2|2,0:0|0:0,0:0:0:0:
374,141,45891,2,0,L|188:139,1,160,10|2,0:0|0:0,0:0:0:0:
382,240,46491,2,0,L|214:240,1,160,2|2,0:0|0:0,0:0:0:0:
478,176,47091,6,0,P|446:96|366:96,1,160,10|2,0:0|0:0,0:0:0:0:
286,192,47541,2,0,L|462:192,1,160,8|0,0:0|0:0,0:0:0:0:
358,272,47991,2,0,L|262:272,1,80,10|0,0:0|0:0,0:0:0:0:
102,262,48291,2,0,P|78:190|278:134,1,320,10|2,0:0|0:0,0:0:0:0:
159,306,49041,1,0,0:0:0:0:
151,306,49191,1,8,0:0:0:0:
247,194,49341,1,8,0:0:0:0:
478,296,49491,6,0,L|486:136,1,160,4|2,0:0|0:0,0:0:0:0:
318,208,50091,2,0,L|158:208,1,160,2|2,0:0|0:0,0:0:0:0:
414,320,50691,2,0,L|344:160,1,160,10|2,0:0|0:0,0:0:0:0:
174,178,51291,2,0,L|6:178,1,160,2|2,0:0|0:0,0:0:0:0:
270,232,51891,6,0,L|366:232,2,80,10|0|2,0:0|0:0|0:0,0:0:0:0:
174,192,52341,2,0,P|126:112|190:72,1,160,8|0,0:0|0:0,0:0:0:0:
262,112,52791,2,0,L|278:208,1,80,10|0,0:0|0:0,0:0:0:0:
102,304,53091,2,0,L|86:136,1,160,10|2,0:0|0:0,0:0:0:0:
270,232,53691,2,0,L|110:232,1,160,2|2,0:0|0:0,0:0:0:0:
478,224,54291,6,0,L|334:312,2,160,4|2|2,0:0|0:0|0:0,0:0:0:0:
382,184,55041,1,0,0:0:0:0:
478,192,55191,2,0,L|494:104,1,80,2|0,0:0|0:0,0:0:0:0:
254,192,55491,6,0,L|150:192,2,80,4|0|8,0:0|0:0|0:0,0:0:0:0:
422,294,55941,1,8,0:0:0:0:
331,291,56091,1,10,0:0:0:0:
419,211,56241,1,0,0:0:0:0:
419,211,56391,1,2,0:0:0:0:
419,211,56541,1,0,0:0:0:0:
167,243,56691,6,0,L|159:147,1,80,4|0,0:0|0:0,0:0:0:0:
255,147,56991,2,0,L|263:59,1,80,2|8,0:0|0:0,0:0:0:0:
350,245,57291,2,0,L|431:245,1,80,10|8,0:0|0:0,0:0:0:0:
262,199,57591,2,0,L|158:199,1,80,10|8,0:0|0:0,0:0:0:0:
415,219,57891,5,4,0:0:0:0:
151,187,58491,1,2,0:1:0:0:
470,136,59091,6,0,L|302:136,1,160,4|8,0:0|0:0,0:0:0:0:
410,224,59541,1,0,0:0:0:0:
310,200,59691,2,0,L|478:200,1,160,2|8,0:0|0:0,0:0:0:0:
206,192,60291,2,0,P|174:112|238:80,1,160,2|8,0:0|0:0,0:0:0:0:
328,96,60741,2,0,L|168:96,1,160
268,161,61191,2,0,L|372:161,1,80,8|0,0:0|0:0,0:0:0:0:
174,232,61491,6,0,L|14:232,1,160,2|8,0:0|0:0,0:0:0:0:
114,168,61941,1,0,0:0:0:0:
214,126,62091,2,0,L|374:126,1,160,2|8,0:0|0:0,0:0:0:0:
94,184,62691,2,0,L|270:184,1,160,2|8,0:0|0:0,0:0:0:0:
350,248,63141,2,0,L|166:248,1,160,0|0,0:0|0:0,0:0:0:0:
286,184,63591,1,10,0:0:0:0:
310,120,63666,1,2,0:0:0:0:
334,56,63741,1,2,0:0:0:0:
118,184,63891,6,0,P|70:256|134:280,1,160,4|8,0:0|0:0,0:0:0:0:
214,239,64341,1,0,0:0:0:0:
310,193,64491,2,0,L|150:193,1,160,2|8,0:0|0:0,0:0:0:0:
406,176,65091,2,0,L|502:176,2,80,2|0|8,0:0|0:0|0:0,0:0:0:0:
310,144,65541,2,0,L|486:144,1,160,0|0,0:0|0:0,0:0:0:0:
374,96,65991,1,8,0:0:0:0:
102,247,66291,5,2,0:0:0:0:
182,199,66441,1,0,0:0:0:0:
102,247,66591,1,8,0:0:0:0:
182,199,66741,1,0,0:0:0:0:
366,232,66891,1,2,0:0:0:0:
446,168,67041,1,0,0:0:0:0:
446,168,67191,1,8,0:0:0:0:
366,224,67341,1,0,0:0:0:0:
186,321,67491,6,0,L|90:321,1,80,2|0,0:0|0:0,0:0:0:0:
194,249,67791,1,8,0:0:0:0:
298,177,67941,1,0,0:0:0:0:
330,177,68016,1,0,0:0:0:0:
298,177,68091,1,2,0:0:0:0:
202,113,68241,1,0,0:0:0:0:
226,113,68316,1,0,0:0:0:0:
250,113,68391,1,10,0:0:0:0:
154,209,68541,1,2,0:0:0:0:
398,288,68691,6,0,P|438:208|382:160,1,160,4|8,0:0|0:0,0:0:0:0:
297,152,69141,1,0,0:0:0:0:
197,191,69291,2,0,L|37:191,1,160,2|8,0:0|0:0,0:0:0:0:
318,272,69891,2,0,L|222:272,2,80,2|0|8,0:0|0:0|0:0,0:0:0:0:
214,191,70341,2,0,L|30:191,1,160
150,232,70791,2,0,L|246:232,1,80,8|0,0:0|0:0,0:0:0:0:
406,312,71091,6,0,P|454:240|414:192,1,160,2|8,0:0|0:0,0:0:0:0:
315,177,71541,1,0,0:0:0:0:
406,312,71691,2,0,P|454:240|414:192,1,160,2|8,0:0|0:0,0:0:0:0:
127,225,72291,2,0,L|224:78,1,160,2|8,0:0|0:0,0:0:0:0:
390,216,72741,2,0,P|430:144|374:104,1,160,0|0,0:0|0:0,0:0:0:0:
134,192,73191,1,10,0:0:0:0:
286,208,73491,6,0,L|118:256,2,160,4|8|6,0:0|0:0|0:0,0:0:0:0:
382,160,74241,1,0,0:0:0:0:
286,120,74391,2,0,P|334:120|374:112,1,80,8|0,0:0|0:0,0:0:0:0:
140,303,74691,2,0,P|100:231|174:204,1,160,4|8,0:0|0:0,0:0:0:0:
253,255,75141,2,0,P|258:155|192:133,1,160
120,182,75591,1,8,0:0:0:0:
384,291,75891,6,0,L|464:291,1,80,4|0,0:0|0:0,0:0:0:0:
368,227,76191,2,0,L|264:226,1,80,8|0,0:0|0:0,0:0:0:0:
460,180,76491,2,0,L|479:98,1,80,4|0,0:0|0:0,0:0:0:0:
381,116,76791,2,0,L|363:212,1,80,8|0,0:0|0:0,0:0:0:0:
149,251,77091,5,4,0:0:0:0:
61,195,77241,1,0,0:0:0:0:
61,195,77391,1,4,0:0:0:0:
149,251,77541,1,0,0:0:0:0:
317,195,77691,2,0,L|429:195,1,80,8|8,0:0|0:0,0:0:0:0:
285,280,77991,2,0,L|193:281,1,80,8|0,0:0|0:0,0:0:0:0:
472,94,78291,5,4,0:0:0:0:
256,192,86391,12,0,87591,0:0:0:0:
358,272,87891,6,0,P|398:200|334:160,1,160,4|2,0:0|0:0,0:0:0:0:
270,128,88341,1,0,0:0:0:0:
190,96,88491,1,2,0:0:0:0:
270,128,88641,1,0,0:0:0:0:
350,152,88791,1,2,0:0:0:0:
270,128,88941,1,0,0:0:0:0:
94,240,89091,6,0,P|54:160|110:136,1,160,10|2,0:0|0:0,0:0:0:0:
182,168,89541,1,0,0:0:0:0:
262,200,89691,1,2,0:0:0:0:
182,168,89841,1,0,0:0:0:0:
102,144,89991,1,2,0:0:0:0:
182,168,90141,1,0,0:0:0:0:
358,264,90291,6,0,P|446:208|454:152,1,160,10|2,0:0|0:0,0:0:0:0:
366,128,90741,1,0,0:0:0:0:
286,112,90891,1,2,0:0:0:0:
366,128,91041,1,0,0:0:0:0:
286,112,91191,1,2,0:0:0:0:
198,96,91341,1,0,0:0:0:0:
374,216,91491,6,0,P|494:160|502:128,1,160,10|2,0:0|0:0,0:0:0:0:
294,192,92091,2,0,L|470:192,1,160,10|2,0:0|0:0,0:0:0:0:
86,208,92691,6,0,P|78:288|150:296,1,160,4|2,0:0|0:0,0:0:0:0:
222,224,93141,1,0,0:0:0:0:
142,152,93291,1,2,0:0:0:0:
222,224,93441,1,0,0:0:0:0:
142,152,93591,1,2,0:0:0:0:
62,72,93741,1,0,0:0:0:0:
313,323,93891,6,0,P|393:265|389:196,1,160,4|2,0:0|0:0,0:0:0:0:
302,207,94341,1,0,0:0:0:0:
394,134,94491,2,0,L|410:27,1,80,2|0,0:0|0:0,0:0:0:0:
314,317,94791,2,0,L|397:310,1,80,2|0,0:0|0:0,0:0:0:0:
150,155,95091,5,4,0:0:0:0:
256,192,95391,12,8,97191,0:0:0:0:
406,272,97491,6,0,L|430:104,1,160,4|8,0:0|0:0,0:0:0:0:
328,128,97941,1,0,0:0:0:0:
228,191,98091,2,0,L|388:183,1,160,2|8,0:0|0:0,0:0:0:0:
124,282,98691,2,0,P|107:202|179:175,1,160,2|8,0:0|0:0,0:0:0:0:
263,250,99141,2,0,P|311:170|247:130,1,160
170,165,99591,2,0,L|256:163,1,80,8|0,0:0|0:0,0:0:0:0:
71,244,99891,6,0,P|14:192|38:112,1,160,2|8,0:0|0:0,0:0:0:0:
124,126,100341,1,0,0:0:0:0:
220,166,100491,2,0,L|396:166,1,160,2|8,0:0|0:0,0:0:0:0:
102,240,101091,2,0,L|270:240,1,160,2|8,0:0|0:0,0:0:0:0:
166,176,101541,2,0,L|334:176,1,160,2|0,0:0|0:0,0:0:0:0:
110,104,101991,1,10,0:0:0:0:
254,175,102291,6,0,L|406:239,2,160,4|8|2,0:0|0:0|0:0,0:0:0:0:
154,240,103041,1,0,0:0:0:0:
254,167,103191,2,0,L|158:167,1,80,8|0,0:0|0:0,0:0:0:0:
350,255,103491,2,0,L|438:255,2,80,2|0|8,0:0|0:0|0:0,0:0:0:0:
250,223,103941,2,0,L|90:223,1,160
190,111,104391,1,8,0:0:0:0:
470,266,104691,6,0,P|478:178|398:162,1,160,2|8,0:0|0:0,0:0:0:0:
322,226,105141,2,0,L|498:226,1,160
310,169,105591,2,0,P|262:233|326:289,1,160,8|2,0:0|0:0,0:0:0:0:
414,242,106041,1,0,0:0:0:0:
318,186,106191,5,8,0:0:0:0:
418,123,106341,1,0,0:0:0:0:
394,123,106416,1,0,0:0:0:0:
370,123,106491,1,2,0:0:0:0:
270,218,106641,1,0,0:0:0:0:
294,218,106716,1,0,0:0:0:0:
318,218,106791,1,10,0:0:0:0:
418,339,106941,1,2,0:0:0:0:
190,272,107091,6,0,P|150:184|214:152,1,160,4|8,0:0|0:0,0:0:0:0:
286,160,107541,1,0,0:0:0:0:
382,224,107691,2,0,L|214:224,1,160,2|8,0:0|0:0,0:0:0:0:
478,184,108291,2,0,L|382:184,2,80,2|0|8,0:0|0:0|0:0,0:0:0:0:
378,239,108741,2,0,P|322:183|386:127,1,160,0|2,0:0|0:0,0:0:0:0:
462,144,109191,2,0,L|478:240,1,80,8|0,0:0|0:0,0:0:0:0:
298,167,109491,6,0,L|138:167,1,160,2|8,0:0|0:0,0:0:0:0:
238,247,109941,1,0,0:0:0:0:
338,263,110091,2,0,P|378:175|322:143,1,160,2|8,0:0|0:0,0:0:0:0:
70,121,110691,2,0,P|22:161|94:225,1,160,2|8,0:0|0:0,0:0:0:0:
237,317,111141,2,0,P|310:282|326:203,1,160
106,159,111591,1,10,0:0:0:0:
258,264,111891,6,0,L|418:344,2,160,4|8|6,0:0|0:0|0:0,0:0:0:0:
162,200,112641,1,0,0:0:0:0:
258,160,112791,2,0,L|178:160,1,80,8|0,0:0|0:0,0:0:0:0:
419,320,113091,2,0,P|467:248|395:224,1,160,4|8,0:0|0:0,0:0:0:0:
323,240,113541,2,0,P|275:168|347:144,1,160,0|0,0:0|0:0,0:0:0:0:
427,168,113991,1,8,0:0:0:0:
163,204,114291,6,0,L|83:204,1,80,4|0,0:0|0:0,0:0:0:0:
179,132,114591,2,0,L|179:212,1,80,8|0,0:0|0:0,0:0:0:0:
347,188,114891,2,0,L|346:275,1,80,4|0,0:0|0:0,0:0:0:0:
250,90,115191,2,0,L|338:90,1,80,8|0,0:0|0:0,0:0:0:0:
104,298,115491,5,4,0:0:0:0:
24,234,115641,1,0,0:0:0:0:
24,234,115791,1,4,0:0:0:0:
104,298,115941,1,0,0:0:0:0:
272,202,116091,2,0,L|368:202,1,80,8|8,0:0|0:0,0:0:0:0:
240,282,116391,2,0,L|320:282,1,80,8|8,0:0|0:0,0:0:0:0:
48,162,116691,5,4,0:0:0:0:
256,192,116991,12,0,121491,0:0:0:0:
