osu file format v14

[General]
AudioFilename: audio.mp3
AudioLeadIn: 0
PreviewTime: 58378
Countdown: 0
SampleSet: Normal
StackLeniency: 0.7
Mode: 1
LetterboxInBreaks: 0
WidescreenStoryboard: 0

[Editor]
DistanceSpacing: 0.9
BeatDivisor: 2
GridSize: 8
TimelineZoom: 1.3

[Metadata]
Title:EDEN
TitleUnicode:EDEN
Artist:TERRA
ArtistUnicode:TЁЯRA
Creator:alienflybot
Version:FUTSUU
Source:beatmania IIDX 12 HAPPY SKY
Tags:jun Junko Karashima 辛島純子 NAOKI MAEDA 前田尚紀 GOLI HYPER J-POP SIX KONAMI AFB Tenshichan Prophecy iloveyou4ever -Hex- Ascendance Skylish
BeatmapID:1727779
BeatmapSetID:810279

[Difficulty]
HPDrainRate:6
CircleSize:4
OverallDifficulty:4
ApproachRate:6
SliderMultiplier:1.4
SliderTickRate:1

[Events]
//Background and Video events
0,0,"meteor_pylon_mclelun.jpg",0,0
//Break Periods
//Storyboard Layer 0 (Background)
//Storyboard Layer 1 (Fail)
//Storyboard Layer 2 (Pass)
//Storyboard Layer 3 (Foreground)
//Storyboard Sound Samples

[TimingPoints]
291,300,4,1,0,60,1,0
20691,-100,4,1,0,70,0,0
39891,-100,4,1,0,80,0,0
59091,-100,4,1,0,100,0,1
78291,-100,4,1,0,70,0,0
87891,-100,4,1,0,60,0,0
92691,-100,4,1,0,80,0,0
97491,-100,4,1,0,100,0,1
116691,-100,4,1,0,70,0,0
117891,-100,4,1,0,60,0,0
119091,-100,4,1,0,50,0,0

[Colours]
Combo1 : 253,222,72
Combo2 : 189,128,73
Combo3 : 76,91,110
Combo4 : 216,169,134

[HitObjects]
256,192,1491,5,0,0:0:0:0:
256,192,1941,1,8,0:0:0:0:
256,192,2091,1,8,0:0:0:0:
256,192,2391,1,0,0:0:0:0:
256,192,2691,1,0,0:0:0:0:
256,192,3291,1,8,0:0:0:0:
256,192,3891,1,0,0:0:0:0:
256,192,4191,1,8,0:0:0:0:
256,192,4491,1,8,0:0:0:0:
256,192,4791,1,0,0:0:0:0:
256,192,5091,1,0,0:0:0:0:
256,192,5691,1,8,0:0:0:0:
256,192,6291,1,0,0:0:0:0:
256,192,6741,1,8,0:0:0:0:
256,192,6891,1,8,0:0:0:0:
256,192,7191,1,0,0:0:0:0:
256,192,7491,1,0,0:0:0:0:
256,192,8091,1,8,0:0:0:0:
256,192,8691,1,0,0:0:0:0:
256,192,8991,1,8,0:0:0:0:
256,192,9291,1,0,0:0:0:0:
256,192,9591,1,8,0:0:0:0:
256,192,9891,1,8,0:0:0:0:
256,192,10491,1,0,0:0:0:0:
256,192,11091,1,12,0:0:0:0:
256,192,11541,1,8,0:0:0:0:
256,192,11691,1,8,0:0:0:0:
256,192,11991,1,0,0:0:0:0:
256,192,12291,1,0,0:0:0:0:
256,192,12891,1,8,0:0:0:0:
256,192,13491,1,0,0:0:0:0:
256,192,13791,1,8,0:0:0:0:
256,192,14091,1,8,0:0:0:0:
256,192,14391,1,0,0:0:0:0:
256,192,14691,1,0,0:0:0:0:
256,192,15291,1,8,0:0:0:0:
256,192,15591,1,0,0:0:0:0:
256,192,15891,1,12,0:0:0:0:
256,192,16491,1,0,0:0:0:0:
256,192,16791,1,0,0:0:0:0:
256,192,17091,1,12,0:0:0:0:
256,192,17691,1,0,0:0:0:0:
256,192,17991,1,0,0:0:0:0:
256,192,18291,1,12,0:0:0:0:
256,192,18891,1,8,0:0:0:0:
256,192,19191,1,8,0:0:0:0:
160,40,19491,2,0,P|39:194|156:351,1,420
256,192,20691,1,4,0:0:0:0:
256,192,21141,1,8,0:0:0:0:
256,192,21591,1,0,0:0:0:0:
256,192,21891,1,8,0:0:0:0:
256,192,22341,1,8,0:0:0:0:
256,192,22791,1,0,0:0:0:0:
256,192,23091,1,8,0:0:0:0:
256,192,23541,1,0,0:0:0:0:
256,192,23991,1,8,0:0:0:0:
256,192,24291,1,0,0:0:0:0:
256,192,24591,1,8,0:0:0:0:
256,192,24891,1,0,0:0:0:0:
256,192,25041,1,0,0:0:0:0:
256,192,25191,1,8,0:0:0:0:
256,192,25491,1,0,0:0:0:0:
256,192,25941,1,8,0:0:0:0:
256,192,26391,1,0,0:0:0:0:
256,192,26691,1,8,0:0:0:0:
256,192,27291,1,8,0:0:0:0:
256,192,27891,1,0,0:0:0:0:
256,192,28341,1,8,0:0:0:0:
256,192,28791,1,0,0:0:0:0:
256,192,29091,1,8,0:0:0:0:
256,192,29391,1,8,0:0:0:0:
256,192,29691,1,0,0:0:0:0:
256,192,29841,1,0,0:0:0:0:
256,192,29991,1,8,0:0:0:0:
256,192,30291,1,4,0:0:0:0:
256,192,30741,1,8,0:0:0:0:
256,192,31191,1,0,0:0:0:0:
256,192,31491,1,8,0:0:0:0:
256,192,31941,1,0,0:0:0:0:
256,192,32391,1,8,0:0:0:0:
256,192,32691,1,0,0:0:0:0:
256,192,33141,1,8,0:0:0:0:
256,192,33591,1,8,0:0:0:0:
256,192,33891,1,0,0:0:0:0:
256,192,34191,1,0,0:0:0:0:
256,192,34491,1,8,0:0:0:0:
256,192,34641,1,8,0:0:0:0:
256,192,34791,1,0,0:0:0:0:
256,192,35091,1,8,0:0:0:0:
256,192,35541,1,0,0:0:0:0:
256,192,35991,1,0,0:0:0:0:
256,192,36291,1,8,0:0:0:0:
256,192,36591,1,0,0:0:0:0:
256,192,36741,1,0,0:0:0:0:
256,192,36891,1,8,0:0:0:0:
256,192,37491,1,0,0:0:0:0:
256,192,37791,1,8,0:0:0:0:
256,192,38091,1,0,0:0:0:0:
256,192,38241,1,0,0:0:0:0:
256,192,38391,1,8,0:0:0:0:
256,192,38691,1,0,0:0:0:0:
256,192,38991,1,8,0:0:0:0:
256,192,39291,1,8,0:0:0:0:
256,192,39441,1,8,0:0:0:0:
256,192,39591,1,0,0:0:0:0:
256,192,39891,1,12,0:0:0:0:
256,192,40491,1,8,0:0:0:0:
256,192,40791,1,0,0:0:0:0:
256,192,40941,1,0,0:0:0:0:
256,192,41391,1,8,0:0:0:0:
256,192,41691,1,8,0:0:0:0:
256,192,41991,1,0,0:0:0:0:
256,192,42291,1,0,0:0:0:0:
256,192,42741,1,8,0:0:0:0:
256,192,43191,1,0,0:0:0:0:
256,192,43491,1,0,0:0:0:0:
256,192,43791,1,8,0:0:0:0:
256,192,44091,1,8,0:0:0:0:
256,192,44391,1,0,0:0:0:0:
256,192,44691,1,12,0:0:0:0:
256,192,45291,1,8,0:0:0:0:
256,192,45591,1,0,0:0:0:0:
256,192,45741,1,0,0:0:0:0:
256,192,46191,1,8,0:0:0:0:
256,192,46491,1,8,0:0:0:0:
256,192,46791,1,0,0:0:0:0:
256,192,47091,1,8,0:0:0:0:
256,192,47541,1,8,0:0:0:0:
256,192,47991,1,8,0:0:0:0:
256,192,48291,1,0,0:0:0:0:
256,192,48591,1,8,0:0:0:0:
256,192,48891,1,0,0:0:0:0:
256,192,49041,1,0,0:0:0:0:
256,192,49191,1,0,0:0:0:0:
256,192,49491,1,12,0:0:0:0:
256,192,50091,1,8,0:0:0:0:
256,192,50391,1,0,0:0:0:0:
256,192,50541,1,0,0:0:0:0:
256,192,50991,1,8,0:0:0:0:
256,192,51291,1,8,0:0:0:0:
256,192,51591,1,0,0:0:0:0:
256,192,51891,1,0,0:0:0:0:
256,192,52341,1,8,0:0:0:0:
256,192,52791,1,0,0:0:0:0:
256,192,53091,1,8,0:0:0:0:
256,192,53391,1,8,0:0:0:0:
256,192,53691,1,0,0:0:0:0:
256,192,53991,1,0,0:0:0:0:
256,192,54291,1,12,0:0:0:0:
256,192,54891,1,8,0:0:0:0:
256,192,55191,1,0,0:0:0:0:
256,192,55491,1,12,0:0:0:0:
256,192,56091,1,0,0:0:0:0:
256,192,56391,1,0,0:0:0:0:
256,192,56691,1,12,0:0:0:0:
256,192,57141,1,8,0:0:0:0:
256,192,57591,1,0,0:0:0:0:
256,192,57891,1,12,0:0:0:0:
256,192,58491,1,0,0:0:0:0:
256,192,59091,1,12,0:0:0:0:
256,192,59691,1,0,0:0:0:0:
256,192,59991,1,0,0:0:0:0:
256,192,60291,1,8,0:0:0:0:
256,192,60591,1,0,0:0:0:0:
256,192,60741,1,0,0:0:0:0:
256,192,61191,1,8,0:0:0:0:
256,192,61491,1,0,0:0:0:0:
256,192,61791,1,8,0:0:0:0:
256,192,62091,1,0,0:0:0:0:
256,192,62391,1,0,0:0:0:0:
256,192,62691,1,8,0:0:0:0:
256,192,62991,1,0,0:0:0:0:
256,192,63141,1,0,0:0:0:0:
256,192,63591,1,8,0:0:0:0:
256,192,63891,1,0,0:0:0:0:
256,192,64491,1,0,0:0:0:0:
256,192,64791,1,8,0:0:0:0:
256,192,65091,1,0,0:0:0:0:
256,192,65541,1,0,0:0:0:0:
256,192,65991,1,8,0:0:0:0:
256,192,66291,1,0,0:0:0:0:
256,192,66741,1,8,0:0:0:0:
256,192,67191,1,8,0:0:0:0:
256,192,67491,1,0,0:0:0:0:
256,192,67791,1,0,0:0:0:0:
256,192,67941,1,8,0:0:0:0:
256,192,68241,1,0,0:0:0:0:
256,192,68391,1,0,0:0:0:0:
256,192,68691,1,12,0:0:0:0:
256,192,69291,1,0,0:0:0:0:
256,192,69591,1,8,0:0:0:0:
256,192,69891,1,0,0:0:0:0:
256,192,70191,1,0,0:0:0:0:
256,192,70341,1,0,0:0:0:0:
256,192,70791,1,8,0:0:0:0:
256,192,71091,1,0,0:0:0:0:
256,192,71391,1,0,0:0:0:0:
256,192,71691,1,8,0:0:0:0:
256,192,71991,1,8,0:0:0:0:
256,192,72291,1,0,0:0:0:0:
256,192,72741,1,8,0:0:0:0:
256,192,73191,1,0,0:0:0:0:
256,192,73491,1,12,0:0:0:0:
256,192,74091,1,0,0:0:0:0:
256,192,74391,1,8,0:0:0:0:
256,192,74691,1,0,0:0:0:0:
256,192,75141,1,8,0:0:0:0:
256,192,75591,1,8,0:0:0:0:
256,192,75891,1,0,0:0:0:0:
256,192,76341,1,8,0:0:0:0:
256,192,76791,1,0,0:0:0:0:
256,192,77091,1,12,0:0:0:0:
256,192,77541,1,0,0:0:0:0:
256,192,77691,1,8,0:0:0:0:
256,192,77841,1,8,0:0:0:0:
256,192,77991,1,8,0:0:0:0:
256,192,78291,1,4,0:0:0:0:
256,192,78741,1,8,0:0:0:0:
256,192,79191,1,8,0:0:0:0:
256,192,79491,1,0,0:0:0:0:
256,192,79791,1,0,0:0:0:0:
256,192,80091,1,0,0:0:0:0:
256,192,80241,1,8,0:0:0:0:
256,192,80691,1,0,0:0:0:0:
256,192,81141,1,8,0:0:0:0:
256,192,81591,1,8,0:0:0:0:
256,192,81891,1,0,0:0:0:0:
256,192,82191,1,8,0:0:0:0:
256,192,82491,1,0,0:0:0:0:
256,192,82641,1,0,0:0:0:0:
256,192,82791,1,0,0:0:0:0:
256,192,83091,1,0,0:0:0:0:
256,192,83541,1,8,0:0:0:0:
256,192,83991,1,8,0:0:0:0:
256,192,84291,1,0,0:0:0:0:
256,192,84591,1,0,0:0:0:0:
256,192,84891,1,0,0:0:0:0:
256,192,85041,1,8,0:0:0:0:
256,192,85491,1,0,0:0:0:0:
256,192,85941,1,8,0:0:0:0:
256,192,86391,1,8,0:0:0:0:
256,192,86691,1,0,0:0:0:0:
256,192,86991,1,8,0:0:0:0:
256,192,87291,1,0,0:0:0:0:
256,192,87441,1,0,0:0:0:0:
256,192,87591,1,0,0:0:0:0:
256,192,87891,1,12,0:0:0:0:
256,192,88491,1,0,0:0:0:0:
256,192,88791,1,0,0:0:0:0:
256,192,89091,1,8,0:0:0:0:
256,192,89691,1,0,0:0:0:0:
256,192,89991,1,8,0:0:0:0:
256,192,90291,1,8,0:0:0:0:
256,192,90891,1,0,0:0:0:0:
256,192,91191,1,8,0:0:0:0:
256,192,91491,1,0,0:0:0:0:
256,192,92091,1,0,0:0:0:0:
256,192,92691,1,12,0:0:0:0:
256,192,93291,1,0,0:0:0:0:
256,192,93591,1,0,0:0:0:0:
256,192,93891,1,12,0:0:0:0:
256,192,94491,1,0,0:0:0:0:
256,192,94791,1,0,0:0:0:0:
256,192,95091,1,12,0:0:0:0:
256,192,96291,1,8,0:0:0:0:
256,192,96591,1,8,0:0:0:0:
256,192,96891,1,8,0:0:0:0:
256,192,97041,1,8,0:0:0:0:
256,192,97191,1,8,0:0:0:0:
256,192,97491,1,12,0:0:0:0:
256,192,98091,1,0,0:0:0:0:
256,192,98391,1,0,0:0:0:0:
256,192,98691,1,8,0:0:0:0:
256,192,98991,1,0,0:0:0:0:
256,192,99141,1,0,0:0:0:0:
256,192,99591,1,8,0:0:0:0:
256,192,99891,1,0,0:0:0:0:
256,192,100191,1,8,0:0:0:0:
256,192,100491,1,0,0:0:0:0:
256,192,100791,1,0,0:0:0:0:
256,192,101091,1,8,0:0:0:0:
256,192,101391,1,0,0:0:0:0:
256,192,101541,1,0,0:0:0:0:
256,192,101991,1,8,0:0:0:0:
256,192,102291,1,0,0:0:0:0:
256,192,102891,1,0,0:0:0:0:
256,192,103191,1,8,0:0:0:0:
256,192,103491,1,0,0:0:0:0:
256,192,103941,1,0,0:0:0:0:
256,192,104391,1,8,0:0:0:0:
256,192,104691,1,0,0:0:0:0:
256,192,105141,1,8,0:0:0:0:
256,192,105591,1,8,0:0:0:0:
256,192,105891,1,0,0:0:0:0:
256,192,106191,1,0,0:0:0:0:
256,192,106341,1,8,0:0:0:0:
256,192,106641,1,0,0:0:0:0:
256,192,106791,1,0,0:0:0:0:
256,192,107091,1,12,0:0:0:0:
256,192,107691,1,0,0:0:0:0:
256,192,107991,1,8,0:0:0:0:
256,192,108291,1,0,0:0:0:0:
256,192,108591,1,0,0:0:0:0:
256,192,108741,1,0,0:0:0:0:
256,192,109191,1,8,0:0:0:0:
256,192,109491,1,0,0:0:0:0:
256,192,109791,1,0,0:0:0:0:
256,192,110091,1,8,0:0:0:0:
256,192,110391,1,0,0:0:0:0:
256,192,110691,1,8,0:0:0:0:
256,192,111141,1,0,0:0:0:0:
256,192,111591,1,8,0:0:0:0:
256,192,111891,1,12,0:0:0:0:
256,192,112491,1,0,0:0:0:0:
256,192,112791,1,8,0:0:0:0:
256,192,113091,1,4,0:0:0:0:
256,192,113541,1,8,0:0:0:0:
256,192,113991,1,8,0:0:0:0:
256,192,114291,1,0,0:0:0:0:
256,192,114741,1,8,0:0:0:0:
256,192,115191,1,0,0:0:0:0:
256,192,115491,1,12,0:0:0:0:
256,192,115941,1,0,0:0:0:0:
256,192,116091,1,8,0:0:0:0:
256,192,116241,1,8,0:0:0:0:
256,192,116391,1,8,0:0:0:0:
256,192,116691,1,12,0:0:0:0:
256,192,117891,1,8,0:0:0:0:
256,192,119091,1,0,0:0:0:0:
