osu file format v14

[General]
AudioFilename: audio.mp3
AudioLeadIn: 0
PreviewTime: 58378
Countdown: 0
SampleSet: Soft
StackLeniency: 0.7
Mode: 2
LetterboxInBreaks: 0
WidescreenStoryboard: 0

[Editor]
DistanceSpacing: 0.6
BeatDivisor: 4
GridSize: 32
TimelineZoom: 2.5

[Metadata]
Title:EDEN
TitleUnicode:EDEN
Artist:TERRA
ArtistUnicode:TЁЯRA
Creator:alienflybot
Version:Ascendance's PARADISE
Source:beatmania IIDX 12 HAPPY SKY
Tags:jun Junko Karashima 辛島純子 NAOKI MAEDA 前田尚紀 GOLI HYPER J-POP SIX KONAMI AFB Tenshichan Prophecy iloveyou4ever -Hex- Ascendance Skylish
BeatmapID:1793334
BeatmapSetID:810279

[Difficulty]
HPDrainRate:7
CircleSize:3.8
OverallDifficulty:9.5
ApproachRate:9.5
SliderMultiplier:1.95999990463257
SliderTickRate:2

[Events]
//Background and Video events
0,0,"69155591_p0_master1200.jpg",0,0
//Break Periods
2,78491,85821
//Storyboard Layer 0 (Background)
//Storyboard Layer 1 (Fail)
//Storyboard Layer 2 (Pass)
//Storyboard Layer 3 (Foreground)
//Storyboard Sound Samples

[TimingPoints]
291,300,4,2,0,20,1,0
1491,-100,4,2,1,50,0,0
1641,-100,4,2,1,30,0,0
2391,-100,4,2,1,50,0,0
2541,-100,4,2,1,30,0,0
2691,-100,4,2,1,50,0,0
2841,-100,4,2,1,30,0,0
3891,-100,4,2,1,50,0,0
4041,-100,4,2,1,30,0,0
4791,-100,4,2,1,50,0,0
4941,-100,4,2,1,30,0,0
5091,-100,4,2,1,50,0,0
5241,-100,4,2,1,30,0,0
6291,-100,4,2,1,50,0,0
6441,-100,4,2,1,30,0,0
7191,-100,4,2,1,50,0,0
7341,-100,4,2,1,30,0,0
7491,-100,4,2,1,50,0,0
7641,-100,4,2,1,30,0,0
8691,-100,4,2,1,50,0,0
8841,-100,4,2,1,30,0,0
9591,-100,4,2,1,50,0,0
9741,-100,4,2,1,30,0,0
9891,-100,4,2,1,50,0,0
10041,-100,4,2,1,30,0,0
11091,-100,4,2,1,50,0,0
11241,-100,4,2,1,30,0,0
11991,-100,4,2,1,50,0,0
12141,-100,4,2,1,30,0,0
12291,-100,4,2,1,50,0,0
12441,-100,4,2,1,30,0,0
13491,-100,4,2,1,50,0,0
13641,-100,4,2,1,30,0,0
14391,-100,4,2,1,50,0,0
14541,-100,4,2,1,30,0,0
14691,-100,4,2,1,50,0,0
14841,-100,4,2,1,30,0,0
15891,-100,4,2,1,40,0,0
16041,-100,4,2,1,30,0,0
16491,-100,4,2,1,50,0,0
16641,-100,4,2,1,30,0,0
17091,-100,4,2,1,50,0,0
17241,-100,4,2,1,30,0,0
17691,-100,4,2,1,50,0,0
17841,-100,4,2,1,30,0,0
18291,-100,4,2,1,60,0,0
18441,-100,4,2,1,30,0,0
18891,-100,4,2,1,50,0,0
19041,-100,4,2,1,30,0,0
19491,-100,4,2,1,50,0,0
19566,-100,4,2,1,30,0,0
19641,-100,4,2,1,20,0,0
19791,-100,4,2,1,30,0,0
19941,-100,4,2,1,40,0,0
20091,-100,4,2,1,50,0,0
20166,-100,4,2,1,30,0,0
20241,-100,4,2,1,20,0,0
20391,-100,4,2,1,30,0,0
20541,-100,4,2,1,40,0,0
20691,-100,4,2,1,50,0,0
20841,-100,4,2,1,30,0,0
21141,-100,4,2,1,50,0,0
21291,-100,4,2,1,30,0,0
21591,-100,4,2,1,50,0,0
21741,-100,4,2,1,30,0,0
21891,-100,4,2,2,40,0,0
22041,-100,4,2,1,30,0,0
22341,-100,4,2,1,50,0,0
22491,-100,4,2,1,30,0,0
22791,-100,4,2,1,50,0,0
22941,-100,4,2,1,30,0,0
23091,-100,4,2,1,50,0,0
23241,-100,4,2,1,30,0,0
23541,-100,4,2,1,50,0,0
23691,-100,4,2,1,30,0,0
23991,-100,4,2,1,50,0,0
24141,-100,4,2,1,30,0,0
24291,-100,4,2,2,42,0,0
24441,-100,4,2,1,30,0,0
24741,-100,4,2,1,50,0,0
24891,-100,4,2,1,30,0,0
25041,-100,4,2,1,50,0,0
25341,-100,4,2,1,30,0,0
25491,-100,4,2,1,50,0,0
25641,-100,4,2,1,30,0,0
25941,-100,4,2,1,50,0,0
26091,-100,4,2,1,30,0,0
26391,-100,4,2,1,50,0,0
26541,-100,4,2,1,30,0,0
26691,-100,4,2,2,44,0,0
26841,-100,4,2,1,30,0,0
27141,-100,4,2,1,50,0,0
27291,-100,4,2,1,30,0,0
27441,-100,4,2,1,50,0,0
27741,-100,4,2,1,30,0,0
27891,-100,4,2,1,50,0,0
28041,-100,4,2,1,30,0,0
28341,-100,4,2,1,50,0,0
28491,-100,4,2,1,30,0,0
28791,-100,4,2,1,50,0,0
28941,-100,4,2,1,30,0,0
29091,-100,4,2,2,46,0,0
29241,-100,4,2,1,30,0,0
29541,-100,4,2,1,50,0,0
29691,-100,4,2,1,30,0,0
29841,-100,4,2,1,50,0,0
30441,-100,4,2,1,30,0,0
30741,-100,4,2,1,50,0,0
30891,-100,4,2,1,30,0,0
31191,-100,4,2,1,50,0,0
31341,-100,4,2,1,30,0,0
31491,-100,4,2,2,48,0,0
31641,-100,4,2,1,30,0,0
31941,-100,4,2,1,50,0,0
32091,-100,4,2,1,30,0,0
32391,-100,4,2,1,50,0,0
32541,-100,4,2,1,30,0,0
32691,-100,4,2,2,50,0,0
32841,-100,4,2,1,30,0,0
33141,-100,4,2,1,50,0,0
33291,-100,4,2,1,30,0,0
33591,-100,4,2,1,50,0,0
33741,-100,4,2,1,30,0,0
33891,-100,4,2,2,52,0,0
34041,-100,4,2,1,30,0,0
34341,-100,4,2,1,50,0,0
34491,-100,4,2,1,30,0,0
34641,-100,4,2,1,50,0,0
34941,-100,4,2,1,30,0,0
35091,-100,4,2,2,54,0,0
35241,-100,4,2,1,30,0,0
35541,-100,4,2,1,50,0,0
35691,-100,4,2,1,30,0,0
35991,-100,4,2,1,50,0,0
36141,-100,4,2,1,30,0,0
36291,-100,4,2,2,56,0,0
36441,-100,4,2,1,30,0,0
36741,-100,4,2,1,50,0,0
36891,-100,4,2,1,30,0,0
37041,-100,4,2,1,50,0,0
37341,-100,4,2,1,30,0,0
37491,-100,4,2,2,58,0,0
37641,-100,4,2,1,30,0,0
37941,-100,4,2,1,50,0,0
38091,-100,4,2,1,30,0,0
38241,-100,4,2,1,50,0,0
38541,-100,4,2,1,30,0,0
38691,-100,4,2,2,60,0,0
38841,-100,4,2,1,30,0,0
39141,-100,4,2,1,50,0,0
39366,-100,4,2,1,30,0,0
39441,-100,4,2,1,20,0,0
39591,-100,4,2,1,30,0,0
39741,-100,4,2,1,40,0,0
39891,-100,4,2,1,50,0,0
40041,-100,4,2,1,30,0,0
40491,-100,4,2,1,40,0,0
40791,-100,4,2,1,30,0,0
41091,-100,4,2,1,40,0,0
41391,-100,4,2,1,30,0,0
41691,-100,4,2,1,40,0,0
41991,-100,4,2,1,30,0,0
42291,-100,4,2,1,40,0,0
42591,-100,4,2,1,30,0,0
42741,-100,4,2,1,40,0,0
43341,-100,4,2,1,30,0,0
43491,-100,4,2,1,40,0,0
43791,-100,4,2,1,30,0,0
44091,-100,4,2,1,40,0,0
44391,-100,4,2,1,30,0,0
44691,-100,4,2,1,50,0,0
44841,-100,4,2,1,30,0,0
45291,-100,4,2,1,40,0,0
45591,-100,4,2,1,30,0,0
45891,-100,4,2,1,40,0,0
46191,-100,4,2,1,30,0,0
46491,-100,4,2,1,40,0,0
46791,-100,4,2,1,30,0,0
47091,-100,4,2,1,40,0,0
47241,-100,4,2,1,30,0,0
47541,-100,4,2,1,40,0,0
47691,-100,4,2,10,30,0,0
47841,-100,4,2,1,30,0,0
47991,-100,4,2,1,40,0,0
48141,-100,4,2,1,30,0,0
48291,-100,4,2,1,40,0,0
48441,-100,4,2,1,30,0,0
48891,-100,4,2,1,40,0,0
49191,-100,4,2,1,50,0,0
49341,-100,4,2,1,60,0,0
49491,-100,4,2,1,50,0,0
49641,-100,4,2,1,30,0,0
50091,-100,4,2,1,40,0,0
50391,-100,4,2,1,30,0,0
50691,-100,4,2,1,40,0,0
50991,-100,4,2,1,30,0,0
51291,-100,4,2,1,40,0,0
51591,-100,4,2,1,30,0,0
51891,-100,4,2,1,40,0,0
52191,-100,4,2,1,30,0,0
52341,-100,4,2,1,40,0,0
52491,-100,4,2,10,40,0,0
52641,-100,4,2,1,40,0,0
52791,-100,4,2,1,30,0,0
53091,-100,4,2,1,40,0,0
53391,-100,4,2,1,30,0,0
53691,-100,4,2,1,40,0,0
53991,-100,4,2,1,30,0,0
54291,-100,4,2,2,50,0,0
54441,-100,4,2,1,30,0,0
54891,-100,4,2,1,40,0,0
55191,-100,4,2,1,30,0,0
55491,-100,4,2,2,50,0,0
55641,-100,4,2,1,30,0,0
55791,-100,4,2,1,50,0,0
56091,-100,4,2,1,40,0,0
56241,-100,4,2,1,30,0,0
56691,-100,4,2,2,50,0,0
56841,-100,4,2,1,30,0,0
57291,-100,4,2,1,40,0,0
57591,-100,4,2,1,50,0,0
57891,-100,4,2,1,60,0,0
58641,-100,4,2,1,30,0,0
58791,-100,4,2,2,40,0,0
58866,-100,4,2,0,48,0,0
58941,-100,4,2,0,54,0,0
59016,-100,4,2,0,58,0,0
59091,-100,4,2,3,60,0,1
59241,-100,4,2,3,40,0,1
59391,-100,4,2,3,60,0,1
59541,-100,4,2,3,40,0,1
59991,-100,4,2,3,60,0,1
60141,-100,4,2,3,40,0,1
60591,-100,4,2,3,60,0,1
60741,-100,4,2,3,40,0,1
61191,-100,4,2,3,60,0,1
61341,-100,4,2,3,40,0,1
61791,-100,4,2,3,60,0,1
61941,-100,4,2,3,40,0,1
62391,-100,4,2,3,60,0,1
62541,-100,4,2,3,40,0,1
62991,-100,4,2,3,60,0,1
63141,-100,4,2,3,40,0,1
63291,-100,4,2,3,60,0,1
63441,-100,4,2,3,30,0,1
63591,-100,4,2,2,60,0,1
63666,-100,4,2,0,34,0,1
63741,-100,4,2,0,42,0,1
63816,-100,4,2,0,46,0,1
63891,-100,4,2,3,60,0,1
64041,-100,4,2,3,40,0,1
64191,-100,4,2,3,60,0,1
64341,-100,4,2,3,40,0,1
64791,-100,4,2,3,60,0,1
64941,-100,4,2,3,40,0,1
65391,-100,4,2,3,60,0,1
65541,-100,4,2,3,40,0,1
65991,-100,4,2,3,60,0,1
66141,-100,4,2,3,40,0,1
66591,-100,4,2,3,60,0,1
66741,-100,4,2,3,40,0,1
67191,-100,4,2,3,60,0,1
67341,-100,4,2,3,40,0,1
67491,-100,4,2,3,20,0,0
67791,-100,4,2,3,40,0,0
67941,-100,4,2,3,20,0,0
68241,-100,4,2,3,30,0,0
68391,-100,4,2,2,20,0,0
68466,-100,4,2,0,28,0,0
68541,-100,4,2,0,34,0,0
68616,-100,4,2,0,38,0,0
68691,-100,4,2,2,60,0,1
68841,-100,4,2,3,40,0,1
68991,-100,4,2,3,60,0,1
69141,-100,4,2,3,40,0,1
69591,-100,4,2,3,60,0,1
69741,-100,4,2,3,40,0,1
70191,-100,4,2,3,60,0,1
70341,-100,4,2,3,40,0,1
70791,-100,4,2,3,60,0,1
70941,-100,4,2,3,40,0,1
71391,-100,4,2,3,60,0,1
71541,-100,4,2,3,40,0,1
71991,-100,4,2,3,60,0,1
72141,-100,4,2,3,40,0,1
72591,-100,4,2,3,60,0,1
72741,-100,4,2,3,40,0,1
72891,-100,4,2,11,40,0,1
73041,-100,4,2,3,40,0,1
73191,-100,4,2,2,60,0,1
73266,-100,4,2,0,40,0,1
73341,-100,4,2,0,50,0,1
73491,-100,4,2,3,60,0,1
73641,-100,4,2,3,40,0,1
73791,-100,4,2,3,60,0,1
73941,-100,4,2,3,40,0,1
74391,-100,4,2,3,60,0,1
74541,-100,4,2,3,40,0,1
74691,-100,4,2,3,45,0,1
74841,-100,4,2,3,40,0,1
74991,-100,4,2,3,60,0,1
75141,-100,4,2,3,40,0,1
75291,-100,4,2,3,45,0,1
75441,-100,4,2,3,40,0,1
75591,-100,4,2,3,60,0,1
75741,-100,4,2,3,40,0,1
75891,-100,4,2,3,50,0,1
76041,-100,4,2,3,40,0,1
76191,-100,4,2,3,60,0,1
76341,-100,4,2,3,40,0,1
76491,-100,4,2,3,50,0,1
76641,-100,4,2,3,40,0,1
76791,-100,4,2,3,55,0,1
76941,-100,4,2,3,40,0,1
77091,-100,4,2,3,60,0,1
77241,-100,4,2,3,20,0,1
77391,-100,4,2,3,55,0,1
77541,-100,4,2,3,20,0,1
77691,-100,4,2,1,40,0,1
77991,-100,4,2,1,50,0,1
78291,-100,4,2,3,40,0,0
86391,-100,4,2,1,20,0,0
86541,-100,4,2,3,30,0,0
86691,-100,4,2,3,40,0,0
86841,-100,4,2,3,30,0,0
86991,-100,4,2,1,40,0,0
87141,-100,4,2,1,50,0,0
87291,-100,4,2,1,60,0,0
87366,-100,4,2,1,48,0,0
87441,-100,4,2,1,38,0,0
87516,-100,4,2,1,30,0,0
87666,-100,4,2,1,38,0,0
87741,-100,4,2,1,48,0,0
87816,-100,4,2,1,60,0,0
87891,-100,4,2,1,45,0,0
88041,-100,4,2,1,20,0,0
88491,-100,4,2,1,30,0,0
88791,-100,4,2,1,20,0,0
89091,-100,4,2,1,30,0,0
89391,-100,4,2,1,20,0,0
89691,-100,4,2,1,30,0,0
89991,-100,4,2,1,20,0,0
90291,-100,4,2,1,30,0,0
90591,-100,4,2,1,20,0,0
90891,-100,4,2,1,30,0,0
91191,-100,4,2,1,20,0,0
91491,-100,4,2,1,30,0,0
91791,-100,4,2,1,20,0,0
92091,-100,4,2,1,30,0,0
92391,-100,4,2,1,20,0,0
92691,-100,4,2,1,50,0,0
92841,-100,4,2,1,20,0,0
93291,-100,4,2,1,30,0,0
93591,-100,4,2,1,20,0,0
93891,-100,4,2,1,55,0,0
94041,-100,4,2,1,20,0,0
94491,-100,4,2,1,30,0,0
94791,-100,4,2,1,20,0,0
95091,-100,4,2,1,60,0,0
95241,-100,4,2,1,20,0,0
95691,-100,4,2,1,30,0,0
95991,-100,4,2,1,20,0,0
96291,-100,4,2,0,40,0,0
96366,-100,4,2,1,20,0,0
96441,-100,4,2,1,30,0,0
96591,-100,4,2,0,40,0,0
96666,-100,4,2,1,20,0,0
96741,-100,4,2,1,30,0,0
96891,-100,4,2,1,50,0,0
96966,-100,4,2,1,30,0,0
97041,-100,4,2,1,40,0,0
97191,-100,4,2,1,30,0,0
97341,-100,4,2,1,40,0,0
97491,-100,4,2,3,60,0,1
97641,-100,4,2,3,40,0,1
97791,-100,4,2,3,60,0,1
97941,-100,4,2,3,40,0,1
98391,-100,4,2,3,60,0,1
98541,-100,4,2,3,40,0,1
98991,-100,4,2,3,60,0,1
99141,-100,4,2,3,40,0,1
99591,-100,4,2,3,60,0,1
99741,-100,4,2,3,40,0,1
100191,-100,4,2,3,60,0,1
100341,-100,4,2,3,40,0,1
100791,-100,4,2,3,60,0,1
100941,-100,4,2,3,40,0,1
101391,-100,4,2,3,60,0,1
101541,-100,4,2,3,40,0,1
101691,-100,4,2,3,60,0,1
101841,-100,4,2,3,30,0,1
101991,-100,4,2,2,60,0,1
102066,-100,4,2,0,34,0,1
102141,-100,4,2,0,42,0,1
102216,-100,4,2,0,46,0,1
102291,-100,4,2,3,60,0,1
102441,-100,4,2,3,40,0,1
102591,-100,4,2,3,60,0,1
102741,-100,4,2,3,40,0,1
103191,-100,4,2,3,60,0,1
103341,-100,4,2,3,40,0,1
103791,-100,4,2,3,60,0,1
103941,-100,4,2,3,40,0,1
104391,-100,4,2,3,60,0,1
104541,-100,4,2,3,40,0,1
104991,-100,4,2,3,60,0,1
105141,-100,4,2,3,40,0,1
105591,-100,4,2,3,60,0,1
105741,-100,4,2,3,40,0,1
105891,-100,4,2,3,20,0,0
106191,-100,4,2,3,40,0,0
106341,-100,4,2,3,20,0,0
106641,-100,4,2,3,30,0,0
106791,-100,4,2,2,20,0,0
106866,-100,4,2,0,28,0,0
106941,-100,4,2,0,34,0,0
107016,-100,4,2,0,38,0,0
107091,-100,4,2,3,60,0,1
107241,-100,4,2,3,40,0,1
107391,-100,4,2,3,60,0,1
107541,-100,4,2,3,40,0,1
107991,-100,4,2,3,60,0,1
108141,-100,4,2,3,40,0,1
108591,-100,4,2,3,60,0,1
108741,-100,4,2,3,40,0,1
109191,-100,4,2,3,60,0,1
109341,-100,4,2,3,40,0,1
109791,-100,4,2,3,60,0,1
109941,-100,4,2,3,40,0,1
110391,-100,4,2,3,60,0,1
110541,-100,4,2,3,40,0,1
110991,-100,4,2,3,60,0,1
111141,-100,4,2,3,40,0,1
111291,-100,4,2,11,40,0,1
111441,-100,4,2,3,40,0,1
111591,-100,4,2,2,60,0,1
111666,-100,4,2,0,40,0,1
111741,-100,4,2,0,50,0,1
111891,-100,4,2,3,60,0,1
112041,-100,4,2,3,40,0,1
112191,-100,4,2,3,60,0,1
112341,-100,4,2,3,40,0,1
112791,-100,4,2,3,60,0,1
112941,-100,4,2,3,40,0,1
113091,-100,4,2,3,45,0,1
113241,-100,4,2,3,40,0,1
113391,-100,4,2,3,60,0,1
113541,-100,4,2,3,40,0,1
113691,-100,4,2,3,45,0,1
113841,-100,4,2,3,40,0,1
113991,-100,4,2,3,60,0,1
114141,-100,4,2,3,40,0,1
114291,-100,4,2,3,50,0,1
114441,-100,4,2,3,40,0,1
114591,-100,4,2,3,60,0,1
114741,-100,4,2,3,40,0,1
114891,-100,4,2,3,50,0,1
115041,-100,4,2,3,40,0,1
115191,-100,4,2,3,55,0,1
115341,-100,4,2,3,40,0,1
115491,-100,4,2,3,60,0,1
115641,-100,4,2,3,20,0,1
115791,-100,4,2,3,55,0,1
115941,-100,4,2,3,20,0,1
116091,-100,4,2,1,40,0,1
116391,-100,4,2,1,50,0,1
116691,-100,4,2,3,40,0,0
116991,-100,4,2,3,40,0,0
117291,-100,4,2,3,32,0,0
117591,-100,4,2,3,26,0,0
117891,-100,4,2,3,32,0,0
118191,-100,4,2,3,26,0,0
118491,-100,4,2,3,22,0,0
118791,-100,4,2,3,20,0,0
119091,-100,4,2,3,22,0,0
119691,-100,4,2,3,15,0,0
120291,-100,4,2,3,10,0,0
120891,-100,4,2,20,7,0,0

[Colours]
Combo1 : 204,193,237
Combo2 : 251,235,210
Combo3 : 131,111,243
Combo4 : 211,238,255

[HitObjects]
357,67,891,6,0,L|141:85,1,195.999990463257,2|2,0:0|0:0,0:0:0:0:
433,276,1491,6,0,P|493:188|434:115,1,195.999990463257,0|0,1:0|0:0,0:0:0:0:
321,103,1941,1,2,0:0:0:0:
211,218,2091,2,0,L|191:113,1,97.9999952316285,2|0,0:0|0:0,0:0:0:0:
316,350,2391,2,0,L|335:226,1,97.9999952316285,8|0,0:0|0:0,0:0:0:0:
73,354,2691,6,0,P|28:280|106:190,1,195.999990463257,8|0,0:0|0:0,0:0:0:0:
202,191,3141,1,0,0:0:0:0:
362,268,3291,2,0,L|371:162,1,97.9999952316285,8|0,0:0|0:0,0:0:0:0:
230,9,3591,2,0,L|335:32,1,97.9999952316285,0|0,0:0|0:0,0:0:0:0:
48,146,3891,6,0,L|286:108,2,195.999990463257,8|0|2,0:0|0:0|0:0,0:0:0:0:
253,222,4791,1,8,0:0:0:0:
133,358,4941,2,0,L|107:158,1,195.999990463257,0|2,0:0|0:0,0:0:0:0:
312,317,5541,2,0,L|424:289,1,97.9999952316285,0|8,0:0|0:0,0:0:0:0:
150,212,5991,1,0,0:0:0:0:
377,265,6291,6,0,P|454:240|470:121,1,195.999990463257,0|0,1:0|0:0,0:0:0:0:
326,86,6741,2,0,L|222:86,2,97.9999952316285,2|2|0,0:0|0:0|0:0,0:0:0:0:
482,23,7191,2,0,L|373:23,1,97.9999952316285,8|0,0:0|0:0,0:0:0:0:
115,103,7491,6,0,P|110:192|206:251,1,195.999990463257,8|0,0:0|0:0,0:0:0:0:
325,304,7941,2,0,L|332:185,1,97.9999952316285,0|8,0:0|0:0,0:0:0:0:
188,331,8241,1,0,0:0:0:0:
325,303,8391,2,0,L|439:310,1,97.9999952316285,0|0,0:0|0:0,0:0:0:0:
126,145,8691,6,0,L|353:159,2,195.999990463257,8|0|2,0:0|0:0|0:0,0:0:0:0:
348,34,9591,1,8,0:0:0:0:
243,252,9741,2,0,L|224:49,1,195.999990463257,0|2,0:0|0:0,0:0:0:0:
438,150,10341,1,0,0:0:0:0:
327,255,10491,2,0,L|313:154,1,97.9999952316285,8|0,0:0|0:0,0:0:0:0:
461,359,10791,2,0,L|475:260,1,97.9999952316285,0|0,0:0|0:0,0:0:0:0:
195,112,11091,6,0,P|115:148|122:273,1,195.999990463257,0|0,1:0|0:0,0:0:0:0:
235,275,11541,1,2,0:0:0:0:
90,328,11691,2,0,L|215:327,1,97.9999952316285,2|0,0:0|0:0,0:0:0:0:
342,342,11991,2,0,L|461:343,1,97.9999952316285,8|0,0:0|0:0,0:0:0:0:
150,252,12291,6,0,P|136:157|246:95,1,195.999990463257,8|0,0:0|0:0,0:0:0:0:
331,98,12741,1,2,0:0:0:0:
197,192,12891,2,0,L|191:83,1,97.9999952316285,10|0,0:0|0:0,0:0:0:0:
338,204,13191,2,0,L|339:319,1,97.9999952316285,0|0,0:0|0:0,0:0:0:0:
21,312,13491,6,0,L|240:288,1,195.999990463257,8|0,0:0|0:0,0:0:0:0:
347,364,13941,1,2,0:0:0:0:
196,280,14091,2,0,L|202:174,1,97.9999952316285,2|0,0:0|0:0,0:0:0:0:
344,190,14391,2,0,L|359:73,1,97.9999952316285,8|0,0:0|0:0,0:0:0:0:
127,55,14691,6,0,L|340:27,1,195.999990463257,8|10,0:0|0:0,0:0:0:0:
210,92,15141,1,0,0:0:0:0:
334,176,15291,2,0,L|335:48,1,97.9999952316285,10|0,0:0|0:0,0:0:0:0:
201,239,15591,2,0,L|103:238,1,97.9999952316285,2|0,0:0|0:0,0:0:0:0:
371,369,15891,6,0,P|441:337|441:216,1,195.999990463257,4|0,0:0|0:0,0:0:0:0:
315,204,16341,1,0,0:0:0:0:
165,205,16491,2,0,L|276:202,1,97.9999952316285,8|0,0:0|0:0,0:0:0:0:
409,258,16791,2,0,L|411:160,1,97.9999952316285,8|0,0:0|0:0,0:0:0:0:
170,43,17091,6,0,P|162:133|254:191,1,195.999990463257,4|0,0:0|0:0,0:0:0:0:
374,189,17541,1,0,0:0:0:0:
213,279,17691,2,0,L|335:273,1,97.9999952316285,8|0,0:0|0:0,0:0:0:0:
467,339,17991,2,0,L|352:347,1,97.9999952316285,8|0,0:0|0:0,0:0:0:0:
86,357,18291,6,0,P|34:282|109:185,1,195.999990463257,4|0,0:0|0:0,0:0:0:0:
212,176,18741,2,0,L|339:188,2,97.9999952316285,0|10|0,0:0|0:0|0:0,0:0:0:0:
44,88,19191,2,0,L|153:69,1,97.9999952316285,8|0,0:0|0:0,0:0:0:0:
370,29,19491,5,2,0:1:0:0:
416,42,19566,1,0,0:0:0:0:
451,76,19641,1,0,0:0:0:0:
464,123,19716,1,0,0:0:0:0:
454,170,19791,1,8,0:0:0:0:
422,207,19866,1,0,0:0:0:0:
231,250,19941,2,0,L|168:253,1,48.9999976158143,0|0,0:0|0:0,0:0:0:0:
370,29,20091,5,2,0:1:0:0:
416,42,20166,1,0,0:0:0:0:
451,76,20241,1,0,0:0:0:0:
464,123,20316,1,0,0:0:0:0:
454,170,20391,1,8,0:0:0:0:
422,207,20466,1,0,0:0:0:0:
231,250,20541,2,0,L|168:253,1,48.9999976158143,8|0,0:0|0:0,0:0:0:0:
377,315,20691,6,0,L|483:334,2,97.9999952316285,4|0|8,0:0|0:0|0:1,0:0:0:0:
215,340,21141,2,0,L|106:353,2,97.9999952316285,8|0|0,0:0|0:0|0:0,0:0:0:0:
58,275,21591,2,0,L|49:169,1,97.9999952316285,8|0,0:0|0:0,0:0:0:0:
336,64,21891,5,2,0:0:0:0:
218,236,22041,1,0,0:0:0:0:
214,138,22191,1,8,0:1:0:0:
426,300,22341,2,0,L|190:326,1,195.999990463257,8|0,0:0|0:0,0:0:0:0:
351,165,22791,2,0,L|368:270,1,97.9999952316285,8|0,0:0|0:0,0:0:0:0:
126,206,23091,6,0,P|77:137|159:56,1,195.999990463257,8|8,0:0|0:1,0:0:0:0:
261,58,23541,2,0,L|56:59,1,195.999990463257,8|0,0:0|0:0,0:0:0:0:
233,149,23991,2,0,L|353:149,1,97.9999952316285,8|0,0:0|0:0,0:0:0:0:
54,351,24291,6,0,L|42:236,1,97.9999952316285,2|0,0:2|0:0,0:0:0:0:
191,271,24591,1,8,0:1:0:0:
239,261,24666,1,0,0:0:0:0:
287,252,24741,1,8,0:0:0:0:
161,104,24891,2,0,L|151:216,1,97.9999952316285,0|8,0:0|0:0,0:0:0:0:
433,309,25191,2,0,L|492:328,2,48.9999976158143,8|0|0,0:0|0:0|0:0,0:0:0:0:
170,361,25491,6,0,L|156:243,1,97.9999952316285,8|0,0:0|0:0,0:0:0:0:
279,210,25791,1,8,0:1:0:0:
135,161,25941,2,0,L|24:187,2,97.9999952316285,8|0|0,0:0|0:0|0:0,0:0:0:0:
269,96,26391,2,0,L|160:80,1,97.9999952316285,8|0,0:0|0:0,0:0:0:0:
471,32,26691,6,0,L|475:147,1,97.9999952316285,2|0,0:0|0:0,0:0:0:0:
346,198,26991,2,0,L|345:265,2,48.9999976158143,8|0|8,0:1|0:0|0:0,0:0:0:0:
489,287,27291,2,0,L|372:301,1,97.9999952316285,0|8,0:0|0:0,0:0:0:0:
266,90,27591,2,0,L|379:103,1,97.9999952316285,8|0,0:0|0:0,0:0:0:0:
150,288,27891,6,0,P|80:243|107:132,1,195.999990463257,0|8,0:0|0:1,0:0:0:0:
220,121,28341,1,8,0:0:0:0:
100,44,28491,2,0,L|211:30,1,97.9999952316285,0|0,0:0|0:0,0:0:0:0:
314,250,28791,2,0,L|196:241,1,97.9999952316285,8|0,0:0|0:0,0:0:0:0:
458,331,29091,6,0,P|488:277|486:227,1,97.9999952316285,2|0,0:0|0:0,0:0:0:0:
362,168,29391,1,8,0:1:0:0:
314,158,29466,1,0,0:0:0:0:
266,148,29541,1,8,0:0:0:0:
119,237,29691,2,0,L|102:118,1,97.9999952316285,0|8,0:0|0:0,0:0:0:0:
258,247,29991,1,8,0:0:0:0:
123,323,30141,1,8,0:0:0:0:
369,350,30291,6,0,P|392:284|376:238,1,97.9999952316285,8|0,0:0|0:0,0:0:0:0:
254,192,30591,1,8,0:1:0:0:
382,159,30741,2,0,L|490:158,2,97.9999952316285,8|0|0,0:0|0:0|0:0,0:0:0:0:
224,96,31191,2,0,L|82:96,1,97.9999952316285,8|0,0:0|0:0,0:0:0:0:
366,14,31491,6,0,P|398:69|393:125,1,97.9999952316285,2|0,0:0|0:0,0:0:0:0:
280,182,31791,1,8,0:1:0:0:
232,192,31866,1,0,0:0:0:0:
184,204,31941,1,8,0:0:0:0:
316,269,32091,2,0,L|421:290,1,97.9999952316285,0|0,0:0|0:0,0:0:0:0:
281,138,32391,2,0,L|398:170,1,97.9999952316285,8|0,0:0|0:0,0:0:0:0:
141,21,32691,6,0,P|80:58|58:124,1,97.9999952316285,2|0,0:0|0:0,0:0:0:0:
197,150,32991,1,8,0:1:0:0:
53,245,33141,2,0,L|169:245,1,97.9999952316285,8|0,0:0|0:0,0:0:0:0:
295,242,33441,1,0,0:0:0:0:
151,245,33591,2,0,L|53:245,1,97.9999952316285,8|0,0:0|0:0,0:0:0:0:
326,332,33891,6,0,L|441:332,1,97.9999952316285,2|0,0:0|0:0,0:0:0:0:
266,252,34191,2,0,L|205:252,2,48.9999976158143,8|0|8,0:1|0:0|0:0,0:0:0:0:
396,206,34491,2,0,P|428:163|438:90,1,97.9999952316285,0|8,0:0|0:0,0:0:0:0:
266,252,34791,2,0,P|234:295|224:368,1,97.9999952316285,8|0,0:0|0:0,0:0:0:0:
444,147,35091,5,2,0:0:0:0:
312,164,35241,1,0,0:0:0:0:
444,147,35391,1,8,0:1:0:0:
293,169,35541,2,0,L|279:62,1,97.9999952316285,8|0,0:0|0:0,0:0:0:0:
386,241,35841,1,0,0:0:0:0:
269,299,35991,2,0,L|166:317,1,97.9999952316285,8|0,0:0|0:0,0:0:0:0:
392,336,36291,6,0,L|275:324,1,97.9999952316285,2|0,0:0|0:0,0:0:0:0:
164,231,36591,1,8,0:1:0:0:
147,184,36666,1,0,0:0:0:0:
144,136,36741,1,8,0:0:0:0:
304,93,36891,2,0,P|370:71|420:61,1,97.9999952316285,0|8,0:0|0:0,0:0:0:0:
265,346,37191,2,0,P|199:324|149:314,1,97.9999952316285,8|0,0:0|0:0,0:0:0:0:
387,313,37491,5,2,0:0:0:0:
494,267,37641,1,0,0:0:0:0:
506,172,37791,1,8,0:1:0:0:
416,89,37941,1,8,0:0:0:0:
306,51,38091,2,0,L|196:72,1,97.9999952316285,0|8,0:0|0:0,0:0:0:0:
363,193,38391,2,0,L|470:174,1,97.9999952316285,8|0,0:0|0:0,0:0:0:0:
188,333,38691,6,0,L|163:229,1,97.9999952316285,2|0,0:0|0:0,0:0:0:0:
292,192,38991,2,0,L|339:171,2,48.9999976158143,8|0|8,0:1|0:0|0:0,0:0:0:0:
162,123,39291,2,0,L|149:65,1,48.9999976158143,2|0,0:1|0:0,0:0:0:0:
358,343,39441,2,0,L|366:285,1,48.9999976158143,0|0,0:0|0:0,0:0:0:0:
151,320,39591,1,8,0:1:0:0:
100,311,39666,1,0,0:0:0:0:
67,255,39741,1,8,0:1:0:0:
71,197,39816,1,0,0:0:0:0:
301,135,39891,6,0,P|365:119|423:117,1,97.9999952316285,4|0,0:0|0:0,0:0:0:0:
157,122,40191,2,0,P|128:63|129:11,1,97.9999952316285,2|0,0:0|0:0,0:0:0:0:
348,358,40491,2,0,P|377:299|376:247,1,97.9999952316285,2|0,0:0|0:0,0:0:0:0:
268,219,40791,1,2,0:0:0:0:
155,203,40941,1,0,0:0:0:0:
380,156,41091,6,0,P|461:144|499:128,1,97.9999952316285,10|0,0:0|0:0,0:0:0:0:
192,18,41391,2,0,P|157:62|143:112,1,97.9999952316285,2|0,0:0|0:0,0:0:0:0:
430,184,41691,2,0,P|465:228|479:278,1,97.9999952316285,2|0,0:0|0:0,0:0:0:0:
311,338,41991,1,2,0:0:0:0:
478,268,42141,1,0,0:0:0:0:
170,73,42291,5,10,0:0:0:0:
68,143,42441,2,0,L|58:205,2,48.9999976158143,0|0|2,0:0|0:0|0:0,0:0:0:0:
369,224,42741,2,0,L|140:202,1,195.999990463257,8|0,0:0|0:0,0:0:0:0:
334,125,43191,2,0,L|448:107,1,97.9999952316285,10|0,0:0|0:0,0:0:0:0:
87,323,43491,6,0,P|64:261|71:206,1,97.9999952316285,10|0,0:0|0:0,0:0:0:0:
308,189,43791,2,0,L|176:183,1,97.9999952316285,2|0,0:0|0:0,0:0:0:0:
425,323,44091,2,0,P|448:261|441:206,1,97.9999952316285,2|0,0:0|0:0,0:0:0:0:
210,184,44391,2,0,L|308:189,1,97.9999952316285,2|0,0:0|0:0,0:0:0:0:
84,131,44691,6,0,P|56:66|58:18,1,97.9999952316285,4|0,0:0|0:0,0:0:0:0:
338,342,44991,2,0,P|366:285|365:236,1,97.9999952316285,2|0,0:0|0:0,0:0:0:0:
92,365,45291,2,0,P|64:308|65:259,1,97.9999952316285,2|0,0:0|0:0,0:0:0:0:
170,219,45591,1,2,0:0:0:0:
36,170,45741,1,0,0:0:0:0:
303,186,45891,6,0,P|371:180|412:163,1,97.9999952316285,10|0,0:0|0:0,0:0:0:0:
151,36,46191,2,0,P|131:84|152:148,1,97.9999952316285,2|0,0:0|0:0,0:0:0:0:
405,267,46491,2,0,P|425:315|404:379,1,97.9999952316285,2|0,0:0|0:0,0:0:0:0:
283,248,46791,1,2,0:0:0:0:
167,237,46941,1,0,0:0:0:0:
408,153,47091,6,0,L|511:143,2,97.9999952316285,10|0|2,0:0|0:0|0:0,0:0:0:0:
169,62,47541,2,0,L|66:52,2,97.9999952316285,8|0|0,0:0|0:0|0:0,0:0:0:0:
467,166,47991,2,0,P|490:105|479:52,1,97.9999952316285,10|0,0:0|0:0,0:0:0:0:
171,297,48291,5,10,0:0:0:0:
315,275,48441,1,0,0:0:0:0:
71,194,48591,1,2,0:0:0:0:
22,160,48666,1,0,0:0:0:0:
21,112,48741,1,0,0:0:0:0:
68,74,48816,1,0,0:0:0:0:
297,28,48891,2,0,L|411:25,1,97.9999952316285,2|0,0:0|0:0,0:0:0:0:
125,1,49191,1,8,0:0:0:0:
425,128,49341,1,8,0:0:0:0:
155,215,49491,6,0,P|92:217|26:235,1,97.9999952316285,4|0,0:0|0:0,0:0:0:0:
348,338,49791,2,0,P|385:270|383:215,1,97.9999952316285,2|0,0:0|0:0,0:0:0:0:
142,125,50091,2,0,P|105:57|107:2,1,97.9999952316285,2|0,0:0|0:0,0:0:0:0:
225,4,50391,1,2,0:0:0:0:
347,2,50541,1,0,0:0:0:0:
99,270,50691,6,0,P|75:203|79:165,1,97.9999952316285,10|0,0:0|0:0,0:0:0:0:
392,79,50991,2,0,P|305:82|262:93,1,97.9999952316285,2|0,0:0|0:0,0:0:0:0:
35,352,51291,2,0,P|122:355|165:366,1,97.9999952316285,2|0,0:0|0:0,0:0:0:0:
262,260,51591,2,0,P|175:263|132:274,1,97.9999952316285,2|0,0:0|0:0,0:0:0:0:
390,328,51891,5,10,0:0:0:0:
502,258,52041,1,0,0:0:0:0:
481,203,52116,1,0,0:0:0:0:
428,179,52191,1,2,0:0:0:0:
169,121,52341,2,0,L|368:100,1,195.999990463257,8|0,0:0|0:0,0:0:0:0:
225,238,52791,2,0,L|102:230,1,97.9999952316285,10|0,0:0|0:0,0:0:0:0:
425,323,53091,6,0,P|448:261|441:206,1,97.9999952316285,10|0,0:0|0:0,0:0:0:0:
204,189,53391,2,0,L|336:183,1,97.9999952316285,2|0,0:0|0:0,0:0:0:0:
87,323,53691,2,0,P|64:261|71:206,1,97.9999952316285,2|0,0:0|0:0,0:0:0:0:
302,184,53991,2,0,L|204:189,1,97.9999952316285,2|0,0:0|0:0,0:0:0:0:
439,127,54291,6,0,L|462:21,1,97.9999952316285,4|0,0:0|0:0,0:0:0:0:
172,297,54591,2,0,L|151:201,1,97.9999952316285,2|0,0:0|0:0,0:0:0:0:
439,127,54891,2,0,L|462:21,1,97.9999952316285,2|0,0:0|0:0,0:0:0:0:
172,297,55191,2,0,L|151:201,1,97.9999952316285,2|0,0:0|0:0,0:0:0:0:
467,257,55491,5,4,0:0:0:0:
335,284,55641,1,0,0:0:0:0:
467,257,55791,1,8,0:0:0:0:
151,101,55941,5,8,0:0:0:0:
283,128,56091,1,10,0:0:0:0:
151,101,56241,1,0,0:0:0:0:
416,40,56391,5,2,0:0:0:0:
73,198,56541,1,0,0:0:0:0:
346,305,56691,5,4,0:0:0:0:
454,293,56841,1,0,0:0:0:0:
346,305,56991,1,2,0:0:0:0:
454,293,57141,1,8,0:0:0:0:
206,228,57291,5,10,0:0:0:0:
77,213,57441,1,8,0:0:0:0:
206,228,57591,1,10,0:0:0:0:
77,213,57741,1,8,0:0:0:0:
454,68,57891,5,4,0:0:0:0:
205,147,58491,2,0,L|138:147,1,48.9999976158143,2|0,0:1|0:0,0:0:0:0:
370,220,58641,2,0,L|439:221,1,48.9999976158143,0|0,0:0|0:0,0:0:0:0:
171,347,58791,1,2,0:0:0:0:
146,344,58828,1,0,0:0:0:0:
125,332,58866,1,2,0:0:0:0:
110,314,58903,1,0,0:0:0:0:
103,290,58941,1,2,0:0:0:0:
105,266,58978,1,0,0:0:0:0:
117,245,59016,1,2,0:0:0:0:
136,230,59053,1,0,0:0:0:0:
361,112,59091,6,0,L|468:119,1,97.9999952316285,4|0,0:0|0:0,0:0:0:0:
200,195,59391,2,0,L|190:90,1,97.9999952316285,8|0,0:0|0:0,0:0:0:0:
336,192,59691,2,0,L|347:320,1,97.9999952316285,2|0,0:0|0:0,0:0:0:0:
66,344,59991,2,0,L|189:325,1,97.9999952316285,8|0,0:0|0:0,0:0:0:0:
481,88,60291,6,0,L|278:61,1,195.999990463257,2|8,0:0|0:0,0:0:0:0:
107,236,60741,2,0,L|341:204,1,195.999990463257,0|0,0:0|0:0,0:0:0:0:
87,57,61191,2,0,P|46:101|37:172,1,97.9999952316285,8|0,0:0|0:0,0:0:0:0:
355,292,61491,6,0,L|481:279,1,97.9999952316285,2|0,0:0|0:0,0:0:0:0:
136,351,61791,2,0,L|124:244,1,97.9999952316285,8|0,0:0|0:0,0:0:0:0:
252,169,62091,2,0,L|142:181,1,97.9999952316285,2|0,0:0|0:0,0:0:0:0:
368,67,62391,2,0,L|487:81,1,97.9999952316285,8|0,0:0|0:0,0:0:0:0:
80,19,62691,6,0,L|308:45,1,195.999990463257,2|8,0:0|0:0,0:0:0:0:
86,248,63141,2,0,P|37:172|118:98,1,195.999990463257,0|0,0:0|0:0,0:0:0:0:
340,188,63591,2,0,L|265:186,1,48.9999976158143,10|2,0:0|0:0,0:0:0:0:
88,341,63741,2,0,L|159:343,1,48.9999976158143,2|2,0:0|0:0,0:0:0:0:
356,310,63891,6,0,L|472:309,1,97.9999952316285,4|0,0:0|0:0,0:0:0:0:
194,232,64191,2,0,L|186:122,1,97.9999952316285,8|0,0:0|0:0,0:0:0:0:
312,149,64491,2,0,L|425:138,1,97.9999952316285,2|0,0:0|0:0,0:0:0:0:
153,46,64791,2,0,L|32:67,1,97.9999952316285,8|0,0:0|0:0,0:0:0:0:
311,335,65091,6,0,P|393:307|365:188,1,195.999990463257,2|8,0:0|0:0,0:0:0:0:
253,136,65541,2,0,L|476:113,1,195.999990463257,0|0,0:0|0:0,0:0:0:0:
177,265,65991,2,0,L|38:258,1,97.9999952316285,8|0,0:0|0:0,0:0:0:0:
363,328,66291,6,0,L|477:338,2,97.9999952316285,2|0|8,0:0|0:0|0:0,0:0:0:0:
119,179,66741,2,0,L|5:189,2,97.9999952316285,0|2|0,0:0|0:0|0:0,0:0:0:0:
394,197,67191,2,0,L|501:184,1,97.9999952316285,8|0,0:0|0:0,0:0:0:0:
183,53,67491,5,2,0:0:0:0:
309,82,67641,1,0,0:0:0:0:
183,53,67791,1,8,0:0:0:0:
309,82,67941,1,0,0:0:0:0:
312,130,68016,1,0,0:0:0:0:
316,179,68091,1,2,0:0:0:0:
162,76,68241,2,0,L|84:76,1,48.9999976158143,0|0,0:0|0:0,0:0:0:0:
322,145,68391,2,0,L|319:66,1,48.9999976158143,10|2,0:0|0:0,0:0:0:0:
113,76,68541,2,0,L|162:76,1,48.9999976158143,2|2,0:0|0:0,0:0:0:0:
441,257,68691,6,0,P|478:187|462:142,1,97.9999952316285,4|0,0:0|0:0,0:0:0:0:
228,278,68991,2,0,L|116:276,1,97.9999952316285,8|0,0:0|0:0,0:0:0:0:
280,118,69291,2,0,L|281:226,1,97.9999952316285,2|0,0:0|0:0,0:0:0:0:
41,69,69591,2,0,L|146:52,1,97.9999952316285,8|0,0:0|0:0,0:0:0:0:
400,235,69891,6,0,L|166:221,1,195.999990463257,2|8,0:0|0:0,0:0:0:0:
321,13,70341,2,0,P|387:40|367:156,1,195.999990463257,0|0,0:0|0:0,0:0:0:0:
125,211,70791,2,0,P|62:220|17:217,1,97.9999952316285,8|0,0:0|0:0,0:0:0:0:
304,272,71091,6,0,P|362:264|422:265,1,97.9999952316285,2|0,0:0|0:0,0:0:0:0:
112,339,71391,1,8,0:0:0:0:
32,289,71541,1,0,0:0:0:0:
31,195,71691,1,2,0:0:0:0:
110,145,71841,1,0,0:0:0:0:
366,127,71991,2,0,L|480:129,1,97.9999952316285,8|0,0:0|0:0,0:0:0:0:
176,20,72291,6,0,P|141:114|240:169,1,195.999990463257,2|8,0:0|0:0,0:0:0:0:
341,171,72741,2,0,L|121:171,1,195.999990463257,0|0,0:0|0:0,0:0:0:0:
410,263,73191,2,0,L|462:263,1,48.9999976158143,10|2,0:0|0:0,0:0:0:0:
242,328,73341,2,0,L|176:329,1,48.9999976158143,2|2,0:0|0:0,0:0:0:0:
446,125,73491,6,0,L|456:15,1,97.9999952316285,4|0,0:0|0:0,0:0:0:0:
189,167,73791,2,0,L|293:151,1,97.9999952316285,8|0,0:0|0:0,0:0:0:0:
428,258,74091,2,0,L|306:246,1,97.9999952316285,6|0,0:0|0:0,0:0:0:0:
77,352,74391,2,0,L|181:342,1,97.9999952316285,8|0,0:0|0:0,0:0:0:0:
456,357,74691,6,0,L|465:246,1,97.9999952316285,4|0,0:0|0:0,0:0:0:0:
347,203,74991,1,8,0:0:0:0:
56,357,75141,2,0,L|47:246,1,97.9999952316285,0|4,0:0|0:0,0:0:0:0:
165,203,75441,1,0,0:0:0:0:
419,136,75591,1,8,0:0:0:0:
86,263,75741,1,0,0:0:0:0:
404,351,75891,6,0,L|413:245,1,97.9999952316285,4|0,0:0|0:0,0:0:0:0:
278,219,76191,2,0,L|286:113,1,97.9999952316285,8|0,0:0|0:0,0:0:0:0:
136,330,76491,2,0,L|145:224,1,97.9999952316285,4|0,0:0|0:0,0:0:0:0:
10,198,76791,2,0,L|18:92,1,97.9999952316285,8|0,0:0|0:0,0:0:0:0:
350,46,77091,5,4,0:0:0:0:
219,116,77241,1,0,0:0:0:0:
223,164,77316,1,0,0:0:0:0:
227,213,77391,1,4,0:0:0:0:
350,46,77541,1,0,0:0:0:0:
113,169,77691,2,0,L|121:282,1,97.9999952316285,8|8,0:0|0:0,0:0:0:0:
429,219,77991,2,0,L|433:350,1,97.9999952316285,8|8,0:0|0:0,0:0:0:0:
112,167,78291,5,4,0:0:0:0:
185,249,86391,5,2,0:0:0:0:
322,311,86541,2,0,L|326:207,1,97.9999952316285,8|0,0:0|0:0,0:0:0:0:
185,249,86841,1,8,0:0:0:0:
328,176,86991,1,8,0:0:0:0:
155,104,87141,1,8,0:0:0:0:
392,37,87291,5,2,0:1:0:0:
439,46,87366,1,0,0:0:0:0:
479,74,87441,1,0,0:0:0:0:
502,117,87516,1,0,0:0:0:0:
506,165,87591,1,0,0:0:0:0:
488,210,87666,1,0,0:0:0:0:
453,244,87741,1,0,0:0:0:0:
407,260,87816,1,0,0:0:0:0:
173,351,87891,6,0,L|161:240,1,97.9999952316285,4|0,0:0|0:0,0:0:0:0:
291,192,88191,2,0,L|396:178,2,97.9999952316285,2|0|2,0:0|0:0|0:0,0:0:0:0:
179,117,88641,1,0,0:0:0:0:
307,192,88791,1,2,0:0:0:0:
156,266,88941,1,0,0:0:0:0:
405,355,89091,6,0,L|414:248,1,97.9999952316285,10|0,0:0|0:0,0:0:0:0:
292,295,89391,1,2,0:0:0:0:
212,244,89541,1,0,0:0:0:0:
207,150,89691,1,2,0:0:0:0:
282,92,89841,1,0,0:0:0:0:
391,97,89991,1,2,0:0:0:0:
253,15,90141,1,0,0:0:0:0:
465,218,90291,6,0,L|476:119,1,97.9999952316285,10|0,0:0|0:0,0:0:0:0:
348,197,90591,2,0,L|248:175,1,97.9999952316285,2|0,0:0|0:0,0:0:0:0:
158,317,90891,2,0,L|263:303,1,97.9999952316285,2|0,0:0|0:0,0:0:0:0:
149,224,91191,1,2,0:0:0:0:
24,225,91341,1,0,0:0:0:0:
310,53,91491,5,10,0:0:0:0:
183,71,91641,1,0,0:0:0:0:
323,84,91791,2,0,L|333:189,1,97.9999952316285,2|0,0:0|0:0,0:0:0:0:
202,209,92091,5,10,0:0:0:0:
329,227,92241,1,0,0:0:0:0:
189,240,92391,2,0,L|179:345,1,97.9999952316285,2|0,0:0|0:0,0:0:0:0:
475,343,92691,5,4,0:0:0:0:
512,256,92841,1,0,0:0:0:0:
479,167,92991,1,2,0:0:0:0:
391,131,93141,1,0,0:0:0:0:
271,134,93291,2,0,L|260:243,1,97.9999952316285,2|0,0:0|0:0,0:0:0:0:
409,168,93591,2,0,L|422:65,1,97.9999952316285,2|0,0:0|0:0,0:0:0:0:
189,357,93891,6,0,L|173:251,1,97.9999952316285,4|0,0:0|0:0,0:0:0:0:
308,240,94191,2,0,L|293:120,1,97.9999952316285,2|0,0:0|0:0,0:0:0:0:
153,99,94491,2,0,L|251:83,1,97.9999952316285,2|0,0:0|0:0,0:0:0:0:
126,214,94791,2,0,L|235:192,1,97.9999952316285,2|0,0:0|0:0,0:0:0:0:
484,281,95091,5,4,0:0:0:0:
238,347,96291,6,0,L|225:299,1,48.9999976158143,2|0,0:0|0:0,0:0:0:0:
303,264,96441,2,0,L|315:213,1,48.9999976158143,0|0,0:0|0:0,0:0:0:0:
218,185,96591,2,0,L|202:127,1,48.9999976158143,2|0,0:0|0:0,0:0:0:0:
296,111,96741,2,0,L|333:74,1,48.9999976158143,0|0,0:0|0:0,0:0:0:0:
155,24,96891,2,0,L|105:13,1,48.9999976158143,2|0,0:1|0:0,0:0:0:0:
396,127,97041,2,0,L|443:141,1,48.9999976158143,8|0,0:0|0:0,0:0:0:0:
52,96,97191,2,0,L|40:149,1,48.9999976158143,8|0,0:0|0:0,0:0:0:0:
460,262,97341,2,0,L|466:199,1,48.9999976158143,8|0,0:0|0:0,0:0:0:0:
189,214,97491,6,0,P|126:211|58:227,1,97.9999952316285,4|0,0:0|0:0,0:0:0:0:
388,348,97791,2,0,P|406:280|396:234,1,97.9999952316285,8|0,0:0|0:0,0:0:0:0:
273,195,98091,2,0,P|194:174|146:168,1,97.9999952316285,2|0,0:0|0:0,0:0:0:0:
434,134,98391,2,0,P|473:74|478:36,1,97.9999952316285,8|0,0:0|0:0,0:0:0:0:
136,82,98691,6,0,L|347:63,1,195.999990463257,2|8,0:0|0:0,0:0:0:0:
205,144,99141,2,0,P|156:188|194:306,1,195.999990463257,0|0,0:0|0:0,0:0:0:0:
488,328,99591,2,0,P|419:328|346:340,1,97.9999952316285,8|0,0:0|0:0,0:0:0:0:
64,340,99891,6,0,P|37:286|44:223,1,97.9999952316285,2|0,0:0|0:0,0:0:0:0:
310,177,100191,2,0,P|249:167|200:169,1,97.9999952316285,8|0,0:0|0:0,0:0:0:0:
79,72,100491,2,0,P|144:85|186:89,1,97.9999952316285,2|0,0:0|0:0,0:0:0:0:
423,25,100791,2,0,P|456:69|457:123,1,97.9999952316285,8|0,0:0|0:0,0:0:0:0:
156,260,101091,6,0,L|355:243,1,195.999990463257,2|8,0:0|0:0,0:0:0:0:
490,148,101541,2,0,L|278:132,1,195.999990463257,2|0,0:0|0:0,0:0:0:0:
80,106,101991,2,0,L|76:53,1,48.9999976158143,10|2,0:0|0:0,0:0:0:0:
320,230,102141,2,0,L|264:231,1,48.9999976158143,2|2,0:0|0:0,0:0:0:0:
54,331,102291,6,0,P|22:273|36:220,1,97.9999952316285,4|0,0:0|0:0,0:0:0:0:
238,155,102591,2,0,L|343:141,1,97.9999952316285,8|0,0:0|0:0,0:0:0:0:
208,75,102891,2,0,L|96:58,1,97.9999952316285,2|0,0:0|0:0,0:0:0:0:
397,54,103191,2,0,P|436:94|445:149,1,97.9999952316285,8|0,0:0|0:0,0:0:0:0:
196,350,103491,6,0,P|131:287|191:190,1,195.999990463257,2|8,0:0|0:0,0:0:0:0:
304,192,103941,2,0,P|369:129|309:32,1,195.999990463257,0|0,0:0|0:0,0:0:0:0:
69,15,104391,2,0,L|73:123,1,97.9999952316285,8|2,0:0|0:0,0:0:0:0:
345,297,104691,6,0,L|204:289,1,97.9999952316285,2|0,0:0|0:0,0:0:0:0:
122,277,104991,1,8,0:0:0:0:
379,198,105141,2,0,L|493:177,2,97.9999952316285,0|2|0,0:0|0:0|0:0,0:0:0:0:
55,162,105591,2,0,L|45:50,1,97.9999952316285,8|0,0:0|0:0,0:0:0:0:
340,50,105891,5,2,0:0:0:0:
196,78,106041,1,0,0:0:0:0:
340,50,106191,1,8,0:0:0:0:
196,78,106341,1,0,0:0:0:0:
147,74,106416,1,0,0:0:0:0:
98,71,106491,1,2,0:0:0:0:
245,150,106641,2,0,L|317:156,1,48.9999976158143,0|0,0:0|0:0,0:0:0:0:
121,272,106791,2,0,L|121:201,1,48.9999976158143,10|2,0:0|0:0,0:0:0:0:
365,319,106941,2,0,L|304:317,1,48.9999976158143,2|2,0:0|0:0,0:0:0:0:
59,353,107091,6,0,L|50:250,1,97.9999952316285,4|0,0:0|0:0,0:0:0:0:
281,221,107391,2,0,L|396:206,1,97.9999952316285,8|0,0:0|0:0,0:0:0:0:
240,50,107691,2,0,L|238:171,1,97.9999952316285,2|0,0:0|0:0,0:0:0:0:
470,293,107991,2,0,L|477:167,1,97.9999952316285,8|0,0:0|0:0,0:0:0:0:
142,318,108291,6,0,L|366:294,1,195.999990463257,2|8,0:0|0:0,0:0:0:0:
211,84,108741,2,0,P|154:122|172:245,1,195.999990463257,0|2,0:0|0:0,0:0:0:0:
438,54,109191,2,0,L|339:50,1,97.9999952316285,8|0,0:0|0:0,0:0:0:0:
96,174,109491,6,0,L|93:63,1,97.9999952316285,2|0,0:0|0:0,0:0:0:0:
362,233,109791,2,0,L|233:233,1,97.9999952316285,8|0,0:0|0:0,0:0:0:0:
129,309,110091,2,0,L|227:310,1,97.9999952316285,2|0,0:0|0:0,0:0:0:0:
475,355,110391,2,0,L|476:256,1,97.9999952316285,8|0,0:0|0:0,0:0:0:0:
195,44,110691,6,0,P|131:91|172:199,1,195.999990463257,2|8,0:0|0:0,0:0:0:0:
300,211,111141,2,0,P|221:203|105:250,1,195.999990463257,0|0,0:0|0:0,0:0:0:0:
430,276,111591,2,0,L|436:211,1,48.9999976158143,10|2,0:0|0:0,0:0:0:0:
225,57,111741,2,0,L|221:116,1,48.9999976158143,2|2,0:0|0:0,0:0:0:0:
463,38,111891,6,0,L|351:26,1,97.9999952316285,4|0,0:0|0:0,0:0:0:0:
126,240,112191,2,0,L|240:226,1,97.9999952316285,8|0,0:0|0:0,0:0:0:0:
79,154,112491,2,0,L|193:140,1,97.9999952316285,6|0,0:0|0:0,0:0:0:0:
450,301,112791,2,0,L|458:184,1,97.9999952316285,8|0,0:0|0:0,0:0:0:0:
188,65,113091,5,4,0:0:0:0:
303,82,113241,1,0,0:0:0:0:
188,65,113391,1,8,0:0:0:0:
303,82,113541,1,0,0:0:0:0:
47,157,113691,5,4,0:0:0:0:
162,174,113841,1,0,0:0:0:0:
47,157,113991,1,8,0:0:0:0:
162,174,114141,1,0,0:0:0:0:
438,164,114291,5,4,0:0:0:0:
327,192,114441,1,0,0:0:0:0:
229,150,114591,1,8,0:0:0:0:
327,192,114741,1,0,0:0:0:0:
54,306,114891,5,4,0:0:0:0:
165,334,115041,1,0,0:0:0:0:
263,292,115191,1,8,0:0:0:0:
165,334,115341,1,0,0:0:0:0:
430,346,115491,5,4,0:0:0:0:
165,232,115641,1,0,0:0:0:0:
159,183,115716,1,0,0:0:0:0:
154,134,115791,1,4,0:0:0:0:
281,80,115941,1,0,0:0:0:0:
44,22,116091,2,0,L|50:138,1,97.9999952316285,8|8,0:0|0:0,0:0:0:0:
331,232,116391,1,8,0:0:0:0:
62,199,116541,1,8,0:0:0:0:
372,20,116691,5,4,0:0:0:0:
256,192,116766,12,0,121491,0:0:0:0:
