osu file format v14

[General]
AudioFilename: audio.mp3
AudioLeadIn: 1004
PreviewTime: 59091
Countdown: 0
SampleSet: Normal
StackLeniency: 0.5
Mode: 0
LetterboxInBreaks: 0
WidescreenStoryboard: 1

[Editor]
DistanceSpacing: 0.9
BeatDivisor: 4
GridSize: 4
TimelineZoom: 1

[Metadata]
Title:EDEN
TitleUnicode:EDEN
Artist:TERRA
ArtistUnicode:TЁЯRA
Creator:Kite
Version:deetz' Insane
Source:beatmania IIDX 12 HAPPY SKY
Tags:deetz handsome raose knyt Naoki Maeda Junko Karashima konami
BeatmapID:1205897
BeatmapSetID:500341

[Difficulty]
HPDrainRate:5
CircleSize:3.8
OverallDifficulty:8
ApproachRate:9
SliderMultiplier:1.8
SliderTickRate:1

[Events]
//Background and Video events
0,0,"knyt eden.jpg",0,0
//Break Periods
2,78491,87291
//Storyboard Layer 0 (Background)
//Storyboard Layer 1 (Fail)
//Storyboard Layer 2 (Pass)
//Storyboard Layer 3 (Foreground)
//Storyboard Sound Samples

[TimingPoints]
1491,300,4,2,1,60,1,0
1491,-133.333333333333,4,2,1,60,0,0
20691,-117.647058823529,4,1,1,60,0,0
39891,-100,4,1,1,60,0,0
59091,-100,4,1,1,75,0,1
78291,-100,4,1,1,75,0,0
87891,-133.333333333333,4,1,1,75,0,0
97491,-100,4,1,1,75,0,1
116691,-100,4,1,1,75,0,0
116766,-100,4,1,1,40,0,0
120216,-100,4,1,1,5,0,0

[Colours]
Combo1 : 255,255,128
Combo2 : 128,255,128
Combo3 : 255,128,255
Combo4 : 255,128,128

[HitObjects]
96,32,1491,6,0,P|92:77|64:168,1,135.000005149842,0|0,1:0|0:0,0:0:0:0:
108,232,1941,2,0,P|152:228|188:232,1,67.5000025749208
444,264,2391,5,0,1:0:0:0:
272,372,2691,2,0,P|272:320|344:244,1,135.000005149842,0|0,1:0|0:0,0:0:0:0:
180,278,3291,1,0,0:0:0:0:
375,341,3591,1,0,0:0:0:0:
180,278,3891,6,0,L|111:306,1,67.5000025749208,2|0,1:2|0:0,0:0:0:0:
23,204,4191,2,0,L|92:232,1,67.5000025749208,2|0,0:0|0:0,0:0:0:0:
242,151,4491,2,0,P|235:104|136:61,1,135.000005149842,2|0,0:0|1:0,0:0:0:0:
91,149,4941,2,0,L|159:136,1,67.5000025749208,2|0,0:2|1:0,0:0:0:0:
289,220,5241,2,0,L|432:230,1,135.000005149842,2|0,0:0|0:0,0:0:0:0:
423,229,5691,5,0,1:0:0:0:
202,366,5991,2,0,L|325:351,1,101.250003862381
302,353,6291,6,0,P|292:305|289:200,1,135.000005149842,0|0,1:0|0:0,0:0:0:0:
330,150,6741,2,0,P|330:114|324:78,1,67.5000025749208
37,85,7191,5,0,1:0:0:0:
215,182,7491,2,0,P|135:179|62:185,1,135.000005149842,0|0,1:0|0:0,0:0:0:0:
193,69,8091,1,0,0:0:0:0:
130,289,8391,1,0,0:0:0:0:
193,69,8691,6,0,P|239:93|272:101,1,67.5000025749208,2|0,1:2|0:0,0:0:0:0:
338,215,8991,2,0,P|306:226|277:243,1,67.5000025749208,2|0,0:0|0:0,0:0:0:0:
396,110,9291,2,0,P|435:136|452:231,1,135.000005149842,2|0,0:0|1:0,0:0:0:0:
401,277,9741,2,0,L|409:351,1,67.5000025749208,2|0,0:0|1:0,0:0:0:0:
249,318,10041,2,0,L|261:162,1,135.000005149842,2|8,0:0|0:3,0:0:0:0:
324,369,10491,5,8,0:3:0:0:
327,348,10791,1,4,0:3:0:0:
29,333,11091,5,4,0:0:0:0:
64,92,11541,1,2,0:0:0:0:
64,92,11691,1,2,0:0:0:0:
245,261,12291,5,4,0:0:0:0:
210,20,12741,1,2,0:0:0:0:
210,20,12891,1,2,0:0:0:0:
47,231,13491,6,0,P|118:212|183:206,1,135.000005149842,0|0,1:0|0:0,0:0:0:0:
237,149,13941,1,2,0:0:0:0:
237,149,14091,1,2,0:0:0:0:
249,347,14391,1,0,1:0:0:0:
303,287,14541,2,0,L|394:313,1,67.5000025749208,0|0,0:0|1:0,0:0:0:0:
482,226,14841,2,0,L|391:252,1,67.5000025749208
356,189,15141,1,2,0:0:0:0:
356,189,15291,1,2,0:0:0:0:
425,366,15591,1,0,0:0:0:0:
323,108,15891,5,4,0:0:0:0:
55,344,16341,1,2,0:0:0:0:
55,344,16491,1,2,0:0:0:0:
148,360,16791,1,0,0:0:0:0:
189,108,17091,5,4,0:0:0:0:
457,344,17541,1,2,0:0:0:0:
457,344,17691,1,2,0:0:0:0:
364,360,17991,1,0,0:0:0:0:
256,68,18291,5,4,0:0:0:0:
256,316,18741,1,2,0:0:0:0:
256,316,18891,1,2,0:0:0:0:
164,108,19191,1,0,0:0:0:0:
348,276,19491,6,0,L|388:272,2,33.7500012874604
264,204,19791,2,0,L|304:208,2,33.7500012874604
160,256,20091,2,0,L|200:252,2,33.7500012874604
76,184,20391,2,0,L|116:188,2,33.7500012874604
27,379,20691,6,0,P|91:355|200:349,1,153.000002918243,4|8,0:2|0:0,0:0:0:0:
302,287,21141,2,0,P|292:334|289:365,1,76.5000014591217
101,268,21441,1,8,0:0:0:0:
245,229,21591,2,0,L|159:220,1,76.5000014591217,8|0,0:0|0:0,0:0:0:0:
125,87,21891,5,4,0:2:0:0:
215,142,22041,2,0,L|301:133,1,76.5000014591217,0|8,0:0|0:0,0:0:0:0:
385,180,22341,2,0,P|417:234|377:345,1,153.000002918243,0|8,0:0|0:0,0:0:0:0:
507,112,22791,2,0,P|469:112|412:93,1,76.5000014591217
240,47,23091,5,4,0:2:0:0:
349,37,23241,2,8,L|323:132,1,76.5000014591217
276,245,23541,2,0,P|209:234|127:169,1,153.000002918243,0|8,0:0|0:0,0:0:0:0:
97,359,23991,2,0,P|110:310|111:263,1,76.5000014591217,8|0,0:0|0:0,0:0:0:0:
31,90,24291,2,0,P|44:139|45:186,1,76.5000014591217,4|0,0:2|0:0,0:0:0:0:
204,129,24591,1,8,0:0:0:0:
222,124,24666,1,0,0:0:0:0:
241,119,24741,1,0,0:0:0:0:
124,71,24891,5,4,0:2:0:0:
173,211,25041,2,0,P|217:222|266:250,1,76.5000014591217,8|0,0:0|0:0,0:0:0:0:
244,235,25341,1,8,0:0:0:0:
100,345,25491,6,0,P|171:361|260:314,1,153.000002918243,4|8,0:2|0:0,0:0:0:0:
6,214,25941,2,0,P|31:252|38:289,1,76.5000014591217
164,272,26241,1,8,0:0:0:0:
120,121,26391,2,0,L|100:212,1,76.5000014591217,8|0,0:0|0:0,0:0:0:0:
245,224,26691,6,0,P|341:208|426:209,1,153.000002918243,4|8,0:2|0:0,0:0:0:0:
381,368,27141,2,0,P|323:376|295:376,1,76.5000014591217
391,287,27441,1,8,0:0:0:0:
471,298,27591,2,0,L|461:401,1,76.5000014591217,8|0,0:0|0:0,0:0:0:0:
487,158,27891,6,0,P|467:100|361:62,1,153.000002918243,4|8,0:2|0:0,0:0:0:0:
213,186,28341,1,0,0:0:0:0:
213,186,28641,1,8,0:0:0:0:
244,296,28791,2,0,P|310:289|329:288,1,76.5000014591217,8|0,0:0|0:0,0:0:0:0:
395,170,29091,2,0,P|357:174|318:177,1,76.5000014591217,4|0,0:2|0:0,0:0:0:0:
458,280,29391,1,8,0:0:0:0:
458,280,29466,1,0,0:0:0:0:
458,280,29541,1,0,0:0:0:0:
496,172,29691,5,4,0:2:0:0:
336,15,29841,1,8,0:0:0:0:
439,64,29991,2,0,P|481:69|519:68,1,76.5000014591217,8|8,0:0|0:0,0:0:0:0:
382,164,30291,6,0,P|308:163|220:174,1,153.000002918243,4|8,0:2|0:0,0:0:0:0:
69,293,30741,2,0,P|59:340|56:371,1,76.5000014591217
287,293,31041,1,8,0:0:0:0:
140,343,31191,2,0,L|236:351,1,76.5000014591217,8|0,0:0|0:0,0:0:0:0:
59,186,31491,5,4,0:2:0:0:
140,252,31641,2,0,L|226:243,1,76.5000014591217,0|8,0:0|0:0,0:0:0:0:
278,123,31941,2,0,P|352:144|378:244,1,153.000002918243,0|8,0:0|0:0,0:0:0:0:
384,375,32391,2,0,P|346:375|289:356,1,76.5000014591217
435,102,32691,5,4,0:2:0:0:
495,183,32841,2,0,P|493:228|481:280,1,76.5000014591217,0|8,0:0|0:0,0:0:0:0:
366,286,33141,2,0,P|292:288|205:297,1,153.000002918243,4|8,0:2|0:0,0:0:0:0:
133,156,33591,2,0,P|146:107|147:60,1,76.5000014591217,8|0,0:0|0:0,0:0:0:0:
30,287,33891,2,0,P|43:336|44:383,1,76.5000014591217,4|0,0:2|0:0,0:0:0:0:
34,199,34191,1,8,0:0:0:0:
53,204,34266,1,0,0:0:0:0:
71,209,34341,1,0,0:0:0:0:
233,147,34491,5,0,0:0:0:0:
135,273,34641,2,0,P|173:265|219:260,1,76.5000014591217,8|0,0:0|0:0,0:0:0:0:
210,260,34941,1,8,0:0:0:0:
317,42,35091,6,0,P|323:104|391:170,1,153.000002918243,4|8,0:2|0:0,0:0:0:0:
384,370,35541,2,0,P|372:295|317:244,1,153.000002918243,0|8,0:0|0:0,0:0:0:0:
470,172,35991,2,0,P|503:143|512:103,1,76.5000014591217
270,170,36291,6,0,L|179:160,1,76.5000014591217,4|0,0:2|0:0,0:0:0:0:
374,127,36591,1,8,0:0:0:0:
374,127,36666,1,0,0:0:0:0:
374,127,36741,1,0,0:0:0:0:
337,311,36891,5,4,0:2:0:0:
478,257,37041,2,0,L|403:249,2,76.5000014591217,8|0|8,0:0|0:0|0:0,0:0:0:0:
290,238,37491,5,4,0:2:0:0:
290,238,37641,1,0,0:0:0:0:
408,171,37791,1,8,0:0:0:0:
360,366,37941,2,0,P|308:349|187:343,1,153.000002918243,0|8,0:0|0:0,0:0:0:0:
297,146,38391,2,0,L|302:62,1,76.5000014591217
390,270,38691,6,0,L|475:286,1,76.5000014591217,4|0,0:2|0:0,0:0:0:0:
252,243,38991,2,0,L|303:235,2,38.2500007295609,4|0|0,0:2|0:2|0:2,0:0:0:0:
141,345,39291,1,8,0:3:0:0:
141,345,39366,1,8,0:3:0:0:
141,345,39441,1,8,0:3:0:0:
141,345,39516,1,8,0:3:0:0:
141,345,39591,2,0,P|147:290|142:241,1,76.5000014591217,8|4,0:3|0:3,0:0:0:0:
252,347,39891,6,0,P|233:284|227:127,2,180,4|8|0,0:0|0:0|0:0,0:0:0:0:
120,197,40641,2,0,P|66:188|25:191,1,90,2|8,0:0|0:0,0:0:0:0:
322,46,40941,2,0,L|312:157,1,90,2|0,0:0|0:0,0:0:0:0:
377,199,41241,1,2,0:0:0:0:
214,95,41391,6,0,P|337:95|411:88,1,180,8|0,0:0|0:0,0:0:0:0:
366,303,41841,1,8,0:0:0:0:
468,150,41991,2,0,P|477:211|486:240,1,90,8|0,0:0|0:0,0:0:0:0:
372,203,42291,6,0,B|269:187|311:247|170:217,1,180,4|8,0:2|0:0,0:0:0:0:
141,128,42741,2,0,P|73:133|25:236,1,180
109,288,43191,2,0,P|124:337|125:379,1,90,8|0,0:0|0:0,0:0:0:0:
154,34,43491,6,0,P|227:49|308:51,1,135,4|0,0:2|0:0,0:0:0:0:
287,51,43791,2,0,P|272:100|271:142,1,90,8|0,0:0|0:0,0:0:0:0:
488,331,44091,2,0,P|485:286|471:243,1,90,4|0,0:2|0:0,0:0:0:0:
445,14,44391,2,8,L|420:111,1,90
208,263,44691,6,0,P|262:279|401:263,2,180,4|8|0,0:0|0:0|0:0,0:0:0:0:
357,362,45441,2,0,P|414:372|455:388,1,90,2|8,0:0|0:0,0:0:0:0:
119,236,45741,2,0,P|122:294|122:339,1,90,2|0,0:0|0:0,0:0:0:0:
191,383,46041,1,2,0:0:0:0:
258,148,46191,6,0,P|188:156|53:148,1,180,8|0,0:0|0:0,0:0:0:0:
131,19,46641,1,0,0:0:0:0:
9,188,46791,2,0,L|26:279,1,90,8|0,0:0|0:0,0:0:0:0:
272,140,47091,6,0,B|163:173|204:108|80:144,1,180,4|8,0:2|0:0,0:0:0:0:
106,337,47541,2,0,P|146:370|281:363,1,180,4|0,0:2|0:0,0:0:0:0:
440,198,47991,2,0,P|377:189|321:195,1,90,8|0,0:0|0:0,0:0:0:0:
303,276,48291,5,4,0:2:0:0:
303,276,48441,1,0,0:0:0:0:
470,113,48591,1,8,0:0:0:0:
302,132,48741,1,0,0:0:0:0:
320,119,48816,1,0,0:0:0:0:
342,112,48891,1,8,0:0:0:0:
203,28,49041,1,0,0:0:0:0:
229,190,49191,2,0,P|178:182|138:180,1,90,8|0,0:0|0:0,0:0:0:0:
377,310,49491,6,0,P|323:315|182:362,2,180,4|8|0,0:0|0:0|0:0,0:0:0:0:
147,239,50241,2,0,P|205:254|243:258,1,90,2|8,0:0|0:0,0:0:0:0:
51,366,50541,2,0,P|66:308|70:270,1,90,2|0,0:0|0:0,0:0:0:0:
9,211,50841,1,2,0:0:0:0:
249,179,50991,6,0,P|238:116|247:-1,1,180,8|0,0:0|0:0,0:0:0:0:
432,64,51441,1,8,0:0:0:0:
342,204,51591,2,0,B|330:316,1,90,8|0,0:0|0:0,0:0:0:0:
357,73,51891,6,0,P|411:89|473:203,1,180,4|8,0:2|0:0,0:0:0:0:
438,340,52341,2,0,B|335:356|377:296|236:326,1,180
183,274,52791,2,0,P|174:333|181:370,1,90,8|0,0:0|0:0,0:0:0:0:
315,244,53091,6,0,P|319:188|298:93,1,135,4|0,0:2|0:0,0:0:0:0:
304,110,53391,2,0,L|202:106,1,90,8|0,0:0|0:0,0:0:0:0:
34,94,53691,1,4,0:2:0:0:
34,94,53841,1,0,0:0:0:0:
234,58,53991,2,0,P|191:98|107:124,1,135,8|0,0:0|0:0,0:0:0:0:
119,123,54291,6,0,L|134:219,1,90,4|2,0:2|0:3,0:0:0:0:
294,125,54591,2,0,L|282:221,1,90,0|2,0:0|0:3,0:0:0:0:
461,171,54891,2,0,L|425:261,1,90,0|2,0:0|0:3,0:0:0:0:
502,96,55191,1,0,0:0:0:0:
502,96,55341,1,0,0:0:0:0:
360,292,55491,6,0,L|375:398,1,90,4|4,0:2|0:3,0:0:0:0:
372,381,55716,1,4,0:3:0:0:
372,381,55791,1,4,0:3:0:0:
152,292,55941,2,0,L|137:398,1,90,4|4,0:2|0:3,0:0:0:0:
139,381,56241,1,4,0:3:0:0:
256,276,56391,2,8,L|256:376,1,90,8|4,0:3|0:3,0:3:0:0:
256,108,56691,5,4,0:3:0:0:
256,99,56841,1,4,0:3:0:0:
256,90,56991,1,4,0:3:0:0:
256,81,57141,1,4,0:3:0:0:
256,72,57291,1,4,0:3:0:0:
256,63,57441,1,4,0:3:0:0:
256,53,57591,1,4,0:3:0:0:
256,45,57741,1,4,0:3:0:0:
256,192,57891,5,4,0:2:0:0:
256,45,58491,5,2,0:2:0:0:
208,335,59091,5,4,0:0:0:0:
208,335,59391,2,0,B|331:328|252:272|412:272,1,180,8|0,0:0|0:0,0:0:0:0:
259,27,59841,1,0,0:0:0:0:
259,27,59991,2,0,P|286:83|284:112,1,90,8|0,0:0|0:0,0:0:0:0:
145,272,60291,6,0,P|137:194|237:112,1,180,4|8,0:2|0:0,0:0:0:0:
208,335,60741,2,0,P|160:302|14:306,1,180,4|0,0:2|0:0,0:0:0:0:
37,121,61191,2,0,P|47:166|49:248,1,90,8|0,0:0|0:0,0:0:0:0:
292,361,61491,6,0,P|329:329|466:308,1,180,4|8,0:2|0:0,0:0:0:0:
496,108,61941,1,0,0:0:0:0:
382,122,62091,2,0,P|395:165|427:197,1,90
290,77,62391,2,0,P|268:116|269:160,1,90,8|0,0:0|0:0,0:0:0:0:
127,366,62691,6,0,B|139:260|88:288|108:154,1,180,4|8,0:2|0:0,0:0:0:0:
312,247,63141,1,0,0:0:0:0:
100,96,63291,2,0,P|148:91|197:105,1,90,4|0,0:2|0:0,0:0:0:0:
405,262,63591,2,0,P|371:325|279:342,1,135,8|0,0:0|2:2,0:0:0:0:
219,253,63891,5,4,0:0:0:0:
219,253,64191,2,0,P|232:198|348:160,1,180,8|0,0:0|0:0,0:0:0:0:
45,336,64641,1,0,0:0:0:0:
45,336,64791,2,0,P|46:270|39:234,1,90,8|0,0:0|0:0,0:0:0:0:
192,87,65091,2,0,P|113:110|9:87,1,180,4|8,0:2|0:0,0:0:0:0:
358,218,65541,2,0,P|271:194|184:213,1,180,4|0,0:2|0:0,0:0:0:0:
382,34,65991,2,0,P|368:77|371:145,1,90,8|0,0:0|0:0,0:0:0:0:
498,350,66291,5,8,0:0:0:0:
512,261,66441,2,0,L|408:274,1,90
193,261,66741,5,8,0:0:0:0:
179,350,66891,2,0,L|283:337,1,90
427,195,67191,2,0,L|337:206,1,90,8|0,0:0|0:0,0:0:0:0:
40,161,67491,5,8,0:0:0:0:
93,328,67641,1,0,0:0:0:0:
226,166,67791,1,0,0:0:0:0:
97,238,67941,1,8,0:0:0:0:
88,238,68016,1,0,0:0:0:0:
79,240,68091,1,0,0:0:0:0:
174,52,68241,1,8,0:0:0:0:
180,58,68316,1,0,0:0:0:0:
187,64,68391,1,0,0:0:0:0:
194,68,68466,1,0,0:0:0:0:
202,73,68541,1,0,0:0:0:0:
211,76,68616,1,0,0:0:0:0:
219,77,68691,6,0,B|217:190|277:125|280:241,1,180,4|8,0:0|0:0,0:0:0:0:
279,238,69291,2,0,P|344:248|384:261,1,90
512,56,69591,2,0,P|468:67|423:72,1,90,8|0,0:0|0:0,0:0:0:0:
296,139,69891,6,0,P|400:160|444:224,1,180,4|8,0:2|0:0,0:0:0:0:
199,308,70341,2,0,P|203:245|193:105,1,180,4|0,0:2|0:0,0:0:0:0:
304,275,70791,2,0,P|302:327|307:373,1,90,8|0,0:0|0:0,0:0:0:0:
61,330,71091,5,4,0:2:0:0:
61,330,71391,2,0,P|70:277|-43:199,1,180,8|0,0:0|0:0,0:0:0:0:
134,13,71841,1,0,0:0:0:0:
134,13,71991,2,0,P|123:67|121:106,1,90,8|0,0:0|0:0,0:0:0:0:
208,289,72291,5,4,0:2:0:0:
306,160,72441,1,0,0:0:0:0:
372,357,72591,1,8,0:0:0:0:
457,84,72741,2,0,P|369:76|244:63,1,180,4|8,0:2|0:0,0:0:0:0:
89,216,73191,2,0,P|144:212|213:205,1,90,8|0,0:0|2:0,0:0:0:0:
393,293,73491,5,4,0:2:0:0:
393,293,73641,1,0,0:0:0:0:
341,378,73791,2,0,L|436:384,1,90,8|0,0:0|0:0,0:0:0:0:
119,293,74091,5,4,0:2:0:0:
119,293,74241,1,0,0:0:0:0:
171,378,74391,2,0,L|76:384,1,90,8|0,0:0|0:0,0:0:0:0:
340,208,74691,5,4,0:0:0:0:
172,208,74841,1,0,0:0:0:0:
256,36,74991,2,0,L|256:136,1,90,4|8,0:0|0:0,0:0:0:0:
393,310,75291,6,0,P|450:291|508:277,1,90,4|8,0:0|0:0,0:0:0:0:
119,310,75591,2,0,P|62:291|4:277,1,90,4|8,0:0|0:0,0:0:0:0:
256,364,75891,5,4,0:3:0:0:
256,356,76041,1,4,0:3:0:0:
256,348,76191,1,4,0:3:0:0:
256,340,76341,1,4,0:3:0:0:
256,332,76491,1,4,0:3:0:0:
256,324,76641,1,4,0:3:0:0:
256,316,76791,1,4,0:3:0:0:
256,308,76941,1,4,0:3:0:0:
380,202,77091,5,8,0:3:0:0:
172,273,77241,1,8,0:3:0:0:
172,273,77316,1,8,0:3:0:0:
172,273,77391,2,8,L|52:246,1,90,8|8,0:3|0:3,0:3:0:0:
395,337,77691,5,4,0:3:0:0:
171,160,77841,1,4,0:3:0:0:
364,66,77991,1,4,0:3:0:0:
364,66,78291,5,4,0:0:0:0:
77,94,87891,5,4,0:2:0:0:
77,94,88191,6,0,P|44:119|10:128,1,67.5000025749208,0|2,0:3|0:3,0:3:0:0:
159,91,88491,2,0,P|153:49|163:15,1,67.5000025749208,0|2,0:3|0:3,0:3:0:0:
120,163,88791,2,0,P|158:179|182:204,1,67.5000025749208,0|2,0:3|0:3,0:3:0:0:
435,94,89091,5,4,0:2:0:0:
435,94,89391,6,0,P|468:119|502:128,1,67.5000025749208,0|2,0:3|0:3,0:3:0:0:
353,91,89691,2,0,P|358:49|348:15,1,67.5000025749208,0|2,0:3|0:3,0:3:0:0:
392,163,89991,2,0,P|353:179|329:204,1,67.5000025749208,0|2,0:3|0:3,0:3:0:0:
138,297,90291,5,4,0:2:0:0:
138,297,90591,6,0,L|168:376,1,67.5000025749208,0|2,0:3|0:3,0:3:0:0:
256,256,90891,2,0,L|256:336,1,67.5000025749208,0|2,0:3|0:3,0:3:0:0:
374,297,91191,2,0,L|344:376,1,67.5000025749208,0|2,0:3|0:3,0:3:0:0:
352,216,91491,5,4,0:2:0:0:
352,216,91641,1,0,0:3:0:0:
298,155,91791,2,0,L|306:72,1,67.5000025749208,0|2,0:3|0:3,0:3:0:0:
160,216,92091,5,4,0:2:0:0:
160,216,92241,1,0,0:3:0:0:
214,155,92391,2,0,L|206:72,1,67.5000025749208,0|2,0:3|0:3,0:3:0:0:
256,256,92691,5,4,0:2:0:0:
37,93,92991,6,0,L|104:104,1,67.5000025749208,0|2,0:3|0:3,0:3:0:0:
20,192,93291,2,0,L|88:192,1,67.5000025749208,0|2,0:3|0:3,0:3:0:0:
37,290,93591,2,0,L|104:280,1,67.5000025749208,0|2,0:3|0:3,0:3:0:0:
256,128,93891,5,4,0:2:0:0:
474,93,94191,6,0,L|408:104,1,67.5000025749208,0|2,0:3|0:3,0:3:0:0:
491,192,94491,2,0,L|424:192,1,67.5000025749208,0|2,0:3|0:3,0:3:0:0:
474,290,94791,2,0,L|408:280,1,67.5000025749208,0|2,0:3|0:3,0:3:0:0:
256,192,95091,5,4,0:1:0:0:
300,297,96291,6,2,L|300:264,3,33.7500012874604,2|2|2|2,0:2|0:2|0:2|0:2,0:2:0:0:
212,297,96591,2,2,L|212:264,3,33.7500012874604,2|2|2|2,0:2|0:2|0:2|0:2,0:2:0:0:
256,196,96891,5,0,0:0:0:0:
249,180,96966,1,0,0:0:0:0:
247,163,97041,1,0,0:0:0:0:
249,147,97116,1,0,0:0:0:0:
255,131,97191,1,0,0:0:0:0:
261,115,97266,1,0,0:0:0:0:
263,98,97341,1,0,0:0:0:0:
261,82,97416,1,0,0:0:0:0:
256,71,97491,5,4,0:0:0:0:
256,71,97791,2,0,B|375:76|292:140|461:132,1,180,8|0,0:0|0:0,0:0:0:0:
495,342,98241,1,0,0:0:0:0:
495,342,98391,2,0,P|456:373|395:383,1,90,8|0,0:0|0:0,0:0:0:0:
193,372,98691,6,0,P|161:289|176:182,1,180,4|8,0:2|0:0,0:0:0:0:
211,72,99141,1,4,0:2:0:0:
211,72,99216,1,0,0:0:0:0:
211,72,99291,1,0,0:0:0:0:
312,257,99441,1,8,0:0:0:0:
300,138,99591,2,0,P|344:149|399:168,1,90,8|0,0:0|0:0,0:0:0:0:
512,28,99891,6,0,P|461:39|322:46,1,180,4|8,0:2|0:0,0:0:0:0:
61,61,100341,1,0,0:0:0:0:
61,61,100491,2,0,P|63:120|62:158,1,90
162,107,100791,2,0,P|161:62|163:17,1,90,8|0,0:0|0:0,0:0:0:0:
0,256,101091,6,0,B|111:238|53:295|210:261,1,180,4|8,0:2|0:0,0:0:0:0:
401,241,101541,1,4,0:2:0:0:
401,241,101616,1,0,3:0:0:0:
401,241,101691,1,0,3:2:0:0:
241,111,101841,1,8,0:0:0:0:
175,364,101991,2,0,P|257:338|325:332,1,135,8|0,0:0|2:0,0:0:0:0:
433,335,102291,5,4,0:0:0:0:
433,335,102591,2,0,P|447:236|443:138,1,180,8|0,0:0|0:0,0:0:0:0:
240,254,103041,1,0,0:0:0:0:
240,254,103191,2,0,P|232:187|236:157,1,90,8|0,0:0|0:0,0:0:0:0:
323,346,103491,6,0,P|236:363|138:373,1,180,4|8,0:2|0:0,0:0:0:0:
134,122,103941,2,0,P|223:131|311:148,1,180,4|0,0:2|0:0,0:0:0:0:
88,270,104391,2,0,L|-24:290,1,90,8|0,0:0|0:0,0:0:0:0:
16,20,104691,5,8,0:0:0:0:
46,105,104841,2,0,L|17:210,1,90
164,207,105141,5,8,0:0:0:0:
134,122,105291,2,0,L|163:17,1,90
257,190,105591,2,0,L|228:295,1,90,8|0,0:0|0:0,0:0:0:0:
135,323,105891,5,8,0:0:0:0:
331,255,106041,1,0,0:0:0:0:
164,207,106191,1,0,0:0:0:0:
302,335,106341,1,8,0:0:0:0:
302,344,106416,1,0,0:0:0:0:
304,353,106491,1,0,0:0:0:0:
392,197,106641,1,8,0:0:0:0:
386,191,106716,1,0,0:0:0:0:
379,185,106791,1,0,0:0:0:0:
372,181,106866,1,0,0:0:0:0:
364,176,106941,1,0,0:0:0:0:
355,173,107016,1,0,0:0:0:0:
347,172,107091,6,0,B|349:59|289:124|286:8,1,180,4|8,0:0|0:0,0:0:0:0:
286,10,107691,2,0,P|239:30|196:36,1,90
23,207,107991,2,0,P|67:214|108:232,1,90,8|0,0:0|0:0,0:0:0:0:
271,118,108291,6,0,P|180:124|80:137,1,180,4|8,0:2|0:0,0:0:0:0:
42,306,108741,1,4,0:2:0:0:
42,306,108816,1,0,0:0:0:0:
42,306,108891,1,0,0:0:0:0:
213,238,109041,1,8,0:0:0:0:
136,333,109191,2,0,P|178:337|238:360,1,90,8|0,0:0|0:0,0:0:0:0:
323,151,109491,6,0,P|318:248|305:361,1,180,4|8,0:2|0:0,0:0:0:0:
502,252,109941,1,0,0:0:0:0:
413,384,110091,2,0,L|409:287,1,90
495,62,110391,2,0,L|491:151,1,90,8|0,0:0|0:0,0:0:0:0:
259,156,110691,5,4,0:2:0:0:
414,78,110841,1,0,0:0:0:0:
203,31,110991,1,8,0:0:0:0:
419,187,111141,2,0,P|338:211|231:275,1,180,4|8,0:2|0:0,0:0:0:0:
83,63,111591,2,0,P|126:92|159:139,1,90,8|0,0:0|0:0,0:0:0:0:
45,285,111891,5,4,0:2:0:0:
45,285,112041,1,0,0:0:0:0:
160,235,112191,2,0,L|140:327,1,90,8|0,0:0|0:0,0:0:0:0:
467,285,112491,5,4,0:2:0:0:
467,285,112641,1,0,0:0:0:0:
352,235,112791,2,0,L|372:327,1,90,8|0,0:0|0:0,0:0:0:0:
256,332,113091,5,4,0:0:0:0:
256,88,113241,1,0,0:0:0:0:
256,256,113391,2,0,L|256:166,1,90,4|8,0:0|0:0,0:0:0:0:
48,100,113691,2,0,P|88:120|136:128,1,90,4|8,0:0|0:0,0:0:0:0:
464,100,113991,2,0,P|424:120|376:128,1,90,4|8,0:0|0:0,0:0:0:0:
256,256,114291,5,4,0:3:0:0:
256,264,114441,1,4,0:3:0:0:
256,272,114591,1,4,0:3:0:0:
256,280,114741,1,4,0:3:0:0:
256,288,114891,1,4,0:3:0:0:
256,296,115041,1,4,0:3:0:0:
256,304,115191,1,4,0:3:0:0:
256,312,115341,1,4,0:3:0:0:
388,185,115491,5,8,0:3:0:0:
176,340,115641,1,8,0:3:0:0:
176,340,115716,1,8,0:3:0:0:
176,340,115791,1,8,0:3:0:0:
257,90,115941,1,8,0:3:0:0:
336,340,116091,1,8,0:3:0:0:
125,185,116241,1,4,0:3:0:0:
388,185,116391,1,4,0:3:0:0:
256,256,116541,6,4,L|256:172,2,45,4|4|4,0:3|0:3|0:3,0:3:0:0:
256,328,117891,5,2,2:0:0:0:
256,356,119091,5,2,2:0:0:0:
