osu file format v14

[General]
AudioFilename: audio.mp3
AudioLeadIn: 1004
PreviewTime: 59091
Countdown: 0
SampleSet: Normal
StackLeniency: 0.5
Mode: 0
LetterboxInBreaks: 0
WidescreenStoryboard: 1

[Editor]
DistanceSpacing: 1
BeatDivisor: 2
GridSize: 4
TimelineZoom: 1

[Metadata]
Title:EDEN
TitleUnicode:EDEN
Artist:TERRA
ArtistUnicode:TЁЯRA
Creator:Kite
Version:Relaxing
Source:beatmania IIDX 12 HAPPY SKY
Tags:deetz handsome raose knyt Naoki Maeda Junko Karashima konami
BeatmapID:1065866
BeatmapSetID:500341

[Difficulty]
HPDrainRate:2
CircleSize:2.6
OverallDifficulty:3.5
ApproachRate:4
SliderMultiplier:1.2
SliderTickRate:1

[Events]
//Background and Video events
0,0,"knyt eden.jpg",0,0
//Break Periods
2,78491,86571
//Storyboard Layer 0 (Background)
//Storyboard Layer 1 (Fail)
//Storyboard Layer 2 (Pass)
//Storyboard Layer 3 (Foreground)
//Storyboard Sound Samples

[TimingPoints]
1491,300,4,2,1,60,1,0
1491,-166.666666666667,4,2,1,60,0,0
11091,-161.290322580645,4,2,1,60,0,0
15891,-156.25,4,2,1,60,0,0
17091,-151.515151515152,4,2,1,60,0,0
18291,-147.058823529412,4,2,1,60,0,0
19340,-133.333333333333,4,2,1,60,0,0
20691,-133.333333333333,4,1,1,60,0,0
39891,-133.333333333333,4,1,1,60,0,0
57891,-133.333333333333,4,1,1,60,0,0
59091,-125,4,1,1,60,0,1
78291,-125,4,1,1,60,0,0
87816,-125,4,2,1,60,0,0
96291,-125,4,2,1,60,0,0
96891,-125,4,1,1,60,0,0
97491,-125,4,1,1,60,0,1
116391,-125,4,1,1,60,0,0
116616,-125,4,2,1,60,0,0

[Colours]
Combo1 : 255,255,128
Combo2 : 128,255,128
Combo3 : 255,128,255
Combo4 : 255,128,128

[HitObjects]
64,332,1491,5,8,0:0:0:0:
85,118,2391,1,8,0:0:0:0:
91,189,2691,2,0,P|155:231|241:89,1,287.999991210938,8|8,0:0|0:0,0:0:0:0:
455,55,4791,5,8,0:0:0:0:
451,126,5091,1,8,0:0:0:0:
338,215,5691,1,8,0:0:0:0:
317,72,6291,5,8,0:0:0:0:
408,267,7191,1,8,0:0:0:0:
370,205,7491,2,0,P|297:176|249:330,1,287.999991210938,8|8,0:0|0:0,0:0:0:0:
116,160,9591,1,8,0:0:0:0:
82,223,9891,1,8,0:0:0:0:
50,82,10491,1,2,0:0:0:0:
188,124,11091,6,0,P|263:121|344:93,1,148.79999409668,4|8,0:0|0:0,0:0:0:0:
463,27,12291,2,0,P|428:93|411:177,1,148.79999409668,8|2,0:0|0:0,0:0:0:0:
408,313,13491,2,0,P|366:248|188:124,1,297.59998819336,8|8,0:0|0:0,0:0:0:0:
41,98,15291,1,8,0:0:0:0:
128,224,15891,6,0,P|153:299|116:360,1,153.6,4|8,0:0|0:0,0:0:0:0:
94,202,17091,2,0,L|120:44,1,158.399999516602,8|8,0:0|0:0,0:0:0:0:
203,186,18291,2,0,L|229:349,1,163.200000996094,8|8,0:0|0:0,0:0:0:0:
319,191,19491,2,0,L|334:93,3,90.0000034332277,0|0|2|2,0:0|0:0|0:0|0:0,0:0:0:0:
390,32,20691,6,0,P|454:20|517:60,2,135.000005149841,4|0|0,0:0|0:0|0:0,0:0:0:0:
332,102,21891,2,0,L|198:76,2,135.000005149841,4|0|0,0:0|0:0|0:0,0:0:0:0:
367,185,23091,2,0,P|424:218|489:206,2,135.000005149841,4|0|0,0:0|0:0|0:0,0:0:0:0:
332,102,24291,2,0,L|153:67,1,180.000006866455,0|0,0:0|0:0,0:0:0:0:
27,195,25491,6,0,P|12:269|37:322,2,135.000005149841,4|0|0,0:0|0:0|0:0,0:0:0:0:
88,128,26691,1,8,0:0:0:0:
205,264,27291,2,0,P|291:279|346:211,1,180.000006866455,0|0,0:0|0:0,0:0:0:0:
88,128,28791,1,0,0:0:0:0:
146,59,29091,2,0,L|296:48,2,135.000005149841,8|0|0,0:0|0:0|0:0,0:0:0:0:
88,128,30291,5,4,0:0:0:0:
32,251,30741,1,0,0:0:0:0:
133,339,31191,1,0,0:0:0:0:
204,284,31491,2,0,P|258:273|323:316,2,135.000005149841,8|0|0,0:0|0:0|0:0,0:0:0:0:
133,339,32691,5,0,0:0:0:0:
32,251,33141,1,0,0:0:0:0:
88,128,33591,1,8,0:0:0:0:
174,154,33891,2,0,P|221:115|143:64,1,180.000006866455,4|8,0:0|0:0,0:0:0:0:
88,128,34791,1,8,0:0:0:0:
86,217,35091,6,0,L|85:357,2,135.000005149841,4|0|0,0:0|0:0|0:0,0:0:0:0:
171,244,36291,2,0,P|227:264|326:207,1,180.000006866455,4|8,0:0|0:0,0:0:0:0:
337,28,37491,6,0,P|297:106|492:173,1,360.000013732911,8|8,0:0|0:0,0:0:0:0:
386,327,39291,1,0,0:0:0:0:
297,343,39591,1,0,0:0:0:0:
207,353,39891,6,0,L|107:340,3,90.0000034332277,4|2|0|0,0:0|0:0|0:0|0:0,0:0:0:0:
80,259,41091,2,0,L|180:246,3,90.0000034332277,0|0|2|2,0:0|0:0|0:0|0:0,0:0:0:0:
248,204,42291,6,0,P|281:139|255:84,2,135.000005149841,0|0|0,0:0|0:0|0:0,0:0:0:0:
169,247,43491,1,0,0:0:0:0:
80,234,43791,1,2,0:0:0:0:
42,152,44091,1,0,0:0:0:0:
71,67,44391,1,2,0:0:0:0:
157,42,44691,6,0,P|203:38|245:62,3,90.0000034332277,4|2|0|0,0:0|0:0|0:0|0:0,0:0:0:0:
287,135,45891,2,0,P|326:114|370:119,3,90.0000034332277,2|2|0|2,0:0|0:0|0:0|0:0,0:0:0:0:
443,171,47091,6,0,L|450:311,2,135.000005149841,2|2|2,0:0|0:0|0:0,0:0:0:0:
454,81,48291,1,2,0:0:0:0:
382,26,48591,1,2,0:0:0:0:
295,50,48891,2,0,P|243:52|204:31,1,90.0000034332277,2|2,0:0|0:0,0:0:0:0:
130,79,49491,6,0,L|115:169,3,90.0000034332277,4|2|0|0,0:0|0:0|0:0|0:0,0:0:0:0:
183,227,50691,2,0,L|197:315,3,90.0000034332277,0|2|0|0,0:0|0:0|0:0|0:0,0:0:0:0:
282,283,51891,6,0,P|354:267|423:322,2,135.000005149841,0|0|0,0:0|0:0|0:0,0:0:0:0:
197,315,53091,1,0,0:0:0:0:
108,330,53391,1,2,0:0:0:0:
136,244,53691,1,2,0:0:0:0:
47,262,53991,1,2,0:0:0:0:
74,176,54291,6,0,P|85:125|70:80,1,90.0000034332277,4|2,0:0|0:0,0:0:0:0:
141,28,54891,2,0,P|192:39|237:24,1,90.0000034332277,0|0,0:0|0:0,0:0:0:0:
289,94,55491,2,0,P|284:219|406:247,1,270.000010299683,4|2,0:0|0:0,0:0:0:0:
461,176,56691,6,0,P|440:86|461:44,2,135.000005149841,4|4|0,0:0|0:0|0:0,0:0:0:0:
406,247,57891,2,0,L|225:260,1,180.000006866455,0|4,0:0|0:0,0:0:0:0:
50,182,59091,5,4,0:0:0:0:
8,95,59391,1,8,0:0:0:0:
74,27,59691,1,0,0:0:0:0:
160,71,59991,1,8,0:0:0:0:
144,166,60291,2,0,L|153:310,2,144,0|0|8,0:0|0:0|0:0,0:0:0:0:
160,71,61491,5,0,0:0:0:0:
245,26,61791,1,8,0:0:0:0:
336,56,62091,1,0,0:0:0:0:
424,93,62391,1,8,0:0:0:0:
348,151,62691,2,0,P|335:233|386:288,2,144,0|0|8,0:0|0:0|0:0,0:0:0:0:
424,93,63891,5,4,0:0:0:0:
336,56,64191,1,8,0:0:0:0:
250,99,64491,1,0,0:0:0:0:
174,157,64791,1,8,0:0:0:0:
79,139,65091,2,0,P|58:81|91:6,2,144,0|0|0,0:0|0:0|0:0,0:0:0:0:
174,157,66291,6,0,L|166:317,2,144
250,99,67491,2,0,P|287:81|328:239,1,288,8|8,0:0|0:0,0:0:0:0:
233,243,68691,5,4,0:0:0:0:
161,178,68991,1,8,0:0:0:0:
148,82,69291,1,0,0:0:0:0:
71,139,69591,1,8,0:0:0:0:
35,228,69891,2,0,P|26:307|39:376,2,144,0|0|0,0:0|0:0|0:0,0:0:0:0:
71,139,71091,5,0,0:0:0:0:
128,61,71391,1,8,0:0:0:0:
220,37,71691,1,0,0:0:0:0:
307,75,71991,1,8,0:0:0:0:
345,162,72291,2,0,P|411:211|480:194,2,144,0|0|8,0:0|0:0|0:0,0:0:0:0:
307,75,73491,5,4,0:0:0:0:
116,47,74091,1,4,0:0:0:0:
88,237,74691,1,4,0:0:0:0:
279,265,75291,1,4,0:0:0:0:
256,192,75891,12,4,78291,0:0:0:0:
476,68,87891,6,0,P|365:48|420:225,2,384,6|2|0,0:0|0:0|0:0,0:0:0:0:
221,355,91491,1,0,0:0:0:0:
47,272,92091,1,0,0:0:0:0:
93,85,92691,6,0,P|204:65|149:242,2,384,4|4|4,0:0|0:0|0:0,0:0:0:0:
375,345,96291,2,0,P|420:354|465:332,3,96,2|2|0|0,0:0|0:0|0:0|0:0,0:0:0:0:
492,241,97491,5,4,0:0:0:0:
461,150,97791,1,8,0:0:0:0:
365,143,98091,1,0,0:0:0:0:
311,222,98391,1,8,0:0:0:0:
264,138,98691,2,0,P|251:68|284:3,2,144,0|0|0,0:0|0:0|0:0,0:0:0:0:
311,222,99891,5,0,0:0:0:0:
222,258,100191,1,8,0:0:0:0:
200,351,100491,1,0,0:0:0:0:
127,288,100791,1,8,0:0:0:0:
222,258,101091,2,0,L|370:273,2,144,0|0|0,0:0|0:0|0:0,0:0:0:0:
149,194,102291,5,4,0:0:0:0:
91,117,102591,1,8,0:0:0:0:
144,36,102891,1,0,0:0:0:0:
235,63,103191,1,8,0:0:0:0:
326,34,103491,2,0,P|408:20|463:55,2,144,0|0|0,0:0|0:0|0:0,0:0:0:0:
235,63,104691,6,0,L|86:40,2,144
311,121,105891,2,0,P|325:160|310:211,3,96,0|8|8|8,0:0|0:0|0:0|0:0,0:0:0:0:
229,262,107091,5,4,0:0:0:0:
148,314,107391,1,8,0:0:0:0:
52,308,107691,1,0,0:0:0:0:
83,217,107991,1,8,0:0:0:0:
164,166,108291,2,0,P|235:160|305:200,2,144,0|0|0,0:0|0:0|0:0,0:0:0:0:
83,217,109491,5,0,0:0:0:0:
60,310,109791,1,8,0:0:0:0:
155,296,110091,1,0,0:0:0:0:
247,320,110391,1,8,0:0:0:0:
329,369,110691,2,0,L|490:359,2,144,0|0|8,0:0|0:0|0:0,0:0:0:0:
247,320,111891,5,4,0:0:0:0:
203,234,112191,1,8,0:0:0:0:
236,144,112491,1,4,0:0:0:0:
325,108,112791,1,8,0:0:0:0:
416,137,113091,2,0,P|448:186|424:273,2,144,4|8|8,0:0|0:0|0:0,0:0:0:0:
325,108,114291,5,8,0:0:0:0:
229,100,114591,1,8,0:0:0:0:
133,92,114891,1,8,0:0:0:0:
37,84,115191,1,8,0:0:0:0:
75,171,115491,5,4,0:0:0:0:
171,179,115791,1,8,0:0:0:0:
267,187,116091,1,8,0:0:0:0:
363,195,116391,1,8,0:0:0:0:
459,203,116691,6,0,P|497:250|321:260,2,384,4|0|0,0:0|0:0|0:0,0:0:0:0:
