osu file format v14

[General]
AudioFilename: audio.mp3
AudioLeadIn: 1004
PreviewTime: 59091
Countdown: 0
SampleSet: Normal
StackLeniency: 0.5
Mode: 0
LetterboxInBreaks: 0
WidescreenStoryboard: 1

[Editor]
DistanceSpacing: 1.2
BeatDivisor: 2
GridSize: 4
TimelineZoom: 1

[Metadata]
Title:EDEN
TitleUnicode:EDEN
Artist:TERRA
ArtistUnicode:TЁЯRA
Creator:Kite
Version:Intermediate
Source:beatmania IIDX 12 HAPPY SKY
Tags:deetz handsome raose knyt Naoki Maeda Junko Karashima konami
BeatmapID:1065865
BeatmapSetID:500341

[Difficulty]
HPDrainRate:3
CircleSize:3.5
OverallDifficulty:5
ApproachRate:6
SliderMultiplier:1.4
SliderTickRate:1

[Events]
//Background and Video events
0,0,"knyt eden.jpg",0,0
//Break Periods
2,78491,86841
//Storyboard Layer 0 (Background)
//Storyboard Layer 1 (Fail)
//Storyboard Layer 2 (Pass)
//Storyboard Layer 3 (Foreground)
//Storyboard Sound Samples

[TimingPoints]
1491,300,4,2,1,60,1,0
1491,-166.666666666667,4,2,1,60,0,0
11091,-153.846153846154,4,2,1,60,0,0
15891,-142.857142857143,4,2,1,60,0,0
17091,-133.333333333333,4,2,1,60,0,0
18291,-125,4,2,1,60,0,0
19340,-125,4,2,1,60,0,0
20691,-117.647058823529,4,1,1,60,0,0
39891,-125,4,1,1,60,0,0
57891,-133.333333333333,4,1,1,60,0,0
59091,-117.647058823529,4,1,1,60,0,1
78291,-117.647058823529,4,1,1,60,0,0
87816,-117.647058823529,4,2,1,60,0,0
96291,-117.647058823529,4,2,1,60,0,0
96891,-117.647058823529,4,1,1,60,0,0
97491,-117.647058823529,4,1,1,60,0,1
116391,-117.647058823529,4,1,1,60,0,0
116616,-117.647058823529,4,2,1,60,0,0

[Colours]
Combo1 : 255,255,128
Combo2 : 128,255,128
Combo3 : 255,128,255
Combo4 : 255,128,128

[HitObjects]
66,315,1491,6,0,L|195:329,1,125.999996154785,8|2,0:0|0:0,0:0:0:0:
232,336,2091,1,2,0:0:0:0:
350,307,2391,1,8,0:0:0:0:
468,278,2691,2,0,L|479:194,1,83.9999974365235,8|0,0:0|0:0,0:0:0:0:
427,127,3291,2,0,L|416:43,1,83.9999974365235,2|0,0:0|0:0,0:0:0:0:
314,98,3891,6,0,P|241:118|288:9,1,251.999992309571,8|8,0:0|0:0,0:0:0:0:
416,43,5091,2,0,L|439:221,1,167.999994873047,8|8,0:0|0:0,0:0:0:0:
366,308,5991,1,2,0:0:0:0:
289,213,6291,6,0,P|240:198|176:238,1,125.999996154785,8|2,0:0|0:0,0:0:0:0:
168,259,6891,1,2,0:0:0:0:
60,202,7191,2,0,L|50:117,2,83.9999974365235,8|8|0,0:0|0:0|0:0,0:0:0:0:
78,322,8091,1,2,0:0:0:0:
78,322,8391,1,2,0:0:0:0:
168,239,8691,6,0,P|274:242|233:340,1,251.999992309571,8|8,0:0|0:0,0:0:0:0:
78,322,9891,2,0,L|58:197,1,125.999996154785,8|8,0:0|0:0,0:0:0:0:
55,177,10491,1,2,0:0:0:0:
103,65,10791,1,2,0:0:0:0:
217,131,11091,6,0,P|281:138|346:88,1,136.499993751526,12|8,0:0|0:0,0:0:0:0:
350,77,11691,1,8,0:0:0:0:
476,40,11991,1,0,0:0:0:0:
449,169,12291,2,0,L|472:312,1,136.499993751526,8|2,0:0|0:0,0:0:0:0:
475,326,12891,1,2,0:0:0:0:
348,362,13191,1,0,0:0:0:0:
272,254,13491,6,0,P|214:227|152:264,1,136.499993751526,8|8,0:0|0:0,0:0:0:0:
146,280,14091,1,0,0:0:0:0:
25,225,14391,1,2,0:0:0:0:
135,152,14691,2,0,P|165:86|88:18,1,181.999991668702,8|8,0:0|0:0,0:0:0:0:
34,135,15591,1,2,0:0:0:0:
120,247,15891,6,0,L|317:276,1,195.999994018555,12|8,0:0|0:0,0:0:0:0:
434,244,16791,1,0,0:0:0:0:
337,149,17091,6,0,P|356:54|452:62,1,210.000008010865,8|8,0:0|0:0,0:0:0:0:
506,188,17991,1,0,0:0:0:0:
415,303,18291,6,0,P|361:320|314:297,1,112,8|0,0:0|0:0,0:0:0:0:
256,216,18891,2,0,P|206:192|154:209,1,112,8|8,0:0|0:0,0:0:0:0:
93,278,19491,5,0,0:0:0:0:
55,143,19791,1,0,0:0:0:0:
93,278,20091,1,2,0:0:0:0:
55,143,20391,1,2,0:0:0:0:
160,51,20691,6,0,L|280:42,1,119.000002269745,4|12,0:0|0:0,0:0:0:0:
306,40,21141,2,0,P|343:85|324:151,1,119.000002269745,0|8,0:0|0:0,0:0:0:0:
316,161,21591,1,0,0:0:0:0:
375,268,21891,6,0,L|496:258,1,119.000002269745,4|8,0:0|0:0,0:0:0:0:
482,240,22341,2,0,P|454:181|475:126,1,119.000002269745,0|8,0:0|0:0,0:0:0:0:
488,120,22791,1,0,0:0:0:0:
401,27,23091,6,0,L|217:36,2,178.500003404617,4|0|0,0:0|0:0|0:0,0:0:0:0:
488,120,24291,1,0,0:0:0:0:
415,224,24591,1,0,0:0:0:0:
287,228,24891,1,0,0:0:0:0:
233,343,25191,1,8,0:0:0:0:
152,244,25491,6,0,P|92:229|42:252,1,119.000002269745,4|8,0:0|0:0,0:0:0:0:
30,270,25941,2,0,L|52:149,1,119.000002269745,0|8,0:0|0:0,0:0:0:0:
57,131,26391,1,0,0:0:0:0:
177,42,26691,6,0,P|248:25|254:155,1,238.00000453949,8|0,0:0|0:0,0:0:0:0:
243,159,27441,1,8,0:0:0:0:
223,160,27591,1,8,0:0:0:0:
321,258,27891,6,0,L|500:275,2,178.500003404617,0|0|0,0:0|0:0|0:0,0:0:0:0:
212,326,29091,2,0,L|33:343,2,178.500003404617,8|0|0,0:0|0:0|0:0,0:0:0:0:
304,238,30291,6,0,P|326:177|306:127,1,119.000002269745,4|8,0:0|0:0,0:0:0:0:
290,111,30741,2,0,L|410:131,1,119.000002269745,0|8,0:0|0:0,0:0:0:0:
428,136,31191,1,0,0:0:0:0:
493,275,31491,2,0,L|373:295,1,119.000002269745,8|8,0:0|0:0,0:0:0:0:
351,301,31941,2,0,P|368:238|344:188,1,119.000002269745,0|8,0:0|0:0,0:0:0:0:
331,177,32391,1,0,0:0:0:0:
209,149,32691,6,0,L|201:29,1,119.000002269745,0|0,0:0|0:0,0:0:0:0:
180,16,33141,2,0,P|120:5|72:37,1,119.000002269745
66,55,33591,1,8,0:0:0:0:
39,193,33891,2,0,P|90:270|215:231,1,238.00000453949,4|8,0:0|0:0,0:0:0:0:
278,124,34791,1,8,0:0:0:0:
375,205,35091,6,0,P|424:221|485:193,1,119.000002269745,4|8,0:0|0:0,0:0:0:0:
500,176,35541,2,0,L|486:297,1,119.000002269745,0|8,0:0|0:0,0:0:0:0:
483,315,35991,1,0,0:0:0:0:
354,364,36291,2,0,P|282:379|212:306,2,178.500003404617,4|0|0,0:0|0:0|0:0,0:0:0:0:
276,262,37491,6,0,P|196:231|134:289,1,178.500003404617,8|8,0:0|0:0,0:0:0:0:
23,352,38241,1,0,0:0:0:0:
39,336,38391,2,0,L|29:205,1,119.000002269745,8|8,0:0|0:0,0:0:0:0:
66,95,38991,1,8,0:0:0:0:
181,148,39291,2,0,P|211:155|241:145,1,59.5000011348725
264,127,39591,2,0,P|292:118|320:125,1,59.5000011348725
342,139,39891,5,4,0:0:0:0:
502,84,40191,1,2,0:0:0:0:
342,139,40491,1,0,0:0:0:0:
502,84,40791,1,0,0:0:0:0:
465,248,41091,6,0,B|464:297|464:297|487:357,2,112,0|0|2,0:0|0:0|0:0,0:0:0:0:
502,84,41991,1,2,0:0:0:0:
336,59,42291,2,0,L|214:46,1,112,0|2,0:0|0:0,0:0:0:0:
232,77,42741,2,0,L|120:88,1,112,0|2,0:0|0:0,0:0:0:0:
107,108,43191,1,0,0:0:0:0:
23,241,43491,5,0,0:0:0:0:
132,353,43791,1,2,0:0:0:0:
287,369,44091,1,0,0:0:0:0:
430,306,44391,1,2,0:0:0:0:
490,161,44691,6,0,P|497:129|491:106,1,56
475,88,44991,2,0,P|444:75|421:77,1,56
399,88,45291,2,0,L|276:78,1,112
262,77,45741,2,0,P|240:129|262:186,1,112,2|0,0:0|0:0,0:0:0:0:
275,197,46191,1,2,0:0:0:0:
425,244,46491,1,0,0:0:0:0:
301,340,46791,1,2,0:0:0:0:
155,283,47091,6,0,P|90:277|52:305,1,112,2|0,0:0|0:0,0:0:0:0:
20,300,47541,2,0,P|57:246|52:199,1,112,2|0,0:0|0:0,0:0:0:0:
73,174,47991,2,0,P|100:233|143:252,1,112,2|2,0:0|0:0,0:0:0:0:
282,282,48591,1,2,0:0:0:0:
370,152,48891,1,2,0:0:0:0:
282,282,49191,1,2,0:0:0:0:
370,152,49491,6,0,P|426:140|479:173,1,112,4|2,0:0|0:0,0:0:0:0:
476,321,50091,2,0,P|427:346|373:333,1,112,0|0,0:0|0:0,0:0:0:0:
268,217,50691,1,0,0:0:0:0:
118,168,50991,1,2,0:0:0:0:
17,288,51291,1,0,0:0:0:0:
166,336,51591,1,0,0:0:0:0:
268,217,51891,6,0,P|283:156|265:113,1,112,0|2,0:0|0:0,0:0:0:0:
243,102,52341,2,0,P|182:119|154:156,1,112,0|2,0:0|0:0,0:0:0:0:
155,181,52791,2,0,P|200:224|246:230,1,112,0|0,0:0|0:0,0:0:0:0:
399,192,53391,1,2,0:0:0:0:
419,36,53691,1,2,0:0:0:0:
399,192,53991,1,2,0:0:0:0:
497,314,54291,6,0,P|499:349|491:373,3,56,4|0|2|0,0:0|0:0|0:0|0:0,0:0:0:0:
481,381,54891,2,0,P|453:378|428:365,3,56,0|2|0|2,0:0|0:0|0:0|0:0,0:0:0:0:
416,344,55491,2,0,P|435:275|376:203,1,168,4|0,0:0|0:0,0:0:0:0:
352,203,56091,1,2,0:0:0:0:
202,250,56391,1,2,0:0:0:0:
82,149,56691,6,0,P|70:92|87:43,1,112,4|2,0:0|0:0,0:0:0:0:
116,29,57141,2,0,P|171:47|205:86,1,112,4|2,0:0|0:0,0:0:0:0:
203,118,57591,2,0,P|159:156|108:166,1,112,0|0,0:0|0:0,0:0:0:0:
29,361,58491,5,4,0:0:0:0:
255,287,59091,5,4,0:0:0:0:
383,349,59391,1,8,0:0:0:0:
509,282,59691,1,0,0:0:0:0:
381,220,59991,1,8,0:0:0:0:
255,287,60291,2,0,P|199:298|146:271,1,119.000002269745,0|8,0:0|0:0,0:0:0:0:
133,249,60741,2,0,L|112:373,1,119.000002269745,0|0,0:0|0:0,0:0:0:0:
93,378,61191,1,8,0:0:0:0:
74,194,61491,6,0,P|131:169|186:189,2,119.000002269745,0|8|0,0:0|0:0|0:0,0:0:0:0:
195,268,62391,1,8,0:0:0:0:
322,202,62691,2,0,P|356:155|344:98,1,119.000002269745,0|8,0:0|0:0,0:0:0:0:
328,83,63141,2,0,L|448:97,1,119.000002269745,0|0,0:0|0:0,0:0:0:0:
466,102,63591,1,8,0:0:0:0:
477,262,63891,5,4,0:0:0:0:
358,341,64191,1,8,0:0:0:0:
222,295,64491,1,0,0:0:0:0:
84,333,64791,1,8,0:0:0:0:
17,206,65091,2,0,L|5:25,2,178.500003404617,0|0|0,0:0|0:0|0:0,0:0:0:0:
134,122,66291,6,0,P|214:94|282:146,2,178.500003404617,0|0|0,0:0|0:0|0:0,0:0:0:0:
40,230,67491,2,0,L|32:294,3,59.5000011348725,8|0|8|0,0:0|0:0|0:0|0:0,0:0:0:0:
63,301,68091,2,0,L|71:365,3,59.5000011348725,8|0|8|0,0:0|0:0|0:0|0:0,0:0:0:0:
95,371,68691,5,4,0:0:0:0:
212,289,68991,1,8,0:0:0:0:
344,342,69291,1,0,0:0:0:0:
466,269,69591,1,8,0:0:0:0:
460,126,69891,2,0,P|406:96|350:108,1,119.000002269745,0|8,0:0|0:0,0:0:0:0:
336,121,70341,2,0,L|320:244,1,119.000002269745,0|8,0:0|0:0,0:0:0:0:
308,255,70791,1,0,0:0:0:0:
193,148,71091,5,0,0:0:0:0:
85,242,71391,1,8,0:0:0:0:
59,101,71691,1,0,0:0:0:0:
193,148,71991,1,8,0:0:0:0:
329,104,72291,2,0,P|386:93|437:128,1,119.000002269745,0|8,0:0|0:0,0:0:0:0:
442,142,72741,2,0,L|445:17,1,119.000002269745,0|0,0:0|0:0,0:0:0:0:
455,10,73191,1,8,0:0:0:0:
329,104,73491,6,0,P|289:115|224:74,1,119.000002269745,4|8,0:0|0:0,0:0:0:0:
220,57,73941,1,0,0:0:0:0:
221,31,74091,2,0,L|192:151,1,119.000002269745,4|8,0:0|0:0,0:0:0:0:
187,169,74541,1,0,0:0:0:0:
180,199,74691,2,0,L|151:319,1,119.000002269745,4|8,0:0|0:0,0:0:0:0:
145,338,75141,2,0,P|86:353|41:317,1,119.000002269745,0|8,0:0|0:0,0:0:0:0:
36,300,75591,1,4,0:0:0:0:
180,199,75891,5,4,0:0:0:0:
288,320,76191,1,8,0:0:0:0:
449,284,76491,1,12,0:0:0:0:
501,128,76791,1,0,0:0:0:0:
449,284,77091,1,4,0:0:0:0:
288,320,77391,1,8,0:0:0:0:
180,199,77691,1,12,0:0:0:0:
230,40,77991,1,8,0:0:0:0:
391,6,78291,5,4,0:0:0:0:
79,325,87891,5,6,0:0:0:0:
174,235,88191,2,0,P|181:202|177:175,5,59.5000011348725,2|0|2|0|2|2,0:0|0:0|0:0|0:0|0:0|0:0,0:0:0:0:
168,152,89091,5,2,0:0:0:0:
281,87,89391,2,0,P|314:80|341:84,5,59.5000011348725,2|0|2|0|2|2,0:0|0:0|0:0|0:0|0:0|0:0,0:0:0:0:
360,93,90291,5,0,0:0:0:0:
439,197,90591,2,0,P|446:230|442:257,5,59.5000011348725,0|2|0|0|2|2,0:0|0:0|0:0|0:0|0:0|0:0,0:0:0:0:
433,281,91491,6,0,L|310:294,1,119.000002269745,0|2,0:0|0:0,0:0:0:0:
204,364,92091,2,0,L|81:377,1,119.000002269745,0|2,0:0|0:0,0:0:0:0:
6,272,92691,5,4,0:0:0:0:
101,182,92991,2,0,P|108:149|104:122,5,59.5000011348725,2|2|0|2|0|2,0:0|0:0|0:0|0:0|0:0|0:0,0:0:0:0:
95,99,93891,5,4,0:0:0:0:
211,39,94191,2,0,P|246:33|274:38,5,59.5000011348725,2|0|0|2|0|2,0:0|0:0|0:0|0:0|0:0|0:0,0:0:0:0:
292,47,95091,6,0,L|417:36,1,119.000002269745,4|2,0:0|0:0,0:0:0:0:
507,124,95691,2,0,P|514:186|477:231,1,119.000002269745,0|0,0:0|0:0,0:0:0:0:
357,186,96291,6,0,P|323:180|296:188,3,59.5000011348725,2|2|2|2,0:0|0:0|0:0|0:0,0:0:0:0:
277,202,96891,2,0,P|248:208|219:202,3,59.5000011348725,0|0|0|0,0:0|0:0|0:0|0:0,0:0:0:0:
199,190,97491,5,4,0:0:0:0:
84,105,97791,1,8,0:0:0:0:
66,246,98091,1,0,0:0:0:0:
199,190,98391,1,8,0:0:0:0:
297,86,98691,2,0,P|345:68|408:92,1,119.000002269745,0|8,0:0|0:0,0:0:0:0:
421,108,99141,2,0,B|412:155|412:155|426:229,1,119.000002269745,0|8,0:0|0:0,0:0:0:0:
430,246,99591,1,0,0:0:0:0:
333,351,99891,5,0,0:0:0:0:
190,341,100191,1,8,0:0:0:0:
108,223,100491,1,0,0:0:0:0:
138,83,100791,1,8,0:0:0:0:
269,27,101091,2,0,L|391:33,1,119.000002269745,0|8,0:0|0:0,0:0:0:0:
406,36,101541,2,0,P|384:87|408:148,1,119.000002269745,0|8,0:0|0:0,0:0:0:0:
422,158,101991,1,0,0:0:0:0:
285,232,102291,5,4,0:0:0:0:
222,103,102591,1,8,0:0:0:0:
124,207,102891,1,0,0:0:0:0:
186,335,103191,1,8,0:0:0:0:
285,232,103491,2,0,P|328:220|413:311,2,178.500003404617,0|0|0,0:0|0:0|0:0,0:0:0:0:
186,335,104691,6,0,L|6:362,2,178.500003404617,0|0|0,0:0|0:0|0:0,0:0:0:0:
285,232,105891,2,0,L|293:168,3,59.5000011348725,0|8|8|0,0:0|0:0|0:0|0:0,0:0:0:0:
262,161,106491,2,0,L|254:97,3,59.5000011348725,8|0|8|0,0:0|0:0|0:0|0:0,0:0:0:0:
234,86,107091,5,4,0:0:0:0:
104,25,107391,1,8,0:0:0:0:
7,129,107691,1,0,0:0:0:0:
137,190,107991,1,8,0:0:0:0:
234,86,108291,2,0,P|277:68|344:97,1,119.000002269745,0|8,0:0|0:0,0:0:0:0:
352,116,108741,2,0,P|392:98|459:128,1,119.000002269745,0|8,0:0|0:0,0:0:0:0:
471,146,109191,1,0,0:0:0:0:
420,315,109491,5,0,0:0:0:0:
306,227,109791,1,8,0:0:0:0:
205,328,110091,1,0,0:0:0:0:
86,247,110391,1,8,0:0:0:0:
176,136,110691,2,0,P|191:81|156:30,1,119.000002269745,0|8,0:0|0:0,0:0:0:0:
139,28,111141,2,0,L|21:45,1,119.000002269745,0|0,0:0|0:0,0:0:0:0:
8,59,111591,1,8,0:0:0:0:
86,247,111891,5,4,0:0:0:0:
199,333,112191,1,8,0:0:0:0:
341,336,112491,1,4,0:0:0:0:
456,251,112791,1,8,0:0:0:0:
488,111,113091,2,0,P|441:58|394:128,2,178.500003404617,4|8|8,0:0|0:0|0:0,0:0:0:0:
456,251,114291,5,8,0:0:0:0:
341,336,114591,1,8,0:0:0:0:
199,333,114891,1,8,0:0:0:0:
86,247,115191,2,0,P|74:208|77:184,2,59.5000011348725,8|8|4,0:0|0:0|0:0,0:0:0:0:
199,333,115791,1,8,0:0:0:0:
341,336,116091,1,8,0:0:0:0:
456,251,116391,1,8,0:0:0:0:
488,111,116691,5,4,0:0:0:0:
257,87,117891,5,0,0:0:0:0:
26,63,119091,5,0,0:0:0:0:
