osu file format v14

[General]
AudioFilename: audio.mp3
AudioLeadIn: 1004
PreviewTime: 59091
Countdown: 0
SampleSet: Soft
StackLeniency: 0.5
Mode: 0
LetterboxInBreaks: 0
WidescreenStoryboard: 1

[Editor]
DistanceSpacing: 0.8
BeatDivisor: 4
GridSize: 4
TimelineZoom: 1

[Metadata]
Title:EDEN
TitleUnicode:EDEN
Artist:TERRA
ArtistUnicode:TЁЯRA
Creator:Kite
Version:Hectic
Source:beatmania IIDX 12 HAPPY SKY
Tags:deetz handsome raose knyt Naoki Maeda Junko Karashima konami
BeatmapID:1064909
BeatmapSetID:500341

[Difficulty]
HPDrainRate:5
CircleSize:4.2
OverallDifficulty:9
ApproachRate:9.6
SliderMultiplier:2
SliderTickRate:1

[Events]
//Background and Video events
0,0,"knyt eden.jpg",0,0
//Break Periods
2,78491,87382
//Storyboard Layer 0 (Background)
//Storyboard Layer 1 (Fail)
//Storyboard Layer 2 (Pass)
//Storyboard Layer 3 (Foreground)
//Storyboard Sound Samples

[TimingPoints]
1491,300,4,2,1,60,1,0
1491,-166.666666666667,4,2,1,60,0,0
11091,-153.846153846154,4,2,1,60,0,0
15891,-142.857142857143,4,2,1,60,0,0
17091,-133.333333333333,4,2,1,60,0,0
18291,-125,4,2,1,60,0,0
19340,-100,4,2,1,60,0,0
20691,-100,4,1,1,60,0,0
39891,-100,4,1,1,60,0,0
57891,-133.333333333333,4,1,1,60,0,0
59091,-100,4,1,1,60,0,1
78291,-100,4,1,1,60,0,0
87816,-125,4,2,1,60,0,0
96291,-100,4,2,1,60,0,0
96891,-100,4,1,1,60,0,0
97491,-100,4,1,1,60,0,1
116391,-100,4,1,1,60,0,0
116616,-100,4,2,1,60,0,0

[Colours]
Combo1 : 255,255,128
Combo2 : 128,255,128
Combo3 : 255,128,255
Combo4 : 255,128,128

[HitObjects]
61,36,1491,6,0,P|55:95|54:161,1,119.999996337891,8|0,0:0|0:0,0:0:0:0:
55,263,1941,1,2,0:0:0:0:
55,263,2091,1,2,0:0:0:0:
259,99,2391,2,0,P|300:88|346:89,1,89.9999972534181,8|0,0:0|0:0,0:0:0:0:
259,99,2691,6,0,P|200:75|142:67,1,119.999996337891,8|0,0:0|0:0,0:0:0:0:
279,315,3291,2,0,P|338:306|393:283,1,119.999996337891,2|0,0:0|0:0,0:0:0:0:
101,228,3891,5,8,0:0:0:0:
54,350,4041,1,2,0:0:0:0:
244,255,4191,1,2,0:0:0:0:
254,242,4341,1,0,0:0:0:0:
53,145,4491,1,0,0:0:0:0:
53,145,4791,5,8,0:0:0:0:
254,242,4941,2,0,L|321:228,1,59.9999981689454,2|0,0:0|0:0,0:0:0:0:
137,200,5241,1,2,0:0:0:0:
137,200,5541,5,2,0:0:0:0:
300,49,5691,1,8,0:0:0:0:
186,75,5841,1,0,0:0:0:0:
408,158,5991,2,0,L|479:147,1,59.9999981689454,2|0,0:0|0:0,0:0:0:0:
214,71,6291,6,0,P|139:63|86:65,1,119.999996337891,8|0,0:0|0:0,0:0:0:0:
5,77,6741,1,2,0:0:0:0:
5,77,6891,1,2,0:0:0:0:
166,338,7191,2,0,P|213:338|253:328,1,89.9999972534181,8|0,0:0|0:0,0:0:0:0:
108,310,7491,6,0,P|166:322|225:316,1,119.999996337891,8|0,0:0|0:0,0:0:0:0:
53,271,8091,2,0,P|108:292|168:296,1,119.999996337891,2|2,0:0|0:0,0:0:0:0:
393,214,8691,5,8,0:0:0:0:
448,88,8841,1,2,0:0:0:0:
245,154,8991,1,2,0:0:0:0:
234,170,9141,1,0,0:0:0:0:
168,18,9291,1,0,0:0:0:0:
168,18,9591,5,8,0:0:0:0:
234,170,9741,2,0,L|225:230,1,59.9999981689454,2|0,0:0|0:0,0:0:0:0:
310,74,10041,1,2,0:0:0:0:
139,113,10191,1,0,0:0:0:0:
357,177,10341,1,8,0:0:0:0:
279,67,10491,2,0,L|213:73,1,59.9999981689454,2|0,0:0|0:0,0:0:0:0:
384,184,10791,2,0,L|450:178,1,59.9999981689454,2|0,0:0|0:0,0:0:0:0:
212,337,11091,6,0,L|83:316,1,129.999994049073,4|0,0:0|0:0,0:0:0:0:
292,289,11541,1,8,0:0:0:0:
292,289,11691,1,8,0:0:0:0:
76,167,11991,2,0,P|61:121|70:74,1,97.4999955368044
98,177,12291,6,0,L|82:309,1,129.999994049073,8|0,0:0|0:0,0:0:0:0:
174,113,12741,1,2,0:0:0:0:
174,113,12891,2,0,P|235:93|306:98,1,129.999994049073,2|0,0:0|0:0,0:0:0:0:
400,145,13341,1,0,0:0:0:0:
479,60,13491,5,8,0:0:0:0:
495,255,13641,1,0,0:0:0:0:
387,58,13791,1,0,0:0:0:0:
391,38,13941,1,8,0:0:0:0:
278,217,14091,1,0,0:0:0:0:
278,217,14391,5,2,0:0:0:0:
391,24,14541,2,0,L|457:19,1,64.9999970245363,2|8,0:0|0:0,0:0:0:0:
241,115,14841,2,0,L|175:110,1,64.9999970245363,0|2,0:0|0:0,0:0:0:0:
382,293,15141,1,0,0:0:0:0:
382,293,15291,2,0,L|448:288,1,64.9999970245363,8|0,0:0|0:0,0:0:0:0:
146,361,15591,2,0,L|80:356,1,64.9999970245363,2|0,0:0|0:0,0:0:0:0:
289,258,15891,6,0,P|316:193|288:127,1,139.999995727539,4|0,0:0|0:0,0:0:0:0:
185,92,16341,1,2,0:0:0:0:
366,19,16491,2,0,P|403:16|437:25,1,69.9999978637696,8|0,0:0|0:0,0:0:0:0:
120,152,16791,2,0,P|102:119|97:84,1,69.9999978637696,0|2,0:0|0:0,0:0:0:0:
403,220,17091,6,0,L|381:374,1,150.000005722046,8|0,0:0|0:0,0:0:0:0:
338,139,17541,1,2,0:0:0:0:
209,326,17691,2,0,P|169:334|132:324,1,75.0000028610231,8|0,0:0|0:0,0:0:0:0:
349,52,17991,2,0,P|387:65|414:92,1,75.0000028610231,0|2,0:0|0:0,0:0:0:0:
35,201,18291,6,0,P|22:121|77:72,1,160,8|0,0:0|0:0,0:0:0:0:
244,43,18741,1,0,0:0:0:0:
191,289,18891,1,8,0:0:0:0:
185,323,19191,1,8,0:0:0:0:
179,357,19491,5,0,0:0:0:0:
150,368,19566,1,0,0:0:0:0:
120,360,19641,1,0,0:0:0:0:
104,334,19716,1,0,0:0:0:0:
108,305,19791,1,0,0:0:0:0:
133,288,19866,1,0,0:0:0:0:
161,291,19941,1,0,0:0:0:0:
186,306,20016,1,0,0:0:0:0:
226,313,20091,5,2,0:0:0:0:
265,308,20166,1,0,0:0:0:0:
282,272,20241,1,2,0:0:0:0:
264,236,20316,1,0,0:0:0:0:
224,231,20391,1,2,0:0:0:0:
189,250,20466,1,2,0:0:0:0:
185,289,20541,1,2,0:0:0:0:
211,319,20616,1,2,0:0:0:0:
249,330,20691,6,0,B|310:342|310:342|348:332,1,100,4|0,0:0|0:0,0:0:0:0:
108,305,20991,1,12,0:0:0:0:
342,230,21141,2,0,P|356:178|339:129,1,100,0|0,0:0|0:0,0:0:0:0:
233,39,21441,1,8,0:0:0:0:
71,150,21591,1,0,0:0:0:0:
281,183,21741,1,8,0:0:0:0:
9,202,21891,6,0,P|-9:156|2:103,1,100,4|0,0:0|0:0,0:0:0:0:
286,77,22191,1,8,0:0:0:0:
286,77,22266,1,0,0:0:0:0:
286,77,22341,2,0,P|304:122|295:171,1,100,0|0,0:0|0:0,0:0:0:0:
101,282,22641,1,8,0:0:0:0:
357,339,22791,1,0,0:0:0:0:
165,375,22941,1,8,0:0:0:0:
466,238,23091,6,0,B|481:173|481:173|474:138,1,100,4|0,0:0|0:0,0:0:0:0:
266,312,23391,1,8,0:0:0:0:
450,225,23541,2,0,B|465:160|465:160|458:125,1,100,0|0,0:0|0:0,0:0:0:0:
250,299,23841,1,8,0:0:0:0:
389,377,23991,2,0,L|489:364,1,100,0|8,0:0|0:0,0:0:0:0:
192,174,24291,5,0,0:0:0:0:
377,218,24441,1,8,0:0:0:0:
54,296,24591,1,0,0:0:0:0:
54,296,24666,1,0,0:0:0:0:
54,296,24741,1,8,0:0:0:0:
297,126,24891,5,0,0:0:0:0:
68,110,25041,1,8,0:0:0:0:
202,352,25191,1,8,0:0:0:0:
54,296,25341,1,8,0:0:0:0:
367,175,25491,6,0,P|382:132|371:79,1,100,4|0,0:0|0:0,0:0:0:0:
62,258,25791,1,8,0:0:0:0:
265,70,25941,2,0,P|212:50|164:68,1,100,0|0,0:0|0:0,0:0:0:0:
62,258,26241,1,8,0:0:0:0:
214,130,26391,1,0,0:0:0:0:
337,244,26541,1,0,0:0:0:0:
147,178,26691,6,0,P|132:127|149:81,1,100,8|0,0:0|0:0,0:0:0:0:
434,249,26991,1,8,0:0:0:0:
434,249,27066,1,0,0:0:0:0:
434,249,27141,2,0,L|438:354,1,100,0|0,0:0|0:0,0:0:0:0:
382,119,27441,1,8,0:0:0:0:
253,271,27591,1,8,0:0:0:0:
501,185,27741,1,8,0:0:0:0:
248,133,27891,6,0,P|233:82|248:35,1,100,0|0,0:0|0:0,0:0:0:0:
356,258,28191,1,8,0:0:0:0:
244,38,28341,2,0,P|284:8|333:5,1,100,0|0,0:0|0:0,0:0:0:0:
189,220,28641,1,8,0:0:0:0:
394,153,28791,1,0,0:0:0:0:
99,82,28941,1,0,0:0:0:0:
279,278,29091,6,0,L|271:377,1,100,8|0,0:0|0:0,0:0:0:0:
113,99,29391,1,8,0:0:0:0:
113,99,29466,1,0,0:0:0:0:
113,99,29541,2,0,L|105:198,1,100,0|8,0:0|0:0,0:0:0:0:
441,60,29841,1,8,0:0:0:0:
473,279,29991,1,0,0:0:0:0:
235,161,30141,1,8,0:0:0:0:
505,109,30291,6,0,P|521:56|501:4,1,100,4|0,0:0|0:0,0:0:0:0:
249,58,30591,1,8,0:0:0:0:
414,134,30741,2,0,P|469:132|512:97,1,100,0|0,0:0|0:0,0:0:0:0:
249,58,31041,1,8,0:0:0:0:
318,267,31191,1,0,0:0:0:0:
78,158,31341,1,0,0:0:0:0:
345,249,31491,6,0,L|450:235,1,100,8|0,0:0|0:0,0:0:0:0:
188,340,31791,1,8,0:0:0:0:
188,340,31866,1,0,0:0:0:0:
188,340,31941,2,0,L|87:324,1,100,0|0,0:0|0:0,0:0:0:0:
290,169,32241,1,8,0:0:0:0:
390,348,32391,1,0,0:0:0:0:
132,223,32541,1,8,0:0:0:0:
381,126,32691,6,0,P|397:68|381:25,1,100,0|8,0:0|0:0,0:0:0:0:
129,53,32991,1,0,0:0:0:0:
289,151,33141,2,0,P|349:148|385:119,1,100,0|8,0:0|0:0,0:0:0:0:
129,53,33441,1,0,0:0:0:0:
184,272,33591,1,8,0:0:0:0:
19,327,33741,1,0,0:0:0:0:
248,220,33891,6,0,P|265:262|252:316,1,100,4|0,0:0|0:0,0:0:0:0:
26,221,34191,1,8,0:0:0:0:
26,221,34266,1,0,0:0:0:0:
26,221,34341,2,0,L|17:120,1,100,0|8,0:0|0:0,0:0:0:0:
173,24,34641,1,0,0:0:0:0:
292,155,34791,2,0,P|347:167|393:149,1,100,8|8,0:0|0:0,0:0:0:0:
128,148,35091,6,0,B|119:211|119:211|125:249,1,100,4|0,0:0|0:0,0:0:0:0:
241,54,35391,1,8,0:0:0:0:
143,224,35541,2,0,B|139:288|139:288|149:325,1,100
383,322,35841,1,8,0:0:0:0:
283,161,35991,1,0,0:0:0:0:
215,357,36141,1,8,0:0:0:0:
364,130,36291,6,0,P|305:80|203:131,1,200,4|8,0:0|0:0,0:0:0:0:
204,127,36666,1,0,0:0:0:0:
204,127,36741,1,0,0:0:0:0:
264,304,36891,1,8,0:0:0:0:
50,265,37041,1,0,0:0:0:0:
318,213,37191,2,0,B|385:224|385:224|412:246,1,100,0|8,0:0|0:0,0:0:0:0:
125,346,37491,5,8,0:0:0:0:
125,346,37641,1,0,0:0:0:0:
52,142,37791,1,0,0:0:0:0:
238,267,37941,2,0,P|296:275|281:171,1,200,8|0,0:0|0:0,0:0:0:0:
170,190,38391,1,8,0:0:0:0:
110,268,38541,1,0,0:0:0:0:
291,365,38691,6,0,P|330:377|388:350,1,100,8|0,0:0|0:0,0:0:0:0:
460,242,38991,1,8,0:0:0:0:
460,242,39066,1,0,0:0:0:0:
460,242,39141,1,0,0:0:0:0:
274,117,39291,5,0,0:0:0:0:
226,100,39366,1,0,0:0:0:0:
177,103,39441,1,0,0:0:0:0:
132,124,39516,1,0,0:0:0:0:
98,161,39591,1,0,0:0:0:0:
80,207,39666,1,0,0:0:0:0:
81,257,39741,1,0,0:0:0:0:
101,302,39816,1,0,0:0:0:0:
136,337,39891,6,0,P|183:353|231:338,1,100,4|0,0:0|0:0,0:0:0:0:
466,230,40191,2,0,P|416:237|372:214,1,100,2|0,0:0|0:0,0:0:0:0:
131,106,40491,2,0,P|180:113|224:90,1,100,0|2,0:0|0:0,0:0:0:0:
479,142,40791,1,0,0:0:0:0:
441,374,40941,1,2,0:0:0:0:
387,127,41091,6,0,P|440:121|482:144,1,100,0|2,0:0|0:0,0:0:0:0:
441,374,41391,2,0,P|388:380|346:357,1,100,0|0,0:0|0:0,0:0:0:0:
151,162,41691,1,2,0:0:0:0:
321,204,41841,1,0,0:0:0:0:
132,349,41991,1,2,0:0:0:0:
304,216,42141,1,0,0:0:0:0:
136,139,42291,6,0,P|87:128|41:153,2,100,0|0|2,0:0|0:0|0:0,0:0:0:0:
403,144,42741,2,0,B|419:80|419:80|412:43,1,100,0|0,0:0|0:0,0:0:0:0:
407,29,43041,1,2,0:0:0:0:
436,340,43191,2,0,P|391:360|344:350,1,100,0|2,0:0|0:0,0:0:0:0:
203,62,43491,2,0,P|247:40|294:51,1,100
510,163,43791,2,0,P|463:132|414:138,1,100,2|0,0:0|0:0,0:0:0:0:
134,224,44091,2,0,P|141:278|178:311,1,100,0|0,0:0|0:0,0:0:0:0:
344,350,44391,2,0,P|398:360|441:335,1,100,2|0,0:0|0:0,0:0:0:0:
153,208,44691,5,4,0:0:0:0:
198,356,44841,1,0,0:0:0:0:
250,259,44991,1,2,0:0:0:0:
101,305,45141,1,0,0:0:0:0:
313,143,45291,5,0,0:0:0:0:
367,321,45441,1,2,0:0:0:0:
250,259,45591,1,0,0:0:0:0:
429,204,45741,1,2,0:0:0:0:
147,17,45891,5,2,0:0:0:0:
82,230,46041,1,0,0:0:0:0:
222,156,46191,1,2,0:0:0:0:
7,90,46341,1,0,0:0:0:0:
293,101,46491,6,0,P|310:148|297:199,1,100,0|0,0:0|0:0,0:0:0:0:
182,332,46791,1,2,0:0:0:0:
376,269,46941,1,0,0:0:0:0:
170,346,47091,6,0,P|116:357|77:338,1,100,2|0,0:0|0:0,0:0:0:0:
66,319,47391,1,0,0:0:0:0:
371,175,47541,2,0,P|389:221|376:269,1,100,2|0,0:0|0:0,0:0:0:0:
357,288,47841,1,0,0:0:0:0:
166,42,47991,2,0,B|208:32|208:32|270:45,1,100,2|0,0:0|0:0,0:0:0:0:
170,346,48291,6,0,L|156:246,1,100,2|0,0:0|0:0,0:0:0:0:
359,99,48591,2,0,P|407:89|449:112,1,100,2|0,0:0|0:0,0:0:0:0:
483,183,48816,1,0,0:0:0:0:
483,183,48891,1,2,0:0:0:0:
411,349,49041,1,0,0:0:0:0:
252,158,49191,1,2,0:0:0:0:
81,349,49341,1,2,0:0:0:0:
318,208,49491,6,0,P|334:155|322:113,1,100,4|0,0:0|0:0,0:0:0:0:
57,344,49791,2,0,B|117:359|117:359|161:351,1,100,2|0,0:0|0:0,0:0:0:0:
480,306,50091,2,0,B|420:321|420:321|376:313,1,100,0|2,0:0|0:0,0:0:0:0:
157,204,50391,1,0,0:0:0:0:
346,120,50541,1,2,0:0:0:0:
65,97,50691,6,0,P|50:49|64:1,1,100,0|0,0:0|0:0,0:0:0:0:
183,284,50991,2,0,P|132:283|91:255,1,100,2|0,0:0|0:0,0:0:0:0:
431,124,51291,2,0,P|414:171|375:202,1,100,0|2,0:0|0:0,0:0:0:0:
157,204,51591,1,0,0:0:0:0:
322,306,51741,1,2,0:0:0:0:
194,98,51891,6,0,B|205:44|205:44|199:-1,2,100,0|0|2,0:0|0:0|0:0,0:0:0:0:
74,211,52341,1,0,0:0:0:0:
214,289,52491,1,0,0:0:0:0:
30,335,52641,1,2,0:0:0:0:
230,262,52791,2,0,P|280:262|325:295,1,100,0|2,0:0|0:0,0:0:0:0:
47,220,53091,6,0,P|32:165|46:122,1,100,0|0,0:0|0:0,0:0:0:0:
343,110,53391,2,0,P|358:165|344:208,1,100,2|0,0:0|0:0,0:0:0:0:
139,329,53691,1,2,0:0:0:0:
291,293,53841,1,0,0:0:0:0:
130,191,53991,1,2,0:0:0:0:
130,191,54066,1,0,0:0:0:0:
130,191,54141,1,2,0:0:0:0:
310,309,54291,5,4,0:0:0:0:
478,246,54441,1,0,0:0:0:0:
299,312,54591,1,2,0:0:0:0:
488,242,54741,1,0,0:0:0:0:
208,152,54891,5,0,0:0:0:0:
376,215,55041,1,2,0:0:0:0:
197,148,55191,1,0,0:0:0:0:
386,218,55341,1,2,0:0:0:0:
63,328,55491,5,4,0:0:0:0:
231,265,55641,1,2,0:0:0:0:
52,331,55791,1,0,0:0:0:0:
241,261,55941,1,0,0:0:0:0:
26,168,56091,5,2,0:0:0:0:
26,168,56166,1,0,0:0:0:0:
26,168,56241,1,0,0:0:0:0:
241,261,56391,1,2,0:0:0:0:
52,331,56541,1,0,0:0:0:0:
233,143,56691,5,4,0:0:0:0:
110,50,56841,1,0,0:0:0:0:
70,233,56991,1,2,0:0:0:0:
248,143,57141,5,4,0:0:0:0:
105,33,57291,1,0,0:0:0:0:
58,249,57441,1,2,0:0:0:0:
271,143,57591,5,0,0:0:0:0:
98,11,57741,1,0,0:0:0:0:
53,272,57891,6,0,B|49:314|89:344|89:344|121:290|86:203|23:157,1,300.000011444092,0|4,0:0|0:0,0:0:0:0:
463,52,59091,6,0,P|479:106|472:151,1,100,4|0,0:0|0:0,0:0:0:0:
232,175,59391,2,0,P|216:121|223:76,1,100,8|0,0:0|0:0,0:0:0:0:
388,254,59691,1,0,0:0:0:0:
266,353,59841,1,0,0:0:0:0:
458,292,59991,2,0,P|467:239|446:193,1,100,8|0,0:0|0:0,0:0:0:0:
143,362,60291,6,0,L|243:354,1,100,0|0,0:0|0:0,0:0:0:0:
48,235,60591,1,8,0:0:0:0:
254,140,60741,2,0,P|266:86|249:45,1,100,0|0,0:0|0:0,0:0:0:0:
30,222,61041,1,0,0:0:0:0:
30,222,61116,1,0,0:0:0:0:
30,222,61191,2,0,L|17:322,1,100,8|0,0:0|0:0,0:0:0:0:
210,146,61491,6,0,L|197:46,1,100,0|0,0:0|0:0,0:0:0:0:
327,189,61791,1,8,0:0:0:0:
274,345,61941,1,0,0:0:0:0:
148,198,62091,2,0,P|129:147|148:97,1,100,0|0,0:0|0:0,0:0:0:0:
411,258,62391,2,0,P|410:312|374:352,1,100,8|0,0:0|0:0,0:0:0:0:
317,68,62691,6,0,B|379:48|379:48|418:50,1,100,0|0,0:0|0:0,0:0:0:0:
220,197,62991,1,8,0:0:0:0:
152,54,63141,1,0,0:0:0:0:
58,259,63291,1,8,0:0:0:0:
358,191,63441,1,0,0:0:0:0:
3,104,63591,1,8,0:0:0:0:
186,351,63741,1,0,0:0:0:0:
186,351,63816,1,0,0:0:0:0:
186,351,63891,6,0,L|286:346,1,100,4|0,0:0|0:0,0:0:0:0:
497,197,64191,2,0,L|397:192,1,100,8|0,0:0|0:0,0:0:0:0:
169,76,64491,1,0,0:0:0:0:
117,229,64641,1,0,0:0:0:0:
276,198,64791,2,0,P|290:144|278:103,1,100,8|0,0:0|0:0,0:0:0:0:
24,326,65091,6,0,L|124:350,1,100,0|0,0:0|0:0,0:0:0:0:
6,299,65391,1,8,0:0:0:0:
244,320,65541,2,0,L|341:296,1,100
219,305,65841,1,8,0:0:0:0:
456,162,65991,2,0,P|475:104|462:62,1,100,0|8,0:0|0:0,0:0:0:0:
163,15,66291,5,0,0:0:0:0:
357,109,66441,1,0,0:0:0:0:
71,189,66591,1,8,0:0:0:0:
276,44,66741,1,0,0:0:0:0:
276,295,66891,1,0,0:0:0:0:
65,88,67041,1,8,0:0:0:0:
357,109,67191,1,0,0:0:0:0:
113,326,67341,1,0,0:0:0:0:
203,158,67491,5,8,0:0:0:0:
481,297,67641,1,0,0:0:0:0:
90,340,67791,1,8,0:0:0:0:
379,190,67941,1,0,0:0:0:0:
379,190,68016,1,0,0:0:0:0:
379,190,68091,1,8,0:0:0:0:
54,117,68241,1,0,0:0:0:0:
54,117,68316,1,0,0:0:0:0:
54,117,68391,1,8,0:0:0:0:
54,117,68466,1,0,0:0:0:0:
54,117,68541,1,0,0:0:0:0:
54,117,68616,1,0,0:0:0:0:
54,117,68691,6,0,L|152:93,1,100,4|0,0:0|0:0,0:0:0:0:
369,259,68991,2,0,L|271:235,1,100,8|0,0:0|0:0,0:0:0:0:
464,73,69291,1,0,0:0:0:0:
487,239,69441,1,0,0:0:0:0:
320,118,69591,2,0,P|303:67|317:22,1,100,8|0,0:0|0:0,0:0:0:0:
501,255,69891,6,0,L|493:358,1,100,0|0,0:0|0:0,0:0:0:0:
464,73,70191,1,8,0:0:0:0:
481,279,70341,2,0,L|473:382,1,100,0|0,0:0|0:0,0:0:0:0:
445,91,70641,1,8,0:0:0:0:
335,257,70791,2,0,P|287:268|237:252,1,100,0|8,0:0|0:0,0:0:0:0:
497,32,71091,6,0,P|518:80|509:135,1,100,0|0,0:0|0:0,0:0:0:0:
332,354,71391,2,0,P|382:352|424:326,1,100,8|0,0:0|0:0,0:0:0:0:
281,17,71691,2,0,P|333:20|377:54,1,100,0|0,0:0|0:0,0:0:0:0:
140,334,71991,2,0,P|186:357|242:351,1,100,8|0,0:0|0:0,0:0:0:0:
88,93,72291,6,0,P|132:65|188:66,1,100,0|0,0:0|0:0,0:0:0:0:
24,233,72591,1,8,0:0:0:0:
248,111,72741,2,0,P|260:59|244:16,1,100,0|0,0:0|0:0,0:0:0:0:
145,215,73041,1,0,0:0:0:0:
402,143,73191,1,8,0:0:0:0:
299,355,73341,1,0,0:0:0:0:
299,355,73416,1,0,0:0:0:0:
299,355,73491,6,0,B|239:368|239:368|199:360,1,100,4|0,0:0|0:0,0:0:0:0:
474,96,73791,1,8,0:0:0:0:
486,280,73941,1,0,0:0:0:0:
268,216,74091,2,0,P|252:169|268:120,1,100,4|0,0:0|0:0,0:0:0:0:
487,306,74391,1,8,0:0:0:0:
472,69,74541,1,0,0:0:0:0:
357,243,74691,6,0,P|307:243|265:213,1,100,4|0,0:0|0:0,0:0:0:0:
470,44,74991,1,8,0:0:0:0:
489,331,75141,1,0,0:0:0:0:
329,169,75291,1,4,0:0:0:0:
512,125,75441,1,8,0:0:0:0:
389,360,75591,1,4,0:0:0:0:
302,68,75741,1,8,0:0:0:0:
135,333,75891,5,4,0:0:0:0:
433,241,76041,1,0,0:0:0:0:
201,91,76191,1,8,0:0:0:0:
270,348,76341,1,0,0:0:0:0:
386,68,76491,5,12,0:0:0:0:
99,238,76641,1,4,0:0:0:0:
410,341,76791,1,0,0:0:0:0:
210,60,76941,1,8,0:0:0:0:
170,363,77091,5,4,0:0:0:0:
66,131,77241,1,0,0:0:0:0:
66,131,77316,1,0,0:0:0:0:
66,131,77391,1,8,0:0:0:0:
320,209,77541,1,0,0:0:0:0:
43,312,77691,1,12,0:0:0:0:
246,55,77841,1,0,0:0:0:0:
356,352,77991,1,8,0:0:0:0:
361,369,78291,5,4,0:0:0:0:
346,63,87891,6,0,P|391:57|422:71,1,80,6|0,0:0|0:0,0:0:0:0:
178,207,88191,1,2,0:0:0:0:
74,135,88341,1,2,0:0:0:0:
210,82,88491,1,2,0:0:0:0:
210,82,88641,1,0,0:0:0:0:
219,334,88791,1,2,0:0:0:0:
219,334,88941,1,0,0:0:0:0:
366,156,89091,6,0,P|376:111|365:80,1,80,2|0,0:0|0:0,0:0:0:0:
143,137,89391,1,2,0:0:0:0:
245,237,89541,1,0,0:0:0:0:
55,284,89691,1,2,0:0:0:0:
278,247,89841,1,0,0:0:0:0:
120,147,89991,1,2,0:0:0:0:
309,258,90141,1,2,0:0:0:0:
50,187,90291,6,0,P|41:141|51:106,1,80,0|2,0:0|0:0,0:0:0:0:
252,32,90591,1,0,0:0:0:0:
207,226,90741,1,2,0:0:0:0:
356,143,90891,1,0,0:0:0:0:
159,96,91041,1,0,0:0:0:0:
228,344,91191,1,2,0:0:0:0:
228,344,91341,1,2,0:0:0:0:
426,187,91491,6,0,P|440:144|432:107,1,80,0|0,0:0|0:0,0:0:0:0:
165,40,91791,1,2,0:0:0:0:
225,289,91941,1,2,0:0:0:0:
426,187,92091,6,0,P|440:144|432:107,1,80,0|0,0:0|0:0,0:0:0:0:
165,40,92391,1,2,0:0:0:0:
225,289,92541,1,2,0:0:0:0:
426,187,92691,6,0,L|505:169,1,80,4|0,0:0|0:0,0:0:0:0:
346,322,92991,1,2,0:0:0:0:
258,146,93141,1,2,0:0:0:0:
172,347,93291,1,0,0:0:0:0:
344,220,93441,1,2,0:0:0:0:
177,101,93591,1,0,0:0:0:0:
177,101,93741,1,2,0:0:0:0:
363,198,93891,6,0,P|375:162|368:113,1,80,4|0,0:0|0:0,0:0:0:0:
115,26,94191,1,0,0:0:0:0:
241,150,94341,1,2,0:0:0:0:
151,312,94491,1,0,0:0:0:0:
177,101,94641,1,0,0:0:0:0:
0,145,94791,1,2,0:0:0:0:
0,145,94941,1,0,0:0:0:0:
220,270,95091,6,0,P|229:317|215:357,1,80,4|0,0:0|0:0,0:0:0:0:
89,220,95391,1,2,0:0:0:0:
179,85,95541,1,0,0:0:0:0:
297,192,95691,1,0,0:0:0:0:
378,112,95841,1,2,0:0:0:0:
480,171,95991,1,0,0:0:0:0:
297,192,96141,1,2,0:0:0:0:
500,178,96291,5,2,0:0:0:0:
511,205,96366,1,2,0:0:0:0:
498,232,96441,1,2,0:0:0:0:
469,242,96516,1,2,0:0:0:0:
440,232,96591,1,2,0:0:0:0:
427,204,96666,1,2,0:0:0:0:
435,175,96741,1,2,0:0:0:0:
461,160,96816,1,2,0:0:0:0:
484,127,96891,5,0,0:0:0:0:
493,88,96966,1,0,0:0:0:0:
478,50,97041,1,0,0:0:0:0:
439,37,97116,1,0,0:0:0:0:
436,76,97191,1,0,0:0:0:0:
405,101,97266,1,0,0:0:0:0:
365,106,97341,1,0,0:0:0:0:
328,89,97416,1,0,0:0:0:0:
308,59,97491,6,0,P|254:46|209:61,1,100,4|0,0:0|0:0,0:0:0:0:
211,276,97791,2,0,P|265:289|310:274,1,100,8|0,0:0|0:0,0:0:0:0:
123,144,98091,1,0,0:0:0:0:
33,300,98241,1,0,0:0:0:0:
150,136,98391,2,0,L|165:37,1,100,8|0,0:0|0:0,0:0:0:0:
49,323,98691,6,0,P|96:343|149:330,1,100,0|0,0:0|0:0,0:0:0:0:
261,151,98991,1,8,0:0:0:0:
30,230,99141,2,0,P|25:279|48:322,1,100,0|0,0:0|0:0,0:0:0:0:
274,141,99441,1,8,0:0:0:0:
274,141,99516,1,0,0:0:0:0:
274,141,99591,2,0,L|263:40,1,100,0|8,0:0|0:0,0:0:0:0:
420,254,99891,6,0,L|406:355,1,100,0|0,0:0|0:0,0:0:0:0:
423,236,100191,1,8,0:0:0:0:
263,366,100341,1,0,0:0:0:0:
454,163,100491,2,0,P|469:107|449:62,1,100,0|0,0:0|0:0,0:0:0:0:
163,233,100791,2,0,P|163:290|193:329,1,100,8|0,0:0|0:0,0:0:0:0:
267,43,101091,6,0,L|162:21,1,100,0|8,0:0|0:0,0:0:0:0:
383,118,101391,1,8,0:0:0:0:
280,342,101541,1,0,0:0:0:0:
495,272,101691,1,0,0:0:0:0:
202,216,101841,1,8,0:0:0:0:
443,81,101991,1,0,0:0:0:0:
186,240,102141,1,8,0:0:0:0:
186,240,102216,1,0,0:0:0:0:
186,240,102291,6,0,L|86:235,1,100,4|0,0:0|0:0,0:0:0:0:
318,346,102591,2,0,L|418:341,1,100,8|0,0:0|0:0,0:0:0:0:
243,305,102891,1,0,0:0:0:0:
470,224,103041,1,0,0:0:0:0:
362,75,103191,2,0,P|309:56|265:74,1,100,8|0,0:0|0:0,0:0:0:0:
38,230,103491,6,0,L|21:331,1,100,0|0,0:0|0:0,0:0:0:0:
60,219,103791,1,8,0:0:0:0:
214,363,103941,2,0,L|197:262,1,100,0|0,0:0|0:0,0:0:0:0:
236,374,104241,1,8,0:0:0:0:
114,155,104391,2,0,P|60:137|18:149,1,100,0|8,0:0|0:0,0:0:0:0:
233,40,104691,5,0,0:0:0:0:
251,256,104841,1,0,0:0:0:0:
426,191,104991,1,8,0:0:0:0:
228,146,105141,1,0,0:0:0:0:
452,57,105291,1,0,0:0:0:0:
463,298,105441,1,8,0:0:0:0:
332,101,105591,1,0,0:0:0:0:
253,355,105741,1,8,0:0:0:0:
453,191,105891,5,0,0:0:0:0:
121,111,106041,1,8,0:0:0:0:
160,359,106191,1,8,0:0:0:0:
332,101,106341,1,0,0:0:0:0:
332,101,106416,1,0,0:0:0:0:
332,101,106491,1,8,0:0:0:0:
45,268,106641,1,0,0:0:0:0:
45,268,106716,1,0,0:0:0:0:
45,268,106791,1,8,0:0:0:0:
45,268,106866,1,0,0:0:0:0:
45,268,106941,1,0,0:0:0:0:
45,268,107016,1,0,0:0:0:0:
45,268,107091,6,0,L|30:369,1,100,4|0,0:0|0:0,0:0:0:0:
215,178,107391,2,0,L|200:77,1,100,8|0,0:0|0:0,0:0:0:0:
145,348,107691,1,0,0:0:0:0:
343,316,107841,1,0,0:0:0:0:
103,222,107991,2,0,P|86:173|101:122,1,100,8|0,0:0|0:0,0:0:0:0:
450,235,108291,6,0,L|437:340,1,100,0|0,0:0|0:0,0:0:0:0:
408,46,108591,1,8,0:0:0:0:
422,275,108741,2,0,L|409:380,1,100,0|0,0:0|0:0,0:0:0:0:
379,83,109041,1,8,0:0:0:0:
270,236,109191,2,0,P|214:246|172:229,1,100,0|8,0:0|0:0,0:0:0:0:
348,38,109491,6,0,B|406:27|406:27|449:31,1,100,0|0,0:0|0:0,0:0:0:0:
256,339,109791,2,0,B|207:305|207:305|179:272,1,100,8|0,0:0|0:0,0:0:0:0:
505,213,110091,2,0,B|516:271|516:271|512:313,1,100,0|0,0:0|0:0,0:0:0:0:
139,128,110391,2,0,B|153:70|153:70|175:33,1,100,8|0,0:0|0:0,0:0:0:0:
256,339,110691,6,0,B|205:369|205:369|163:380,1,100,0|0,0:0|0:0,0:0:0:0:
13,263,110991,1,8,0:0:0:0:
280,175,111141,2,0,P|289:126|274:78,1,100,0|0,0:0|0:0,0:0:0:0:
87,19,111441,1,0,0:0:0:0:
87,19,111516,1,0,0:0:0:0:
87,19,111591,1,8,0:0:0:0:
117,262,111741,1,8,0:0:0:0:
235,75,111891,6,0,P|280:56|329:65,1,100,4|0,0:0|0:0,0:0:0:0:
461,312,112191,1,8,0:0:0:0:
486,99,112341,1,0,0:0:0:0:
318,249,112491,2,0,P|270:258|225:240,1,100,4|0,0:0|0:0,0:0:0:0:
487,84,112791,1,8,0:0:0:0:
459,326,112941,1,0,0:0:0:0:
225,240,113091,6,0,P|200:197|204:148,1,100,4|8,0:0|0:0,0:0:0:0:
461,36,113391,1,0,0:0:0:0:
460,284,113541,1,8,0:0:0:0:
280,177,113691,1,0,0:0:0:0:
481,104,113841,1,8,0:0:0:0:
471,355,113991,1,8,0:0:0:0:
388,75,114141,1,0,0:0:0:0:
244,352,114291,5,8,0:0:0:0:
488,214,114441,1,0,0:0:0:0:
132,104,114591,1,8,0:0:0:0:
419,13,114741,1,0,0:0:0:0:
38,234,114891,5,8,0:0:0:0:
291,301,115041,1,0,0:0:0:0:
155,32,115191,1,8,0:0:0:0:
464,108,115341,1,8,0:0:0:0:
170,344,115491,5,4,0:0:0:0:
122,128,115641,1,0,0:0:0:0:
122,128,115716,1,0,0:0:0:0:
122,128,115791,1,8,0:0:0:0:
396,344,115941,1,0,0:0:0:0:
49,237,116091,1,8,0:0:0:0:
388,106,116241,1,8,0:0:0:0:
274,379,116391,1,8,0:0:0:0:
257,186,116541,5,0,0:0:0:0:
257,186,116616,5,0,0:0:0:0:
257,186,116691,5,4,0:0:0:0:
252,213,117891,5,0,0:0:0:0:
247,239,119091,5,0,0:0:0:0:
