osu file format v14

[General]
AudioFilename: audio.mp3
AudioLeadIn: 1004
PreviewTime: 59091
Countdown: 0
SampleSet: Normal
StackLeniency: 0.5
Mode: 0
LetterboxInBreaks: 0
WidescreenStoryboard: 1

[Editor]
Bookmarks: 24295,25495,29095,30295,33895,35095,44695,47095,48295,49495,54295,57895,63295,63895,67495,68695,75895,78295,101695,102295,105895,107095,110695,111895,114295,116695
DistanceSpacing: 0.4
BeatDivisor: 4
GridSize: 4
TimelineZoom: 1

[Metadata]
Title:EDEN
TitleUnicode:EDEN
Artist:TERRA
ArtistUnicode:TЁЯRA
Creator:Kite
Version:Another
Source:beatmania IIDX 12 HAPPY SKY
Tags:deetz handsome raose knyt Naoki Maeda Junko Karashima konami
BeatmapID:1065863
BeatmapSetID:500341

[Difficulty]
HPDrainRate:5
CircleSize:4
OverallDifficulty:8
ApproachRate:9.4
SliderMultiplier:2
SliderTickRate:1

[Events]
//Background and Video events
0,0,"knyt eden.jpg",0,0
//Break Periods
2,78491,87351
//Storyboard Layer 0 (Background)
//Storyboard Layer 1 (Fail)
//Storyboard Layer 2 (Pass)
//Storyboard Layer 3 (Foreground)
//Storyboard Sound Samples

[TimingPoints]
1491,300,4,2,1,60,1,0
1491,-166.666666666667,4,2,1,60,0,0
11091,-153.846153846154,4,2,1,60,0,0
15891,-142.857142857143,4,2,1,60,0,0
17091,-133.333333333333,4,2,1,60,0,0
18291,-125,4,2,1,60,0,0
19340,-100,4,2,1,60,0,0
20691,-100,4,1,1,60,0,0
39891,-100,4,1,1,60,0,0
57891,-133.333333333333,4,1,1,60,0,0
59091,-100,4,1,1,60,0,1
78291,-100,4,1,1,60,0,0
87816,-125,4,2,1,60,0,0
96291,-100,4,2,1,60,0,0
96891,-100,4,1,1,60,0,0
97491,-100,4,1,1,60,0,1
116391,-100,4,1,1,60,0,0
116616,-100,4,2,1,60,0,0

[Colours]
Combo1 : 255,255,128
Combo2 : 128,255,128
Combo3 : 255,128,255
Combo4 : 255,128,128

[HitObjects]
53,246,1491,6,0,P|46:177|47:126,1,119.999996337891,8|0,0:0|0:0,0:0:0:0:
59,31,1941,1,2,0:0:0:0:
59,31,2091,1,2,0:0:0:0:
209,257,2391,1,8,0:0:0:0:
297,142,2691,2,0,P|359:118|415:138,1,119.999996337891,8|0,0:0|0:0,0:0:0:0:
424,317,3291,2,0,P|362:341|306:321,1,119.999996337891,2|0,0:0|0:0,0:0:0:0:
161,174,3891,5,8,0:0:0:0:
115,296,4041,1,2,0:0:0:0:
32,195,4191,1,2,0:0:0:0:
23,180,4341,1,0,0:0:0:0:
161,174,4491,1,0,0:0:0:0:
161,174,4791,5,8,0:0:0:0:
281,296,4941,2,0,L|343:288,1,59.9999981689454,2|0,0:0|0:0,0:0:0:0:
220,181,5241,2,0,L|158:173,1,59.9999981689454,2|0,0:0|0:0,0:0:0:0:
336,132,5541,1,2,0:0:0:0:
336,132,5691,2,0,L|455:114,1,119.999996337891,8|2,0:0|0:0,0:0:0:0:
103,112,6291,6,0,P|76:166|100:234,1,119.999996337891,8|0,0:0|0:0,0:0:0:0:
163,295,6741,1,2,0:0:0:0:
163,295,6891,1,2,0:0:0:0:
352,62,7191,1,8,0:0:0:0:
423,181,7491,2,0,P|430:254|421:302,1,119.999996337891,8|0,0:0|0:0,0:0:0:0:
250,122,8091,2,0,P|296:84|351:61,1,119.999996337891,2|2,0:0|0:0,0:0:0:0:
286,302,8691,5,8,0:0:0:0:
134,246,8841,1,2,0:0:0:0:
221,123,8991,1,2,0:0:0:0:
226,106,9141,1,0,0:0:0:0:
134,246,9291,1,0,0:0:0:0:
346,186,9591,5,8,0:0:0:0:
134,246,9741,2,0,L|67:240,1,59.9999981689454,2|0,0:0|0:0,0:0:0:0:
219,352,10041,2,0,L|286:346,1,59.9999981689454,2|0,0:0|0:0,0:0:0:0:
170,142,10341,1,8,0:0:0:0:
170,142,10491,2,0,L|46:130,1,119.999996337891,2|2,0:0|0:0,0:0:0:0:
413,241,11091,6,0,P|433:176|402:117,1,129.999994049073,4|0,0:0|0:0,0:0:0:0:
318,49,11541,1,8,0:0:0:0:
318,49,11691,1,8,0:0:0:0:
215,293,11991,1,0,0:0:0:0:
148,168,12291,2,0,P|84:152|28:181,1,129.999994049073,8|0,0:0|0:0,0:0:0:0:
215,293,12741,1,2,0:0:0:0:
215,293,12891,2,0,L|350:271,1,129.999994049073,2|0,0:0|0:0,0:0:0:0:
28,352,13491,5,8,0:0:0:0:
64,208,13641,1,0,0:0:0:0:
182,312,13791,1,0,0:0:0:0:
188,326,13941,1,8,0:0:0:0:
64,208,14091,1,0,0:0:0:0:
285,89,14391,5,2,0:0:0:0:
64,208,14541,2,0,L|-3:215,1,64.9999970245363,2|8,0:0|0:0,0:0:0:0:
220,82,14841,2,0,L|287:89,1,64.9999970245363,0|2,0:0|0:0,0:0:0:0:
182,304,15141,1,0,0:0:0:0:
182,304,15291,2,0,L|49:317,1,129.999994049073,8|2,0:0|0:0,0:0:0:0:
430,249,15891,6,0,P|457:173|439:115,1,139.999995727539,4|0,0:0|0:0,0:0:0:0:
337,31,16341,1,2,0:0:0:0:
254,128,16491,2,0,P|211:137|180:127,1,69.9999978637696,8|0,0:0|0:0,0:0:0:0:
337,31,16791,2,0,L|414:24,1,69.9999978637696,0|2,0:0|0:0,0:0:0:0:
129,199,17091,6,0,P|98:119|127:63,1,150.000005722046,8|0,0:0|0:0,0:0:0:0:
293,171,17541,1,2,0:0:0:0:
170,286,17691,2,0,P|136:295|95:286,1,75.0000028610231,8|0,0:0|0:0,0:0:0:0:
293,80,17991,2,0,P|328:83|363:105,1,75.0000028610231,0|2,0:0|0:0,0:0:0:0:
95,367,18291,6,0,P|26:324|91:208,1,240,8|0,0:0|0:0,0:0:0:0:
233,245,18891,1,8,0:0:0:0:
351,42,19191,1,8,0:0:0:0:
378,83,19491,5,0,0:0:0:0:
369,106,19566,1,0,0:0:0:0:
350,122,19641,1,0,0:0:0:0:
326,125,19716,1,0,0:0:0:0:
303,116,19791,1,0,0:0:0:0:
288,97,19866,1,0,0:0:0:0:
285,72,19941,1,0,0:0:0:0:
295,50,20016,1,0,0:0:0:0:
315,35,20091,5,2,0:0:0:0:
347,22,20166,1,0,0:0:0:0:
382,22,20241,1,2,0:0:0:0:
414,34,20316,1,0,0:0:0:0:
439,58,20391,1,2,0:0:0:0:
454,90,20466,1,2,0:0:0:0:
456,125,20541,1,2,0:0:0:0:
444,157,20616,1,2,0:0:0:0:
421,184,20691,6,0,P|413:236|436:289,2,100,4|0|12,0:0|0:0|0:0,0:0:0:0:
324,66,21141,2,0,L|217:50,1,100,0|0,0:0|0:0,0:0:0:0:
64,295,21441,1,8,0:0:0:0:
194,206,21591,1,0,0:0:0:0:
55,141,21741,1,8,0:0:0:0:
221,217,21891,6,0,P|233:269|217:316,1,100,4|0,0:0|0:0,0:0:0:0:
2,200,22191,1,8,0:0:0:0:
2,200,22266,1,0,0:0:0:0:
2,200,22341,2,0,P|-26:139|62:60,1,200,0|8,0:0|0:0,0:0:0:0:
186,237,22791,1,0,0:0:0:0:
56,308,22941,1,8,0:0:0:0:
259,286,23091,6,0,P|274:231|257:184,2,100,4|0|8,0:0|0:0|0:0,0:0:0:0:
55,141,23541,2,0,L|39:40,1,100,0|0,0:0|0:0,0:0:0:0:
119,248,23841,1,8,0:0:0:0:
206,131,23991,2,0,P|254:112|301:121,1,100,0|8,0:0|0:0,0:0:0:0:
461,268,24291,5,0,0:0:0:0:
490,103,24441,1,8,0:0:0:0:
343,340,24591,1,0,0:0:0:0:
353,180,24741,1,8,0:0:0:0:
353,180,24816,1,0,0:0:0:0:
353,180,24891,1,0,0:0:0:0:
357,333,25041,1,8,0:0:0:0:
334,164,25191,2,0,L|341:64,1,100,8|8,0:0|0:0,0:0:0:0:
343,340,25491,6,0,P|294:366|195:281,1,200,4|8,0:0|0:0,0:0:0:0:
287,89,25941,2,0,P|335:74|381:87,1,100,0|0,0:0|0:0,0:0:0:0:
468,177,26241,1,8,0:0:0:0:
222,147,26391,2,0,P|201:97|213:49,1,100,0|0,0:0|0:0,0:0:0:0:
468,177,26691,6,0,B|481:224|459:263|432:282|432:282|428:326|458:361,1,200,8|8,0:0|0:0,0:0:0:0:
455,357,27066,1,0,0:0:0:0:
455,357,27141,1,0,0:0:0:0:
439,171,27291,2,0,L|451:68,1,100,0|8,0:0|0:0,0:0:0:0:
283,289,27591,1,8,0:0:0:0:
232,130,27741,1,8,0:0:0:0:
366,290,27891,6,0,P|314:368|222:348,1,200,0|8,0:0|0:0,0:0:0:0:
284,205,28341,2,0,P|204:255|221:347,1,200,0|8,0:0|0:0,0:0:0:0:
442,217,28791,1,0,0:0:0:0:
417,44,28941,1,0,0:0:0:0:
458,225,29091,6,0,L|467:334,1,100,8|0,0:0|0:0,0:0:0:0:
267,176,29391,1,8,0:0:0:0:
268,157,29466,1,0,0:0:0:0:
270,138,29541,2,0,L|279:29,1,100,0|8,0:0|0:0,0:0:0:0:
95,309,29841,1,8,0:0:0:0:
39,143,29991,1,0,0:0:0:0:
244,255,30141,1,8,0:0:0:0:
23,135,30291,6,0,P|13:84|30:39,2,100,4|0|8,0:0|0:0|0:0,0:0:0:0:
259,337,30741,2,0,P|313:303|286:183,1,200,0|8,0:0|0:0,0:0:0:0:
157,162,31191,1,0,0:0:0:0:
62,248,31341,1,0,0:0:0:0:
289,185,31491,6,0,P|300:122|286:86,1,100,8|0,0:0|0:0,0:0:0:0:
175,289,31791,1,8,0:0:0:0:
175,289,31866,1,0,0:0:0:0:
175,289,31941,2,0,L|380:269,1,200,0|8,0:0|0:0,0:0:0:0:
488,162,32391,1,0,0:0:0:0:
507,349,32541,1,8,0:0:0:0:
456,148,32691,6,0,L|467:46,2,100,0|8|0,0:0|0:0|0:0,0:0:0:0:
290,340,33141,2,0,P|234:349|193:330,1,100,0|8,0:0|0:0,0:0:0:0:
108,197,33441,1,0,0:0:0:0:
361,285,33591,2,0,P|377:337|365:384,1,100,8|0,0:0|0:0,0:0:0:0:
108,197,33891,5,4,0:0:0:0:
270,113,34041,1,0,0:0:0:0:
62,60,34191,1,8,0:0:0:0:
62,60,34266,1,0,0:0:0:0:
62,60,34341,1,0,0:0:0:0:
282,117,34491,1,8,0:0:0:0:
98,202,34641,1,0,0:0:0:0:
359,164,34791,2,0,P|373:116|359:65,1,100,8|8,0:0|0:0,0:0:0:0:
37,145,35091,6,0,P|12:205|103:286,1,200,4|8,0:0|0:0,0:0:0:0:
282,117,35541,2,0,P|237:93|183:100,1,100,0|0,0:0|0:0,0:0:0:0:
99,286,35841,1,8,0:0:0:0:
291,211,35991,2,0,P|299:160|276:111,1,100,0|8,0:0|0:0,0:0:0:0:
32,251,36291,6,0,P|27:329|98:281,1,200,4|8,0:0|0:0,0:0:0:0:
98,285,36666,1,0,0:0:0:0:
98,285,36741,1,0,0:0:0:0:
63,149,36891,1,8,0:0:0:0:
219,189,37041,1,0,0:0:0:0:
48,128,37191,2,0,L|35:26,1,100,0|8,0:0|0:0,0:0:0:0:
235,211,37491,5,8,0:0:0:0:
321,109,37641,1,0,0:0:0:0:
368,272,37791,1,0,0:0:0:0:
236,97,37941,2,0,P|262:46|391:59,1,200,8|0,0:0|0:0,0:0:0:0:
387,54,38391,1,8,0:0:0:0:
214,344,38691,6,0,P|166:359|115:364,1,100,8|0,0:0|0:0,0:0:0:0:
299,255,38991,1,8,0:0:0:0:
299,255,39066,1,0,0:0:0:0:
299,255,39141,1,0,0:0:0:0:
164,233,39291,1,0,0:0:0:0:
129,212,39366,1,0,0:0:0:0:
105,180,39441,1,0,0:0:0:0:
95,142,39516,1,0,0:0:0:0:
100,103,39591,1,0,0:0:0:0:
119,68,39666,1,0,0:0:0:0:
149,42,39741,1,0,0:0:0:0:
187,30,39816,1,0,0:0:0:0:
227,33,39891,6,0,B|268:42|268:42|329:28,1,100,4|0,0:0|0:0,0:0:0:0:
475,135,40191,2,0,B|407:123|407:123|368:131,1,100,2|0,0:0|0:0,0:0:0:0:
262,227,40491,2,0,B|194:239|194:239|155:231,1,100,0|2,0:0|0:0,0:0:0:0:
491,29,40791,1,0,0:0:0:0:
487,202,40941,1,2,0:0:0:0:
358,118,41091,6,0,P|346:66|364:19,1,100,0|2,0:0|0:0,0:0:0:0:
500,221,41391,2,0,L|492:326,1,100,0|0,0:0|0:0,0:0:0:0:
455,138,41691,1,2,0:0:0:0:
303,219,41841,1,0,0:0:0:0:
488,123,41991,2,0,P|503:76|490:28,1,100,2|0,0:0|0:0,0:0:0:0:
281,240,42291,6,0,L|268:346,2,100,0|0|2,0:0|0:0|0:0,0:0:0:0:
160,120,42741,2,0,P|143:68|162:19,1,100,0|0,0:0|0:0,0:0:0:0:
368,38,43041,1,2,0:0:0:0:
250,145,43191,2,0,P|195:145|154:111,1,100,0|2,0:0|0:0,0:0:0:0:
458,13,43491,2,0,P|403:12|362:46,1,100
410,262,43791,2,0,P|464:262|505:228,1,100,2|0,0:0|0:0,0:0:0:0:
250,145,44091,2,0,P|232:193|245:242,1,100,0|0,0:0|0:0,0:0:0:0:
510,140,44391,2,0,P|505:88|471:50,1,100,2|0,0:0|0:0,0:0:0:0:
266,282,44691,5,4,0:0:0:0:
266,282,44841,1,0,0:0:0:0:
352,200,44991,1,2,0:0:0:0:
352,200,45141,1,0,0:0:0:0:
172,154,45291,1,0,0:0:0:0:
172,154,45441,1,2,0:0:0:0:
348,39,45591,1,0,0:0:0:0:
348,39,45741,1,2,0:0:0:0:
98,103,45891,6,0,P|83:153|95:200,1,100,2|0,0:0|0:0,0:0:0:0:
201,323,46191,1,2,0:0:0:0:
115,226,46341,2,0,L|16:207,1,100,0|0,0:0|0:0,0:0:0:0:
0,203,46641,1,0,0:0:0:0:
217,321,46791,2,0,L|318:308,1,100,2|0,0:0|0:0,0:0:0:0:
444,180,47091,5,2,0:0:0:0:
346,96,47241,1,0,0:0:0:0:
467,53,47391,1,0,0:0:0:0:
457,192,47541,2,0,L|445:299,2,100,2|0|0,0:0|0:0|0:0,0:0:0:0:
272,141,47991,2,0,P|260:82|281:36,1,100,2|0,0:0|0:0,0:0:0:0:
355,272,48291,5,2,0:0:0:0:
152,238,48441,1,0,0:0:0:0:
376,158,48591,1,2,0:0:0:0:
242,332,48741,1,0,0:0:0:0:
242,332,48816,1,0,0:0:0:0:
242,332,48891,1,2,0:0:0:0:
208,149,49041,1,0,0:0:0:0:
70,285,49191,1,2,0:0:0:0:
281,232,49341,1,2,0:0:0:0:
48,154,49491,6,0,P|37:102|53:56,1,100,4|0,0:0|0:0,0:0:0:0:
215,298,49791,2,0,P|161:299|119:276,1,100,2|0,0:0|0:0,0:0:0:0:
385,158,50091,2,0,P|377:210|346:248,1,100,0|2,0:0|0:0,0:0:0:0:
291,40,50391,1,0,0:0:0:0:
475,63,50541,1,2,0:0:0:0:
264,26,50691,6,0,B|208:16|208:16|164:26,1,100,0|0,0:0|0:0,0:0:0:0:
310,236,50991,2,0,B|346:192|346:192|360:149,1,100,2|0,0:0|0:0,0:0:0:0:
105,170,51291,2,0,B|124:223|124:223|154:256,1,100,0|2,0:0|0:0,0:0:0:0:
350,345,51591,1,0,0:0:0:0:
444,203,51741,1,2,0:0:0:0:
332,364,51891,6,0,P|282:380|237:368,2,100,0|0|2,0:0|0:0|0:0,0:0:0:0:
455,188,52341,2,0,L|471:86,1,100,0|0,0:0|0:0,0:0:0:0:
451,212,52641,1,2,0:0:0:0:
371,51,52791,1,0,0:0:0:0:
275,186,52941,1,2,0:0:0:0:
400,25,53091,6,0,P|448:12|496:27,1,100,0|0,0:0|0:0,0:0:0:0:
217,249,53391,2,0,P|190:201|195:157,1,100,2|0,0:0|0:0,0:0:0:0:
512,235,53691,2,0,P|508:289|480:324,1,100,2|0,0:0|0:0,0:0:0:0:
137,95,53991,2,0,P|182:73|233:82,1,100,2|2,0:0|0:0,0:0:0:0:
93,326,54291,5,4,0:0:0:0:
59,204,54441,1,0,0:0:0:0:
178,235,54591,1,2,0:0:0:0:
41,200,54741,1,0,0:0:0:0:
230,109,54891,5,0,0:0:0:0:
196,231,55041,1,2,0:0:0:0:
315,200,55191,1,0,0:0:0:0:
178,235,55341,1,2,0:0:0:0:
367,326,55491,5,4,0:0:0:0:
333,204,55641,1,2,0:0:0:0:
452,235,55791,1,0,0:0:0:0:
315,200,55941,1,0,0:0:0:0:
462,124,56091,6,0,P|474:72|457:25,1,100,2|0,0:0|0:0,0:0:0:0:
165,29,56391,2,0,P|153:81|170:128,1,100,2|0,0:0|0:0,0:0:0:0:
370,293,56691,5,4,0:0:0:0:
365,134,56841,1,0,0:0:0:0:
166,234,56991,1,2,0:0:0:0:
384,125,57141,2,0,P|403:84|400:28,1,100,4|0,0:0|0:0,0:0:0:0:
153,242,57441,1,2,0:0:0:0:
371,306,57591,2,0,P|425:311|473:291,1,100,0|0,0:0|0:0,0:0:0:0:
114,157,57891,6,0,P|63:229|211:317,1,300.000011444092,0|4,0:0|0:0,0:0:0:0:
402,60,59091,6,0,P|346:44|304:57,1,100,4|0,0:0|0:0,0:0:0:0:
296,257,59391,2,0,P|352:273|394:260,1,100,8|0,0:0|0:0,0:0:0:0:
212,146,59691,1,0,0:0:0:0:
152,295,59841,1,0,0:0:0:0:
225,130,59991,2,0,L|211:27,1,100,8|0,0:0|0:0,0:0:0:0:
71,320,60291,6,0,P|118:372|229:325,1,200,0|8,0:0|0:0,0:0:0:0:
126,138,60741,2,0,P|70:129|28:148,1,100,0|0,0:0|0:0,0:0:0:0:
12,170,61041,1,0,0:0:0:0:
201,193,61191,2,0,P|220:139|208:92,1,100,8|0,0:0|0:0,0:0:0:0:
108,318,61491,6,0,P|150:355|209:356,1,100,0|0,0:0|0:0,0:0:0:0:
297,41,61791,2,0,P|243:58|213:109,1,100,8|0,0:0|0:0,0:0:0:0:
466,270,62091,2,0,P|477:215|448:163,1,100,0|0,0:0|0:0,0:0:0:0:
101,256,62391,2,0,P|118:309|169:339,1,100,8|0,0:0|0:0,0:0:0:0:
395,62,62691,6,0,P|290:23|240:104,1,200,0|8,0:0|0:0,0:0:0:0:
273,263,63141,1,0,0:0:0:0:
154,168,63291,1,8,0:0:0:0:
323,97,63441,1,0,0:0:0:0:
265,284,63591,1,8,0:0:0:0:
140,167,63741,1,0,0:0:0:0:
140,167,63816,1,0,0:0:0:0:
140,167,63891,6,0,P|84:155|46:170,1,100,4|0,0:0|0:0,0:0:0:0:
181,344,64191,1,8,0:0:0:0:
257,221,64341,1,0,0:0:0:0:
155,360,64491,2,0,P|108:375|60:363,1,100,0|0,0:0|0:0,0:0:0:0:
181,98,64791,1,8,0:0:0:0:
208,240,64941,1,0,0:0:0:0:
155,82,65091,6,0,P|108:66|60:78,1,100,0|0,0:0|0:0,0:0:0:0:
165,333,65391,1,8,0:0:0:0:
299,212,65541,2,0,B|328:175|319:127|302:94|302:94|305:56|340:33,1,200,0|8,0:0|0:0,0:0:0:0:
354,285,65991,2,0,P|305:301|252:285,1,100,0|8,0:0|0:0,0:0:0:0:
416,112,66291,5,0,0:0:0:0:
459,247,66441,1,0,0:0:0:0:
417,87,66591,1,8,0:0:0:0:
350,258,66741,1,0,0:0:0:0:
268,110,66891,1,0,0:0:0:0:
177,318,67041,1,8,0:0:0:0:
338,212,67191,1,0,0:0:0:0:
65,244,67341,1,0,0:0:0:0:
268,110,67491,5,8,0:0:0:0:
177,318,67641,1,0,0:0:0:0:
88,102,67791,1,8,0:0:0:0:
227,208,67941,1,0,0:0:0:0:
227,208,68016,1,0,0:0:0:0:
227,208,68091,1,8,0:0:0:0:
349,49,68241,5,0,0:0:0:0:
349,49,68316,1,0,0:0:0:0:
349,49,68391,1,8,0:0:0:0:
349,49,68466,1,0,0:0:0:0:
349,49,68541,1,0,0:0:0:0:
349,49,68616,1,0,0:0:0:0:
349,49,68691,6,0,B|396:38|396:38|447:49,1,100,4|0,0:0|0:0,0:0:0:0:
268,175,68991,1,8,0:0:0:0:
218,42,69141,1,0,0:0:0:0:
293,187,69291,2,0,B|304:234|304:234|293:285,1,100,0|0,0:0|0:0,0:0:0:0:
105,85,69591,2,0,B|140:51|140:51|189:36,1,100,8|0,0:0|0:0,0:0:0:0:
157,285,69891,6,0,P|84:304|23:211,1,200,0|8,0:0|0:0,0:0:0:0:
259,186,70341,2,0,L|245:286,1,100,0|0,0:0|0:0,0:0:0:0:
185,106,70641,1,8,0:0:0:0:
369,196,70791,2,0,P|426:200|468:173,1,100,0|8,0:0|0:0,0:0:0:0:
133,37,71091,6,0,P|104:81|111:139,1,100,0|0,0:0|0:0,0:0:0:0:
439,166,71391,2,0,P|458:120|447:73,1,100,8|0,0:0|0:0,0:0:0:0:
70,154,71691,2,0,P|63:206|94:255,1,100,0|0,0:0|0:0,0:0:0:0:
415,284,71991,2,0,P|451:251|463:204,1,100,8|0,0:0|0:0,0:0:0:0:
101,128,72291,5,0,0:0:0:0:
37,311,72441,1,0,0:0:0:0:
254,224,72591,1,8,0:0:0:0:
41,188,72741,2,0,P|19:93|99:44,1,200,0|0,0:0|0:0,0:0:0:0:
119,51,73191,1,8,0:0:0:0:
135,257,73341,1,0,0:0:0:0:
135,257,73416,1,0,0:0:0:0:
135,257,73491,6,0,L|116:360,1,100,4|0,0:0|0:0,0:0:0:0:
280,171,73791,1,8,0:0:0:0:
98,127,73941,1,0,0:0:0:0:
306,161,74091,2,0,L|403:136,1,100,4|0,0:0|0:0,0:0:0:0:
199,55,74391,1,8,0:0:0:0:
161,264,74541,1,0,0:0:0:0:
28,174,74691,6,0,P|13:122|31:77,1,100,4|0,0:0|0:0,0:0:0:0:
161,264,74991,1,8,0:0:0:0:
27,79,75141,2,0,P|66:50|115:49,1,100,8|4,0:0|0:0,0:0:0:0:
252,192,75441,1,8,0:0:0:0:
314,51,75591,1,4,0:0:0:0:
406,262,75741,1,8,0:0:0:0:
236,174,75891,6,0,P|179:164|139:183,1,100,4|0,0:0|0:0,0:0:0:0:
51,320,76191,1,8,0:0:0:0:
32,134,76341,1,0,0:0:0:0:
204,247,76491,1,12,0:0:0:0:
7,229,76641,1,4,0:0:0:0:
163,84,76791,1,0,0:0:0:0:
155,354,76941,1,8,0:0:0:0:
322,219,77091,5,4,0:0:0:0:
126,186,77241,1,0,0:0:0:0:
126,186,77316,1,0,0:0:0:0:
126,186,77391,1,8,0:0:0:0:
303,57,77541,1,0,0:0:0:0:
257,306,77691,1,12,0:0:0:0:
428,169,77841,1,0,0:0:0:0:
159,47,77991,1,8,0:0:0:0:
159,47,78291,5,4,0:0:0:0:
86,297,87891,5,6,0:0:0:0:
86,297,88191,1,2,0:0:0:0:
163,316,88341,1,2,0:0:0:0:
219,258,88491,1,2,0:0:0:0:
197,181,88641,1,0,0:0:0:0:
119,162,88791,1,2,0:0:0:0:
63,220,88941,1,0,0:0:0:0:
163,316,89091,5,2,0:0:0:0:
197,181,89241,1,0,0:0:0:0:
253,123,89391,1,2,0:0:0:0:
330,142,89541,1,0,0:0:0:0:
353,219,89691,1,2,0:0:0:0:
297,277,89841,1,0,0:0:0:0:
219,258,89991,1,2,0:0:0:0:
253,123,90141,1,2,0:0:0:0:
353,219,90291,5,0,0:0:0:0:
431,238,90441,1,2,0:0:0:0:
487,180,90591,1,0,0:0:0:0:
464,103,90741,1,2,0:0:0:0:
387,84,90891,1,0,0:0:0:0:
331,142,91041,1,0,0:0:0:0:
431,238,91191,1,2,0:0:0:0:
464,103,91341,1,2,0:0:0:0:
353,219,91491,5,0,0:0:0:0:
217,128,91641,1,0,0:0:0:0:
191,293,91791,1,2,0:0:0:0:
220,108,91941,1,2,0:0:0:0:
196,268,92091,5,0,0:0:0:0:
60,359,92241,1,0,0:0:0:0:
34,194,92391,1,2,0:0:0:0:
63,379,92541,1,2,0:0:0:0:
29,171,92691,5,4,0:0:0:0:
29,171,92991,1,2,0:0:0:0:
72,237,93141,1,2,0:0:0:0:
152,233,93291,1,0,0:0:0:0:
189,161,93441,1,2,0:0:0:0:
145,94,93591,1,0,0:0:0:0:
64,98,93741,1,2,0:0:0:0:
72,237,93891,5,4,0:0:0:0:
189,161,94041,1,0,0:0:0:0:
269,157,94191,1,0,0:0:0:0:
313,224,94341,1,2,0:0:0:0:
277,296,94491,1,0,0:0:0:0:
196,300,94641,1,0,0:0:0:0:
152,233,94791,1,2,0:0:0:0:
277,296,94941,1,0,0:0:0:0:
269,157,95091,5,4,0:0:0:0:
259,76,95241,1,0,0:0:0:0:
321,29,95391,1,2,0:0:0:0:
395,60,95541,1,0,0:0:0:0:
407,140,95691,1,0,0:0:0:0:
342,188,95841,1,2,0:0:0:0:
259,76,95991,1,0,0:0:0:0:
395,60,96141,1,2,0:0:0:0:
189,161,96291,5,2,0:0:0:0:
170,168,96366,1,2,0:0:0:0:
150,172,96441,1,2,0:0:0:0:
130,173,96516,1,2,0:0:0:0:
110,172,96591,1,2,0:0:0:0:
90,168,96666,1,2,0:0:0:0:
71,160,96741,1,2,0:0:0:0:
54,149,96816,1,2,0:0:0:0:
39,135,96891,5,0,0:0:0:0:
73,133,96966,1,0,0:0:0:0:
107,142,97041,1,0,0:0:0:0:
135,162,97116,1,0,0:0:0:0:
156,190,97191,1,0,0:0:0:0:
167,223,97266,1,0,0:0:0:0:
166,258,97341,1,0,0:0:0:0:
154,291,97416,1,0,0:0:0:0:
132,318,97491,6,0,P|80:335|34:319,1,100,4|0,0:0|0:0,0:0:0:0:
39,135,97791,2,0,P|91:118|137:134,1,100,8|0,0:0|0:0,0:0:0:0:
310,256,98091,1,0,0:0:0:0:
404,126,98241,1,0,0:0:0:0:
291,275,98391,2,0,P|279:330|290:373,1,100,8|0,0:0|0:0,0:0:0:0:
487,111,98691,6,0,P|434:46|333:81,1,200,0|8,0:0|0:0,0:0:0:0:
413,275,99141,1,0,0:0:0:0:
413,275,99216,1,0,0:0:0:0:
413,275,99291,1,0,0:0:0:0:
256,207,99441,1,8,0:0:0:0:
437,290,99591,2,0,P|448:339|427:386,1,100,0|8,0:0|0:0,0:0:0:0:
208,127,99891,6,0,P|245:94|296:86,1,100,0|0,0:0|0:0,0:0:0:0:
111,384,100191,2,0,P|54:369|25:336,1,100,8|0,0:0|0:0,0:0:0:0:
384,200,100491,2,0,P|405:250|399:295,1,100,0|0,0:0|0:0,0:0:0:0:
28,169,100791,2,0,P|26:110|49:71,1,100,8|0,0:0|0:0,0:0:0:0:
296,340,101091,5,0,0:0:0:0:
121,301,101241,1,8,0:0:0:0:
275,193,101391,1,8,0:0:0:0:
318,354,101541,1,0,0:0:0:0:
318,354,101616,1,0,0:0:0:0:
318,354,101691,1,0,0:0:0:0:
109,299,101841,1,8,0:0:0:0:
290,184,101991,1,0,0:0:0:0:
104,84,102141,1,8,0:0:0:0:
104,84,102216,1,0,0:0:0:0:
104,84,102291,6,0,P|52:80|11:105,1,100,4|0,0:0|0:0,0:0:0:0:
148,277,102591,1,8,0:0:0:0:
204,124,102741,1,0,0:0:0:0:
134,299,102891,2,0,P|91:323|42:318,1,100,0|0,0:0|0:0,0:0:0:0:
204,124,103191,1,8,0:0:0:0:
248,303,103341,1,0,0:0:0:0:
190,102,103491,6,0,P|147:77|98:82,1,100,0|0,0:0|0:0,0:0:0:0:
248,303,103791,1,8,0:0:0:0:
388,187,103941,2,0,B|410:142|405:85|372:42|372:42|403:51|419:73,1,200,0|8,0:0|0:0,0:0:0:0:
473,251,104391,2,0,P|468:305|454:353,1,100,0|8,0:0|0:0,0:0:0:0:
289,152,104691,5,0,0:0:0:0:
310,277,104841,1,0,0:0:0:0:
261,138,104991,1,8,0:0:0:0:
225,18,105141,1,0,0:0:0:0:
123,188,105291,5,0,0:0:0:0:
289,152,105441,1,8,0:0:0:0:
103,193,105591,1,0,0:0:0:0:
328,24,105741,1,8,0:0:0:0:
236,240,105891,5,0,0:0:0:0:
192,41,106041,1,8,0:0:0:0:
396,116,106191,1,8,0:0:0:0:
144,180,106341,1,0,0:0:0:0:
144,180,106416,1,0,0:0:0:0:
144,180,106491,1,8,0:0:0:0:
391,312,106641,1,0,0:0:0:0:
391,312,106716,1,0,0:0:0:0:
391,312,106791,1,8,0:0:0:0:
391,312,106866,1,0,0:0:0:0:
391,312,106941,1,0,0:0:0:0:
391,312,107016,1,0,0:0:0:0:
391,312,107091,6,0,P|434:315|481:287,1,100,4|0,0:0|0:0,0:0:0:0:
290,183,107391,1,8,0:0:0:0:
192,316,107541,1,0,0:0:0:0:
314,169,107691,2,0,P|323:113|306:71,1,100,0|0,0:0|0:0,0:0:0:0:
172,304,107991,2,0,P|215:339|260:346,1,100,8|0,0:0|0:0,0:0:0:0:
183,95,108291,6,0,P|92:72|34:148,1,200,0|8,0:0|0:0,0:0:0:0:
261,150,108741,2,0,P|277:100|266:52,1,100,0|0,0:0|0:0,0:0:0:0:
245,27,109041,1,8,0:0:0:0:
237,166,109191,2,0,L|243:275,1,100,0|8,0:0|0:0,0:0:0:0:
472,86,109491,6,0,P|421:67|378:78,1,100,0|0,0:0|0:0,0:0:0:0:
379,319,109791,2,0,P|427:329|473:311,1,100,8|0,0:0|0:0,0:0:0:0:
374,64,110091,2,0,P|325:39|281:46,1,100,0|0,0:0|0:0,0:0:0:0:
282,350,110391,2,0,P|331:356|375:333,1,100,8|0,0:0|0:0,0:0:0:0:
163,76,110691,5,0,0:0:0:0:
95,252,110841,1,0,0:0:0:0:
270,195,110991,1,8,0:0:0:0:
44,184,111141,2,0,P|8:245|79:337,1,200,0|0,0:0|0:0,0:0:0:0:
270,195,111591,1,8,0:0:0:0:
159,61,111741,1,8,0:0:0:0:
159,61,111816,1,0,0:0:0:0:
159,61,111891,6,0,L|59:43,1,100,4|0,0:0|0:0,0:0:0:0:
270,195,112191,1,8,0:0:0:0:
351,41,112341,1,0,0:0:0:0:
247,213,112491,2,0,P|237:263|258:311,1,100,4|0,0:0|0:0,0:0:0:0:
434,171,112791,1,8,0:0:0:0:
483,340,112941,1,0,0:0:0:0:
423,145,113091,6,0,L|438:42,1,100,4|8,0:0|0:0,0:0:0:0:
483,340,113391,1,0,0:0:0:0:
398,129,113541,2,0,P|350:107|299:120,1,100,8|4,0:0|0:0,0:0:0:0:
172,188,113841,1,8,0:0:0:0:
123,42,113991,1,8,0:0:0:0:
66,284,114141,1,0,0:0:0:0:
271,196,114291,5,8,0:0:0:0:
81,146,114441,1,0,0:0:0:0:
263,48,114591,1,8,0:0:0:0:
255,298,114741,1,0,0:0:0:0:
186,130,114891,1,8,0:0:0:0:
404,139,115041,1,0,0:0:0:0:
163,129,115191,1,8,0:0:0:0:
246,317,115341,1,8,0:0:0:0:
327,47,115491,5,4,0:0:0:0:
296,245,115641,1,0,0:0:0:0:
296,245,115716,1,0,0:0:0:0:
296,245,115791,1,8,0:0:0:0:
186,54,115941,1,0,0:0:0:0:
116,284,116091,1,8,0:0:0:0:
311,128,116241,1,8,0:0:0:0:
45,79,116391,1,8,0:0:0:0:
130,311,116541,1,0,0:0:0:0:
130,311,116616,1,0,0:0:0:0:
130,311,116691,5,4,0:0:0:0:
143,338,117891,5,0,0:0:0:0:
150,348,119091,5,0,0:0:0:0:
