osu file format v14

[General]
AudioFilename: audio.mp3
AudioLeadIn: 1004
PreviewTime: 59091
Countdown: 0
SampleSet: Normal
StackLeniency: 0.5
Mode: 0
LetterboxInBreaks: 0
WidescreenStoryboard: 1

[Editor]
DistanceSpacing: 0.4
BeatDivisor: 4
GridSize: 4
TimelineZoom: 1

[Metadata]
Title:EDEN
TitleUnicode:EDEN
Artist:TERRA
ArtistUnicode:TЁЯRA
Creator:Kite
Version:Advanced
Source:beatmania IIDX 12 HAPPY SKY
Tags:deetz handsome raose knyt Naoki Maeda Junko Karashima konami
BeatmapID:1065862
BeatmapSetID:500341

[Difficulty]
HPDrainRate:4
CircleSize:3.8
OverallDifficulty:6
ApproachRate:7.8
SliderMultiplier:1.6
SliderTickRate:1

[Events]
//Background and Video events
0,0,"knyt eden.jpg",0,0
//Break Periods
2,78291,87112
//Storyboard Layer 0 (Background)
//Storyboard Layer 1 (Fail)
//Storyboard Layer 2 (Pass)
//Storyboard Layer 3 (Foreground)
//Storyboard Sound Samples

[TimingPoints]
1491,300,4,2,1,60,1,0
1491,-166.666666666667,4,2,1,60,0,0
11091,-153.846153846154,4,2,1,60,0,0
15891,-142.857142857143,4,2,1,60,0,0
17091,-133.333333333333,4,2,1,60,0,0
18291,-125,4,2,1,60,0,0
19340,-100,4,2,1,60,0,0
20691,-100,4,1,1,60,0,0
39891,-100,4,1,1,60,0,0
57891,-133.333333333333,4,1,1,60,0,0
59091,-100,4,1,1,60,0,1
78291,-100,4,1,1,60,0,0
87816,-125,4,2,1,60,0,0
96291,-100,4,2,1,60,0,0
96891,-100,4,1,1,60,0,0
97491,-100,4,1,1,60,0,1
116391,-100,4,1,1,60,0,0
116616,-100,4,2,1,60,0,0

[Colours]
Combo1 : 255,255,128
Combo2 : 128,255,128
Combo3 : 255,128,255
Combo4 : 255,128,128

[HitObjects]
326,330,1491,6,0,P|374:346|425:329,1,95.9999970703126,8|0,0:0|0:0,0:0:0:0:
475,277,1941,1,2,0:0:0:0:
475,277,2091,1,2,0:0:0:0:
323,181,2391,1,8,0:0:0:0:
176,244,2691,6,0,P|125:252|85:229,1,95.9999970703126,8|0,0:0|0:0,0:0:0:0:
110,63,3291,2,0,P|156:54|198:75,1,95.9999970703126,2|0,0:0|0:0,0:0:0:0:
323,181,3891,5,8,0:0:0:0:
386,225,4041,1,2,0:0:0:0:
461,213,4191,1,2,0:0:0:0:
290,342,4491,1,0,0:0:0:0:
323,181,4791,1,8,0:0:0:0:
277,118,4941,2,0,P|234:98|186:108,2,95.9999970703126,2|2|2,0:0|0:0|0:0,0:0:0:0:
323,181,5691,2,0,B|361:186|361:186|421:171,1,95.9999970703126,8|2,0:0|0:0,0:0:0:0:
238,276,6291,5,8,0:0:0:0:
99,206,6591,1,0,0:0:0:0:
92,279,6741,1,2,0:0:0:0:
36,327,6891,1,2,0:0:0:0:
166,249,7191,1,8,0:0:0:0:
289,335,7491,2,0,P|324:345|383:321,1,95.9999970703126,8|0,0:0|0:0,0:0:0:0:
355,142,8091,2,0,P|320:132|261:156,1,95.9999970703126,2|2,0:0|0:0,0:0:0:0:
430,240,8691,5,8,0:0:0:0:
455,170,8841,1,2,0:0:0:0:
452,96,8991,1,2,0:0:0:0:
505,231,9291,1,0,0:0:0:0:
336,256,9591,1,8,0:0:0:0:
392,306,9741,2,0,P|426:318|482:297,2,95.9999970703126,2|2|8,0:0|0:0|0:0,0:0:0:0:
336,256,10491,2,0,B|300:250|300:250|236:266,1,95.9999970703126,2|2,0:0|0:0,0:0:0:0:
50,327,11091,5,4,0:0:0:0:
90,131,11391,1,0,0:0:0:0:
103,208,11541,1,8,0:0:0:0:
103,208,11691,1,8,0:0:0:0:
174,32,11991,1,0,0:0:0:0:
272,126,12291,2,0,P|324:137|366:106,1,103.999995239258,8|0,0:0|0:0,0:0:0:0:
386,37,12741,1,2,0:0:0:0:
386,37,12891,2,0,B|421:26|421:26|490:42,1,103.999995239258,2|0,0:0|0:0,0:0:0:0:
472,202,13491,5,8,0:0:0:0:
309,306,13791,1,0,0:0:0:0:
383,282,13941,1,8,0:0:0:0:
451,317,14091,1,0,0:0:0:0:
262,365,14391,1,2,0:0:0:0:
309,306,14541,2,0,B|322:264|322:264|311:192,2,103.999995239258,2|0|0,0:0|0:0|0:0,0:0:0:0:
261,365,15291,2,0,P|211:371|170:342,1,103.999995239258,8|2,0:0|0:0,0:0:0:0:
150,158,15891,6,0,P|90:132|29:204,1,167.999994873047,4|2,0:0|0:0,0:0:0:0:
32,275,16491,1,8,0:0:0:0:
256,344,16791,1,0,0:0:0:0:
368,155,17091,6,0,P|431:127|495:203,1,180.000006866455,8|2,0:0|0:0,0:0:0:0:
480,275,17691,1,8,0:0:0:0:
256,344,17991,1,0,0:0:0:0:
147,150,18291,6,0,P|61:125|11:200,1,192,8|0,0:0|0:0,0:0:0:0:
25,278,18891,1,8,0:0:0:0:
256,344,19191,1,8,0:0:0:0:
421,208,19491,6,0,P|426:182|424:160,14,40,0|0|0|0|0|0|0|0|2|0|2|0|2|2|2,0:0|0:0|0:0|0:0|0:0|0:0|0:0|0:0|0:0|0:0|0:0|0:0|0:0|0:0|0:0,0:0:0:0:
399,86,20691,6,0,P|358:67|321:73,1,80,4|0,0:0|0:0,0:0:0:0:
257,116,20991,1,12,0:0:0:0:
187,70,21141,2,0,B|142:53|142:53|31:75,1,160,0|8,0:0|0:0,0:0:0:0:
26,157,21591,2,0,L|106:141,1,80,0|8,0:0|0:0,0:0:0:0:
171,188,21891,6,0,P|188:223|185:263,2,80,4|0|8,0:0|0:0|0:0,0:0:0:0:
112,239,22341,2,0,P|126:311|201:338,1,160,0|8,0:0|0:0,0:0:0:0:
270,306,22791,1,0,0:0:0:0:
344,333,22941,1,8,0:0:0:0:
410,288,23091,6,0,B|421:251|421:251|414:206,2,80,4|0|8,0:0|0:0|0:0,0:0:0:0:
340,203,23541,2,0,P|379:145|463:155,1,160,0|8,0:0|0:0,0:0:0:0:
509,213,23991,1,0,0:0:0:0:
299,49,24291,1,0,0:0:0:0:
45,90,24591,1,0,0:0:0:0:
45,90,24741,1,0,0:0:0:0:
36,170,24891,2,0,P|45:208|73:235,1,80
145,273,25191,2,0,P|185:279|221:262,1,80,8|8,0:0|0:0,0:0:0:0:
282,211,25491,6,0,P|335:184|414:242,1,160,4|8,0:0|0:0,0:0:0:0:
419,309,25941,1,0,0:0:0:0:
282,211,26241,1,8,0:0:0:0:
255,282,26391,2,0,P|196:331|125:305,1,160,0|8,0:0|0:0,0:0:0:0:
98,234,26841,1,0,0:0:0:0:
98,234,26991,1,8,0:0:0:0:
246,113,27291,6,0,P|258:65|245:29,1,80,0|8,0:0|0:0,0:0:0:0:
181,76,27591,2,0,B|149:88|149:88|96:78,1,80,8|8,0:0|0:0,0:0:0:0:
65,17,27891,2,0,P|82:118|32:148,1,160,0|8,0:0|0:0,0:0:0:0:
22,75,28341,2,0,B|76:71|76:71|132:80|132:80|180:76,1,160,0|8,0:0|0:0,0:0:0:0:
248,35,28791,1,0,0:0:0:0:
248,35,28941,1,0,0:0:0:0:
310,93,29091,6,0,P|368:116|439:49,1,160,8|8,0:0|0:0,0:0:0:0:
363,41,29541,2,0,L|359:213,1,160,0|8,0:0|0:0,0:0:0:0:
395,267,29991,1,0,0:0:0:0:
430,338,30141,1,8,0:0:0:0:
353,333,30291,6,0,B|321:331|321:331|275:351,1,80,4|0,0:0|0:0,0:0:0:0:
203,364,30591,1,8,0:0:0:0:
147,308,30741,2,0,P|75:285|17:344,1,160,0|8,0:0|0:0,0:0:0:0:
96,364,31191,1,0,0:0:0:0:
96,364,31341,1,0,0:0:0:0:
147,308,31491,6,0,L|159:219,1,80,8|0,0:0|0:0,0:0:0:0:
167,155,31791,1,8,0:0:0:0:
234,207,31941,2,0,P|283:228|357:163,1,160,0|8,0:0|0:0,0:0:0:0:
342,92,32391,1,0,0:0:0:0:
342,92,32541,1,8,0:0:0:0:
397,31,32691,6,0,P|439:24|474:44,2,80,0|8|0,0:0|0:0|0:0,0:0:0:0:
342,92,33141,2,0,L|160:85,1,160,0|0,0:0|0:0,0:0:0:0:
126,135,33591,1,8,0:0:0:0:
126,135,33741,1,0,0:0:0:0:
78,71,33891,6,0,P|35:52|49:130,1,160,4|8,0:0|0:0,0:0:0:0:
70,199,34341,1,0,0:0:0:0:
100,273,34491,1,8,0:0:0:0:
269,198,34791,1,8,0:0:0:0:
450,291,35091,6,0,P|457:329|437:370,1,80,4|0,0:0|0:0,0:0:0:0:
378,318,35391,1,8,0:0:0:0:
389,239,35541,2,0,L|411:76,1,160,0|8,0:0|0:0,0:0:0:0:
361,17,35991,1,0,0:0:0:0:
361,17,36141,1,8,0:0:0:0:
306,85,36291,6,0,P|252:110|193:38,1,160,4|8,0:0|0:0,0:0:0:0:
192,44,36741,1,0,0:0:0:0:
48,46,36891,2,0,P|102:97|70:165,1,160,8|0,0:0|0:0,0:0:0:0:
70,164,37341,1,8,0:0:0:0:
144,286,37491,6,0,P|161:213|235:207,1,160,8|0,0:0|0:0,0:0:0:0:
235,207,37941,1,8,0:0:0:0:
409,349,38241,1,0,0:0:0:0:
409,349,38391,2,0,B|425:293|425:293|410:192,1,160,8|8,0:0|0:0,0:0:0:0:
298,29,38991,1,8,0:0:0:0:
57,126,39291,2,0,P|48:166|61:208,1,80,0|0,0:0|0:0,0:0:0:0:
104,264,39591,2,0,P|142:273|180:263,1,80,0|0,0:0|0:0,0:0:0:0:
236,209,39891,5,4,0:0:0:0:
439,58,40191,1,2,0:0:0:0:
482,298,40491,1,0,0:0:0:0:
236,209,40791,1,0,0:0:0:0:
208,136,40941,1,2,0:0:0:0:
235,64,41091,5,0,0:0:0:0:
160,324,41391,1,0,0:0:0:0:
3,174,41691,1,2,0:0:0:0:
235,64,41991,1,2,0:0:0:0:
381,253,42291,5,0,0:0:0:0:
495,70,42591,1,2,0:0:0:0:
429,33,42741,1,0,0:0:0:0:
356,48,42891,1,0,0:0:0:0:
164,219,43191,1,0,0:0:0:0:
31,39,43491,5,0,0:0:0:0:
164,219,43791,1,2,0:0:0:0:
232,259,43941,1,0,0:0:0:0:
305,238,44091,1,0,0:0:0:0:
495,70,44391,1,2,0:0:0:0:
496,299,44691,5,4,0:0:0:0:
442,351,44841,1,0,0:0:0:0:
422,280,44991,1,2,0:0:0:0:
377,61,45291,1,0,0:0:0:0:
243,257,45591,1,0,0:0:0:0:
263,186,45741,1,2,0:0:0:0:
189,205,45891,2,0,P|133:203|105:114,2,160,2|2|0,0:0|0:0|0:0,0:0:0:0:
315,352,46791,1,2,0:0:0:0:
465,217,47091,6,0,L|490:59,1,160,2|0,0:0|0:0,0:0:0:0:
420,20,47541,2,0,P|365:7|379:87,1,160,2|0,0:0|0:0,0:0:0:0:
311,176,47991,2,0,P|366:163|352:243,1,160,2|2,0:0|0:0,0:0:0:0:
290,264,48441,1,0,0:0:0:0:
218,238,48591,1,2,0:0:0:0:
94,32,48891,1,2,0:0:0:0:
21,218,49191,1,2,0:0:0:0:
277,88,49491,5,4,0:0:0:0:
303,342,49791,1,2,0:0:0:0:
126,184,50091,1,0,0:0:0:0:
412,93,50391,1,0,0:0:0:0:
303,342,50691,5,0,0:0:0:0:
277,88,50991,1,2,0:0:0:0:
502,211,51291,1,0,0:0:0:0:
303,342,51591,1,0,0:0:0:0:
180,128,51891,6,0,P|113:107|49:169,1,160,0|2,0:0|0:0,0:0:0:0:
126,184,52341,2,0,B|142:233|142:233|128:340,1,160,0|2,0:0|0:0,0:0:0:0:
53,364,52791,1,0,0:0:0:0:
257,232,53091,1,0,0:0:0:0:
445,358,53391,1,2,0:0:0:0:
257,232,53691,1,2,0:0:0:0:
53,364,53991,1,2,0:0:0:0:
324,274,54291,6,0,P|337:232|321:185,1,80,4|0,0:0|0:0,0:0:0:0:
287,138,54591,2,0,P|248:116|199:122,1,80,2|0,0:0|0:0,0:0:0:0:
146,145,54891,2,0,P|117:178|112:227,1,80,0|2,0:0|0:0,0:0:0:0:
123,284,55191,2,0,P|149:319|196:333,1,80,0|2,0:0|0:0,0:0:0:0:
257,328,55491,6,0,B|314:321|314:321|414:360,1,160,4|0,0:0|0:0,0:0:0:0:
485,344,55941,1,0,0:0:0:0:
477,270,56091,2,0,L|487:189,1,80,2|0,0:0|0:0,0:0:0:0:
438,135,56391,2,0,L|448:54,1,80,2|0,0:0|0:0,0:0:0:0:
345,158,56691,6,0,P|296:170|243:85,1,160,4|2,0:0|0:0,0:0:0:0:
290,28,57141,1,4,0:0:0:0:
163,82,57291,1,0,0:0:0:0:
353,269,57591,1,0,0:0:0:0:
51,319,57891,5,0,0:0:0:0:
51,319,58491,5,4,0:0:0:0:
326,197,59091,6,0,P|364:188|400:204,2,80,4|0|8,0:0|0:0|0:0,0:0:0:0:
266,250,59541,1,0,0:0:0:0:
211,191,59691,2,0,B|197:138|197:138|220:30,1,160,0|8,0:0|0:0,0:0:0:0:
296,23,60141,1,0,0:0:0:0:
354,76,60291,6,0,P|395:89|434:71,2,80,0|0|8,0:0|0:0|0:0,0:0:0:0:
448,4,60741,2,0,P|502:56|480:129,1,160,0|0,0:0|0:0,0:0:0:0:
412,161,61191,1,8,0:0:0:0:
366,224,61341,1,0,0:0:0:0:
406,290,61491,6,0,L|410:374,1,80,0|0,0:0|0:0,0:0:0:0:
366,224,61791,2,0,L|370:140,1,80,8|0,0:0|0:0,0:0:0:0:
326,293,62091,2,0,L|330:377,1,80,0|0,0:0|0:0,0:0:0:0:
286,227,62391,2,0,L|290:143,1,80,8|0,0:0|0:0,0:0:0:0:
245,295,62691,6,0,P|205:326|120:278,1,160,0|8,0:0|0:0,0:0:0:0:
124,200,63141,1,0,0:0:0:0:
49,322,63291,1,8,0:0:0:0:
26,78,63591,1,8,0:0:0:0:
249,121,63891,6,0,P|318:113|292:49,1,160,4|8,0:0|0:0,0:0:0:0:
212,52,64341,1,0,0:0:0:0:
138,217,64491,2,0,P|69:209|96:145,1,160,0|8,0:0|0:0,0:0:0:0:
176,148,64941,1,0,0:0:0:0:
249,313,65091,2,0,P|318:305|292:241,1,160,0|8,0:0|0:0,0:0:0:0:
212,244,65541,2,0,P|170:192|281:116,1,240,0|0,0:0|0:0,0:0:0:0:
349,154,66141,1,8,0:0:0:0:
423,118,66291,6,0,P|437:73|421:37,1,80,0|0,0:0|0:0,0:0:0:0:
349,154,66591,2,0,L|350:246,1,80,8|0,0:0|0:0,0:0:0:0:
280,115,66891,2,0,L|281:23,1,80,0|8,0:0|0:0,0:0:0:0:
216,161,67191,2,0,L|217:253,1,80,0|0,0:0|0:0,0:0:0:0:
166,335,67491,5,8,0:0:0:0:
84,359,67641,1,0,0:0:0:0:
16,308,67791,2,0,P|6:263|21:226,1,80,8|0,0:0|0:0,0:0:0:0:
89,166,68091,2,0,P|99:121|84:84,1,80,8|0,0:0|0:0,0:0:0:0:
24,21,68391,1,8,0:0:0:0:
24,21,68541,1,0,0:0:0:0:
89,166,68691,6,0,P|173:184|225:130,1,160,4|8,0:0|0:0,0:0:0:0:
254,66,69141,1,0,0:0:0:0:
306,133,69291,2,0,B|317:166|317:166|308:217,1,80,0|0,0:0|0:0,0:0:0:0:
289,286,69591,2,0,B|281:330|281:330|292:363,1,80,8|0,0:0|0:0,0:0:0:0:
411,302,69891,6,0,L|441:132,1,160,0|8,0:0|0:0,0:0:0:0:
460,53,70341,2,0,L|487:210,1,160,0|8,0:0|0:0,0:0:0:0:
509,301,70791,1,0,0:0:0:0:
321,66,71091,6,0,P|288:51|244:59,1,80,0|0,0:0|0:0,0:0:0:0:
178,111,71391,2,0,P|145:126|101:118,1,80,8|0,0:0|0:0,0:0:0:0:
36,68,71691,2,0,P|88:120|58:197,1,160,0|8,0:0|0:0,0:0:0:0:
15,264,72141,1,0,0:0:0:0:
76,322,72291,2,0,P|115:332|151:314,2,80,0|0|8,0:0|0:0|0:0,0:0:0:0:
190,246,72741,2,0,B|235:240|235:240|348:273,1,160,0|0,0:0|0:0,0:0:0:0:
423,308,73191,1,8,0:0:0:0:
477,49,73491,5,4,0:0:0:0:
423,308,73791,1,8,0:0:0:0:
420,233,73941,1,0,0:0:0:0:
352,275,74091,2,0,P|316:284|241:203,1,160,4|8,0:0|0:0,0:0:0:0:
365,121,74541,1,0,0:0:0:0:
455,141,74691,2,0,P|480:167|448:273,1,160,4|8,0:0|0:0,0:0:0:0:
317,209,75141,1,0,0:0:0:0:
289,118,75291,2,0,P|299:82|406:57,1,160,4|4,0:0|0:0,0:0:0:0:
414,205,75741,1,8,0:0:0:0:
352,275,75891,6,0,L|344:358,1,80,4|0,0:0|0:0,0:0:0:0:
271,216,76191,2,0,L|263:136,1,80,8|0,0:0|0:0,0:0:0:0:
183,281,76491,2,0,L|175:364,1,80,12|4,0:0|0:0,0:0:0:0:
94,202,76791,2,0,L|86:122,1,80,0|8,0:0|0:0,0:0:0:0:
175,17,77091,5,4,0:0:0:0:
220,104,77241,1,0,0:0:0:0:
220,104,77391,1,8,0:0:0:0:
306,59,77541,1,0,0:0:0:0:
341,151,77691,1,12,0:0:0:0:
341,151,77841,1,0,0:0:0:0:
432,115,77991,1,8,0:0:0:0:
105,327,87891,5,6,0:0:0:0:
246,243,88191,1,2,0:0:0:0:
287,300,88341,1,0,0:0:0:0:
246,357,88491,2,0,L|178:344,1,64,2|0,0:0|0:0,0:0:0:0:
287,300,88791,2,0,L|355:287,1,64,2|2,0:0|0:0,0:0:0:0:
417,235,89091,5,2,0:0:0:0:
295,25,89391,1,2,0:0:0:0:
254,82,89541,1,0,0:0:0:0:
295,139,89691,2,0,P|326:142|355:130,1,64,2|0,0:0|0:0,0:0:0:0:
254,82,89991,2,0,P|222:78|193:90,1,64,2|2,0:0|0:0,0:0:0:0:
139,149,90291,5,0,0:0:0:0:
45,337,90591,1,0,0:0:0:0:
16,272,90741,1,2,0:0:0:0:
52,210,90891,2,0,P|62:175|58:145,1,64,0|0,0:0|0:0,0:0:0:0:
98,81,91191,2,0,P|101:49|92:19,1,64,2|2,0:0|0:0,0:0:0:0:
143,154,91491,5,0,0:0:0:0:
143,154,91641,1,0,0:0:0:0:
214,113,91791,2,0,P|248:108|279:122,1,64,2|2,0:0|0:0,0:0:0:0:
320,243,92091,1,0,0:0:0:0:
320,243,92241,1,0,0:0:0:0:
391,202,92391,2,0,P|425:197|456:211,1,64,2|2,0:0|0:0,0:0:0:0:
349,320,92691,5,4,0:0:0:0:
86,356,92991,1,2,0:0:0:0:
142,300,93141,1,2,0:0:0:0:
212,338,93291,2,0,P|243:345|274:338,1,64,0|2,0:0|0:0,0:0:0:0:
171,230,93591,2,0,P|140:223|109:230,1,64,0|2,0:0|0:0,0:0:0:0:
240,268,93891,5,4,0:0:0:0:
346,81,94191,2,0,P|376:74|407:81,1,64,2|0,0:0|0:0,0:0:0:0:
464,137,94491,2,0,P|481:163|483:195,1,64,0|2,0:0|0:0,0:0:0:0:
448,266,94791,2,0,P|427:290|398:302,1,64,0|2,0:0|0:0,0:0:0:0:
266,210,95091,5,4,0:0:0:0:
287,158,96291,6,0,P|272:174|267:196,7,40,2|2|2|2|2|2|2|2,0:0|0:0|0:0|0:0|0:0|0:0|0:0|0:0,0:0:0:0:
266,210,96891,2,0,P|267:231|278:251,7,40
291,261,97491,6,0,P|327:275|366:266,1,80,4|0,0:0|0:0,0:0:0:0:
437,216,97791,2,0,P|475:207|512:221,1,80,8|0,0:0|0:0,0:0:0:0:
358,185,98091,2,0,P|321:132|361:53,1,160,0|8,0:0|0:0,0:0:0:0:
435,35,98541,1,0,0:0:0:0:
473,121,98691,6,0,P|432:134|393:116,2,80,0|0|8,0:0|0:0|0:0,0:0:0:0:
488,216,99141,2,0,L|465:375,1,160,0|8,0:0|0:0,0:0:0:0:
387,384,99591,1,0,0:0:0:0:
328,331,99741,1,8,0:0:0:0:
253,359,99891,6,0,P|221:366|175:346,1,80,0|0,0:0|0:0,0:0:0:0:
191,239,100191,2,0,P|223:232|269:252,1,80,8|0,0:0|0:0,0:0:0:0:
379,314,100491,2,0,P|411:321|457:301,1,80,0|0,0:0|0:0,0:0:0:0:
441,194,100791,2,0,P|409:187|363:207,1,80,8|0,0:0|0:0,0:0:0:0:
295,322,101091,6,0,P|255:353|170:305,1,160,0|8,0:0|0:0,0:0:0:0:
169,226,101541,1,0,0:0:0:0:
94,342,101691,1,0,0:0:0:0:
26,78,101991,1,0,0:0:0:0:
224,271,102291,6,0,P|293:265|269:201,1,160,4|8,0:0|0:0,0:0:0:0:
191,202,102741,1,0,0:0:0:0:
194,40,102891,2,0,P|168:104|237:114,1,160,0|8,0:0|0:0,0:0:0:0:
275,45,103341,1,0,0:0:0:0:
411,128,103491,2,0,P|369:72|328:128,1,160,0|8,0:0|0:0,0:0:0:0:
368,196,103941,2,0,P|375:282|251:273,1,240,0|0,0:0|0:0,0:0:0:0:
236,197,104541,1,8,0:0:0:0:
176,126,104691,6,0,P|145:117|100:131,1,80,0|0,0:0|0:0,0:0:0:0:
109,271,104991,2,0,P|140:280|185:266,1,80,8|0,0:0|0:0,0:0:0:0:
326,180,105291,2,0,P|357:171|402:185,1,80,0|8,0:0|0:0,0:0:0:0:
393,325,105591,2,0,P|362:334|317:320,1,80,0|8,0:0|0:0,0:0:0:0:
266,249,105891,5,0,0:0:0:0:
234,172,106041,1,8,0:0:0:0:
277,101,106191,2,0,P|291:65|283:26,1,80,8|0,0:0|0:0,0:0:0:0:
167,127,106491,2,0,P|152:163|160:202,1,80,8|0,0:0|0:0,0:0:0:0:
79,328,106791,1,8,0:0:0:0:
79,328,106941,1,0,0:0:0:0:
160,202,107091,6,0,P|244:184|296:238,1,160,4|8,0:0|0:0,0:0:0:0:
295,309,107541,1,0,0:0:0:0:
372,273,107691,2,0,B|383:240|383:240|374:189,1,80,0|0,0:0|0:0,0:0:0:0:
356,116,107991,2,0,B|348:72|348:72|359:39,1,80,8|0,0:0|0:0,0:0:0:0:
431,146,108291,6,0,P|373:196|300:174,1,160,0|8,0:0|0:0,0:0:0:0:
231,84,108741,2,0,P|157:61|100:112,1,160,0|8,0:0|0:0,0:0:0:0:
86,186,109191,1,0,0:0:0:0:
112,262,109341,1,8,0:0:0:0:
81,336,109491,6,0,P|48:351|4:343,1,80,0|0,0:0|0:0,0:0:0:0:
112,262,109791,2,0,P|150:254|187:270,1,80,8|0,0:0|0:0,0:0:0:0:
36,274,110091,2,0,P|0:210|48:143,1,160,0|8,0:0|0:0,0:0:0:0:
141,165,110541,1,0,0:0:0:0:
223,104,110691,2,0,P|233:66|217:28,2,80,0|0|8,0:0|0:0|0:0,0:0:0:0:
141,165,111141,2,0,B|135:210|135:210|168:323,1,160,0|0,0:0|0:0,0:0:0:0:
235,374,111591,1,8,0:0:0:0:
498,182,111891,6,0,P|506:135|491:103,1,80,4|0,0:0|0:0,0:0:0:0:
441,48,112191,2,0,P|397:28|362:35,1,80,8|0,0:0|0:0,0:0:0:0:
297,70,112491,2,0,P|267:107|266:143,1,80,4|0,0:0|0:0,0:0:0:0:
283,215,112791,2,0,P|312:252|346:262,1,80,8|0,0:0|0:0,0:0:0:0:
443,268,113091,6,0,P|364:262|334:334,1,160,4|0,0:0|0:0,0:0:0:0:
461,283,113541,2,0,B|475:222|475:222|472:177|472:177|484:122,1,160,8|8,0:0|0:0,0:0:0:0:
447,40,113991,1,8,0:0:0:0:
447,40,114141,1,0,0:0:0:0:
370,98,114291,6,0,P|337:106|290:92,1,80,8|0,0:0|0:0,0:0:0:0:
181,29,114591,2,0,P|143:17|104:25,1,80,8|0,0:0|0:0,0:0:0:0:
101,171,114891,2,0,P|138:182|177:174,1,80,8|0,0:0|0:0,0:0:0:0:
298,266,115191,2,0,P|336:273|374:262,1,80,8|8,0:0|0:0,0:0:0:0:
457,182,115491,5,4,0:0:0:0:
484,298,115641,1,0,0:0:0:0:
484,298,115791,2,0,L|473:380,1,80,8|0,0:0|0:0,0:0:0:0:
457,182,116091,1,8,0:0:0:0:
457,182,116241,2,0,L|446:100,1,80,8|8,0:0|0:0,0:0:0:0:
375,24,116541,1,0,0:0:0:0:
290,144,116691,5,4,0:0:0:0:
104,112,117891,5,0,0:0:0:0:
170,290,119091,5,0,0:0:0:0:
