osu file format v14

[General]
AudioFilename: audio.mp3
AudioLeadIn: 0
PreviewTime: 60802
Countdown: 0
SampleSet: Normal
StackLeniency: 1
Mode: 0
LetterboxInBreaks: 0
WidescreenStoryboard: 0

[Editor]
DistanceSpacing: 1.3
BeatDivisor: 4
GridSize: 8
TimelineZoom: 1.3

[Metadata]
Title:Round&Round&Round
TitleUnicode:Round&Round&Round
Artist:TECHNOBOYS PULCRAFT GREEN-FUND
ArtistUnicode:TECHNOBOYS PULCRAFT GREEN-FUND
Creator:video games
Version:Round and Round
Source:Mahoujin Guru Guru
Tags:Mahoujin Guru Guru Round and & Technoboys Pulcraft Green-Fund aesthic
BeatmapID:1406538
BeatmapSetID:664578

[Difficulty]
HPDrainRate:7.5
CircleSize:3.8
OverallDifficulty:7
ApproachRate:8.5
SliderMultiplier:2.20000000596047
SliderTickRate:1

[Events]
//Background and Video events
0,0,"__gipple_kukuri_and_nike_mahoujin_guruguru_drawn_by_tsu_da__0696cb0327b11dd78b105dbb01026748.jpg",0,0
//Break Periods
2,85648,91055
//Storyboard Layer 0 (Background)
//Storyboard Layer 1 (Fail)
//Storyboard Layer 2 (Pass)
//Storyboard Layer 3 (Foreground)
//Storyboard Sound Samples

[TimingPoints]
2412.12371353909,379.162670713202,4,1,0,100,1,0
8398,379.062670713202,4,2,0,50,1,0
22068,379.162670713202,4,2,0,70,1,0
46293,379.362670713202,4,1,0,60,1,0
61641,-85.4700854700855,4,2,0,100,0,1
85811,379.162670713202,3,2,0,60,1,0
86928,384.162670713202,4,2,0,60,1,0
97642,379.362670713202,4,2,0,50,1,0
103711,-100,4,2,0,70,0,0
124948,380.262670713202,4,2,0,80,1,1
149235,380.262670713202,3,2,0,60,1,0
150425,380.162670713202,4,2,0,60,1,0
154986,-200,4,2,0,60,0,0
162593,380.162670713202,4,2,0,70,1,0
192193,379.562670713202,4,2,0,80,1,1
216010,-200,4,2,0,80,0,0
219521,379.562670713202,3,2,0,60,1,0
220659,379.562670713202,4,2,0,50,1,0

[Colours]
Combo1 : 255,255,255
Combo2 : 128,0,255
Combo3 : 187,119,255
Combo4 : 221,187,255
Combo5 : 240,225,255

[HitObjects]
192,64,22460,6,0,P|128:128|128:160,1,110
136,200,22839,2,0,L|184:312,2,110
112,160,23408,2,0,B|112:96|192:64|256:80|288:128,1,220
240,160,23977,1,0,0:0:0:0:
200,200,24166,2,0,L|112:288,2,110
256,200,24735,5,0,0:0:0:0:
312,200,24924,2,0,L|408:304,2,110
256,160,25493,1,0,0:0:0:0:
192,160,25683,2,0,L|72:160,1,110
112,104,26062,2,0,L|240:104,1,110
288,120,26441,1,0,0:0:0:0:
344,152,26631,6,0,B|408:208|416:264|368:312|288:328|296:312,2,220
280,128,27579,2,0,L|144:168,1,110
160,104,27958,1,0,0:0:0:0:
160,56,28147,2,0,P|104:56|88:104,1,110.000000298024
88,136,28526,6,0,L|88:256,2,110
120,104,29095,2,0,P|168:72|216:88,1,110.000000298024
248,104,29474,1,0,0:0:0:0:
296,136,29854,2,0,L|296:248,1,110
256,280,30233,2,0,L|256:152,1,110
208,200,30612,2,0,L|208:328,1,110
160,288,30991,1,0,0:0:0:0:
160,224,31181,6,0,L|160:112,2,110
224,224,31749,2,0,B|304:224|352:208|384:176|392:120|392:72,1,220
344,64,32318,1,0,0:0:0:0:
280,64,32508,2,0,L|152:64,2,110
328,112,33076,1,0,0:0:0:0:
376,160,33266,2,0,B|424:208|424:280|352:328|304:320,1,220
248,320,33835,1,0,0:0:0:0:
216,264,34024,5,0,0:0:0:0:
184,248,34119,1,0,0:0:0:0:
160,224,34214,2,0,P|128:160|160:112,1,110
200,80,34593,1,0,0:0:0:0:
272,56,34783,2,0,P|336:48|392:64,2,110
200,80,35351,1,0,0:0:0:0:
120,88,35541,5,0,0:0:0:0:
88,112,35636,1,0,0:0:0:0:
72,144,35731,2,0,P|56:200|56:272,1,110
112,304,36110,1,0,0:0:0:0:
192,312,36299,2,0,P|264:288|312:240,2,110
112,304,36868,1,0,0:0:0:0:
120,232,37058,5,0,0:0:0:0:
144,200,37152,1,0,0:0:0:0:
176,176,37247,2,0,P|240:144|304:144,1,110
352,136,37626,1,0,0:0:0:0:
432,152,37816,2,0,P|464:200|472:280,2,110
352,136,38385,1,0,0:0:0:0:
280,120,38574,5,0,0:0:0:0:
240,112,38669,1,0,0:0:0:0:
200,112,38764,2,0,P|120:136|72:184,1,110
72,224,39143,1,0,0:0:0:0:
96,296,39333,5,0,0:0:0:0:
120,328,39427,1,0,0:0:0:0:
152,344,39522,2,0,L|272:344,1,110
312,288,39901,1,0,0:0:0:0:
336,216,40091,1,0,0:0:0:0:
264,232,40280,1,0,0:0:0:0:
184,232,40470,5,0,0:0:0:0:
112,216,40660,2,0,P|72:152|72:104,1,110
112,56,41039,1,0,0:0:0:0:
184,48,41228,2,0,P|248:48|320:64,1,110
352,104,41608,5,0,0:0:0:0:
368,136,41702,1,0,0:0:0:0:
376,176,41797,2,0,P|357:245|308:273,1,110
256,272,42176,1,0,0:0:0:0:
176,264,42366,2,0,P|137:226|129:172,2,110
256,272,42935,1,0,0:0:0:0:
424,224,43124,1,0,0:0:0:0:
424,224,43503,6,0,L|424:104,1,110
264,48,43883,5,0,0:0:0:0:
264,48,44262,6,0,L|136:48,1,110
64,200,44641,1,0,0:0:0:0:
64,200,45020,6,0,L|64:320,1,110
256,192,45399,1,0,0:0:0:0:
176,152,46394,5,0,0:0:0:0:
296,200,46774,1,0,0:0:0:0:
416,152,47153,1,0,0:0:0:0:
296,104,47532,1,0,0:0:0:0:
248,224,47911,5,0,0:0:0:0:
128,176,48290,1,0,0:0:0:0:
248,128,48669,1,0,0:0:0:0:
368,176,49049,1,0,0:0:0:0:
240,176,49428,1,0,0:0:0:0:
120,120,49807,6,0,L|208:32,1,110
432,280,50565,1,0,0:0:0:0:
432,280,51324,5,0,0:0:0:0:
320,280,51703,5,0,0:0:0:0:
144,152,52461,5,0,0:0:0:0:
248,128,52840,1,0,0:0:0:0:
352,104,53219,1,0,0:0:0:0:
456,144,53599,1,0,0:0:0:0:
456,256,53978,5,0,0:0:0:0:
352,232,54357,1,0,0:0:0:0:
248,208,54736,1,0,0:0:0:0:
144,176,55115,1,0,0:0:0:0:
112,72,55494,1,0,0:0:0:0:
112,72,55874,2,0,L|224:72,1,110.000000298024
376,128,56632,5,0,0:0:0:0:
376,128,57390,2,0,L|240:128,1,110.000000298024
112,184,58149,5,0,0:0:0:0:
112,184,58907,2,0,L|240:184,1,110.000000298024
376,240,59665,5,0,0:0:0:0:
328,264,59855,2,0,L|272:288,2,55.0000001490118
280,240,60234,2,0,L|192:240,2,55.0000001490118
248,192,60613,2,0,L|176:168,2,55.0000001490118
400,144,61561,6,0,P|360:88|288:56,1,110.000000298024
200,80,61940,1,0,0:0:0:0:
88,144,62130,2,0,P|128:200|200:232,1,110.000000298024
312,232,62509,1,0,0:0:0:0:
437,199,62698,1,0,0:0:0:0:
344,104,62888,2,0,P|264:80|192:80,1,128.700000839639
112,152,63267,5,0,0:0:0:0:
224,224,63457,1,0,0:0:0:0:
344,184,63646,1,0,0:0:0:0:
256,88,63836,2,0,P|192:56|120:56,2,128.700000839639
296,208,64405,2,0,P|360:240|432:240,2,128.700000839639
208,120,64973,1,0,0:0:0:0:
80,120,65163,6,0,P|72:208|88:288,1,128.700000839639
208,264,65542,1,0,0:0:0:0:
328,312,65732,1,0,0:0:0:0:
464,240,65921,1,0,0:0:0:0:
344,144,66111,5,0,0:0:0:0:
234,254,66301,1,0,0:0:0:0:
125,144,66490,1,0,0:0:0:0:
234,35,66680,1,0,0:0:0:0:
344,144,66869,5,0,0:0:0:0:
253,299,67059,1,0,0:0:0:0:
97,209,67248,1,0,0:0:0:0:
187,53,67438,1,0,0:0:0:0:
328,112,67628,6,0,P|392:160|392:224,1,128.700000839639
368,280,68007,1,0,0:0:0:0:
296,296,68196,2,0,P|216:320|144:312,1,128.700000839639
96,312,68576,5,0,0:0:0:0:
64,240,68765,1,0,0:0:0:0:
88,168,68955,2,0,P|103:93|128:34,1,128.700000839639
176,104,69334,2,0,P|200:168|240:232,1,128.700000839639
288,168,69713,2,0,P|303:93|328:34,1,128.700000839639
384,128,70092,5,0,0:0:0:0:
408,232,70282,1,0,0:0:0:0:
328,304,70471,2,0,B|272:256|192:256|136:296|88:240,1,257.400001679278
80,136,71040,1,0,0:0:0:0:
168,88,71230,2,0,B|241:93|298:150|309:218|382:212,1,257.400001679278
456,136,71798,1,0,0:0:0:0:
392,56,71988,1,0,0:0:0:0:
264,48,72178,1,0,0:0:0:0:
172,139,72367,5,0,0:0:0:0:
256,232,72557,1,0,0:0:0:0:
128,88,73125,5,0,0:0:0:0:
304,280,73315,1,0,0:0:0:0:
128,168,73694,6,0,P|184:200|256:200,1,128.700000839639
344,168,74073,1,0,0:0:0:0:
296,80,74263,2,0,P|240:48|168:48,1,128.700000839639
80,80,74642,1,0,0:0:0:0:
40,176,74832,1,0,0:0:0:0:
72,272,75021,2,0,P|160:288|240:280,1,128.700000839639
296,256,75400,5,0,0:0:0:0:
392,216,75590,1,0,0:0:0:0:
344,120,75780,1,0,0:0:0:0:
248,160,75969,1,0,0:0:0:0:
152,192,76159,1,0,0:0:0:0:
112,96,76348,1,0,0:0:0:0:
208,56,76538,6,0,P|304:56|360:96,1,128.700000839639
416,128,76917,2,0,P|424:200|416:280,2,128.700000839639
320,96,77486,1,0,0:0:0:0:
224,72,77675,1,0,0:0:0:0:
128,120,77865,1,0,0:0:0:0:
128,224,78055,5,0,0:0:0:0:
280,224,78244,1,0,0:0:0:0:
280,72,78434,1,0,0:0:0:0:
128,72,78623,1,0,0:0:0:0:
128,280,78813,1,0,0:0:0:0:
336,280,79002,2,0,P|400:256|432:192,2,128.700000839639
128,280,79571,1,0,0:0:0:0:
72,192,79761,6,0,P|96:104|144:48,1,128.700000839639
216,32,80140,1,0,0:0:0:0:
272,120,80330,2,0,P|248:208|200:264,1,128.700000839639
128,280,80709,1,0,0:0:0:0:
64,200,80898,1,0,0:0:0:0:
120,112,81088,2,0,P|208:88|256:96,1,128.700000839639
328,152,81467,6,0,P|328:243|308:287,2,128.700000839639
160,80,82225,1,0,0:0:0:0:
80,144,82415,2,0,P|48:224|56:272,2,128.700000839639
160,80,82984,5,0,0:0:0:0:
288,80,83173,1,0,0:0:0:0:
288,208,83363,1,0,0:0:0:0:
160,208,83552,1,0,0:0:0:0:
200,88,83742,1,0,0:0:0:0:
312,144,83932,1,0,0:0:0:0:
248,256,84121,2,0,P|168:256|104:216,2,128.700000839639
376,256,84690,1,0,0:0:0:0:
392,128,84880,5,0,0:0:0:0:
144,64,85259,1,0,0:0:0:0:
144,192,85448,1,0,0:0:0:0:
208,264,91730,5,0,0:0:0:0:
120,224,91922,2,0,P|72:176|64:128,2,110.000000298024
208,264,92498,2,0,P|272:264|344:248,1,110.000000298024
416,168,92882,1,0,0:0:0:0:
416,168,93266,5,0,0:0:0:0:
344,120,93458,2,0,P|296:104|216:112,2,110.000000298024
416,168,94035,2,0,P|440:224|440:304,1,110.000000298024
328,336,94419,1,0,0:0:0:0:
104,200,94803,5,0,0:0:0:0:
104,200,94995,1,0,0:0:0:0:
208,88,95187,1,0,0:0:0:0:
384,88,95571,6,0,L|440:64,2,55.0000001490118
240,144,95955,1,0,0:0:0:0:
152,272,96339,6,0,L|96:296,2,55.0000001490118
368,248,96724,1,0,0:0:0:0:
128,160,97642,5,0,0:0:0:0:
304,72,98021,1,0,0:0:0:0:
416,200,98400,1,0,0:0:0:0:
216,280,98780,1,0,0:0:0:0:
224,64,99159,5,0,0:0:0:0:
400,112,99538,1,0,0:0:0:0:
312,288,99918,1,0,0:0:0:0:
144,128,100297,1,0,0:0:0:0:
280,56,100676,5,0,0:0:0:0:
424,200,101056,1,0,0:0:0:0:
224,144,101435,1,0,0:0:0:0:
88,264,101814,1,0,0:0:0:0:
160,80,102194,5,0,0:0:0:0:
424,120,102573,1,0,0:0:0:0:
248,320,102953,1,0,0:0:0:0:
104,144,103332,1,0,0:0:0:0:
224,88,103711,6,0,P|301:108|349:146,1,110.000000298024
408,200,104091,2,0,P|387:277|349:325,1,110.000000298024
264,280,104470,2,0,P|186:259|138:221,2,110.000000298024
360,224,105039,2,0,P|408:160|408:96,1,110.000000298024
312,88,105418,1,0,0:0:0:0:
200,88,105608,2,0,P|104:96|48:120,2,110.000000298024
312,88,106177,6,0,B|352:128|328:176|296:200|280:248|344:288,1,220.000000596047
448,272,106746,1,0,0:0:0:0:
392,176,106936,1,0,0:0:0:0:
328,272,107126,1,0,0:0:0:0:
224,304,107315,2,0,B|160:320|96:320|32:288|40:224,1,220.000000596047
40,128,107884,1,0,0:0:0:0:
128,64,108074,1,0,0:0:0:0:
240,64,108264,2,0,P|304:64|384:112,2,110.000000298024
136,96,108833,6,0,P|88:152|80:208,1,110.000000298024
112,288,109212,2,0,P|168:336|224:344,2,110.000000298024
112,176,109781,5,0,0:0:0:0:
256,80,110160,1,0,0:0:0:0:
400,184,110540,1,0,0:0:0:0:
256,280,110919,1,0,0:0:0:0:
168,128,111299,5,0,0:0:0:0:
344,128,111678,1,0,0:0:0:0:
344,304,112057,1,0,0:0:0:0:
168,296,112437,1,0,0:0:0:0:
168,120,112816,1,0,0:0:0:0:
344,96,113195,6,0,L|344:216,1,110.000000298024
336,88,113954,1,0,0:0:0:0:
160,112,114713,1,0,0:0:0:0:
328,312,115092,1,0,0:0:0:0:
112,216,115851,6,0,P|120:160|152:112,1,110.000000298024
272,80,116230,2,0,P|322:101|359:141,1,110.000000298024
360,236,116610,2,0,P|326:279|278:305,1,110.000000298024
152,272,116989,2,0,P|118:228|106:175,1,110.000000298024
208,88,117368,5,0,0:0:0:0:
336,112,117558,1,0,0:0:0:0:
384,232,117748,2,0,B|344:296|304:312|296:312,1,110.000000298024
176,296,118127,2,0,B|124:240|119:198|121:190,1,110.000000298024
160,72,118506,2,0,B|226:36|269:42|276:46,1,110.000000298024
392,80,118886,2,0,B|427:146|421:189|417:196,1,110.000000298024
288,184,119265,5,0,0:0:0:0:
112,184,119455,1,0,0:0:0:0:
288,184,120024,5,0,0:0:0:0:
120,72,120783,5,0,0:0:0:0:
280,224,120972,1,0,0:0:0:0:
120,72,121541,5,0,0:0:0:0:
368,96,122300,5,0,0:0:0:0:
152,240,122490,1,0,0:0:0:0:
368,96,123059,5,0,0:0:0:0:
160,96,123438,5,0,0:0:0:0:
152,112,123533,1,0,0:0:0:0:
152,136,123628,1,0,0:0:0:0:
160,160,123723,1,0,0:0:0:0:
176,176,123818,1,0,0:0:0:0:
192,184,123912,1,0,0:0:0:0:
208,200,124007,1,0,0:0:0:0:
224,216,124102,1,0,0:0:0:0:
240,232,124197,5,0,0:0:0:0:
400,144,124948,6,0,P|360:88|288:56,1,110.000000298024
200,80,125328,1,0,0:0:0:0:
88,144,125518,2,0,P|128:200|200:232,1,110.000000298024
312,232,125898,1,0,0:0:0:0:
437,199,126088,1,0,0:0:0:0:
344,104,126278,2,0,P|264:80|200:80,1,110.000000298024
112,152,126659,5,0,0:0:0:0:
224,224,126849,1,0,0:0:0:0:
344,184,127039,1,0,0:0:0:0:
256,88,127229,2,0,P|192:56|128:56,2,110.000000298024
296,208,127799,2,0,P|360:240|424:240,2,110.000000298024
208,120,128370,1,0,0:0:0:0:
80,120,128560,6,0,P|72:208|88:280,1,110.000000298024
208,264,128940,1,0,0:0:0:0:
328,312,129130,1,0,0:0:0:0:
464,240,129321,1,0,0:0:0:0:
344,144,129511,5,0,0:0:0:0:
234,254,129701,1,0,0:0:0:0:
125,144,129891,1,0,0:0:0:0:
234,35,130081,1,0,0:0:0:0:
344,144,130271,5,0,0:0:0:0:
253,299,130461,1,0,0:0:0:0:
97,209,130651,1,0,0:0:0:0:
187,53,130842,1,0,0:0:0:0:
328,112,131032,6,0,P|392:160|392:208,1,110.000000298024
368,280,131412,1,0,0:0:0:0:
296,296,131602,2,0,P|216:320|152:312,1,110.000000298024
96,312,131982,5,0,0:0:0:0:
64,240,132172,1,0,0:0:0:0:
88,168,132363,2,0,P|103:93|128:40,1,110.000000298024
176,104,132743,2,0,P|200:168|232:224,1,110.000000298024
288,168,133123,2,0,P|303:93|320:48,1,110.000000298024
384,128,133503,5,0,0:0:0:0:
408,232,133694,1,0,0:0:0:0:
328,304,133884,2,0,B|272:256|192:256|96:240,1,220.000000596047
80,136,134454,1,0,0:0:0:0:
168,88,134644,2,0,B|241:93|298:150|384:208,1,220.000000596047
456,136,135215,1,0,0:0:0:0:
392,56,135405,1,0,0:0:0:0:
264,48,135595,1,0,0:0:0:0:
172,139,135785,5,0,0:0:0:0:
256,232,135975,1,0,0:0:0:0:
128,88,136546,5,0,0:0:0:0:
304,280,136736,1,0,0:0:0:0:
128,168,137116,6,0,P|184:200|240:200,1,110.000000298024
344,168,137496,1,0,0:0:0:0:
296,80,137686,2,0,P|240:48|176:48,1,110.000000298024
80,80,138067,1,0,0:0:0:0:
40,176,138257,1,0,0:0:0:0:
72,272,138447,2,0,P|160:288|232:280,1,110.000000298024
296,256,138827,5,0,0:0:0:0:
392,216,139017,1,0,0:0:0:0:
344,120,139207,1,0,0:0:0:0:
248,160,139397,1,0,0:0:0:0:
152,192,139588,1,0,0:0:0:0:
112,96,139778,1,0,0:0:0:0:
208,56,139968,6,0,P|304:56|352:96,1,110.000000298024
416,128,140348,2,0,P|424:200|416:272,2,110.000000298024
320,96,140919,1,0,0:0:0:0:
224,72,141109,1,0,0:0:0:0:
128,120,141299,1,0,0:0:0:0:
128,224,141489,5,0,0:0:0:0:
280,224,141679,1,0,0:0:0:0:
280,72,141869,1,0,0:0:0:0:
128,72,142059,1,0,0:0:0:0:
128,280,142249,1,0,0:0:0:0:
336,280,142440,2,0,P|400:256|432:200,2,110.000000298024
128,280,143010,1,0,0:0:0:0:
72,192,143200,6,0,P|96:104|136:56,1,110.000000298024
216,32,143580,1,0,0:0:0:0:
272,120,143771,2,0,P|248:208|208:256,1,110.000000298024
128,280,144151,1,0,0:0:0:0:
64,200,144341,1,0,0:0:0:0:
120,112,144531,2,0,P|208:88|248:96,1,110.000000298024
320,144,144911,6,0,P|320:235|304:272,2,110.000000298024
160,80,145672,1,0,0:0:0:0:
80,144,145862,2,0,P|48:224|56:264,2,110.000000298024
160,80,146432,5,0,0:0:0:0:
288,80,146622,1,0,0:0:0:0:
288,208,146813,1,0,0:0:0:0:
160,208,147003,1,0,0:0:0:0:
200,88,147193,1,0,0:0:0:0:
312,144,147383,1,0,0:0:0:0:
248,256,147573,2,0,P|168:256|112:224,2,110.000000298024
376,256,148144,1,0,0:0:0:0:
392,128,148334,5,0,0:0:0:0:
144,64,148714,5,0,0:0:0:0:
144,192,148904,1,0,0:0:0:0:
256,192,149235,5,0,0:0:0:0:
120,144,150425,1,0,0:0:0:0:
368,120,151945,5,0,0:0:0:0:
152,152,152705,1,0,0:0:0:0:
360,232,153466,1,0,0:0:0:0:
152,296,154226,1,0,0:0:0:0:
248,192,154986,6,0,P|176:208|120:192,1,110
104,240,155747,2,0,P|88:168|104:112,1,110
56,96,156507,2,0,P|128:80|184:96,1,110
208,56,157267,2,0,P|224:128|208:184,1,110
192,208,158028,6,0,P|248:264|296:272,1,110
280,216,158788,2,0,P|336:160|344:112,1,110
288,136,159548,2,0,P|232:80|184:72,1,110
160,104,160309,1,0,0:0:0:0:
120,144,160689,2,0,P|120:160|136:168,16,27.5000000745058
208,136,162593,6,0,P|264:112|320:128,1,110.000000298024
360,216,162973,1,0,0:0:0:0:
288,296,163163,1,0,0:0:0:0:
296,184,163353,1,0,0:0:0:0:
352,280,163543,1,0,0:0:0:0:
248,240,163733,2,0,P|192:232|144:208,1,110.000000298024
160,96,164113,6,0,P|216:120|280:128,1,110.000000298024
376,152,164493,1,0,0:0:0:0:
456,232,164683,1,0,0:0:0:0:
352,200,164873,1,0,0:0:0:0:
240,192,165064,6,0,L|224:72,1,110.000000298024
240,192,165444,2,0,L|256:312,1,110.000000298024
240,192,165824,6,0,L|360:176,1,110.000000298024
240,192,166204,2,0,L|120:208,1,110.000000298024
216,136,166584,6,0,P|264:88|328:72,1,110.000000298024
416,80,166964,2,0,P|368:128|304:144,1,110.000000298024
216,160,167345,2,0,L|160:152,2,55.0000001490118
112,200,167725,2,0,L|168:208,2,55.0000001490118
200,264,168105,2,0,L|144:256,2,55.0000001490118
312,264,168485,1,0,0:0:0:0:
376,176,168675,1,0,0:0:0:0:
208,128,169055,6,0,P|152:136|96:160,1,110.000000298024
64,232,169435,1,0,0:0:0:0:
96,312,169626,1,0,0:0:0:0:
184,336,169816,1,0,0:0:0:0:
272,320,170006,2,0,P|328:312|376:280,1,110.000000298024
416,208,170386,1,0,0:0:0:0:
416,120,170576,2,0,P|408:64|376:16,2,110.000000298024
384,208,171146,5,0,0:0:0:0:
304,248,171336,1,0,0:0:0:0:
216,256,171526,1,0,0:0:0:0:
136,216,171716,2,0,P|104:168|96:96,1,110.000000298024
176,88,172097,1,0,0:0:0:0:
264,104,172287,2,0,P|296:152|304:224,2,110.000000298024
184,72,172857,1,0,0:0:0:0:
184,184,173047,1,0,0:0:0:0:
312,208,173237,6,0,L|368:216,2,55.0000001490118
184,224,173617,2,0,L|112:240,2,55.0000001490118
312,248,173997,2,0,L|368:264,2,55.0000001490118
184,272,174378,2,0,L|120:288,2,55.0000001490118
280,216,174758,1,0,0:0:0:0:
328,112,174948,6,0,L|224:160,1,110.000000298024
128,208,175328,2,0,L|128:80,1,110.000000298024
240,112,175708,2,0,L|336:184,1,110.000000298024
424,232,176088,2,0,L|424:112,1,110.000000298024
328,178,176468,2,0,L|224:226,1,110.000000298024
128,272,176849,5,0,0:0:0:0:
128,272,177229,1,0,0:0:0:0:
88,168,177419,2,0,L|192:120,1,110.000000298024
288,80,177799,2,0,P|352:72|416:104,2,110.000000298024
88,168,178559,1,0,0:0:0:0:
152,256,178749,2,0,P|232:272|264:272,1,110.000000298024
344,200,179130,1,0,0:0:0:0:
160,80,179510,2,0,L|96:112,2,55.0000001490118
216,80,179890,5,0,0:0:0:0:
240,96,179985,1,0,0:0:0:0:
256,120,180080,2,0,P|280:176|264:224,1,110.000000298024
168,248,180460,1,0,0:0:0:0:
304,80,180840,1,0,0:0:0:0:
400,136,181030,5,0,0:0:0:0:
384,248,181220,2,0,P|320:280|256:280,2,110.000000298024
368,136,181791,1,0,0:0:0:0:
272,80,181981,2,0,P|208:80|152:96,1,110.000000298024
80,160,182361,1,0,0:0:0:0:
80,272,182551,5,0,0:0:0:0:
184,312,182741,2,0,P|256:304|304:272,2,110.000000298024
96,240,183311,1,0,0:0:0:0:
104,128,183501,1,0,0:0:0:0:
192,64,183692,2,0,B|248:48|312:72|328:136|352:200|416:216|480:184,1,330.000000894071
392,112,184452,2,0,B|336:96|272:120|256:184|232:248|168:264|104:232,1,330.000000894071
192,320,185212,2,0,B|208:264|184:200|120:184|56:160|40:96|72:32,1,330.000000894071
256,192,185973,12,0,189014,0:0:0:0:
96,96,192150,6,0,P|136:160|192:176,1,110.000000298024
272,192,192572,1,0,0:0:0:0:
384,176,192762,2,0,P|432:136|432:72,2,110.000000298024
288,224,193331,1,0,0:0:0:0:
176,232,193521,2,0,P|112:216|80:168,1,110.000000298024
128,80,193901,1,0,0:0:0:0:
232,56,194090,2,0,P|320:56|376:80,2,110.000000298024
128,104,194660,2,0,P|91:155|96:203,1,110.000000298024
136,304,195039,1,0,0:0:0:0:
248,312,195229,6,0,P|312:312|400:280,1,110.000000298024
416,208,195609,1,0,0:0:0:0:
416,96,195798,2,0,P|352:48|288:48,1,110.000000298024
216,40,196178,1,0,0:0:0:0:
112,80,196368,2,0,P|48:128|32:168,1,110.000000298024
64,264,196747,1,0,0:0:0:0:
216,256,196937,5,0,0:0:0:0:
240,104,197127,1,0,0:0:0:0:
88,104,197317,1,0,0:0:0:0:
104,256,197506,1,0,0:0:0:0:
256,256,197696,1,0,0:0:0:0:
344,128,197886,2,0,P|296:80|232:64,1,110.000000298024
144,64,198266,2,0,P|93:85|57:125,1,110.000000298024
40,232,198645,5,0,0:0:0:0:
104,320,198835,2,0,P|184:328|248:296,1,110.000000298024
304,264,199214,1,0,0:0:0:0:
376,184,199404,1,0,0:0:0:0:
352,80,199594,2,0,P|296:56|216:56,1,110.000000298024
144,96,199974,1,0,0:0:0:0:
88,192,200163,1,0,0:0:0:0:
128,296,200353,2,0,P|216:304|264:272,1,110.000000298024
320,224,200733,1,0,0:0:0:0:
376,128,200922,5,0,0:0:0:0:
320,32,201112,2,0,B|264:80|304:136|304:216|248:272,1,220.000000596047
216,336,201682,1,0,0:0:0:0:
168,240,201871,2,0,B|135:215|135:135|175:79|119:31,1,220.000000596047
64,128,202441,1,0,0:0:0:0:
144,200,202630,2,0,P|216:208|272:184,1,110.000000298024
336,128,203010,5,0,0:0:0:0:
224,88,203200,1,0,0:0:0:0:
400,160,203769,5,0,0:0:0:0:
176,72,203959,1,0,0:0:0:0:
304,168,204339,6,0,P|248:192|200:192,1,110.000000298024
88,136,204718,1,0,0:0:0:0:
168,48,204908,2,0,P|240:64|288:64,1,110.000000298024
392,88,205287,1,0,0:0:0:0:
464,184,205477,1,0,0:0:0:0:
392,280,205667,2,0,P|328:304|272:304,1,110.000000298024
168,280,206047,1,0,0:0:0:0:
80,200,206236,1,0,0:0:0:0:
136,96,206426,1,0,0:0:0:0:
256,72,206616,6,0,P|316:63|370:77,2,110.000000298024
144,120,207185,2,0,B|200:168|160:224|160:304|216:360,1,220.000000596047
272,240,207755,1,0,0:0:0:0:
352,328,207944,2,0,B|384:303|384:223|344:167|400:119,1,220.000000596047
280,80,208514,2,0,P|224:64|160:64,1,110.000000298024
80,160,208893,5,0,0:0:0:0:
184,288,209083,1,0,0:0:0:0:
296,168,209273,1,0,0:0:0:0:
184,48,209463,1,0,0:0:0:0:
80,160,209652,1,0,0:0:0:0:
184,288,209842,1,0,0:0:0:0:
296,168,210032,2,0,P|303:107|280:66,1,110.000000298024
160,88,210412,6,0,P|112:120|96:184,1,110.000000298024
168,264,210791,1,0,0:0:0:0:
288,288,210981,2,0,P|336:256|352:192,1,110.000000298024
320,96,211360,1,0,0:0:0:0:
200,64,211550,1,0,0:0:0:0:
104,136,211740,2,0,P|80:192|96:248,1,110.000000298024
200,288,212120,1,0,0:0:0:0:
320,280,212309,1,0,0:0:0:0:
416,208,212499,2,0,P|448:160|448:96,2,110.000000298024
368,320,213068,1,0,0:0:0:0:
224,312,213258,5,0,0:0:0:0:
128,208,213448,1,0,0:0:0:0:
240,112,213638,1,0,0:0:0:0:
336,216,213828,1,0,0:0:0:0:
208,272,214017,1,0,0:0:0:0:
160,136,214207,1,0,0:0:0:0:
304,128,214397,1,0,0:0:0:0:
320,272,214587,1,0,0:0:0:0:
184,240,214776,2,0,P|120:208|112:168,1,110.000000298024
216,80,215156,1,0,0:0:0:0:
360,104,215346,1,0,0:0:0:0:
368,248,215536,2,0,P|304:296|256:296,1,110.000000298024
192,184,215915,1,0,0:0:0:0:
216,312,216105,2,0,B|184:240|72:264|32:112|152:8|224:112|224:112|256:152|288:112|288:112|360:8|480:112|440:264|328:240|272:352,1,907.500002458694
