osu file format v14

[General]
AudioFilename: audio.mp3
AudioLeadIn: 0
PreviewTime: 70036
Countdown: 0
SampleSet: Soft
StackLeniency: 0.4
Mode: 0
LetterboxInBreaks: 0
WidescreenStoryboard: 0

[Editor]
Bookmarks: 42090,77983,78697,79411,102804,132625,135840,159590,166375,166911,167268,171911,172179,172447,173697,192090,194411,201375,210839,234411,241197
DistanceSpacing: 1.4
BeatDivisor: 4
GridSize: 32
TimelineZoom: 1.6

[Metadata]
Title:Yuugen
TitleUnicode:幽玄
Artist:TEARS OF TRAGEDY
ArtistUnicode:TEARS OF TRAGEDY
Creator:gazimal
Version:Luminous Life
Source:
Tags:TRINITY japanese Metal Rock j-rock jrock jmetal j-metal HARUKA TORU HAYATO shikibe mayu shizuku- kazato asa kazu2411 Oriental ponbot wring
BeatmapID:3226413
BeatmapSetID:1580085

[Difficulty]
HPDrainRate:5.8
CircleSize:4.2
OverallDifficulty:9
ApproachRate:9.4
SliderMultiplier:1.9
SliderTickRate:1

[Events]
//Background and Video events
0,0,"91953736_p0.jpg",0,0
//Break Periods
2,151754,159050
//Storyboard Layer 0 (Background)
//Storyboard Layer 1 (Fail)
//Storyboard Layer 2 (Pass)
//Storyboard Layer 3 (Foreground)
//Storyboard Layer 4 (Overlay)
//Storyboard Sound Samples

[TimingPoints]
126,357.142857142857,4,2,1,70,1,0
11018,-100,4,2,2,70,0,0
11286,-100,4,2,1,70,0,0
11733,-83.3333333333333,4,2,1,70,0,0
13875,-83.3333333333333,4,2,2,70,0,0
14411,-83.3333333333333,4,2,1,65,0,0
21375,-66.6666666666667,4,2,1,65,0,0
22358,-66.6666666666667,4,2,2,65,0,0
22625,-66.6666666666667,4,2,1,65,0,0
22804,-66.6666666666667,4,2,2,65,0,0
22983,-83.3333333333333,4,2,1,65,0,0
27090,-66.6666666666667,4,2,1,65,0,0
27804,-66.6666666666667,4,2,1,70,0,0
28161,-66.6666666666667,4,2,1,75,0,0
28340,-66.6666666666667,4,2,1,80,0,0
28697,-83.3333333333333,4,2,1,65,0,0
32804,-66.6666666666667,4,2,1,65,0,0
33250,-83.3333333333333,4,2,1,65,0,0
39590,-83.3333333333333,4,2,1,60,0,0
40036,-83.3333333333333,4,2,1,5,0,0
40125,-83.3333333333333,4,2,1,60,0,0
40572,-83.3333333333333,4,2,1,5,0,0
40661,-83.3333333333333,4,2,1,60,0,0
42804,-83.3333333333333,4,2,2,60,0,0
42983,-66.6666666666667,4,2,1,65,0,0
43340,-83.3333333333333,4,2,1,65,0,0
48518,-83.3333333333333,4,2,2,65,0,0
48697,-83.3333333333333,4,2,1,65,0,0
59947,-83.3333333333333,4,2,2,65,0,0
60125,-83.3333333333333,4,2,1,70,0,0
65661,-83.3333333333333,4,2,2,70,0,0
65840,-83.3333333333333,4,2,1,70,0,0
68697,-100,4,2,1,70,0,0
70036,-100,4,2,1,5,0,0
70125,-83.3333333333333,4,2,1,70,0,0
70304,-83.3333333333333,4,2,1,75,0,0
70840,-500,4,2,1,30,0,0
71465,-500,4,2,1,5,0,0
71554,-66.6666666666667,4,3,1,80,0,1
72625,-76.9230769230769,4,3,1,80,0,1
73161,-76.9230769230769,4,3,1,80,0,1
75661,-66.6666666666667,4,3,1,80,0,1
76018,-76.9230769230769,4,3,1,80,0,1
78697,-100,4,3,1,80,0,1
79411,-66.6666666666667,4,3,1,80,0,1
79947,-76.9230769230769,4,3,1,80,0,1
82625,-76.9230769230769,4,3,2,80,0,1
82983,-66.6666666666667,4,2,3,80,0,1
85125,-66.6666666666667,4,2,1,80,0,1
85215,-66.6666666666667,4,2,3,80,0,1
88518,-66.6666666666667,4,2,1,80,0,1
88608,-66.6666666666667,4,2,2,80,0,1
88697,-66.6666666666667,4,2,1,80,0,1
93340,-66.6666666666667,4,2,2,80,0,1
93518,-66.6666666666667,4,2,1,80,0,1
93786,-66.6666666666667,4,2,1,5,0,1
93875,-200,4,2,3,40,0,0
94411,-100,4,2,1,60,0,0
95125,-100,4,2,1,5,0,0
95304,-100,4,2,1,45,0,0
95929,-100,4,2,1,5,0,0
96018,-100,4,2,1,45,0,0
96733,-200,4,2,1,45,0,0
97268,-100,4,2,1,60,0,0
99768,-100,4,2,2,60,0,0
100125,-66.6666666666667,4,2,1,65,0,0
100483,-83.3333333333333,4,2,1,65,0,0
102983,-166.666666666667,4,2,1,65,0,0
103340,-83.3333333333333,4,2,1,65,0,0
103518,-166.666666666667,4,2,1,65,0,0
103875,-83.3333333333333,4,2,1,65,0,0
104054,-166.666666666667,4,2,1,65,0,0
104947,-83.3333333333333,4,2,1,65,0,0
105661,-83.3333333333333,4,2,2,65,0,0
105840,-83.3333333333333,4,2,1,65,0,0
117090,-83.3333333333333,4,2,2,65,0,0
117268,-83.3333333333333,4,2,1,70,0,0
122625,-83.3333333333333,4,2,2,70,0,0
122983,-83.3333333333333,4,2,1,70,0,0
127358,-83.3333333333333,4,2,1,55,0,0
128697,-66.6666666666667,4,3,1,80,0,1
129768,-76.9230769230769,4,3,1,80,0,1
129947,-66.6666666666667,4,3,1,80,0,1
130304,-76.9230769230769,4,3,1,80,0,1
132804,-66.6666666666667,4,3,1,80,0,1
133161,-76.9230769230769,4,3,1,80,0,1
135840,-100,4,3,1,80,0,1
137090,-76.9230769230769,4,3,1,80,0,1
139768,-76.9230769230769,4,3,2,80,0,1
140125,-66.6666666666667,4,2,3,80,0,1
142268,-66.6666666666667,4,2,1,80,0,1
142358,-66.6666666666667,4,2,3,80,0,1
145661,-66.6666666666667,4,2,1,80,0,1
145751,-66.6666666666667,4,2,2,80,0,1
145840,-66.6666666666667,4,2,1,80,0,1
151554,-66.6666666666667,4,2,1,80,0,0
159590,-200,4,2,1,60,0,0
160125,-100,4,2,1,65,0,0
162625,-100,4,2,2,65,0,0
162983,-100,4,2,1,70,0,0
165840,-66.6666666666667,4,2,1,70,0,0
168518,-66.6666666666667,4,2,2,70,0,0
168697,-66.6666666666667,4,2,1,70,0,0
171643,-66.6666666666667,4,2,1,80,0,0
172983,-83.3333333333333,4,2,1,80,0,0
173697,-83.3333333333333,4,2,1,60,0,0
174054,-83.3333333333333,4,2,2,60,0,0
174411,-83.3333333333333,4,2,1,70,0,0
178697,-333.333333333333,4,2,1,50,0,0
179233,-333.333333333333,4,2,1,70,0,0
180125,-83.3333333333333,4,2,1,70,0,0
182447,-66.6666666666667,4,2,1,70,0,0
185304,-66.6666666666667,4,2,2,70,0,0
185483,-66.6666666666667,4,2,1,70,0,0
185840,-55.5555555555556,4,2,1,70,0,0
190483,-66.6666666666667,4,2,1,70,0,0
190840,-66.6666666666667,4,2,1,70,0,0
191554,-500,4,2,1,70,0,0
192090,-58.8235294117647,4,2,1,70,0,0
194411,-66.6666666666667,4,2,1,70,0,0
197179,-66.6666666666667,4,2,2,70,0,0
197268,-66.6666666666667,4,2,1,70,0,0
198697,-58.8235294117647,4,2,1,70,0,0
199233,-142.857142857143,4,2,1,70,0,0
199590,-66.6666666666667,4,2,2,70,0,0
199768,-66.6666666666667,4,2,1,70,0,0
199947,-66.6666666666667,4,2,2,70,0,0
200125,-100,4,2,1,70,0,0
202090,-100,4,2,2,70,0,0
202268,-1000,4,2,1,70,0,0
203607,-1000,4,2,1,5,0,0
203697,357.142857142857,4,3,1,80,1,0
203697,-66.6666666666667,4,3,1,80,0,1
204768,-76.9230769230769,4,3,1,80,0,1
210839,-100,4,3,1,80,0,1
212089,-76.9230769230769,4,3,1,80,0,1
214768,-76.9230769230769,4,3,2,80,0,1
215125,-66.6666666666667,4,2,3,80,0,1
217268,-66.6666666666667,4,2,1,80,0,1
217358,-66.6666666666667,4,2,3,80,0,1
220661,-66.6666666666667,4,2,1,80,0,1
220751,-66.6666666666667,4,2,2,80,0,1
220840,-66.6666666666667,4,2,1,80,0,1
233697,-83.3333333333333,4,2,1,80,0,0
234322,-83.3333333333333,4,2,1,5,0,0
234411,-83.3333333333333,4,2,1,70,0,0
234947,-83.3333333333333,4,2,2,70,0,0
235125,-83.3333333333333,4,2,1,80,0,0
239143,-83.3333333333333,4,2,1,5,0,0
239232,-83.3333333333333,4,2,1,80,0,0
239277,-83.3333333333333,4,2,1,5,0,0
239947,-83.3333333333333,4,2,1,80,0,0
241197,-83.3333333333333,4,2,1,5,0,0

[Colours]
Combo1 : 0,255,255
Combo2 : 192,192,192
Combo3 : 255,128,64

[HitObjects]
106,259,126,5,12,3:2:0:0:
376,119,304,1,12,3:2:0:0:
273,338,483,1,12,3:2:0:0:
273,338,840,5,0,3:2:0:0:
347,302,1018,1,10,3:2:0:0:
69,189,1375,1,10,3:2:0:0:
106,259,1554,5,0,3:2:0:0:
106,259,1911,1,0,3:2:0:0:
376,119,2090,5,12,3:2:0:0:
190,27,2268,1,12,3:2:0:0:
347,302,2447,1,12,3:2:0:0:
347,302,2804,1,0,3:2:0:0:
149,189,2983,5,12,3:2:0:0:
405,48,3161,1,12,3:2:0:0:
279,259,3340,1,12,3:2:0:0:
279,259,3697,5,0,3:2:0:0:
273,338,3875,1,10,3:2:0:0:
330,55,4233,1,10,3:2:0:0:
376,119,4411,5,0,3:2:0:0:
376,119,4768,1,0,3:2:0:0:
69,189,4947,5,12,3:2:0:0:
347,302,5125,1,12,3:2:0:0:
190,27,5304,1,12,3:2:0:0:
148,315,5483,1,0,3:2:0:0:
148,315,5572,1,0,3:2:0:0:
148,315,5661,1,0,3:2:0:0:
148,315,5750,1,0,3:2:0:0:
148,315,5840,5,12,3:2:0:0:
376,119,6018,1,12,3:2:0:0:
69,189,6197,1,12,3:2:0:0:
362,316,6375,1,0,3:2:0:0:
362,316,6464,1,0,3:2:0:0:
362,316,6553,1,0,3:2:0:0:
362,316,6642,1,0,3:2:0:0:
362,316,6732,5,10,3:2:0:0:
190,27,7090,1,10,3:2:0:0:
254,84,7268,5,0,3:2:0:0:
178,114,7447,1,0,3:2:0:0:
178,114,7536,1,0,3:2:0:0:
178,114,7625,1,0,3:2:0:0:
376,119,7804,5,12,3:2:0:0:
148,315,7983,1,12,3:2:0:0:
337,43,8161,1,12,3:2:0:0:
362,316,8340,1,0,3:2:0:0:
362,316,8429,1,0,3:2:0:0:
362,316,8518,1,0,3:2:0:0:
362,316,8607,1,0,3:2:0:0:
362,316,8697,5,12,3:2:0:0:
69,189,8875,1,12,3:2:0:0:
343,210,9054,1,12,3:2:0:0:
343,210,9411,5,0,3:2:0:0:
278,129,9590,1,8,3:2:0:0:
476,253,9768,1,0,3:2:0:0:
503,32,9947,5,12,3:2:0:0:
447,92,10126,1,0,3:2:0:0:
447,92,10483,5,2,3:2:0:0:
405,60,10572,1,2,0:0:0:0:
354,64,10661,1,12,3:2:0:0:
318,100,10750,1,2,0:0:0:0:
314,153,10840,5,14,3:3:0:0:
303,146,10929,1,10,0:3:0:0:
293,140,11018,1,12,3:3:0:0:
285,134,11108,1,8,0:3:0:0:
278,129,11197,5,10,3:3:0:0:
235,173,11286,1,10,3:2:0:0:
172,181,11375,1,10,3:2:0:0:
114,162,11465,1,10,3:2:0:0:
86,106,11554,5,2,3:2:0:0:
111,93,11643,1,0,3:2:0:0:
137,82,11733,2,0,L|124:158,1,56.9999982604981,14|0,3:2|0:0,0:0:0:0:
73,338,11911,6,0,B|46:342|21:362|21:362|37:336|39:294,1,113.999996520996,14|0,3:2|3:2,0:0:0:0:
108,273,12179,1,0,3:2:0:0:
108,273,12268,2,0,L|174:283,1,56.9999982604981,14|0,3:2|0:0,0:0:0:0:
347,270,12447,6,0,B|374:274|399:294|399:294|383:268|381:226,1,113.999996520996,14|0,3:2|3:2,0:0:0:0:
312,205,12715,1,0,3:2:0:0:
312,205,12804,2,0,L|246:215,1,56.9999982604981,14|0,3:2|0:0,0:0:0:0:
73,202,12983,6,0,B|46:206|21:226|21:226|37:200|39:158,1,113.999996520996,14|0,3:2|3:2,0:0:0:0:
108,137,13251,1,0,3:2:0:0:
108,137,13340,2,0,L|174:147,1,56.9999982604981,14|0,3:2|0:0,0:0:0:0:
312,69,13518,5,14,3:2:0:0:
307,61,13608,1,8,3:3:0:0:
289,55,13697,1,8,3:3:0:0:
269,62,13786,1,8,3:3:0:0:
259,94,13875,1,8,3:3:0:0:
280,126,13965,1,8,3:3:0:0:
323,137,14054,1,8,3:2:0:0:
371,128,14143,1,8,3:3:0:0:
403,84,14233,1,8,3:3:0:0:
451,50,14322,1,8,3:3:0:0:
512,60,14411,6,0,L|502:122,1,56.9999982604981,2|0,3:2|0:0,0:0:0:0:
380,184,14590,2,0,L|370:122,1,56.9999982604981,10|0,0:0|0:0,0:0:0:0:
505,222,14768,1,2,3:2:0:0:
505,222,14858,1,0,3:2:0:0:
505,222,14947,2,0,L|496:279,1,56.9999982604981,10|0,0:0|0:0,0:0:0:0:
347,346,15125,6,0,L|411:328,1,56.9999982604981,2|0,3:2|0:0,0:0:0:0:
200,276,15304,2,0,L|264:293,1,56.9999982604981,10|0,3:2|0:0,0:0:0:0:
53,346,15483,1,2,3:2:0:0:
53,346,15572,1,0,3:2:0:0:
53,346,15662,2,0,L|117:328,1,56.9999982604981,10|0,0:0|0:0,0:0:0:0:
255,290,15840,5,0,3:2:0:0:
94,120,16018,2,0,L|112:234,1,113.999996520996,8|0,0:0|3:2,0:0:0:0:
0,277,16286,1,0,3:2:0:0:
0,277,16375,2,0,L|10:207,1,56.9999982604981,8|0,0:0|0:0,0:0:0:0:
43,42,16554,1,0,3:2:0:0:
112,232,16733,2,0,L|170:222,1,56.9999982604981,10|0,0:0|0:0,0:0:0:0:
261,106,16911,1,2,3:2:0:0:
261,106,17000,1,0,3:2:0:0:
261,106,17090,2,0,L|202:96,1,56.9999982604981,10|0,0:0|0:0,0:0:0:0:
316,192,17268,6,0,L|374:182,1,56.9999982604981,2|0,3:2|0:0,0:0:0:0:
374,20,17447,2,0,L|353:75,1,56.9999982604981,10|0,0:0|0:0,0:0:0:0:
493,156,17625,1,2,3:2:0:0:
493,156,17715,1,0,3:2:0:0:
493,156,17804,2,0,L|455:110,1,56.9999982604981,10|0,0:0|0:0,0:0:0:0:
316,192,17983,6,0,L|374:182,1,56.9999982604981,2|0,3:2|0:0,0:0:0:0:
512,286,18161,2,0,L|454:276,1,56.9999982604981,10|0,3:2|0:0,0:0:0:0:
316,380,18340,1,2,3:2:0:0:
316,380,18429,1,0,3:2:0:0:
316,380,18518,2,0,L|374:370,1,56.9999982604981,10|0,0:0|0:0,0:0:0:0:
316,192,18697,5,0,3:2:0:0:
196,321,18875,2,0,L|176:199,1,113.999996520996,8|0,0:0|3:2,0:0:0:0:
97,123,19143,1,0,3:2:0:0:
97,123,19233,2,0,L|87:184,1,56.9999982604981,8|0,0:0|0:0,0:0:0:0:
29,345,19411,2,0,P|61:297|117:293,1,113.999996520996,2|8,3:2|0:0,0:0:0:0:
310,220,19768,1,0,3:2:0:0:
313,206,19857,1,0,3:2:0:0:
316,192,19947,1,8,0:0:0:0:
177,208,20125,6,0,L|196:321,1,113.999996520996,6|8,3:2|0:0,0:0:0:0:
325,150,20482,1,0,3:2:0:0:
322,164,20572,1,0,3:2:0:0:
319,178,20661,1,8,0:0:0:0:
351,4,20840,1,0,3:2:0:0:
474,151,21018,1,10,0:0:0:0:
468,123,21108,1,8,0:0:0:0:
462,95,21197,1,8,0:0:0:0:
510,342,21375,6,0,B|458:370|412:326|412:326|384:262|321:275,1,213.750008153916,6|0,3:2|0:0,0:0:0:0:
292,285,21733,1,0,3:2:0:0:
297,298,21822,1,0,3:2:0:0:
303,311,21911,1,8,3:2:0:0:
266,290,22000,1,8,3:3:0:0:
226,293,22090,1,8,3:3:0:0:
195,321,22179,1,8,3:3:0:0:
183,361,22268,5,2,3:2:0:0:
179,349,22358,1,8,3:3:0:0:
173,336,22447,1,8,3:3:0:0:
168,323,22536,1,8,3:3:0:0:
162,310,22625,1,8,3:2:0:0:
127,342,22715,1,8,3:2:0:0:
87,355,22804,1,8,3:3:0:0:
52,350,22893,1,8,3:3:0:0:
26,329,22983,6,0,L|38:252,1,56.9999982604981,6|0,3:2|0:0,0:0:0:0:
154,158,23161,2,0,L|166:235,1,56.9999982604981,10|0,0:0|0:0,0:0:0:0:
13,110,23340,1,2,3:2:0:0:
17,89,23429,1,0,3:2:0:0:
20,71,23518,1,10,0:0:0:0:
64,189,23697,1,0,3:2:0:0:
176,46,23875,2,0,P|206:52|239:56,1,56.9999982604981,10|0,0:0|0:0,0:0:0:0:
358,166,24054,1,0,3:2:0:0:
358,166,24143,1,0,3:2:0:0:
358,166,24233,2,0,B|302:175|302:175|299:178|299:178|221:190,1,113.999996520996,10|0,0:0|3:2,0:0:0:0:
425,227,24590,6,0,P|446:208|472:194,1,56.9999982604981,10|0,0:0|0:0,0:0:0:0:
418,114,24768,2,0,P|421:85|428:58,1,56.9999982604981,2|0,3:2|3:2,0:0:0:0:
338,46,24947,2,0,P|320:24|305:0,1,56.9999982604981,8|0,0:0|0:0,0:0:0:0:
176,46,25125,6,0,P|206:52|239:56,1,56.9999982604981,2|0,3:2|0:0,0:0:0:0:
171,240,25304,2,0,P|167:269|162:297,1,56.9999982604981,8|0,0:0|0:0,0:0:0:0:
163,135,25483,2,0,P|140:153|116:169,1,56.9999982604981,2|0,3:2|3:2,0:0:0:0:
250,308,25661,2,0,P|268:331|284:355,1,56.9999982604981,10|0,0:0|0:0,0:0:0:0:
409,308,25840,6,0,P|381:303|353:300,1,56.9999982604981,2|0,3:2|0:0,0:0:0:0:
162,295,26018,2,0,P|167:267|171:239,1,56.9999982604981,10|0,0:0|0:0,0:0:0:0:
176,46,26197,2,0,P|206:52|239:56,1,56.9999982604981,2|0,3:2|3:2,0:0:0:0:
460,103,26375,1,8,0:0:0:0:
460,87,26465,1,0,3:2:0:0:
454,73,26554,1,0,3:2:0:0:
443,64,26643,1,0,3:2:0:0:
427,58,26733,2,0,P|395:63|370:86,1,56.9999982604981,8|0,0:0|3:2,0:0:0:0:
264,235,26911,5,2,3:2:0:0:
255,225,27000,1,0,3:2:0:0:
247,216,27090,2,0,B|303:187|355:232|355:232|363:295|413:309,1,213.750008153916,14|0,0:0|0:0,0:0:0:0:
479,306,27447,5,2,3:2:0:0:
475,277,27536,1,2,3:2:0:0:
460,253,27625,1,14,0:0:0:0:
429,236,27715,1,2,0:0:0:0:
384,238,27804,1,2,3:2:0:0:
345,267,27893,1,2,3:2:0:0:
318,315,27983,1,10,3:2:0:0:
266,354,28072,1,10,3:2:0:0:
199,347,28161,1,10,3:3:0:0:
161,293,28250,1,10,3:3:0:0:
178,228,28340,1,10,3:2:0:0:
238,189,28429,1,10,3:2:0:0:
267,115,28518,1,10,3:2:0:0:
226,50,28608,1,10,3:2:0:0:
148,54,28697,6,0,L|158:118,1,56.9999982604981,6|0,3:2|0:0,0:0:0:0:
36,244,28875,2,0,L|46:180,1,56.9999982604981,10|0,0:0|0:0,0:0:0:0:
178,228,29054,1,2,3:2:0:0:
181,246,29143,1,0,3:2:0:0:
185,267,29232,1,8,0:0:0:0:
59,107,29411,1,0,3:2:0:0:
73,331,29590,2,0,P|100:324|137:320,1,56.9999982604981,10|0,0:0|0:0,0:0:0:0:
252,203,29768,1,0,3:2:0:0:
252,203,29858,1,0,3:2:0:0:
252,203,29947,2,0,P|219:157|155:152,1,113.999996520996,10|0,0:0|3:2,0:0:0:0:
231,337,30304,6,0,P|216:358|199:384,1,56.9999982604981,10|0,0:0|0:0,0:0:0:0:
315,275,30482,2,0,P|319:306|325:332,1,56.9999982604981,2|0,3:2|3:2,0:0:0:0:
330,173,30661,2,0,P|351:188|377:206,1,56.9999982604981,10|0,0:0|0:0,0:0:0:0:
324,79,30840,6,0,P|292:84|268:89,1,56.9999982604981,2|0,3:2|0:0,0:0:0:0:
79,135,31018,2,0,P|73:108|69:78,1,56.9999982604981,10|0,0:0|3:2,0:0:0:0:
196,26,31197,2,0,P|178:51|164:73,1,56.9999982604981,2|0,0:0|3:2,0:0:0:0:
62,238,31375,2,0,P|38:219|15:205,1,56.9999982604981,10|0,0:0|0:0,0:0:0:0:
73,331,31554,6,0,P|100:324|137:320,1,56.9999982604981,2|0,3:2|0:0,0:0:0:0:
324,331,31733,2,0,P|318:304|315:275,1,56.9999982604981,10|0,0:0|0:0,0:0:0:0:
324,79,31911,2,0,P|292:84|268:89,1,56.9999982604981,2|0,3:2|0:0,0:0:0:0:
43,100,32090,1,8,0:0:0:0:
56,88,32179,1,0,3:2:0:0:
69,78,32268,2,0,P|73:107|79:135,1,56.9999982604981,2|0,3:2|3:2,0:0:0:0:
129,320,32447,5,8,0:0:0:0:
100,290,32536,1,0,3:2:0:0:
59,291,32625,1,0,3:2:0:0:
26,320,32715,1,0,3:2:0:0:
19,362,32804,6,0,B|86:405|144:357|144:357|149:363|149:363|219:302|280:333,1,285.000010871888,14|2,0:0|3:2,0:0:0:0:
379,359,33250,1,2,3:2:0:0:
379,359,33340,2,0,P|410:354|438:318,1,56.9999982604981,10|0,0:0|0:0,0:0:0:0:
388,233,33518,2,0,P|357:238|329:274,1,56.9999982604981,2|0,3:2|3:2,0:0:0:0:
486,257,33697,1,8,3:2:0:0:
278,332,33875,5,10,0:0:0:0:
245,340,33965,1,10,0:0:0:0:
209,327,34054,1,10,0:0:0:0:
184,291,34143,1,10,0:0:0:0:
150,242,34233,1,10,3:2:0:0:
86,234,34322,1,10,3:2:0:0:
37,275,34411,6,0,L|47:340,1,56.9999982604981,6|0,3:2|0:0,0:0:0:0:
253,260,34768,1,2,3:2:0:0:
261,204,34858,1,0,3:2:0:0:
269,148,34947,1,10,0:0:0:0:
234,79,35304,5,2,3:2:0:0:
278,332,35483,1,10,0:0:0:0:
234,79,35840,5,4,3:2:0:0:
234,79,36197,1,0,3:2:0:0:
234,79,36554,5,0,3:2:0:0:
219,61,36643,1,8,0:0:0:0:
189,55,36733,1,8,0:0:0:0:
156,68,36822,1,8,0:0:0:0:
132,106,36911,1,8,3:2:0:0:
82,134,37000,1,8,0:3:0:0:
25,124,37090,1,8,0:3:0:0:
2,66,37179,1,8,0:3:0:0:
30,8,37268,1,4,3:2:0:0:
30,8,39590,5,0,3:2:0:0:
184,198,39768,2,0,B|216:150|273:135|273:135|234:145|203:124,1,170.999994781494,12|0,0:0|0:0,0:0:0:0:
140,132,40125,5,0,3:2:0:0:
155,309,40304,2,0,B|155:262|90:245|49:284|49:284|67:301|74:323,1,170.999994781494,0|0,3:2|0:0,0:0:0:0:
51,384,40661,2,0,L|116:373,1,56.9999982604981,8|0,0:0|0:0,0:0:0:0:
330,345,40840,1,0,3:2:0:0:
320,318,40929,1,0,3:2:0:0:
296,303,41018,1,0,3:2:0:0:
268,304,41107,1,0,3:2:0:0:
246,321,41197,1,0,3:2:0:0:
239,348,41286,1,0,3:2:0:0:
247,373,41375,2,0,B|289:342|292:281|243:245|243:245|258:232|258:232|218:223|179:194|186:119|237:75|307:88|344:138|321:188,1,455.999986083985,6|0,3:2|0:0,0:0:0:0:
450,304,42268,5,2,3:2:0:0:
433,297,42357,1,8,3:2:0:0:
424,283,42446,1,8,3:2:0:0:
422,265,42536,1,8,3:2:0:0:
432,251,42625,1,8,3:3:0:0:
447,243,42714,1,8,3:3:0:0:
464,245,42804,1,8,3:3:0:0:
477,256,42893,1,8,3:3:0:0:
483,272,42983,6,0,P|413:255|335:248,1,142.500005435944,4|8,3:2|0:0,0:0:0:0:
218,273,43250,1,0,0:0:0:0:
218,273,43340,2,0,B|248:255|271:223|271:223|263:251|271:273,1,113.999996520996,0|8,3:2|0:0,0:0:0:0:
361,361,43608,1,0,0:0:0:0:
361,361,43697,2,0,P|355:300|343:247,1,113.999996520996,2|8,3:2|0:0,0:0:0:0:
450,144,43965,1,0,3:2:0:0:
450,144,44054,2,0,P|441:177|437:204,1,56.9999982604981,0|0,0:0|3:2,0:0:0:0:
374,85,44233,2,0,B|412:44|412:44|481:54,1,113.999996520996,10|0,0:0|3:2,0:0:0:0:
359,169,44590,6,0,L|296:159,1,56.9999982604981,8|0,0:0|0:0,0:0:0:0:
156,142,44768,1,0,3:2:0:0:
140,121,44858,1,0,3:2:0:0:
125,98,44947,2,0,L|187:88,1,56.9999982604981,8|0,0:0|0:0,0:0:0:0:
374,85,45125,1,0,3:2:0:0:
339,95,45215,1,0,3:2:0:0:
303,83,45304,1,8,0:0:0:0:
282,49,45393,2,0,B|290:102|290:102|293:104|293:104|305:178,1,113.999996520996,0|0,3:2|3:2,0:0:0:0:
218,240,45661,2,0,L|226:183,1,56.9999982604981,8|0,0:0|0:0,0:0:0:0:
250,324,45840,6,0,P|216:286|153:286,1,113.999996520996,2|8,3:2|0:0,0:0:0:0:
119,368,46108,1,0,0:0:0:0:
119,368,46197,2,0,L|179:358,1,56.9999982604981,2|0,3:2|3:2,0:0:0:0:
310,258,46375,2,0,B|368:267|368:267|373:272|373:272|443:282,1,113.999996520996,10|0,0:0|3:2,0:0:0:0:
512,194,46643,1,0,3:2:0:0:
512,194,46733,2,0,L|445:204,1,56.9999982604981,10|0,0:0|3:2,0:0:0:0:
439,352,46911,2,0,P|471:339|490:296,1,56.9999982604981,2|0,0:0|3:2,0:0:0:0:
317,265,47090,5,8,0:0:0:0:
317,265,47179,1,0,0:0:0:0:
317,265,47268,2,0,L|329:343,1,56.9999982604981,0|0,3:2|0:0,0:0:0:0:
154,362,47447,2,0,L|166:284,1,56.9999982604981,8|0,0:0|0:0,0:0:0:0:
174,191,47625,1,0,3:2:0:0:
174,191,47715,1,0,3:2:0:0:
174,191,47804,2,0,P|146:208|111:208,1,56.9999982604981,10|0,0:0|0:0,0:0:0:0:
31,120,47983,2,0,P|59:103|94:103,1,56.9999982604981,6|0,3:2|0:0,0:0:0:0:
290,123,48161,5,10,3:2:0:0:
320,77,48250,1,8,3:2:0:0:
311,26,48340,1,10,3:3:0:0:
268,0,48429,1,8,3:3:0:0:
223,2,48518,1,10,3:3:0:0:
196,21,48608,1,8,3:3:0:0:
186,52,48697,6,0,L|197:123,1,56.9999982604981,6|0,3:2|0:0,0:0:0:0:
233,242,48875,2,0,B|264:237|300:261|300:261|280:241|283:216,1,113.999996520996,8|0,0:0|3:2,0:0:0:0:
362,148,49143,1,0,3:2:0:0:
362,148,49233,2,0,L|351:219,1,56.9999982604981,10|0,0:0|0:0,0:0:0:0:
377,377,49411,5,0,3:2:0:0:
410,367,49500,1,0,3:2:0:0:
445,359,49590,1,8,0:0:0:0:
472,351,49679,2,0,L|461:285,1,56.9999982604981,0|0,3:2|0:0,0:0:0:0:
380,193,49858,1,0,3:2:0:0:
353,204,49947,2,0,L|362:148,1,56.9999982604981,8|0,0:0|0:0,0:0:0:0:
275,0,50125,6,0,B|252:28|252:28|264:105,1,113.999996520996,2|8,3:2|0:0,0:0:0:0:
436,75,50483,1,0,3:2:0:0:
429,52,50572,1,0,3:2:0:0:
423,34,50661,2,0,L|363:43,1,56.9999982604981,10|0,0:0|0:0,0:0:0:0:
188,70,50840,1,0,3:2:0:0:
192,100,50929,1,0,3:2:0:0:
196,130,51018,1,8,0:0:0:0:
201,159,51108,2,0,B|226:181|234:215|234:215|246:186|277:174,1,113.999996520996,0|0,3:2|3:2,0:0:0:0:
362,147,51375,2,0,L|352:205,1,56.9999982604981,8|0,0:0|0:0,0:0:0:0:
470,381,51554,6,0,L|447:240,1,113.999996520996,2|8,3:2|0:0,0:0:0:0:
330,384,51911,1,0,3:2:0:0:
330,384,52000,1,0,3:2:0:0:
330,384,52090,1,8,0:0:0:0:
175,249,52268,1,2,3:2:0:0:
212,254,52357,1,0,3:2:0:0:
250,260,52446,1,8,0:0:0:0:
287,266,52536,2,0,B|261:287|261:287|170:273,1,113.999996520996,0|0,3:2|3:2,0:0:0:0:
107,217,52804,2,0,P|127:191|167:178,1,56.9999982604981,8|0,0:0|0:0,0:0:0:0:
208,359,52983,6,0,L|78:338,1,113.999996520996,2|8,3:2|0:0,0:0:0:0:
9,264,53340,1,0,3:2:0:0:
24,274,53429,1,0,3:2:0:0:
39,283,53518,2,0,L|27:212,1,56.9999982604981,8|0,0:0|0:0,0:0:0:0:
77,41,53697,1,2,3:2:0:0:
112,30,53786,1,0,3:2:0:0:
148,41,53875,1,8,0:0:0:0:
170,71,53965,2,0,B|161:129|161:129|157:130|157:130|144:203,1,113.999996520996,0|0,3:2|3:2,0:0:0:0:
24,153,54233,2,0,P|56:155|92:185,1,56.9999982604981,8|0,0:0|0:0,0:0:0:0:
182,275,54411,5,6,3:2:0:0:
224,268,54500,1,0,0:0:0:0:
266,261,54589,1,8,0:0:0:0:
308,254,54678,1,0,0:0:0:0:
350,248,54768,6,0,L|341:191,1,56.9999982604981,0|0,3:2|3:2,0:0:0:0:
283,28,54947,1,8,0:0:0:0:
267,45,55036,1,0,0:0:0:0:
252,64,55125,2,0,L|305:84,1,56.9999982604981,0|0,3:2|3:2,0:0:0:0:
481,115,55304,1,8,0:0:0:0:
470,93,55393,1,0,3:2:0:0:
460,71,55483,2,0,L|415:107,1,56.9999982604981,2|0,0:0|3:2,0:0:0:0:
266,156,55661,2,0,L|213:136,1,56.9999982604981,10|0,0:0|0:0,0:0:0:0:
8,81,55840,5,0,3:2:0:0:
200,6,56018,1,10,0:0:0:0:
109,169,56197,1,0,3:2:0:0:
104,146,56286,1,0,3:2:0:0:
100,125,56375,2,0,L|90:58,1,56.9999982604981,10|0,0:0|0:0,0:0:0:0:
213,136,56554,1,0,3:2:0:0:
207,173,56643,1,0,3:2:0:0:
201,211,56732,1,10,0:0:0:0:
195,248,56822,2,0,B|156:263|120:289|120:289|132:262|122:233,1,113.999996520996,0|0,3:2|3:2,0:0:0:0:
41,194,57090,2,0,L|49:250,1,56.9999982604981,8|0,0:0|0:0,0:0:0:0:
91,384,57268,6,0,P|55:337|-1:348,1,113.999996520996,2|8,3:2|0:0,0:0:0:0:
202,255,57625,1,0,3:2:0:0:
202,255,57715,1,0,3:2:0:0:
202,255,57804,1,8,0:0:0:0:
303,384,57983,1,2,3:2:0:0:
265,378,58072,1,0,3:2:0:0:
227,372,58161,1,8,0:0:0:0:
190,366,58250,2,0,B|219:344|219:344|317:358,1,113.999996520996,0|0,3:2|3:2,0:0:0:0:
397,384,58518,2,0,L|384:303,1,56.9999982604981,8|0,0:0|0:0,0:0:0:0:
512,148,58697,5,2,3:2:0:0:
483,332,58875,1,8,0:0:0:0:
324,264,59054,1,0,3:2:0:0:
317,245,59143,1,0,3:2:0:0:
312,229,59233,2,0,L|380:239,1,56.9999982604981,10|0,0:0|0:0,0:0:0:0:
512,148,59411,2,0,L|444:138,1,56.9999982604981,6|0,3:2|0:0,0:0:0:0:
306,119,59590,5,8,3:2:0:0:
350,121,59679,1,8,3:2:0:0:
384,100,59768,1,8,3:3:0:0:
393,60,59858,1,8,3:3:0:0:
382,25,59947,1,8,3:3:0:0:
360,8,60036,1,8,3:3:0:0:
334,4,60125,5,8,3:2:0:0:
341,63,60215,1,8,3:2:0:0:
350,121,60304,1,8,3:2:0:0:
359,179,60393,1,8,3:2:0:0:
368,237,60483,1,8,3:2:0:0:
334,4,60661,5,10,3:2:0:0:
361,59,60751,1,8,3:2:0:0:
350,121,60840,1,8,3:2:0:0:
336,182,60929,1,8,3:2:0:0:
368,237,61019,1,8,3:2:0:0:
334,4,61197,5,0,3:2:0:0:
208,183,61553,5,8,3:2:0:0:
165,176,61642,1,8,3:2:0:0:
123,169,61733,1,8,3:2:0:0:
81,162,61822,1,8,3:2:0:0:
39,156,61910,1,8,3:2:0:0:
208,183,62089,5,8,3:2:0:0:
169,163,62178,1,8,3:2:0:0:
131,125,62268,1,8,3:2:0:0:
83,150,62358,1,8,3:2:0:0:
39,156,62448,1,8,3:2:0:0:
141,45,62625,5,0,3:2:0:0:
20,246,62984,5,8,3:2:0:0:
63,253,63073,1,8,3:2:0:0:
105,260,63162,1,8,3:2:0:0:
147,267,63251,1,8,3:2:0:0:
189,273,63341,1,8,3:2:0:0:
20,246,63518,5,8,3:2:0:0:
59,266,63609,1,8,3:2:0:0:
97,304,63697,1,8,3:2:0:0:
145,279,63786,1,8,3:2:0:0:
189,273,63875,1,8,3:2:0:0:
85,384,64054,5,0,3:2:0:0:
131,71,64411,5,8,3:2:0:0:
124,130,64501,1,8,3:2:0:0:
115,188,64590,1,8,3:2:0:0:
106,246,64679,1,8,3:2:0:0:
97,304,64769,1,8,3:2:0:0:
131,71,64947,5,8,3:2:0:0:
104,126,65037,1,8,3:2:0:0:
115,188,65126,1,8,3:2:0:0:
129,249,65215,1,8,3:2:0:0:
97,304,65305,1,8,3:2:0:0:
266,229,65483,5,8,3:3:0:0:
295,185,65572,1,8,3:3:0:0:
349,187,65661,1,8,3:3:0:0:
403,192,65750,1,8,3:3:0:0:
433,146,65840,5,8,3:2:0:0:
391,167,65929,1,8,3:2:0:0:
349,187,66018,1,8,3:2:0:0:
307,208,66108,1,8,3:2:0:0:
266,229,66197,1,8,3:2:0:0:
105,13,66375,5,8,3:2:0:0:
144,38,66464,1,8,3:2:0:0:
182,65,66553,1,8,3:2:0:0:
221,91,66643,1,8,3:2:0:0:
260,116,66732,1,8,3:2:0:0:
105,13,66911,5,0,3:2:0:0:
433,146,67268,5,8,3:2:0:0:
391,167,67357,1,8,3:2:0:0:
349,187,67446,1,8,3:2:0:0:
307,208,67536,1,8,3:2:0:0:
266,229,67625,1,8,3:2:0:0:
153,363,67804,5,8,3:2:0:0:
156,316,67893,1,8,3:2:0:0:
160,270,67982,1,8,3:2:0:0:
163,223,68072,1,8,3:2:0:0:
165,177,68161,1,8,3:2:0:0:
153,363,68340,5,0,3:2:0:0:
153,363,68697,6,0,B|162:297|91:246|26:273|26:273|36:258|36:258|13:196|24:110|125:80|171:110|171:110|205:152|262:150|262:150|209:163|175:217|199:262,1,712.5,4|0,3:2|0:0,0:0:0:0:
197,258,70125,6,0,P|220:281|249:285,1,56.9999982604981,8|0,0:0|0:0,0:0:0:0:
415,228,70304,1,8,3:2:0:0:
404,160,70393,1,8,3:2:0:0:
335,149,70482,1,8,3:2:0:0:
305,210,70572,1,8,3:2:0:0:
353,259,70661,1,8,3:2:0:0:
481,29,70840,6,0,L|413:36,1,66.5,2|0,0:0|0:0,0:0:0:0:
342,45,71554,5,6,3:2:0:0:
359,95,71643,1,0,0:0:0:0:
357,148,71732,1,8,0:2:0:0:
336,197,71821,1,0,0:0:0:0:
298,234,71911,1,0,0:0:0:0:
250,256,72000,1,0,0:0:0:0:
197,258,72089,1,8,0:2:0:0:
146,241,72178,1,0,0:0:0:0:
106,207,72268,1,0,0:0:0:0:
80,161,72357,1,0,0:0:0:0:
73,108,72446,1,8,0:2:0:0:
86,56,72536,1,0,0:0:0:0:
116,13,72625,2,0,P|154:33|181:73,1,61.7499971733095,2|0,0:0|0:0,0:0:0:0:
280,172,72804,5,10,0:2:0:0:
323,142,72893,1,0,0:0:0:0:
325,92,72982,1,0,0:0:0:0:
283,63,73071,1,0,0:0:0:0:
235,79,73161,2,0,P|213:104|171:121,1,61.7499971733095,10|0,0:2|0:0,0:0:0:0:
11,186,73340,1,0,0:0:0:0:
9,160,73429,1,0,0:0:0:0:
23,140,73518,2,0,P|55:145|91:173,1,61.7499971733095,10|0,0:2|0:0,0:0:0:0:
185,294,73697,1,0,0:0:0:0:
191,276,73786,1,0,0:0:0:0:
197,258,73875,5,10,0:2:0:0:
168,258,73965,1,2,0:0:0:0:
147,282,74054,1,2,0:0:0:0:
146,321,74143,1,2,0:0:0:0:
175,347,74233,1,10,0:2:0:0:
215,348,74322,5,2,0:0:0:0:
256,324,74411,1,2,0:0:0:0:
281,284,74500,1,0,0:0:0:0:
329,250,74590,1,10,0:2:0:0:
377,245,74679,1,2,0:0:0:0:
419,266,74768,1,2,0:0:0:0:
434,296,74858,1,2,0:0:0:0:
432,324,74947,1,10,0:2:0:0:
420,342,75036,5,0,0:0:0:0:
406,351,75125,1,0,0:0:0:0:
394,354,75215,1,0,0:0:0:0:
385,352,75304,1,8,0:2:0:0:
378,349,75393,1,0,0:0:0:0:
373,343,75483,2,0,L|385:266,1,61.7499971733095,2|0,0:0|0:0,0:0:0:0:
401,125,75661,5,10,0:2:0:0:
440,158,75750,1,0,0:0:0:0:
489,143,75839,1,0,0:0:0:0:
502,93,75928,1,0,0:0:0:0:
467,56,76018,2,0,L|400:66,1,61.7499971733095,10|0,0:2|0:0,0:0:0:0:
220,66,76197,5,0,0:0:0:0:
211,43,76286,1,0,0:0:0:0:
203,20,76375,2,0,L|270:30,1,61.7499971733095,10|0,0:2|0:0,0:0:0:0:
332,148,76554,1,0,0:0:0:0:
341,171,76643,1,0,0:0:0:0:
349,194,76732,2,0,L|282:184,1,61.7499971733095,10|0,0:2|0:0,0:0:0:0:
116,165,76911,1,0,0:0:0:0:
107,142,77000,1,0,0:0:0:0:
99,119,77089,2,0,L|166:129,1,61.7499971733095,10|0,0:2|0:0,0:0:0:0:
238,278,77268,5,6,3:2:0:0:
224,325,77358,1,2,0:0:0:0:
190,355,77447,1,10,0:2:0:0:
147,369,77536,1,2,0:0:0:0:
111,366,77625,1,2,0:0:0:0:
73,351,77715,1,2,0:0:0:0:
54,327,77804,1,10,0:2:0:0:
46,308,77893,1,2,0:0:0:0:
46,291,77983,5,2,0:0:0:0:
70,268,78072,1,2,0:0:0:0:
111,257,78161,1,10,0:2:0:0:
155,261,78250,1,2,0:0:0:0:
195,284,78340,1,2,0:0:0:0:
224,325,78429,1,2,0:0:0:0:
267,361,78518,1,10,0:2:0:0:
340,369,78608,1,2,0:0:0:0:
401,324,78697,5,0,0:0:0:0:
397,319,78786,1,0,0:0:0:0:
394,314,78875,1,8,0:2:0:0:
390,310,78964,1,0,0:0:0:0:
385,306,79054,1,0,0:0:0:0:
380,302,79143,1,0,0:0:0:0:
375,300,79232,1,8,0:2:0:0:
369,297,79321,1,0,0:0:0:0:
364,295,79412,5,2,0:0:0:0:
295,284,79501,1,0,0:0:0:0:
257,226,79590,1,8,0:2:0:0:
273,159,79679,1,0,0:0:0:0:
333,125,79769,1,0,0:0:0:0:
399,146,79858,1,0,0:0:0:0:
428,209,79947,2,0,P|398:217|367:208,1,61.7499971733095,10|0,0:2|0:0,0:0:0:0:
211,97,80125,5,2,0:0:0:0:
199,86,80215,1,2,0:0:0:0:
181,83,80304,1,10,0:2:0:0:
165,87,80393,1,2,0:0:0:0:
153,95,80483,5,2,0:0:0:0:
165,106,80572,1,2,0:0:0:0:
183,109,80661,1,10,0:2:0:0:
199,105,80750,1,2,0:0:0:0:
211,97,80840,5,2,0:0:0:0:
194,72,80929,1,2,0:0:0:0:
161,57,81018,1,10,0:2:0:0:
119,63,81108,1,2,0:0:0:0:
87,89,81197,1,2,0:0:0:0:
71,138,81286,1,2,0:0:0:0:
86,193,81375,1,10,0:2:0:0:
129,236,81465,1,2,0:0:0:0:
154,294,81554,1,2,0:0:0:0:
132,351,81643,1,2,0:0:0:0:
85,377,81733,1,10,0:2:0:0:
36,372,81822,1,2,0:0:0:0:
11,338,81911,5,2,0:0:0:0:
29,300,82000,1,2,0:0:0:0:
68,277,82090,1,10,0:2:0:0:
117,279,82179,1,2,0:0:0:0:
154,294,82268,1,2,0:0:0:0:
192,341,82358,1,10,0:2:0:0:
249,367,82447,1,10,0:3:0:0:
316,364,82536,1,10,0:3:0:0:
367,328,82625,1,10,0:3:0:0:
382,270,82715,1,10,0:3:0:0:
366,219,82804,1,10,0:3:0:0:
331,194,82893,1,10,0:3:0:0:
292,187,82983,6,0,B|274:242|207:237|207:237|231:212|228:181,1,142.500005435944,4|10,3:2|0:0,0:0:0:0:
288,41,83340,1,2,3:2:0:0:
288,41,83429,1,2,3:2:0:0:
288,41,83518,1,10,0:0:0:0:
158,170,83697,1,2,3:2:0:0:
158,170,83786,1,2,3:2:0:0:
158,170,83875,2,0,L|170:93,1,71.2500027179719,10|0,0:0|0:0,0:0:0:0:
29,25,84054,2,0,L|41:102,1,71.2500027179719,2|0,3:2|0:0,0:0:0:0:
68,277,84233,1,10,0:0:0:0:
245,120,84411,5,0,3:2:0:0:
21,186,84590,1,10,0:0:0:0:
228,282,84768,1,2,3:2:0:0:
228,282,84858,1,2,3:2:0:0:
228,282,84947,1,8,0:0:0:0:
57,347,85125,6,0,P|63:310|71:254,1,71.2500027179719,2|0,0:0|3:2,0:0:0:0:
180,58,85304,2,0,P|144:54|110:47,1,71.2500027179719,10|0,0:0|0:0,0:0:0:0:
21,186,85483,2,0,P|52:163|78:144,1,71.2500027179719,2|2,3:2|0:0,0:0:0:0:
271,12,85661,2,0,P|292:43|326:88,1,71.2500027179719,10|0,0:0|0:0,0:0:0:0:
401,254,85840,6,0,B|424:216|470:203|470:203|426:209|402:200,1,142.500005435944,4|10,3:2|0:0,0:0:0:0:
344,309,86197,2,0,P|372:332|427:326,1,71.2500027179719,2|2,3:2|0:0,0:0:0:0:
418,128,86375,2,0,P|383:131|356:153,1,71.2500027179719,8|2,0:0|0:0,0:0:0:0:
228,282,86554,2,0,P|201:304|166:307,1,71.2500027179719,2|0,3:2|3:2,0:0:0:0:
78,144,86733,2,0,P|112:147|139:169,1,71.2500027179719,10|0,0:0|0:0,0:0:0:0:
95,361,86911,1,2,3:2:0:0:
95,361,87000,1,2,0:0:0:0:
95,361,87090,2,0,B|84:292|84:292|88:286|88:286|76:210,1,142.500005435944,8|4,0:0|3:2,0:0:0:0:
53,18,87447,5,8,0:0:0:0:
229,168,87625,1,2,3:2:0:0:
229,168,87715,1,2,0:0:0:0:
229,168,87804,1,8,0:0:0:0:
78,144,87983,2,0,P|41:149|0:156,1,71.2500027179719,0|0,3:2|0:0,0:0:0:0:
161,12,88161,2,0,P|183:41|206:68,1,71.2500027179719,8|0,0:0|0:0,0:0:0:0:
418,128,88340,1,8,3:2:0:0:
395,82,88429,1,8,3:2:0:0:
350,65,88518,1,8,3:3:0:0:
304,72,88608,1,8,3:3:0:0:
272,101,88697,6,0,P|298:128|308:174,1,71.2500027179719,6|0,3:2|0:0,0:0:0:0:
210,314,88875,1,8,0:0:0:0:
407,252,89054,1,0,3:2:0:0:
407,252,89143,1,0,3:2:0:0:
407,252,89233,2,0,B|365:237|337:267|337:267|318:314|272:313,1,142.500005435944,10|0,0:0|3:2,0:0:0:0:
208,235,89500,1,0,3:2:0:0:
208,235,89590,2,0,B|216:211|213:177|213:177|229:233|271:242,1,142.500005435944,10|0,3:2|3:2,0:0:0:0:
389,330,89947,1,10,0:0:0:0:
380,121,90125,5,0,3:2:0:0:
210,314,90304,1,8,0:0:0:0:
507,363,90483,1,0,3:2:0:0:
501,327,90572,1,0,3:2:0:0:
495,292,90661,1,8,0:0:0:0:
490,257,90750,1,0,3:2:0:0:
480,219,90840,6,0,L|402:247,1,71.2500027179719,2|0,0:0|3:2,0:0:0:0:
325,77,91017,1,8,0:0:0:0:
325,77,91107,2,0,L|389:128,1,71.2500027179719,2|0,0:0|3:2,0:0:0:0:
288,280,91285,1,0,3:2:0:0:
288,280,91375,2,0,L|301:197,1,71.2500027179719,10|0,0:0|0:0,0:0:0:0:
508,4,91554,6,0,L|482:166,1,142.500005435944,2|8,3:2|0:0,0:0:0:0:
188,110,91911,1,2,3:2:0:0:
188,110,92000,1,0,3:2:0:0:
188,110,92090,2,0,B|192:37|257:37|257:37|243:66|256:88,1,142.500005435944,10|0,0:0|3:2,0:0:0:0:
178,195,92358,1,0,3:2:0:0:
178,195,92447,2,0,P|143:188|117:157,1,71.2500027179719,8|0,0:0|0:0,0:0:0:0:
9,23,92625,1,0,3:2:0:0:
50,270,92804,1,8,0:0:0:0:
132,56,92983,5,8,3:2:0:0:
171,33,93072,1,8,3:2:0:0:
216,34,93161,1,8,3:3:0:0:
250,64,93250,1,8,3:3:0:0:
275,107,93340,1,8,3:3:0:0:
321,132,93429,1,8,3:3:0:0:
377,127,93518,2,0,B|428:131|471:78|436:19|436:19|425:58|385:66,1,213.750008153916,6|0,3:2|0:0,0:0:0:0:
339,4,93875,2,0,L|363:0,2,23.75,2|2|2,0:0|0:0|0:0,0:0:0:0:
82,317,94411,6,0,B|74:349|39:372|39:372|95:364|137:317|137:317|142:322|142:322|169:276|240:274|240:274|202:293|187:327,1,380,6|0,3:2|0:0,0:0:0:0:
262,348,95304,1,2,0:0:0:0:
9,303,95483,1,2,0:0:0:0:
102,237,95661,6,0,B|149:202|146:147|146:147|124:170|87:167,1,142.5,2|0,0:0|0:0,0:0:0:0:
48,187,96018,2,0,B|-20:138|-19:61|36:32|36:32|97:47|90:108,1,285,2|0,0:0|0:0,0:0:0:0:
9,303,96733,2,0,P|19:281|29:260,2,47.5,2|2|2,0:0|0:0|0:0,0:0:0:0:
90,100,97268,6,0,B|105:180|206:198|273:139|273:79|273:79|234:72|219:29,1,332.5,6|0,3:2|0:0,0:0:0:0:
288,4,97983,1,2,3:2:0:0:
420,282,98161,1,0,3:2:0:0:
420,282,98518,6,0,B|387:234|420:188|420:188|465:155|453:104,1,190,6|0,3:2|3:2,0:0:0:0:
430,76,98965,1,0,3:2:0:0:
430,76,99054,1,8,0:0:0:0:
430,76,99411,5,2,0:0:0:0:
508,280,99590,1,8,3:3:0:0:
499,318,99679,1,8,3:3:0:0:
475,349,99768,1,8,3:3:0:0:
440,366,99857,1,8,3:3:0:0:
400,366,99947,1,8,3:3:0:0:
365,350,100036,1,8,3:3:0:0:
340,319,100125,6,0,B|316:277|334:233|334:233|317:267|292:283,1,142.500005435944,6|8,3:2|0:0,0:0:0:0:
264,347,100393,1,0,0:0:0:0:
264,347,100483,2,0,L|145:328,1,113.999996520996,0|8,3:2|0:0,0:0:0:0:
61,325,100750,1,0,0:0:0:0:
61,325,100840,2,0,P|115:299|118:237,1,113.999996520996,2|8,3:2|0:0,0:0:0:0:
30,191,101108,1,0,3:2:0:0:
30,191,101197,2,0,L|42:270,1,56.9999982604981,0|0,0:0|3:2,0:0:0:0:
186,207,101375,2,0,P|160:181|122:177,1,56.9999982604981,10|0,0:0|0:0,0:0:0:0:
151,329,101554,5,0,3:2:0:0:
302,275,101733,2,0,L|279:134,1,113.999996520996,8|0,0:0|3:2,0:0:0:0:
267,77,102000,1,0,3:2:0:0:
267,77,102090,2,0,L|195:88,1,56.9999982604981,8|0,0:0|0:0,0:0:0:0:
13,65,102268,1,0,3:2:0:0:
6,32,102357,1,0,3:2:0:0:
27,7,102446,1,8,0:0:0:0:
59,0,102536,2,0,L|79:131,1,113.999996520996,0|0,3:2|3:2,0:0:0:0:
27,201,102804,6,0,B|12:180|12:180|42:178,1,56.9999982604981,10|0,0:0|0:0,0:0:0:0:
246,254,102983,6,0,B|268:234|268:234|241:223,1,56.9999982604981,2|8,3:2|0:0,0:0:0:0:
35,312,103340,2,0,B|27:340|27:340|53:333,1,56.9999982604981,2|0,3:2|3:2,0:0:0:0:
172,141,103518,6,0,B|160:113|160:113|142:136,1,56.9999982604981,10|0,0:0|3:2,0:0:0:0:
162,359,103875,2,0,B|187:374|187:374|187:348,1,56.9999982604981,10|0,0:0|3:2,0:0:0:0:
42,178,104054,6,0,B|12:180|12:180|27:201,1,56.9999982604981,2|8,0:0|0:0,0:0:0:0:
134,244,104411,5,0,3:2:0:0:
340,115,104590,1,8,0:0:0:0:
193,30,104768,1,0,3:2:0:0:
193,30,104858,1,0,3:2:0:0:
193,30,104947,2,0,L|203:97,1,56.9999982604981,10|0,0:0|0:0,0:0:0:0:
331,171,105125,2,0,L|341:104,1,56.9999982604981,6|0,3:2|0:0,0:0:0:0:
493,13,105304,5,10,0:0:0:0:
484,73,105393,1,8,0:0:0:0:
475,134,105482,1,10,0:3:0:0:
466,186,105571,1,8,0:3:0:0:
459,232,105661,1,10,0:3:0:0:
453,268,105750,1,8,0:3:0:0:
448,294,105840,6,0,L|384:283,1,56.9999982604981,6|0,3:2|0:0,0:0:0:0:
204,248,106018,2,0,B|215:289|271:283|271:283|257:267|254:243,1,113.999996520996,8|0,0:0|3:2,0:0:0:0:
330,170,106285,1,0,3:2:0:0:
330,170,106375,2,0,L|321:226,1,56.9999982604981,8|0,0:0|0:0,0:0:0:0:
247,376,106554,5,0,3:2:0:0:
209,370,106643,1,0,3:2:0:0:
171,364,106732,1,8,0:0:0:0:
134,358,106822,2,0,L|146:279,1,56.9999982604981,0|0,3:2|0:0,0:0:0:0:
24,178,107000,1,0,3:2:0:0:
29,206,107090,2,0,L|41:285,1,56.9999982604981,8|0,0:0|0:0,0:0:0:0:
100,141,107268,6,0,P|83:112|45:102,1,56.9999982604981,2|0,3:2|0:0,0:0:0:0:
6,14,107447,2,0,L|69:24,1,56.9999982604981,8|2,0:0|0:0,0:0:0:0:
191,101,107625,1,0,3:2:0:0:
191,101,107715,1,0,3:2:0:0:
191,101,107804,2,0,L|254:90,1,56.9999982604981,10|0,0:0|0:0,0:0:0:0:
365,9,107983,2,0,L|302:-2,1,56.9999982604981,0|0,3:2|3:2,0:0:0:0:
401,89,108161,1,8,0:0:0:0:
401,89,108250,2,0,P|450:60|453:-9,1,113.999996520996,0|0,3:2|3:2,0:0:0:0:
318,77,108518,2,0,L|327:139,1,56.9999982604981,8|0,0:0|0:0,0:0:0:0:
385,287,108697,6,0,L|404:161,1,113.999996520996,2|8,3:2|0:0,0:0:0:0:
483,358,109054,1,0,3:2:0:0:
483,358,109143,1,0,3:2:0:0:
483,358,109233,1,8,0:0:0:0:
288,266,109411,1,2,3:2:0:0:
313,293,109500,1,0,3:2:0:0:
350,300,109589,1,8,0:0:0:0:
385,287,109679,2,0,L|394:226,1,56.9999982604981,0|0,3:2|0:0,0:0:0:0:
227,174,109858,1,0,3:2:0:0:
206,185,109947,2,0,L|215:245,1,56.9999982604981,8|0,0:0|0:0,0:0:0:0:
216,384,110125,6,0,P|176:343|106:354,1,113.999996520996,2|8,3:2|0:0,0:0:0:0:
295,273,110483,1,0,3:2:0:0:
295,273,110572,1,0,3:2:0:0:
295,273,110661,1,8,0:0:0:0:
122,344,110840,1,2,3:2:0:0:
127,306,110929,1,0,3:2:0:0:
133,268,111018,1,8,0:0:0:0:
139,231,111108,2,0,B|83:239|83:239|79:244|79:244|12:254,1,113.999996520996,0|0,3:2|3:2,0:0:0:0:
162,152,111375,2,0,P|188:162|206:185,1,56.9999982604981,8|0,0:0|0:0,0:0:0:0:
5,182,111554,5,6,3:2:0:0:
11,139,111643,1,0,0:0:0:0:
18,97,111732,1,8,0:0:0:0:
25,55,111821,1,0,0:0:0:0:
31,13,111911,6,0,L|98:23,1,56.9999982604981,0|0,3:2|3:2,0:0:0:0:
211,127,112090,1,8,0:0:0:0:
186,139,112179,1,0,0:0:0:0:
162,152,112268,2,0,L|171:95,1,56.9999982604981,0|0,3:2|3:2,0:0:0:0:
268,240,112447,1,8,0:0:0:0:
293,252,112536,1,0,3:2:0:0:
317,265,112625,2,0,L|307:208,1,56.9999982604981,2|0,0:0|3:2,0:0:0:0:
315,64,112804,2,0,L|305:120,1,56.9999982604981,10|0,0:0|0:0,0:0:0:0:
273,333,112983,5,0,3:2:0:0:
472,178,113161,1,8,0:0:0:0:
500,373,113340,1,0,3:2:0:0:
476,368,113429,1,0,3:2:0:0:
450,364,113518,2,0,L|374:352,1,56.9999982604981,8|0,0:0|0:0,0:0:0:0:
183,297,113697,1,0,3:2:0:0:
199,263,113786,1,0,3:2:0:0:
230,242,113875,1,8,0:0:0:0:
268,240,113965,2,0,B|282:270|306:285|306:285|268:290|251:320,1,113.999996520996,0|0,3:2|3:2,0:0:0:0:
151,370,114233,2,0,P|121:349|109:310,1,56.9999982604981,8|0,0:0|0:0,0:0:0:0:
0,259,114411,6,0,L|125:239,1,113.999996520996,2|8,3:2|0:0,0:0:0:0:
266,149,114679,1,0,0:0:0:0:
285,167,114768,2,0,L|172:149,1,113.999996520996,2|8,3:2|0:0,0:0:0:0:
19,57,115036,1,0,0:0:0:0:
0,75,115125,2,0,L|113:57,1,113.999996520996,2|8,3:2|0:0,0:0:0:0:
266,149,115393,5,0,3:2:0:0:
285,167,115483,2,0,L|227:157,1,56.9999982604981,2|0,0:0|3:2,0:0:0:0:
0,75,115661,2,0,L|57:65,1,56.9999982604981,10|0,0:0|0:0,0:0:0:0:
268,34,115840,5,2,3:2:0:0:
58,163,116018,1,8,3:2:0:0:
195,0,116197,1,0,3:2:0:0:
190,30,116286,1,0,3:2:0:0:
185,60,116375,2,0,L|173:141,1,56.9999982604981,10|0,0:0|0:0,0:0:0:0:
150,272,116554,2,0,P|171:250|219:248,1,56.9999982604981,6|0,3:2|0:0,0:0:0:0:
351,340,116733,5,10,3:2:0:0:
405,345,116822,1,8,3:2:0:0:
445,317,116911,1,10,3:3:0:0:
453,276,117000,1,8,3:3:0:0:
436,233,117090,1,10,3:3:0:0:
403,213,117179,1,8,3:3:0:0:
371,213,117268,5,8,3:2:0:0:
315,227,117357,1,8,3:2:0:0:
260,242,117446,1,8,3:2:0:0:
205,257,117535,1,8,3:2:0:0:
150,272,117625,1,8,3:2:0:0:
371,213,117804,5,8,3:2:0:0:
320,247,117893,1,8,3:2:0:0:
260,242,117982,1,8,3:2:0:0:
199,233,118071,1,8,3:2:0:0:
150,272,118161,1,8,3:2:0:0:
371,213,118340,5,0,3:2:0:0:
21,109,118697,5,8,3:2:0:0:
77,123,118786,1,8,3:2:0:0:
132,138,118875,1,8,3:2:0:0:
187,153,118964,1,8,3:2:0:0:
242,168,119054,1,8,3:2:0:0:
21,109,119233,5,8,3:2:0:0:
72,143,119322,1,8,3:2:0:0:
132,138,119411,1,8,3:2:0:0:
193,129,119500,1,8,3:2:0:0:
242,168,119590,1,8,3:2:0:0:
21,109,119769,5,0,3:2:0:0:
374,4,120126,5,8,3:2:0:0:
318,18,120215,1,8,3:2:0:0:
263,33,120304,1,8,3:2:0:0:
208,48,120393,1,8,3:2:0:0:
153,63,120483,1,8,3:2:0:0:
374,4,120662,5,8,3:2:0:0:
323,38,120751,1,8,3:2:0:0:
263,33,120840,1,8,3:2:0:0:
202,24,120929,1,8,3:2:0:0:
153,63,121019,1,8,3:2:0:0:
374,4,121198,5,0,3:2:0:0:
215,138,121554,1,8,3:2:0:0:
220,103,121643,1,8,3:2:0:0:
360,188,121822,1,8,3:2:0:0:
365,223,121911,1,8,3:2:0:0:
179,214,122090,5,8,3:2:0:0:
243,215,122179,1,8,3:2:0:0:
285,169,122268,1,8,3:2:0:0:
325,120,122358,1,8,3:2:0:0:
389,119,122447,5,8,3:3:0:0:
336,142,122536,1,8,3:3:0:0:
285,169,122625,1,8,3:3:0:0:
232,192,122715,1,8,3:3:0:0:
179,214,122804,1,8,3:3:0:0:
487,315,122983,5,8,3:2:0:0:
487,270,123072,1,8,3:2:0:0:
459,234,123161,1,8,3:2:0:0:
416,224,123250,1,8,3:2:0:0:
375,243,123340,1,8,3:2:0:0:
504,312,123519,5,8,3:2:0:0:
504,256,123608,1,8,3:2:0:0:
470,211,123697,1,8,3:2:0:0:
415,198,123786,1,8,3:2:0:0:
365,222,123876,1,8,3:2:0:0:
379,365,124054,5,0,3:2:0:0:
111,230,124412,5,8,3:2:0:0:
111,185,124501,1,8,3:2:0:0:
139,149,124590,1,8,3:2:0:0:
182,139,124679,1,8,3:2:0:0:
223,158,124769,1,8,3:2:0:0:
94,227,124948,5,8,3:2:0:0:
94,171,125037,1,8,3:2:0:0:
128,126,125126,1,8,3:2:0:0:
183,113,125215,1,8,3:2:0:0:
233,137,125305,1,8,3:2:0:0:
219,280,125483,5,0,3:2:0:0:
494,70,125840,6,0,P|434:53|381:97,1,113.999996520996,4|0,3:2|0:0,0:0:0:0:
321,115,126108,2,0,P|273:143|221:125,1,113.999996520996,0|0,3:2|0:0,0:0:0:0:
195,57,126375,2,0,P|227:51|253:60,1,56.9999982604981,0|0,3:2|0:0,0:0:0:0:
447,134,126554,6,0,B|467:175|467:175|445:267,1,113.999996520996,4|0,3:2|0:0,0:0:0:0:
294,246,126822,2,0,B|319:208|319:208|410:181,1,113.999996520996,0|0,3:2|0:0,0:0:0:0:
468,323,127090,2,0,L|390:317,1,56.9999982604981,0|0,3:2|0:0,0:0:0:0:
207,298,127268,5,10,3:2:0:0:
214,285,127358,1,2,0:0:0:0:
229,281,127447,1,2,0:0:0:0:
243,295,127536,1,2,0:0:0:0:
232,322,127625,1,2,0:0:0:0:
197,333,127715,1,2,0:0:0:0:
159,319,127804,1,2,0:0:0:0:
149,282,127893,1,2,0:0:0:0:
162,242,127983,1,2,0:0:0:0:
199,215,128072,1,2,0:0:0:0:
243,195,128161,1,2,0:0:0:0:
267,143,128250,1,2,0:0:0:0:
257,79,128340,1,10,3:2:0:0:
203,38,128429,1,10,0:3:0:0:
134,47,128518,1,10,0:3:0:0:
99,106,128608,1,10,0:3:0:0:
113,176,128697,5,6,3:2:0:0:
136,128,128786,1,0,0:0:0:0:
176,93,128875,1,8,0:2:0:0:
227,78,128964,1,0,0:0:0:0:
280,84,129054,1,0,0:0:0:0:
325,111,129143,1,0,0:0:0:0:
357,154,129232,1,8,0:2:0:0:
368,206,129321,1,0,0:0:0:0:
358,258,129411,1,0,0:0:0:0:
328,302,129500,1,0,0:0:0:0:
282,329,129589,1,8,0:2:0:0:
230,337,129679,1,0,0:0:0:0:
179,323,129768,2,0,P|197:292|231:280,1,61.7499971733095,2|0,0:0|0:0,0:0:0:0:
466,308,129947,5,10,0:2:0:0:
456,256,130036,1,0,0:0:0:0:
419,218,130125,1,0,0:0:0:0:
368,206,130214,1,0,0:0:0:0:
318,224,130304,2,0,L|329:152,1,61.7499971733095,10|0,0:2|0:0,0:0:0:0:
272,31,130483,1,0,0:0:0:0:
260,52,130572,1,0,0:0:0:0:
252,70,130661,2,0,L|325:59,1,61.7499971733095,10|0,0:2|0:0,0:0:0:0:
475,52,130840,1,0,0:0:0:0:
484,41,130929,1,0,0:0:0:0:
492,32,131018,5,10,0:2:0:0:
462,17,131108,1,2,0:0:0:0:
419,29,131197,1,2,0:0:0:0:
399,68,131286,1,2,0:0:0:0:
407,122,131375,1,10,0:2:0:0:
458,146,131465,1,2,0:0:0:0:
505,183,131554,5,2,0:0:0:0:
512,247,131643,1,0,0:0:0:0:
486,303,131733,1,10,0:2:0:0:
431,330,131822,1,2,0:0:0:0:
371,313,131911,1,2,0:0:0:0:
339,266,132000,1,2,0:0:0:0:
293,250,132090,1,10,0:2:0:0:
249,262,132179,1,0,0:0:0:0:
223,297,132268,5,0,0:0:0:0:
220,334,132358,1,0,0:0:0:0:
234,363,132447,1,8,0:2:0:0:
256,376,132536,1,0,0:0:0:0:
274,378,132625,2,0,P|291:337|286:310,1,61.7499971733095,2|0,0:0|0:0,0:0:0:0:
176,236,132804,5,10,0:2:0:0:
130,260,132893,1,0,0:0:0:0:
85,236,132982,1,0,0:0:0:0:
81,185,133071,1,0,0:0:0:0:
120,153,133161,2,0,L|192:164,1,61.7499971733095,10|0,0:2|0:0,0:0:0:0:
319,62,133340,5,0,0:0:0:0:
328,36,133429,1,0,0:0:0:0:
336,13,133518,2,0,L|264:24,1,61.7499971733095,10|0,0:2|0:0,0:0:0:0:
59,70,133697,1,0,0:0:0:0:
38,86,133786,1,0,0:0:0:0:
19,96,133875,2,0,L|32:18,1,61.7499971733095,10|0,0:2|0:0,0:0:0:0:
181,162,134054,1,0,0:0:0:0:
202,178,134143,1,0,0:0:0:0:
221,188,134232,2,0,L|208:110,1,61.7499971733095,10|0,0:2|0:0,0:0:0:0:
23,263,134411,5,6,3:2:0:0:
50,312,134500,1,2,0:0:0:0:
91,335,134590,1,10,0:2:0:0:
138,337,134679,1,2,0:0:0:0:
173,324,134768,1,2,0:0:0:0:
198,303,134858,1,2,0:0:0:0:
223,289,134947,1,10,0:2:0:0:
248,287,135036,1,2,0:0:0:0:
263,295,135125,5,2,0:0:0:0:
260,314,135215,1,2,0:0:0:0:
238,329,135304,1,10,0:2:0:0:
204,332,135393,1,2,0:0:0:0:
173,324,135483,1,2,0:0:0:0:
145,277,135572,1,2,0:0:0:0:
158,211,135661,1,10,0:2:0:0:
217,181,135750,1,2,0:0:0:0:
283,200,135841,5,0,0:0:0:0:
281,211,135930,1,0,0:0:0:0:
277,222,136019,1,8,0:2:0:0:
271,233,136108,1,0,0:0:0:0:
263,241,136198,1,0,0:0:0:0:
253,248,136287,1,0,0:0:0:0:
242,253,136376,1,8,0:2:0:0:
231,255,136465,1,0,0:0:0:0:
219,255,136554,5,2,0:0:0:0:
226,323,136643,1,0,0:0:0:0:
284,361,136732,1,8,0:2:0:0:
350,342,136821,1,0,0:0:0:0:
379,280,136911,1,0,0:0:0:0:
349,217,137000,1,0,0:0:0:0:
283,200,137090,2,0,L|295:281,1,61.7499971733095,10|0,0:2|0:0,0:0:0:0:
424,348,137268,5,2,0:0:0:0:
439,361,137358,1,2,0:0:0:0:
457,365,137447,1,10,0:2:0:0:
477,360,137536,1,2,0:0:0:0:
488,348,137625,1,2,0:0:0:0:
492,326,137715,1,2,0:0:0:0:
483,306,137804,1,10,0:2:0:0:
461,288,137893,1,2,0:0:0:0:
445,256,137983,5,2,0:0:0:0:
461,223,138072,1,2,0:0:0:0:
500,223,138161,1,10,0:2:0:0:
512,252,138250,1,2,0:0:0:0:
500,282,138340,1,2,0:0:0:0:
461,288,138429,1,2,0:0:0:0:
417,260,138518,1,10,0:2:0:0:
413,206,138608,1,2,0:0:0:0:
440,165,138697,5,2,0:0:0:0:
488,140,138787,1,2,0:0:0:0:
512,90,138876,1,10,0:2:0:0:
497,36,138965,1,2,0:0:0:0:
451,5,139055,1,2,0:0:0:0:
397,9,139144,1,2,0:0:0:0:
357,48,139233,1,10,0:2:0:0:
353,103,139322,1,2,0:0:0:0:
383,148,139412,5,2,0:0:0:0:
413,206,139500,1,10,0:2:0:0:
386,269,139590,1,10,0:3:0:0:
319,280,139679,1,10,0:3:0:0:
274,228,139768,1,10,0:3:0:0:
223,187,139858,1,10,0:3:0:0:
172,178,139947,1,10,0:3:0:0:
128,190,140036,1,10,0:3:0:0:
103,216,140125,6,0,B|93:147|93:147|87:142|87:142|77:70,1,142.500005435944,4|10,3:2|0:0,0:0:0:0:
15,216,140483,1,2,3:2:0:0:
15,216,140572,1,2,3:2:0:0:
15,216,140661,1,10,0:0:0:0:
139,29,140840,1,2,3:2:0:0:
139,29,140929,1,2,3:2:0:0:
139,29,141018,2,0,P|112:4|77:0,1,71.2500027179719,10|0,0:0|0:0,0:0:0:0:
103,216,141197,2,0,L|177:204,1,71.2500027179719,2|0,3:2|0:0,0:0:0:0:
406,172,141375,1,10,0:0:0:0:
221,48,141554,5,0,3:2:0:0:
276,329,141733,1,10,0:0:0:0:
411,98,141911,1,2,3:2:0:0:
411,98,142000,1,2,3:2:0:0:
411,98,142090,6,0,P|374:106|332:110,1,71.2500027179719,8|0,0:0|3:2,0:0:0:0:
103,216,142268,2,0,P|133:230|165:249,1,71.2500027179719,2|0,0:0|3:2,0:0:0:0:
419,313,142447,2,0,P|401:280|387:249,1,71.2500027179719,10|0,0:0|0:0,0:0:0:0:
221,48,142625,2,0,P|215:87|209:118,1,71.2500027179719,2|2,3:2|0:0,0:0:0:0:
226,380,142804,2,0,P|250:353|276:330,1,71.2500027179719,10|0,0:0|0:0,0:0:0:0:
411,98,142983,6,0,B|365:84|332:57|332:57|343:89|341:117,1,142.500005435944,4|10,3:2|0:0,0:0:0:0:
419,313,143340,2,0,P|401:280|387:249,1,71.2500027179719,2|2,3:2|0:0,0:0:0:0:
103,216,143519,2,0,P|133:230|165:249,1,71.2500027179719,8|2,0:0|0:0,0:0:0:0:
226,380,143697,2,0,P|251:353|276:330,1,71.2500027179719,2|0,3:2|3:2,0:0:0:0:
221,48,143875,2,0,P|215:82|209:118,1,71.2500027179719,10|0,0:0|0:0,0:0:0:0:
21,233,144054,1,2,3:2:0:0:
21,233,144143,1,2,0:0:0:0:
21,233,144233,2,0,P|43:157|114:138,1,142.500005435944,8|4,0:0|3:2,0:0:0:0:
278,209,144590,5,8,0:0:0:0:
85,49,144768,1,2,3:2:0:0:
85,49,144858,1,2,0:0:0:0:
85,49,144947,1,8,0:0:0:0:
114,286,145125,2,0,L|101:206,1,71.2500027179719,0|0,3:2|0:0,0:0:0:0:
221,48,145304,2,0,L|208:127,1,71.2500027179719,8|0,0:0|0:0,0:0:0:0:
187,345,145483,1,8,3:2:0:0:
226,380,145572,1,8,3:2:0:0:
278,380,145661,1,8,3:3:0:0:
317,345,145750,1,8,3:3:0:0:
324,293,145840,6,0,L|244:305,1,71.2500027179719,6|0,3:2|0:0,0:0:0:0:
53,334,146018,1,8,0:0:0:0:
33,94,146197,1,0,3:2:0:0:
33,94,146286,1,0,3:2:0:0:
33,94,146375,2,0,B|39:132|16:172|16:172|41:138|87:136,1,142.500005435944,10|0,0:0|3:2,0:0:0:0:
209,118,146643,1,0,3:2:0:0:
209,118,146733,2,0,B|198:184|198:184|193:191|193:191|181:264,1,142.500005435944,10|0,3:2|3:2,0:0:0:0:
53,334,147090,1,10,0:0:0:0:
103,68,147268,5,0,3:2:0:0:
253,303,147447,1,8,0:0:0:0:
15,248,147625,1,0,3:2:0:0:
50,208,147715,1,0,3:2:0:0:
101,196,147804,1,8,0:0:0:0:
151,214,147893,1,0,3:2:0:0:
182,257,147983,6,0,L|193:186,1,71.2500027179719,2|0,0:0|3:2,0:0:0:0:
370,182,148161,1,8,0:0:0:0:
370,182,148250,2,0,L|303:207,1,71.2500027179719,2|0,0:0|3:2,0:0:0:0:
212,57,148429,1,0,3:2:0:0:
212,57,148518,2,0,L|267:102,1,71.2500027179719,10|0,0:0|0:0,0:0:0:0:
449,184,148697,6,0,P|424:119|359:100,1,142.500005435944,2|8,3:2|0:0,0:0:0:0:
253,303,149054,1,2,3:2:0:0:
253,303,149143,1,0,3:2:0:0:
253,303,149233,2,0,B|310:316|310:316|330:343|330:343|398:356,1,142.500005435944,10|0,0:0|3:2,0:0:0:0:
453,263,149500,1,0,3:2:0:0:
453,263,149590,2,0,L|383:276,1,71.2500027179719,8|0,0:0|0:0,0:0:0:0:
158,323,149768,1,0,3:2:0:0:
370,182,149947,1,8,0:0:0:0:
83,134,150125,5,8,3:2:0:0:
253,303,150304,1,8,3:3:0:0:
224,253,150393,1,8,3:3:0:0:
177,233,150483,1,8,3:3:0:0:
130,236,150572,1,8,3:3:0:0:
89,258,150661,1,6,3:2:0:0:
69,290,150750,1,8,0:0:0:0:
59,325,150840,5,10,0:0:0:0:
158,323,150959,5,2,0:0:0:0:
249,364,151078,5,2,0:0:0:0:
350,333,151197,5,8,0:0:0:0:
343,281,151286,1,8,0:0:0:0:
336,229,151375,1,8,0:0:0:0:
329,177,151465,1,8,0:0:0:0:
322,125,151554,1,2,3:2:0:0:
322,125,159590,6,0,B|282:119|253:138|253:138|281:118|283:88,1,118.75,2|0,0:0|0:0,0:0:0:0:
214,22,160125,6,0,B|267:57|253:138|253:138|241:129|241:129|153:150|166:244,1,285,4|0,3:2|0:0,0:0:0:0:
254,300,160840,2,0,B|294:352|354:316|354:316|359:240|284:186|219:226,1,285,4|0,3:2|0:0,0:0:0:0:
33,267,161554,6,0,B|34:237|-2:218|-2:218|61:204|86:268|86:268|91:264|91:264|120:323|187:308,1,285,4|0,3:2|0:0,0:0:0:0:
400,178,162268,2,0,L|331:196,1,47.5,4|0,3:2|0:0,0:0:0:0:
164,229,162447,5,8,0:3:0:0:
170,182,162536,1,8,0:3:0:0:
200,146,162625,1,8,0:3:0:0:
243,130,162715,1,8,0:3:0:0:
255,102,162804,1,8,0:3:0:0:
245,56,162893,1,8,0:3:0:0:
214,22,162983,5,6,3:2:0:0:
212,56,163072,1,2,0:0:0:0:
225,87,163161,1,10,0:0:0:0:
255,102,163250,1,2,0:0:0:0:
289,99,163340,1,2,3:2:0:0:
329,74,163429,1,2,3:2:0:0:
372,38,163518,1,10,0:0:0:0:
437,34,163608,1,2,0:0:0:0:
480,87,163697,5,2,3:2:0:0:
443,106,163786,1,2,3:2:0:0:
427,140,163875,1,10,0:0:0:0:
430,172,163965,1,2,3:2:0:0:
443,190,164054,1,2,3:2:0:0:
477,224,164143,1,2,3:2:0:0:
484,280,164233,1,10,0:0:0:0:
442,322,164322,1,2,0:0:0:0:
384,306,164411,5,2,3:2:0:0:
400,289,164500,1,2,0:0:0:0:
402,274,164590,1,10,0:0:0:0:
391,258,164679,1,2,0:0:0:0:
370,258,164768,1,2,3:2:0:0:
342,278,164858,1,2,3:2:0:0:
312,324,164947,1,10,0:0:0:0:
260,349,165036,1,2,0:0:0:0:
203,327,165125,5,2,3:2:0:0:
256,283,165214,1,2,3:2:0:0:
254,214,165303,1,10,0:0:0:0:
198,174,165392,1,2,0:0:0:0:
132,194,165482,1,2,3:2:0:0:
66,212,165573,1,2,0:0:0:0:
9,172,165662,1,10,0:0:0:0:
8,104,165751,1,2,0:0:0:0:
61,61,165840,6,0,B|163:78|163:78|188:120,1,142.500005435944,2|8,3:2|0:0,0:0:0:0:
254,214,166108,2,0,B|152:197|152:197|127:155,1,142.500005435944,2|0,0:0|3:2,0:0:0:0:
183,112,166375,5,10,0:0:0:0:
175,155,166465,1,2,0:0:0:0:
132,163,166554,1,2,3:2:0:0:
113,131,166643,1,2,3:2:0:0:
139,98,166733,1,10,0:0:0:0:
175,155,166911,5,2,3:2:0:0:
132,163,167000,1,2,0:0:0:0:
113,131,167089,1,10,0:0:0:0:
139,98,167179,1,2,0:0:0:0:
183,112,167268,1,2,3:2:0:0:
359,197,167447,5,10,0:0:0:0:
389,192,167536,1,2,0:0:0:0:
460,174,167626,1,2,3:2:0:0:
440,150,167715,1,2,3:2:0:0:
390,99,167805,1,10,0:0:0:0:
379,127,167894,1,2,0:0:0:0:
359,197,167983,5,2,3:2:0:0:
389,192,168072,1,2,0:0:0:0:
460,174,168161,1,10,0:0:0:0:
440,150,168250,1,2,0:0:0:0:
390,99,168340,5,10,3:3:0:0:
379,127,168429,1,10,3:3:0:0:
359,197,168518,1,10,3:3:0:0:
348,225,168607,1,10,3:3:0:0:
328,295,168697,5,6,3:2:0:0:
312,305,168786,1,2,3:2:0:0:
294,305,168875,1,2,3:2:0:0:
283,293,168965,1,2,3:2:0:0:
302,283,169054,5,10,3:2:0:0:
328,295,169144,1,2,3:2:0:0:
331,323,169233,1,2,3:2:0:0:
310,346,169322,1,2,3:2:0:0:
275,345,169411,1,2,3:2:0:0:
247,319,169500,1,2,3:2:0:0:
206,293,169590,1,2,3:2:0:0:
152,291,169679,1,2,3:2:0:0:
101,319,169768,5,10,3:2:0:0:
85,352,169858,1,2,3:2:0:0:
92,368,169947,1,2,3:2:0:0:
111,378,170036,1,2,3:2:0:0:
132,375,170125,1,2,3:2:0:0:
145,357,170215,1,2,3:2:0:0:
139,330,170304,1,2,3:2:0:0:
101,319,170393,1,2,3:2:0:0:
50,335,170483,5,10,3:2:0:0:
8,302,170572,1,2,3:2:0:0:
19,248,170661,1,2,3:2:0:0:
70,231,170750,1,2,3:2:0:0:
112,264,170840,5,2,3:2:0:0:
61,279,170929,1,2,3:2:0:0:
19,248,171018,1,2,3:2:0:0:
31,196,171108,1,2,3:2:0:0:
72,174,171197,1,10,3:2:0:0:
134,156,171286,1,2,3:2:0:0:
170,102,171375,1,2,3:2:0:0:
157,41,171465,1,2,3:2:0:0:
93,12,171554,5,2,3:2:0:0:
105,33,171643,2,0,L|177:21,1,71.2500027179719,12|0,0:0|0:0,0:0:0:0:
382,76,171822,1,0,3:2:0:0:
365,91,171911,2,0,L|293:79,1,71.2500027179719,12|0,0:0|0:0,0:0:0:0:
156,186,172090,1,0,3:2:0:0:
171,202,172179,2,0,L|243:190,1,71.2500027179719,12|0,0:0|0:0,0:0:0:0:
371,300,172358,1,0,3:2:0:0:
351,313,172447,2,0,L|280:302,1,71.2500027179719,12|0,0:0|0:0,0:0:0:0:
43,172,172625,5,8,0:0:0:0:
95,215,172715,1,8,0:0:0:0:
156,186,172804,1,8,0:0:0:0:
157,118,172893,1,8,0:0:0:0:
97,89,172983,6,0,B|57:118|77:167|77:167|69:175|69:175|130:164|161:225|161:225|170:226|170:226|118:293|54:259|54:259|58:267|58:267|18:320|73:367,1,455.999986083985,6|0,3:2|3:2,0:0:0:0:
63,357,173786,1,0,3:2:0:0:
68,365,173875,2,0,L|140:354,1,56.9999982604981,8|0,0:0|0:0,0:0:0:0:
268,335,174054,5,8,3:3:0:0:
258,329,174143,1,8,3:3:0:0:
246,331,174233,1,8,3:3:0:0:
239,340,174322,1,8,3:3:0:0:
239,351,174411,6,0,L|249:285,1,56.9999982604981,12|0,3:2|0:0,0:0:0:0:
267,68,174590,1,12,3:2:0:0:
438,271,174768,1,12,3:2:0:0:
438,271,175125,5,0,3:2:0:0:
425,192,175304,1,10,3:2:0:0:
138,252,175661,1,10,3:2:0:0:
151,173,175840,5,0,3:2:0:0:
151,173,176197,1,0,3:2:0:0:
438,271,176375,5,12,3:2:0:0:
267,60,176554,1,12,3:2:0:0:
234,333,176733,1,12,3:2:0:0:
234,333,177090,1,0,3:2:0:0:
169,66,177268,5,12,3:2:0:0:
361,243,177447,1,12,3:2:0:0:
420,0,177625,1,12,3:2:0:0:
420,0,177983,6,0,B|412:47|355:67|307:33|307:33|331:10|332:-16,1,170.999994781494,10|0,3:2|0:0,0:0:0:0:
325,10,178340,2,0,L|335:77,1,56.9999982604981,0|0,3:2|0:0,0:0:0:0:
361,243,178518,1,12,3:2:0:0:
441,161,178697,6,0,L|446:125,2,28.4999991302491,2|2|2,0:0|0:0|3:2,0:0:0:0:
407,323,179233,5,12,3:2:0:0:
151,173,179411,1,12,3:2:0:0:
441,161,179590,1,12,3:2:0:0:
225,209,179768,1,2,3:2:0:0:
226,202,179857,1,10,3:2:0:0:
227,195,179946,1,10,3:2:0:0:
229,188,180035,1,10,3:2:0:0:
230,181,180125,6,0,L|239:119,1,56.9999982604981,2|0,3:2|0:0,0:0:0:0:
92,19,180304,2,0,L|101:81,1,56.9999982604981,10|0,0:0|0:0,0:0:0:0:
137,274,180483,1,2,3:2:0:0:
137,274,180572,1,0,3:2:0:0:
137,274,180661,2,0,B|106:222|39:245|39:245|33:297|78:303,1,170.999994781494,10|0,0:0|0:0,0:0:0:0:
142,351,181018,2,0,P|175:344|199:318,1,56.9999982604981,10|0,0:0|0:0,0:0:0:0:
327,159,181197,1,2,3:2:0:0:
327,159,181286,1,0,3:2:0:0:
327,159,181375,2,0,L|316:232,1,56.9999982604981,8|0,0:0|0:0,0:0:0:0:
309,343,181554,5,0,3:2:0:0:
498,130,181733,1,8,0:0:0:0:
479,369,181911,1,0,3:2:0:0:
479,369,182000,1,0,3:2:0:0:
479,369,182090,2,0,L|400:356,1,56.9999982604981,8|0,0:0|0:0,0:0:0:0:
192,329,182268,1,0,3:2:0:0:
364,208,182447,6,0,B|332:195|332:195|326:159,1,71.2500027179719,10|0,0:0|0:0,0:0:0:0:
365,52,182625,2,0,B|391:30|391:30|425:44,1,71.2500027179719,2|0,3:2|3:2,0:0:0:0:
498,130,182804,2,0,B|503:164|503:164|474:187,1,71.2500027179719,10|0,0:0|0:0,0:0:0:0:
428,252,182983,6,0,L|405:111,1,142.500005435944,6|8,3:2|0:0,0:0:0:0:
216,252,183340,1,0,3:2:0:0:
248,77,183519,1,10,0:0:0:0:
201,52,183608,1,0,3:0:0:0:
154,27,183697,1,0,3:2:0:0:
106,51,183786,1,0,3:2:0:0:
65,83,183875,2,0,L|76:155,1,71.2500027179719,10|0,0:0|3:0,0:0:0:0:
60,341,184054,1,2,3:2:0:0:
56,318,184143,1,0,3:2:0:0:
53,295,184233,2,0,L|123:306,1,71.2500027179719,12|0,0:0|0:0,0:0:0:0:
324,330,184411,5,2,0:0:0:0:
322,260,184500,1,2,0:0:0:0:
275,208,184589,1,2,3:2:0:0:
206,200,184678,1,2,3:2:0:0:
148,239,184768,5,14,0:0:0:0:
178,258,184857,1,2,0:0:0:0:
195,289,184946,1,2,3:2:0:0:
194,324,185035,1,2,3:2:0:0:
177,355,185125,5,10,3:2:0:0:
123,306,185215,1,10,0:0:0:0:
148,239,185304,1,10,3:3:0:0:
206,200,185393,1,10,3:3:0:0:
244,134,185483,1,10,3:2:0:0:
242,58,185572,1,10,3:2:0:0:
177,17,185661,1,10,3:2:0:0:
101,36,185750,1,10,3:2:0:0:
66,102,185840,6,0,L|139:153,1,85.4999973907472,6|0,3:2|0:0,0:0:0:0:
206,200,186018,2,0,L|133:149,1,85.4999973907472,10|0,3:2|0:0,0:0:0:0:
52,166,186197,2,0,L|139:150,1,85.4999973907472,2|0,3:2|3:2,0:0:0:0:
220,136,186375,2,0,L|132:151,1,85.4999973907472,10|0,0:0|0:0,0:0:0:0:
87,221,186554,2,0,L|138:148,1,85.4999973907472,2|0,3:2|0:0,0:0:0:0:
185,81,186732,2,0,L|134:154,1,85.4999973907472,10|0,0:0|0:0,0:0:0:0:
151,235,186912,2,0,L|135:147,1,85.4999973907472,2|0,3:2|3:2,0:0:0:0:
121,66,187090,2,0,L|136:153,1,85.4999973907472,10|0,0:0|0:0,0:0:0:0:
206,200,187268,6,0,L|135:151,1,85.4999973907472,2|0,3:2|0:0,0:0:0:0:
65,102,187446,2,0,L|135:150,1,85.4999973907472,10|0,0:0|0:0,0:0:0:0:
220,136,187625,2,0,L|132:151,1,85.4999973907472,2|0,3:2|3:2,0:0:0:0:
52,166,187803,2,0,L|139:150,1,85.4999973907472,10|0,0:0|0:0,0:0:0:0:
185,80,187983,2,0,L|134:152,1,85.4999973907472,2|0,3:2|0:0,0:0:0:0:
88,221,188161,2,0,L|138:147,1,85.4999973907472,10|0,0:0|0:0,0:0:0:0:
121,66,188340,2,0,L|136:153,1,85.4999973907472,2|0,3:2|0:0,0:0:0:0:
151,234,188518,2,0,L|135:146,1,85.4999973907472,10|0,0:0|0:0,0:0:0:0:
65,102,188697,5,6,3:2:0:0:
52,166,188786,1,2,0:0:0:0:
88,221,188875,1,10,0:0:0:0:
151,234,188965,1,2,0:0:0:0:
206,200,189054,1,2,3:2:0:0:
255,157,189143,1,2,0:0:0:0:
319,160,189233,1,10,0:0:0:0:
363,209,189322,1,2,3:2:0:0:
360,274,189411,5,6,3:2:0:0:
329,274,189500,1,2,3:2:0:0:
298,253,189590,1,10,3:2:0:0:
295,205,189679,1,2,3:2:0:0:
319,160,189768,1,2,3:2:0:0:
369,126,189858,1,2,3:2:0:0:
388,53,189947,1,14,3:2:0:0:
330,0,190036,1,2,3:2:0:0:
247,9,190125,5,2,0:0:0:0:
275,76,190215,1,2,0:0:0:0:
307,141,190304,1,2,3:2:0:0:
337,206,190393,1,2,3:2:0:0:
360,274,190483,2,0,L|269:259,1,71.2500027179719,10|2,3:2|0:0,0:0:0:0:
65,261,190661,1,2,3:2:0:0:
44,323,190750,1,2,0:0:0:0:
27,384,190840,6,0,L|113:370,1,71.2500027179719,14|2,3:2|0:0,0:0:0:0:
214,163,191018,1,10,0:0:0:0:
172,107,191107,1,10,0:0:0:0:
103,95,191196,1,10,0:0:0:0:
45,134,191285,1,10,0:0:0:0:
30,201,191375,1,10,0:0:0:0:
65,261,191464,1,10,0:0:0:0:
133,281,191554,6,0,P|155:265|176:261,1,47.5,2|0,3:2|3:2,0:0:0:0:
174,261,192090,6,0,B|219:236|245:180|229:89|173:62|96:51|7:96|29:203|29:203|104:118|214:165|214:165|272:254|365:274|423:270|495:208|495:208|516:201|516:201|457:207|410:155|410:155|395:157|395:157|455:106|425:42|425:42|436:24|436:24|390:81|332:76|332:76|296:17|240:40|240:40|220:37|220:37|254:58|310:112|345:209|263:363|167:352|126:340,1,1938.00003696442,10|10,3:2|0:0,0:0:0:0:
136,342,194322,5,0,0:0:0:0:
136,342,194411,2,0,P|102:313|93:282,1,71.2500027179719,2|0,3:2|0:0,0:0:0:0:
126,64,194589,2,0,P|167:70|190:92,1,71.2500027179719,10|0,0:0|0:0,0:0:0:0:
29,202,194768,2,0,P|48:164|76:149,1,71.2500027179719,2|0,3:2|3:2,0:0:0:0:
302,209,194947,2,0,B|368:197|392:133|372:68|279:71|283:137,1,213.750008153916,10|0,0:0|0:0,0:0:0:0:
216,219,195304,2,0,P|227:260|261:286,1,71.2500027179719,10|0,0:0|3:2,0:0:0:0:
422,351,195483,1,2,0:0:0:0:
429,326,195572,1,0,3:2:0:0:
426,300,195661,2,0,P|384:289|345:305,1,71.2500027179719,8|0,0:0|0:0,0:0:0:0:
177,366,195840,5,4,3:2:0:0:
229,375,195929,1,0,3:2:0:0:
281,384,196018,1,8,0:0:0:0:
29,342,196197,1,0,3:2:0:0:
216,219,196375,2,0,L|59:243,1,142.500005435944,8|0,0:0|3:2,0:0:0:0:
20,23,196733,1,10,0:0:0:0:
20,23,196822,1,2,0:0:0:0:
20,23,196911,1,10,3:2:0:0:
76,31,197000,1,8,3:2:0:0:
132,40,197089,1,10,3:3:0:0:
188,49,197178,1,8,3:3:0:0:
245,58,197268,6,0,L|232:136,1,71.2500027179719,2|0,3:2|0:0,0:0:0:0:
358,296,197447,2,0,L|345:218,1,71.2500027179719,8|0,0:0|0:0,0:0:0:0:
318,14,197625,1,0,0:0:0:0:
318,14,197715,1,0,3:2:0:0:
318,14,197804,1,10,0:0:0:0:
212,221,197983,1,0,3:2:0:0:
423,114,198161,1,10,0:0:0:0:
418,92,198250,2,0,L|341:104,1,71.2500027179719,0|2,3:2|0:0,0:0:0:0:
212,221,198429,1,0,3:2:0:0:
203,246,198518,2,0,L|126:234,1,71.2500027179719,8|0,0:0|0:0,0:0:0:0:
1,58,198697,6,0,P|51:0|128:11,1,161.500003080368,2|8,3:2|0:0,0:0:0:0:
161,105,198965,2,0,P|110:163|33:151,1,161.500003080368,2|0,0:0|0:0,0:0:0:0:
75,66,199233,2,0,L|91:111,1,33.2499989852906,10|0,0:0|0:0,0:0:0:0:
132,235,199411,1,6,3:2:0:0:
356,168,199590,5,8,3:3:0:0:
378,127,199679,1,8,3:3:0:0:
379,80,199768,1,8,3:2:0:0:
356,38,199857,1,8,3:2:0:0:
317,13,199947,1,8,3:3:0:0:
270,11,200036,1,8,3:3:0:0:
227,31,200125,6,0,B|219:65|186:102|186:102|223:68|258:54|291:72|306:105|306:105|256:155|291:217|291:217|277:207|277:207|196:212|156:315|226:358|226:358|225:303|276:279,1,665,6|0,3:2|0:0,0:0:0:0:
356,168,201554,1,0,3:2:0:0:
414,169,201643,1,0,3:2:0:0:
464,199,201732,1,8,3:2:0:0:
492,251,201821,1,8,3:2:0:0:
489,310,201911,1,8,3:3:0:0:
457,359,202000,1,8,3:3:0:0:
405,385,202089,1,8,3:3:0:0:
346,381,202178,1,8,3:3:0:0:
298,348,202268,6,0,L|309:277,1,71.25,4|0,3:2|0:0,0:0:0:0:
284,213,203697,5,6,3:2:0:0:
240,268,203786,1,0,0:0:0:0:
176,298,203875,1,8,0:2:0:0:
106,294,203964,1,0,0:0:0:0:
44,259,204054,1,0,0:0:0:0:
7,200,204143,1,0,0:0:0:0:
0,130,204232,1,8,0:2:0:0:
27,65,204321,1,0,0:0:0:0:
81,19,204411,1,0,0:0:0:0:
150,4,204500,1,0,0:0:0:0:
218,22,204589,1,8,0:2:0:0:
270,69,204679,1,0,0:0:0:0:
295,135,204768,6,0,P|320:162|359:167,1,61.7499971733095,2|0,0:0|0:0,0:0:0:0:
493,38,204947,1,10,0:2:0:0:
456,10,205036,1,0,0:0:0:0:
411,11,205125,1,0,0:0:0:0:
377,41,205214,1,0,0:0:0:0:
369,85,205304,5,10,0:2:0:0:
409,106,205393,1,0,0:0:0:0:
433,145,205482,1,0,0:0:0:0:
432,190,205571,1,0,0:0:0:0:
408,229,205661,1,10,0:2:0:0:
367,207,205750,1,0,0:0:0:0:
343,168,205839,1,0,0:0:0:0:
344,123,205928,1,0,0:0:0:0:
369,85,206018,5,10,0:2:0:0:
379,66,206107,1,2,0:0:0:0:
374,41,206197,1,2,0:0:0:0:
357,25,206285,1,2,0:0:0:0:
324,20,206374,1,10,0:2:0:0:
294,30,206464,1,2,0:0:0:0:
274,67,206553,1,2,0:0:0:0:
241,101,206642,1,0,0:0:0:0:
189,109,206732,1,10,0:2:0:0:
135,81,206822,1,2,0:0:0:0:
123,18,206911,5,2,0:0:0:0:
183,5,207000,1,2,0:0:0:0:
241,18,207089,1,10,0:2:0:0:
274,67,207179,1,0,0:0:0:0:
278,128,207268,1,0,0:0:0:0:
245,180,207357,1,0,0:0:0:0:
187,202,207447,1,8,0:2:0:0:
127,192,207536,1,0,0:0:0:0:
84,142,207625,2,0,L|94:209,1,61.7499971733095,2|0,0:0|0:0,0:0:0:0:
112,370,207804,5,10,0:2:0:0:
55,383,207893,1,0,0:0:0:0:
18,337,207982,1,0,0:0:0:0:
45,285,208071,1,0,0:0:0:0:
103,287,208161,1,10,0:2:0:0:
161,289,208251,1,0,0:0:0:0:
188,237,208340,1,0,0:0:0:0:
151,191,208429,1,0,0:0:0:0:
93,203,208518,5,10,0:2:0:0:
99,245,208607,1,0,0:0:0:0:
103,287,208697,1,0,0:0:0:0:
108,328,208786,1,0,0:0:0:0:
112,370,208875,5,10,0:2:0:0:
159,331,208964,1,0,0:0:0:0:
218,312,209053,1,0,0:0:0:0:
279,317,209142,1,0,0:0:0:0:
334,344,209232,2,0,L|321:262,1,61.7499971733095,10|0,0:2|0:0,0:0:0:0:
306,129,209411,5,4,3:2:0:0:
339,181,209500,1,0,0:0:0:0:
395,200,209589,1,10,0:2:0:0:
454,186,209679,1,0,0:0:0:0:
492,142,209768,1,0,0:0:0:0:
499,95,209857,1,0,0:0:0:0:
489,62,209947,1,10,0:2:0:0:
463,35,210036,1,0,0:0:0:0:
441,24,210125,5,2,0:0:0:0:
433,44,210214,1,0,0:0:0:0:
412,63,210304,1,10,0:2:0:0:
370,76,210393,1,0,0:0:0:0:
321,61,210482,1,0,0:0:0:0:
273,19,210572,1,0,0:0:0:0:
209,12,210661,1,10,0:2:0:0:
153,46,210750,1,0,0:0:0:0:
141,111,210840,5,0,0:0:0:0:
137,99,210929,1,0,0:0:0:0:
134,88,211018,1,8,0:2:0:0:
131,76,211107,1,0,0:0:0:0:
128,65,211197,1,0,0:0:0:0:
125,53,211286,1,0,0:0:0:0:
121,42,211375,1,8,0:2:0:0:
118,30,211464,1,0,0:0:0:0:
115,19,211554,5,2,0:0:0:0:
47,36,211643,1,0,0:0:0:0:
5,92,211732,1,8,0:2:0:0:
8,161,211821,1,0,0:0:0:0:
55,213,211911,1,0,0:0:0:0:
124,224,212000,1,0,0:0:0:0:
184,189,212089,2,0,P|217:172|256:178,1,61.7499971733095,10|0,0:2|0:0,0:0:0:0:
412,235,212268,5,2,0:0:0:0:
439,218,212357,1,2,0:0:0:0:
432,188,212447,1,10,0:2:0:0:
401,186,212536,1,2,0:0:0:0:
389,214,212625,5,2,0:0:0:0:
357,210,212714,1,2,0:0:0:0:
351,180,212804,1,10,0:2:0:0:
378,165,212893,1,2,0:0:0:0:
401,186,212982,5,2,0:0:0:0:
389,214,213072,1,2,0:0:0:0:
349,231,213161,1,10,0:2:0:0:
304,227,213250,1,2,0:0:0:0:
275,195,213339,1,2,0:0:0:0:
247,177,213429,1,2,0:0:0:0:
220,170,213518,1,10,0:2:0:0:
199,174,213607,1,2,0:0:0:0:
184,189,213697,5,2,0:0:0:0:
182,215,213786,1,2,0:0:0:0:
203,244,213875,1,10,0:2:0:0:
223,285,213964,1,2,0:0:0:0:
207,331,214054,1,2,0:0:0:0:
164,358,214143,1,2,0:0:0:0:
101,355,214232,1,10,0:2:0:0:
61,305,214322,1,2,0:0:0:0:
80,240,214411,5,2,0:0:0:0:
136,194,214500,1,10,0:2:0:0:
185,144,214589,1,10,0:3:0:0:
195,75,214679,1,10,0:3:0:0:
155,17,214768,1,10,0:3:0:0:
86,6,214857,1,10,0:3:0:0:
24,42,214947,1,10,0:3:0:0:
15,110,215036,1,10,0:3:0:0:
47,171,215125,6,0,B|120:159|120:159|124:154|124:154|206:141,1,142.500005435944,4|10,3:2|0:0,0:0:0:0:
422,118,215482,1,2,3:2:0:0:
422,118,215572,1,2,3:2:0:0:
422,118,215661,1,10,0:0:0:0:
260,23,215839,1,2,3:2:0:0:
260,23,215929,1,2,3:2:0:0:
260,23,216018,2,0,L|273:108,1,71.2500027179719,10|0,0:0|0:0,0:0:0:0:
399,271,216197,2,0,L|412:186,1,71.2500027179719,2|0,3:2|0:0,0:0:0:0:
440,10,216375,1,10,0:0:0:0:
260,175,216554,5,0,3:2:0:0:
512,164,216732,1,10,0:0:0:0:
339,0,216911,1,2,3:2:0:0:
339,0,217000,1,2,3:2:0:0:
339,0,217089,1,8,0:0:0:0:
251,266,217268,6,0,P|214:254|191:229,1,71.2500027179719,2|0,0:0|3:2,0:0:0:0:
270,93,217447,2,0,P|307:105|330:130,1,71.2500027179719,10|0,0:0|0:0,0:0:0:0:
404,351,217625,2,0,P|444:339|464:314,1,71.2500027179719,2|2,3:2|0:0,0:0:0:0:
409,200,217804,2,0,P|372:212|349:237,1,71.2500027179719,10|0,0:0|0:0,0:0:0:0:
237,374,217982,6,0,B|170:363|170:363|167:356|167:356|84:343,1,142.500005435944,4|10,3:2|0:0,0:0:0:0:
28,145,218339,2,0,L|115:131,1,71.2500027179719,2|2,3:2|0:0,0:0:0:0:
329,128,218518,2,0,L|354:61,1,71.2500027179719,8|2,0:0|0:0,0:0:0:0:
167,9,218697,2,0,L|211:64,1,71.2500027179719,2|0,3:2|3:2,0:0:0:0:
402,248,218875,2,0,L|314:261,1,71.2500027179719,10|0,0:0|0:0,0:0:0:0:
109,353,219054,1,2,3:2:0:0:
109,353,219143,1,2,0:0:0:0:
109,353,219232,2,0,L|131:209,1,142.500005435944,8|4,0:0|3:2,0:0:0:0:
167,9,219589,5,8,0:0:0:0:
336,135,219768,1,2,3:2:0:0:
336,135,219857,1,2,0:0:0:0:
336,135,219947,1,8,0:0:0:0:
130,212,220125,2,0,L|54:201,1,71.2500027179719,4|0,3:2|0:0,0:0:0:0:
0,21,220304,2,0,L|76:32,1,71.2500027179719,8|0,0:0|0:0,0:0:0:0:
336,135,220482,1,8,3:2:0:0:
339,82,220571,1,8,3:2:0:0:
306,42,220660,1,8,3:3:0:0:
255,34,220749,1,8,3:3:0:0:
211,64,220839,6,0,L|223:144,1,71.2500027179719,6|0,3:2|0:0,0:0:0:0:
250,354,221018,1,8,0:0:0:0:
426,262,221197,1,0,3:2:0:0:
426,262,221286,1,0,3:2:0:0:
426,262,221375,2,0,B|385:246|356:208|356:208|373:246|362:267,1,142.500005435944,10|0,0:0|3:2,0:0:0:0:
390,376,221643,1,0,3:2:0:0:
390,376,221732,2,0,L|242:352,1,142.500005435944,10|0,3:2|3:2,0:0:0:0:
59,331,222089,1,10,0:0:0:0:
289,252,222268,5,0,3:2:0:0:
47,177,222447,1,8,0:0:0:0:
179,355,222625,1,0,3:2:0:0:
184,319,222714,1,0,3:2:0:0:
190,284,222803,1,8,0:0:0:0:
195,249,222892,1,0,3:2:0:0:
201,214,222982,6,0,B|201:193|193:177|193:177|213:183|226:180,1,71.2500027179719,2|0,0:0|3:2,0:0:0:0:
297,362,223161,1,8,0:0:0:0:
297,362,223250,2,0,B|279:371|268:385|268:385|263:365|255:355,1,71.2500027179719,2|0,0:0|3:2,0:0:0:0:
378,204,223429,1,0,3:2:0:0:
378,204,223518,2,0,B|394:213|412:215|412:215|397:229|393:241,1,71.2500027179719,10|0,0:0|0:0,0:0:0:0:
289,252,223697,6,0,B|299:184|299:184|305:182|305:182|319:90,1,142.500005435944,2|8,3:2|0:0,0:0:0:0:
477,57,224054,1,2,3:2:0:0:
477,57,224143,1,0,3:2:0:0:
477,57,224232,2,0,B|466:91|431:108|397:97|397:97|392:65|363:46,1,142.500005435944,10|0,0:0|3:2,0:0:0:0:
219,56,224500,1,0,3:2:0:0:
219,56,224589,2,0,L|230:130,1,71.2500027179719,8|0,0:0|0:0,0:0:0:0:
254,354,224768,1,0,3:2:0:0:
471,228,224947,1,8,0:0:0:0:
202,248,225125,5,8,3:2:0:0:
415,344,225304,1,8,3:3:0:0:
371,327,225393,1,8,3:3:0:0:
346,288,225482,1,8,3:3:0:0:
351,241,225571,1,8,3:3:0:0:
384,208,225661,1,6,3:2:0:0:
430,203,225750,1,2,0:0:0:0:
470,227,225839,2,0,P|445:264|409:276,1,71.2500027179719,2|0,0:0|0:0,0:0:0:0:
254,354,226018,5,8,3:2:0:0:
218,348,226107,1,8,3:2:0:0:
183,342,226196,1,8,3:2:0:0:
148,337,226285,1,8,3:2:0:0:
113,331,226375,1,8,3:2:0:0:
78,326,226464,1,8,3:2:0:0:
42,320,226554,6,0,L|53:244,1,71.2500027179719,6|0,3:2|0:0,0:0:0:0:
90,39,226732,1,8,0:0:0:0:
215,204,226911,1,0,3:2:0:0:
230,230,227000,1,0,3:2:0:0:
241,252,227089,2,0,L|156:238,1,71.2500027179719,10|0,0:0|0:0,0:0:0:0:
94,43,227268,1,0,3:2:0:0:
94,43,227357,2,0,L|179:57,1,71.2500027179719,0|10,3:2|0:0,0:0:0:0:
288,158,227536,2,0,B|316:191|316:191|426:174,1,142.500005435944,0|0,3:2|3:2,0:0:0:0:
460,85,227804,2,0,L|364:100,1,71.2500027179719,10|0,0:0|0:0,0:0:0:0:
189,125,227982,5,0,3:2:0:0:
364,14,228161,1,8,0:0:0:0:
396,314,228339,1,0,3:2:0:0:
446,299,228428,1,0,3:2:0:0:
471,253,228517,1,8,0:0:0:0:
458,203,228606,1,0,0:0:0:0:
414,176,228697,6,0,L|318:191,1,71.2500027179719,2|0,3:2|3:2,0:0:0:0:
107,194,228875,1,8,0:0:0:0:
107,194,228964,2,0,L|142:103,1,71.2500027179719,2|0,3:2|0:0,0:0:0:0:
266,274,229143,1,0,3:2:0:0:
266,274,229232,2,0,L|221:218,1,71.2500027179719,10|0,0:0|0:0,0:0:0:0:
97,17,229411,6,0,B|151:9|151:9|179:24|179:24|251:16,1,142.500005435944,2|8,3:2|0:0,0:0:0:0:
444,0,229768,1,2,3:2:0:0:
444,0,229857,1,0,3:2:0:0:
444,0,229947,1,10,0:0:0:0:
347,190,230125,1,0,3:2:0:0:
347,190,230214,2,0,L|262:177,1,71.2500027179719,0|10,3:2|0:0,0:0:0:0:
132,127,230393,2,0,B|87:122|47:98|47:98|77:124|83:157,1,142.500005435944,0|0,3:2|3:2,0:0:0:0:
10,166,230661,2,0,L|22:245,1,71.2500027179719,10|0,0:0|0:0,0:0:0:0:
43,384,230839,5,0,3:2:0:0:
206,154,231018,1,8,0:0:0:0:
179,342,231197,1,0,3:2:0:0:
179,342,231286,1,0,3:2:0:0:
179,342,231375,2,0,L|191:262,1,71.2500027179719,8|0,0:0|0:0,0:0:0:0:
221,53,231554,1,0,3:2:0:0:
362,255,231732,1,8,0:0:0:0:
480,107,231911,1,0,3:2:0:0:
467,56,232000,1,8,3:2:0:0:
426,23,232089,1,8,3:2:0:0:
373,21,232178,1,8,3:2:0:0:
330,51,232268,6,0,L|343:134,1,71.2500027179719,6|0,3:2|0:0,0:0:0:0:
419,326,232447,1,8,0:0:0:0:
419,326,232536,2,0,B|501:279|501:279|443:278,1,142.500005435944,0|0,0:0|3:2,0:0:0:0:
366,259,232804,1,10,0:0:0:0:
366,259,232893,2,0,B|298:269|298:269|296:274|296:274|215:287,1,142.500005435944,0|0,3:2|3:2,0:0:0:0:
189,271,233161,1,10,0:0:0:0:
203,321,233250,1,0,0:0:0:0:
176,366,233339,1,0,3:2:0:0:
125,375,233428,1,0,3:2:0:0:
84,344,233518,2,0,L|96:265,1,71.2500027179719,10|0,0:0|0:0,0:0:0:0:
129,57,233697,6,0,B|103:96|46:109|46:109|114:112|185:80|185:80|193:85|193:85|247:34|337:51,1,398.999987823487,4|0,3:2|0:0,0:0:0:0:
399,76,234411,5,10,0:0:0:0:
94,273,234679,1,10,3:3:0:0:
50,25,234947,1,2,3:3:0:0:
395,189,235125,5,12,3:2:0:0:
64,150,235304,1,12,3:2:0:0:
330,50,235482,1,12,3:2:0:0:
330,50,235839,1,0,3:2:0:0:
215,376,236018,1,10,3:2:0:0:
157,7,236375,1,10,3:2:0:0:
171,98,236554,5,0,3:2:0:0:
171,98,236911,1,0,3:2:0:0:
439,277,237089,1,12,3:2:0:0:
94,273,237268,1,12,3:2:0:0:
424,88,237447,1,12,3:2:0:0:
424,88,237804,1,0,3:2:0:0:
370,360,237982,5,12,3:2:0:0:
337,15,238161,1,12,3:2:0:0:
151,326,238339,1,12,3:2:0:0:
151,326,238697,6,0,B|184:367|237:358|237:358|241:365|241:365|273:313|326:311|326:311|324:318|324:318|334:356|373:361,1,284.999991302491,10|0,3:2|0:0,0:0:0:0:
370,360,239232,2,0,P|385:357|400:343,1,28.4999991302491,10|0,3:2|0:0,0:0:0:0:
371,361,239947,5,12,3:2:0:0:
114,134,240125,1,12,3:2:0:0:
382,134,240304,2,0,B|428:148|449:188|443:256|389:290|320:269|301:224|301:224|292:227|292:227|239:172|125:221|125:221|174:199|195:174|203:118,1,569.999982604981,12|0,3:2|0:0,0:0:0:0:
