osu file format v14

[General]
AudioFilename: audio.mp3
AudioLeadIn: 0
PreviewTime: 205839
Countdown: 0
SampleSet: Normal
StackLeniency: 0.5
Mode: 0
LetterboxInBreaks: 0
WidescreenStoryboard: 0

[Editor]
Bookmarks: 31515,50974,137461,154758,163407,180704,206650
DistanceSpacing: 0.9
BeatDivisor: 4
GridSize: 4
TimelineZoom: 1.2

[Metadata]
Title:Void Act
TitleUnicode:Void Act
Artist:TEARS OF TRAGEDY
ArtistUnicode:TEARS OF TRAGEDY
Creator:Painketsu
Version:Ketsu
Source:
Tags:STATICE haruka toru
BeatmapID:1212244
BeatmapSetID:572042

[Difficulty]
HPDrainRate:5.2
CircleSize:4
OverallDifficulty:8
ApproachRate:9.6
SliderMultiplier:1.9
SliderTickRate:1

[Events]
//Background and Video events
0,0,"1500.png",0,0
//Break Periods
2,51174,59114
//Storyboard Layer 0 (Background)
//Storyboard Layer 1 (Fail)
//Storyboard Layer 2 (Pass)
//Storyboard Layer 3 (Foreground)
//Storyboard Sound Samples

[TimingPoints]
12056,270.27027027027,4,1,1,65,1,0
15569,-133.333333333333,4,1,1,65,0,0
16380,-100,4,1,1,65,0,0
20704,-133.333333333333,4,1,1,65,0,0
23677,-100,4,1,1,65,0,0
28137,-153.846153846153,4,1,1,65,0,0
28542,-153.846153846153,4,2,1,5,0,0
29150,-153.846153846153,4,1,1,65,0,0
30366,-500,4,1,1,65,0,0
30434,-285.714285714286,4,1,1,65,0,0
30907,-285.714285714286,4,2,1,5,0,0
30974,-285.714285714286,4,1,1,65,0,0
31447,-285.714285714286,4,2,1,5,0,0
31515,-86.9565217391304,4,1,1,65,0,0
68272,-100,4,1,1,65,0,0
68677,-86.9565217391304,4,1,1,65,0,0
95299,-133.333333333333,4,1,1,65,0,0
96110,-117.647058823529,4,1,1,65,0,0
96380,-100,4,1,1,65,0,0
100704,-500,4,1,1,65,0,0
101177,-500,4,2,1,5,0,0
101245,-500,4,1,1,65,0,0
102055,-500,4,1,1,65,0,0
102866,-80,4,1,1,65,0,1
137461,-80,4,1,1,65,0,0
154758,-133.333333333333,4,1,1,45,0,0
159083,-86.9565217391304,4,1,1,65,0,0
199083,-133.333333333333,4,1,1,65,0,0
200164,-86.9565217391304,4,1,1,65,0,0
204488,-500,4,1,1,65,0,0
204893,-500,4,2,1,5,0,0
205028,-500,4,1,1,65,0,0
206650,-80,4,1,1,65,0,1
223947,-76.9230769230769,4,1,1,65,0,1
233001,-80,4,1,1,65,0,1
236920,-76.9230769230769,4,1,1,65,0,1
241245,-76.9230769230769,4,1,1,65,0,0
253677,-76.9230769230769,4,1,1,65,0,1
269961,-76.9230769230769,4,2,1,5,0,1
270028,-76.9230769230769,4,1,1,65,0,1
270096,-76.9230769230769,4,2,1,5,0,1
270163,-76.9230769230769,4,1,1,65,0,1
271245,-86.9565217391304,4,1,1,65,0,0
279623,-83.3333333333333,4,1,1,65,0,0
288272,-133.333333333333,4,1,1,65,0,0
290434,-86.9565217391304,4,1,1,65,0,0
295299,-100,4,1,1,65,0,0
299083,-76.9230769230769,4,1,1,65,0,1
337461,-133.333333333333,4,1,1,65,0,0
338001,-100,4,1,1,65,0,0

[Colours]
Combo1 : 126,203,254
Combo2 : 219,219,219
Combo3 : 217,179,255

[HitObjects]
168,120,12056,6,0,B|180:144|180:144|264:168,1,95,2|2,0:0|0:0,0:0:0:0:
396,216,12326,2,0,B|384:240|384:240|300:264,1,95,2|2,0:0|0:0,0:0:0:0:
148,280,12596,6,0,P|118:228|112:172,1,95,2|0,0:0|0:0,0:0:0:0:
136,44,12866,2,0,P|201:23|254:65,1,142.5,2|0,0:0|0:0,0:0:0:0:
111,194,13137,6,0,B|80:212|80:212|0:196,1,95,2|0,0:0|0:0,0:0:0:0:
76,112,13407,1,0,0:0:0:0:
232,176,13542,1,0,0:0:0:0:
56,296,13677,5,0,0:0:0:0:
120,184,13812,1,0,0:0:0:0:
237,252,13947,1,0,0:0:0:0:
254,259,14015,1,0,0:0:0:0:
272,263,14083,1,0,0:0:0:0:
290,263,14150,1,0,0:0:0:0:
308,259,14218,6,0,B|340:232|340:232|352:139,1,95,4|2,0:0|0:0,0:0:0:0:
219,58,14488,1,2,0:0:0:0:
344,180,14623,1,2,0:0:0:0:
138,134,14758,2,0,P|110:72|120:10,1,95,2|0,0:0|0:0,0:0:0:0:
252,158,15028,2,0,P|214:222|91:243,1,190,2|0,0:0|0:0,0:0:0:0:
107,260,15389,5,0,0:0:0:0:
110,272,15479,1,0,0:0:0:0:
113,280,15569,2,0,P|157:297|207:277,1,71.2500027179719,8|0,0:0|0:0,0:0:0:0:
266,241,15839,6,0,L|255:332,1,71.2500027179719
351,145,16110,2,0,L|362:236,1,71.2500027179719
221,137,16380,2,0,B|207:97|207:97|206:36,1,95,4|2,0:0|0:0,0:0:0:0:
290,79,16650,1,2,0:0:0:0:
231,138,16785,1,2,0:0:0:0:
343,204,16920,1,2,0:0:0:0:
223,158,17055,1,0,0:0:0:0:
252,296,17191,6,0,P|314:298|369:264,1,95,2|0,0:0|0:0,0:0:0:0:
439,172,17461,1,0,0:0:0:0:
206,177,17596,2,0,L|68:183,1,95,8|0,0:0|0:0,0:0:0:0:
36,324,17866,1,0,0:0:0:0:
107,188,18001,2,0,L|160:88,1,95,8|0,0:0|0:0,0:0:0:0:
296,26,18272,5,0,0:0:0:0:
307,57,18339,1,0,0:0:0:0:
311,90,18407,1,0,0:0:0:0:
306,122,18474,1,0,0:0:0:0:
290,151,18542,2,0,B|268:184|268:184|174:212,1,95,2|0,0:0|0:0,0:0:0:0:
43,222,18812,2,0,B|62:257|62:257|144:276,1,95,2|0,0:0|0:0,0:0:0:0:
257,285,19083,1,2,0:0:0:0:
113,169,19218,1,2,0:0:0:0:
165,348,19353,1,2,0:0:0:0:
221,163,19488,5,0,0:0:0:0:
221,163,19555,1,0,0:0:0:0:
221,163,19623,1,8,0:0:0:0:
156,310,19758,1,0,0:0:0:0:
85,113,19893,1,0,0:0:0:0:
292,260,20028,2,0,P|328:174|296:87,1,190,8|0,0:0|0:0,0:0:0:0:
206,186,20434,6,0,P|134:219|52:198,1,142.5,2|0,0:0|0:0,0:0:0:0:
0,124,20704,6,0,P|58:107|94:112,1,71.2500027179719,4|0,0:0|0:0,0:0:0:0:
197,303,20974,2,0,P|139:320|103:315,1,71.2500027179719,2|0,0:0|0:0,0:0:0:0:
208,123,21245,2,0,P|245:161|253:198,1,71.2500027179719
42,276,21515,2,0,P|5:238|-3:201,1,71.2500027179719
222,256,21785,5,0,0:0:0:0:
246,262,21853,1,0,0:0:0:0:
270,268,21920,1,0,0:0:0:0:
295,275,21988,1,0,0:0:0:0:
318,283,22055,1,0,0:0:0:0:
222,256,22326,5,0,0:0:0:0:
198,250,22394,1,0,0:0:0:0:
174,244,22461,1,0,0:0:0:0:
149,237,22529,1,0,0:0:0:0:
126,229,22596,1,0,0:0:0:0:
401,239,22866,6,0,P|400:317|357:379,1,142.500005435944,4|0,0:0|0:0,0:0:0:0:
185,328,23272,1,0,0:0:0:0:
276,236,23407,1,0,0:0:0:0:
290,211,23474,1,0,0:0:0:0:
297,183,23542,1,0,0:0:0:0:
293,154,23610,1,0,0:0:0:0:
281,128,23677,2,0,P|254:84|166:35,1,142.5
83,34,23947,5,0,0:0:0:0:
111,168,24083,2,0,L|134:288,1,95,8|0,0:0|0:0,0:0:0:0:
332,187,24353,1,0,0:0:0:0:
94,168,24488,2,0,L|-18:157,1,95,8|0,0:0|0:0,0:0:0:0:
145,326,24758,5,0,0:0:0:0:
182,347,24826,1,0,0:0:0:0:
222,357,24893,1,0,0:0:0:0:
265,358,24961,1,0,0:0:0:0:
306,348,25028,1,2,0:0:0:0:
429,271,25164,1,2,0:0:0:0:
324,339,25299,1,2,0:0:0:0:
381,252,25434,1,0,0:0:0:0:
304,348,25569,1,2,0:0:0:0:
273,214,25704,2,0,P|252:266|254:311,1,95
400,294,25974,5,0,0:0:0:0:
413,253,26042,1,0,0:0:0:0:
403,210,26110,2,0,P|366:161|316:137,1,95,8|0,0:0|0:0,0:0:0:0:
93,291,26380,2,0,P|154:296|205:275,1,95,8|0,0:0|0:0,0:0:0:0:
147,57,26650,2,0,P|128:100|128:147,1,95,8|0,0:0|0:0,0:0:0:0:
306,246,26920,5,0,0:0:0:0:
330,205,26988,1,0,0:0:0:0:
340,159,27055,1,0,0:0:0:0:
335,111,27123,1,0,0:0:0:0:
305,73,27191,1,10,0:0:0:0:
50,58,27326,5,2,0:0:0:0:
275,103,27461,1,2,0:0:0:0:
155,300,27596,1,8,0:0:0:0:
161,98,27731,1,2,0:0:0:0:
285,318,27866,1,2,0:0:0:0:
65,174,28001,1,2,0:0:0:0:
303,290,28137,6,0,B|363:183|290:93|290:93|226:163|148:148|148:148|166:186|203:192,1,432.249980213166,8|0,0:0|0:0,0:0:0:0:
191,189,30434,6,0,P|258:205|303:190,1,116.374996448517
373,142,30974,2,0,P|389:195|369:255,1,116.374996448517
295,309,31515,6,0,B|266:324|266:324|174:320,1,109.250002083778,12|0,0:0|0:0,0:0:0:0:
2,131,31785,2,0,B|31:116|31:116|130:118,1,109.250002083778,8|0,0:0|0:0,0:0:0:0:
303,193,32055,1,8,0:0:0:0:
68,207,32191,1,0,0:0:0:0:
291,69,32326,1,0,0:0:0:0:
123,339,32461,2,0,B|101:306|101:306|96:200,1,109.250002083778,8|0,0:0|0:0,0:0:0:0:
161,48,32731,5,0,0:0:0:0:
190,251,32866,1,8,0:0:0:0:
99,175,33001,1,0,0:0:0:0:
376,229,33137,1,8,0:0:0:0:
52,281,33272,1,2,0:0:0:0:
277,100,33407,1,8,0:0:0:0:
66,296,33542,1,2,0:0:0:0:
159,106,33677,6,8,B|186:87|186:87|269:86,1,109.250002083778,8|2,0:0|0:0,0:0:0:0:
463,173,33947,2,0,P|419:220|365:229,1,109.250002083778,8|0,0:0|0:0,0:0:0:0:
0,168,34218,2,0,P|34:209|86:225,1,109.250002083778,8|0,0:0|0:0,0:0:0:0:
342,248,34488,1,0,0:0:0:0:
203,45,34623,1,8,0:0:0:0:
97,236,34758,1,2,0:0:0:0:
343,134,34893,1,2,0:0:0:0:
292,338,35028,5,8,0:0:0:0:
158,66,35164,1,2,0:0:0:0:
352,217,35299,1,10,0:0:0:0:
102,227,35434,1,0,0:0:0:0:
375,92,35569,1,10,0:0:0:0:
154,320,35704,1,2,0:0:0:0:
412,249,35839,6,0,P|427:192|416:136,1,109.250002083778,8|2,0:0|0:0,0:0:0:0:
48,192,36110,2,0,P|123:222|158:217,1,109.250002083778,8|0,0:0|0:0,0:0:0:0:
290,26,36380,2,0,B|261:64|261:64|259:139,1,109.250002083778,8|0,0:0|0:0,0:0:0:0:
282,348,36650,1,0,0:0:0:0:
354,112,36785,2,0,L|375:244,1,109.250002083778,8|0,0:0|0:0,0:0:0:0:
189,71,37055,1,2,0:0:0:0:
397,327,37191,1,2,0:0:0:0:
92,117,37326,1,2,0:0:0:0:
84,325,37461,5,10,0:0:0:0:
306,99,37596,1,2,0:0:0:0:
144,232,37731,1,10,0:0:0:0:
439,107,37866,1,2,0:0:0:0:
178,341,38001,6,0,B|151:311|151:311|147:196,1,109.250002083778,12|0,0:0|0:0,0:0:0:0:
477,130,38272,2,0,P|446:182|392:207,1,109.250002083778,8|0,0:0|0:0,0:0:0:0:
0,242,38542,2,0,P|31:294|85:319,1,109.250002083778,8|0,0:0|0:0,0:0:0:0:
370,367,38812,1,0,0:0:0:0:
88,233,38947,1,8,0:0:0:0:
374,150,39083,1,0,0:0:0:0:
296,291,39218,1,2,0:0:0:0:
274,24,39353,1,2,0:0:0:0:
434,265,39488,1,2,0:0:0:0:
120,322,39623,5,2,0:0:0:0:
104,286,39691,1,0,0:0:0:0:
102,248,39758,1,0,0:0:0:0:
111,210,39826,1,0,0:0:0:0:
134,180,39893,2,0,L|172:123,1,54.6250010418892,2|0,0:0|0:0,0:0:0:0:
70,98,40028,2,0,L|50:36,1,54.6250010418892,2|0,0:0|0:0,0:0:0:0:
255,36,40164,6,0,B|279:68|279:68|283:161,1,109.250002083778,4|0,0:0|0:0,0:0:0:0:
127,359,40434,2,0,B|103:327|103:327|100:257,1,109.250002083778,8|0,0:0|0:0,0:0:0:0:
118,72,40704,1,0,0:0:0:0:
186,283,40839,1,2,0:0:0:0:
295,158,40974,2,0,L|375:72,1,109.250002083778,8|0,0:0|0:0,0:0:0:0:
404,56,41177,5,2,0:0:0:0:
456,114,41245,2,0,P|470:177|447:234,1,109.250002083778,8|0,0:0|0:0,0:0:0:0:
323,328,41515,1,0,0:0:0:0:
387,174,41650,2,0,P|320:162|270:182,1,109.250002083778,2|0,0:0|0:0,0:0:0:0:
146,307,41920,1,0,0:0:0:0:
268,195,42055,2,0,P|278:133|257:67,1,109.250002083778,2|0,0:0|0:0,0:0:0:0:
36,94,42326,6,0,L|94:220,1,109.250002083778,8|0,0:0|0:0,0:0:0:0:
379,173,42596,2,0,L|333:272,1,109.250002083778,8|0,0:0|0:0,0:0:0:0:
115,288,42866,1,0,0:0:0:0:
309,265,43001,1,8,0:0:0:0:
161,113,43137,1,0,0:0:0:0:
214,311,43272,1,0,0:0:0:0:
214,311,43339,1,0,0:0:0:0:
214,311,43407,2,0,P|225:250|195:184,1,109.250002083778,8|0,0:0|0:0,0:0:0:0:
65,136,43677,5,2,0:0:0:0:
136,262,43812,1,2,0:0:0:0:
381,100,43947,1,2,0:0:0:0:
207,188,44083,1,2,0:0:0:0:
404,306,44218,1,2,0:0:0:0:
232,18,44353,1,2,0:0:0:0:
251,339,44488,6,0,P|257:268|243:234,1,109.250002083778,4|0,0:0|0:0,0:0:0:0:
44,127,44758,2,0,B|75:164|75:164|164:162,1,109.250002083778,8|0,0:0|0:0,0:0:0:0:
433,144,45028,1,0,0:0:0:0:
217,227,45164,1,0,0:0:0:0:
278,59,45299,2,0,B|301:28|301:28|398:24,1,109.250002083778,8|0,0:0|0:0,0:0:0:0:
213,325,45569,6,0,P|158:299|129:241,1,109.250002083778,2|2,0:0|0:0,0:0:0:0:
72,69,45839,1,2,0:0:0:0:
233,225,45974,1,2,0:0:0:0:
168,4,46110,1,2,0:0:0:0:
23,281,46245,1,2,0:0:0:0:
257,120,46380,1,2,0:0:0:0:
117,198,46515,1,2,0:0:0:0:
406,277,46650,6,0,B|429:183|399:100|399:100|370:126|326:135,1,218.500004167557,4|0,0:0|0:0,0:0:0:0:
207,177,47055,2,0,P|134:166|59:35,1,218.500004167557,8|0,0:0|0:0,0:0:0:0:
339,210,47461,2,0,P|304:251|255:275,1,109.250002083778,8|0,0:0|0:0,0:0:0:0:
37,230,47731,1,2,0:0:0:0:
248,188,47866,1,0,0:0:0:0:
0,95,48001,1,2,0:0:0:0:
318,55,48137,1,0,0:0:0:0:
113,302,48272,5,2,0:0:0:0:
173,78,48407,1,0,0:0:0:0:
173,78,48474,1,0,0:0:0:0:
173,78,48542,1,8,0:0:0:0:
186,367,48677,1,2,0:0:0:0:
68,83,48812,6,0,B|67:122|67:122|131:174,1,109.250002083778,8|0,0:0|0:0,0:0:0:0:
412,263,49083,1,8,0:0:0:0:
34,309,49218,1,8,0:0:0:0:
355,45,49488,5,8,0:0:0:0:
162,343,49758,2,0,P|125:265|168:70,1,273.125005209446,8|0,0:0|0:0,0:0:0:0:
193,78,50164,5,0,0:0:0:0:
231,97,50231,1,0,0:0:0:0:
258,131,50299,1,0,0:0:0:0:
261,174,50366,1,0,0:0:0:0:
249,216,50434,5,0,0:0:0:0:
242,247,50501,1,0,0:0:0:0:
243,279,50569,1,0,0:0:0:0:
258,308,50637,1,0,0:0:0:0:
284,326,50704,1,0,0:0:0:0:
316,330,50772,1,0,0:0:0:0:
345,315,50839,1,0,0:0:0:0:
361,286,50907,1,0,0:0:0:0:
364,239,50974,5,4,0:0:0:0:
306,129,59623,6,0,L|296:279,1,109.250002083778,4|0,0:0|0:0,0:0:0:0:
83,221,59893,1,8,0:0:0:0:
225,131,60028,2,0,P|252:56|230:-7,1,109.250002083778
60,148,60299,1,0,0:0:0:0:
209,281,60434,1,8,0:0:0:0:
151,60,60569,1,0,0:0:0:0:
85,295,60704,6,0,P|155:303|207:283,1,109.250002083778
335,167,60974,1,8,0:0:0:0:
125,212,61110,2,0,P|76:188|45:144,1,109.250002083778
338,186,61380,2,8,P|345:263|321:315,1,109.250002083778,0|0,0:0|0:0,0:0:0:0:
142,85,61650,2,0,B|220:54|284:91|284:91|334:79|395:113,1,218.500004167557,4|0,0:0|0:0,0:0:0:0:
253,275,62055,2,0,P|216:211|219:147,1,109.250002083778,8|0,0:0|0:0,0:0:0:0:
223,11,62326,1,0,0:0:0:0:
304,197,62461,1,0,0:0:0:0:
88,142,62596,1,8,0:0:0:0:
317,278,62731,1,0,0:0:0:0:
84,327,62866,6,0,P|63:243|80:181,1,109.250002083778
188,36,63137,2,0,P|209:120|192:182,1,109.250002083778,8|0,0:0|0:0,0:0:0:0:
142,282,63407,1,0,0:0:0:0:
91,111,63542,1,0,0:0:0:0:
310,267,63677,1,8,0:0:0:0:
66,203,63812,1,0,0:0:0:0:
332,132,63947,2,0,L|461:102,1,109.250002083778,4|0,0:0|0:0,0:0:0:0:
128,303,64218,5,8,0:0:0:0:
371,225,64353,1,0,0:0:0:0:
142,80,64488,1,0,0:0:0:0:
329,350,64623,1,0,0:0:0:0:
253,35,64758,1,8,0:0:0:0:
189,200,64893,1,0,0:0:0:0:
451,279,65028,2,0,P|458:221|445:157,1,109.250002083778
88,82,65299,6,0,L|121:207,1,109.250002083778,8|0,0:0|0:0,0:0:0:0:
353,319,65569,2,0,P|368:263|353:182,1,109.250002083778
217,28,65839,1,0,0:0:0:0:
173,30,65907,1,0,0:0:0:0:
139,56,65974,2,0,B|209:107|255:87|255:87|321:106|336:175,1,218.500004167557,2|0,0:0|0:0,0:0:0:0:
235,327,66380,5,8,0:0:0:0:
219,292,66447,1,0,0:0:0:0:
215,253,66515,1,0,0:0:0:0:
220,214,66583,1,0,0:0:0:0:
231,177,66650,2,0,P|268:127|330:108,1,109.250002083778
490,139,66920,2,0,P|453:189|427:197,1,54.6250010418892,8|0,0:0|0:0,0:0:0:0:
336,193,67055,2,0,B|259:167|196:213|196:213|156:202|113:221,1,218.500004167557
284,276,67461,5,8,0:0:0:0:
84,68,67596,1,0,0:0:0:0:
156,313,67731,1,0,0:0:0:0:
207,86,67866,1,0,0:0:0:0:
82,253,68001,1,8,0:0:0:0:
408,301,68137,1,0,0:0:0:0:
84,80,68272,6,0,P|62:164|85:276,1,190,4|8,0:0|0:0,0:0:0:0:
162,364,68677,2,0,B|202:377|202:377|263:292,1,109.250002083778
280,143,68947,1,0,0:0:0:0:
158,267,69083,1,8,0:0:0:0:
409,272,69218,1,0,0:0:0:0:
174,194,69353,2,0,P|167:133|196:69,1,109.250002083778
433,16,69623,6,0,B|446:61|446:61|408:137,1,109.250002083778,10|0,0:0|0:0,0:0:0:0:
202,246,69893,1,2,0:0:0:0:
295,54,70028,1,0,0:0:0:0:
340,286,70164,1,8,0:0:0:0:
184,101,70299,1,0,0:0:0:0:
442,265,70434,2,0,P|435:331|385:382,1,109.250002083778
47,213,70704,6,0,B|51:178|51:178|110:82,1,109.250002083778,8|0,0:0|0:0,0:0:0:0:
400,65,70974,1,0,0:0:0:0:
96,121,71110,1,0,0:0:0:0:
377,210,71245,1,8,0:0:0:0:
185,29,71380,1,0,0:0:0:0:
178,335,71515,2,0,B|211:281|198:198|198:198|159:161|172:97,1,218.500004167557,0|8,0:0|0:0,0:0:0:0:
287,112,71920,5,0,0:0:0:0:
55,246,72055,1,2,0:0:0:0:
338,277,72191,1,0,0:0:0:0:
58,161,72326,1,2,0:0:0:0:
354,189,72461,1,0,0:0:0:0:
161,56,72596,6,0,B|240:47|240:47|293:63|293:63|346:38|412:74,1,218.500004167557,4|8,0:0|0:0,0:0:0:0:
141,175,73001,1,0,0:0:0:0:
362,143,73137,1,0,0:0:0:0:
208,273,73272,1,0,0:0:0:0:
492,201,73407,1,8,0:0:0:0:
227,86,73542,1,0,0:0:0:0:
374,336,73677,6,0,P|391:264|376:204,1,109.250002083778
182,33,73947,2,0,B|164:62|164:62|158:151,1,109.250002083778,10|0,0:0|0:0,0:0:0:0:
182,352,74218,1,2,0:0:0:0:
249,229,74353,1,0,0:0:0:0:
97,247,74488,1,8,0:0:0:0:
317,346,74623,2,0,B|362:288|354:209|354:209|321:164|326:90,1,218.500004167557,4|0,0:0|0:0,0:0:0:0:
337,7,75028,5,10,0:0:0:0:
419,138,75164,1,2,0:0:0:0:
181,106,75299,1,2,0:0:0:0:
297,89,75434,1,2,0:0:0:0:
199,269,75569,1,10,0:0:0:0:
83,99,75704,6,0,P|123:31|164:17,1,109.250002083778,4|0,0:0|0:0,0:0:0:0:
406,55,75974,1,0,0:0:0:0:
178,96,76110,1,8,0:0:0:0:
428,227,76245,1,0,0:0:0:0:
258,24,76380,1,0,0:0:0:0:
239,57,76447,1,0,0:0:0:0:
229,94,76515,1,0,0:0:0:0:
233,132,76583,1,0,0:0:0:0:
251,165,76650,5,0,0:0:0:0:
268,199,76718,1,0,0:0:0:0:
280,234,76785,1,0,0:0:0:0:
281,272,76853,1,0,0:0:0:0:
268,306,76920,2,0,P|235:349|184:367,1,109.250002083778,12|0,0:3|0:0,0:0:0:0:
186,16,77191,6,0,P|260:-2|341:17,1,109.250002083778,12|0,0:0|0:0,0:0:0:0:
178,279,77461,2,0,P|104:297|23:278,1,109.250002083778,2|0,0:0|0:0,0:0:0:0:
317,37,77731,1,8,0:0:0:0:
349,314,77866,1,2,0:0:0:0:
96,105,78001,5,0,0:0:0:0:
370,116,78137,1,0,0:0:0:0:
188,326,78272,1,8,0:0:0:0:
291,24,78407,1,0,0:0:0:0:
359,312,78542,1,0,0:0:0:0:
175,132,78677,1,0,0:0:0:0:
465,176,78812,1,8,0:0:0:0:
178,343,78947,1,0,0:0:0:0:
382,33,79083,6,0,B|408:124|370:158|370:158|396:216|385:265,1,218.500004167557,4|8,0:0|0:0,0:0:0:0:
327,375,79488,1,0,0:0:0:0:
298,218,79623,1,0,0:0:0:0:
424,338,79758,1,0,0:0:0:0:
122,89,79893,1,8,0:0:0:0:
167,331,80028,1,0,0:0:0:0:
213,26,80164,2,0,B|226:113|185:163|185:163|166:203|191:246,1,218.500004167557,4|8,0:0|0:0,0:0:0:0:
292,336,80569,1,0,0:0:0:0:
69,129,80704,1,0,0:0:0:0:
301,212,80839,1,0,0:0:0:0:
48,309,80974,6,0,L|129:194,1,109.250002083778,8|0,0:0|0:0,0:0:0:0:
291,21,81245,2,0,P|305:95|268:163,1,109.250002083778,4|0,0:0|0:0,0:0:0:0:
112,290,81515,1,10,0:0:0:0:
191,66,81650,1,0,0:0:0:0:
339,284,81785,2,0,P|294:322|230:327,1,109.250002083778,2|0,0:0|0:0,0:0:0:0:
231,77,82055,2,0,P|306:67|369:87,1,109.250002083778,10|0,0:0|0:0,0:0:0:0:
27,198,82326,2,0,P|5:126|24:61,1,109.250002083778,2|0,0:0|0:0,0:0:0:0:
276,181,82596,2,0,P|260:251|131:318,1,218.500004167557,10|0,0:0|0:0,0:0:0:0:
12,276,83001,5,2,0:0:0:0:
172,208,83137,1,2,0:0:0:0:
23,49,83272,2,0,L|89:77,1,54.6250010418892,8|0,0:0|0:0,0:0:0:0:
224,147,83407,2,0,B|288:179|288:179|335:167|335:167|378:212|443:216,1,218.500004167557,4|8,0:0|0:0,0:0:0:0:
269,55,83812,5,0,0:0:0:0:
378,336,83947,1,0,0:0:0:0:
418,96,84083,1,0,0:0:0:0:
186,226,84218,1,8,0:0:0:0:
371,195,84353,1,0,0:0:0:0:
60,138,84488,5,0,0:0:0:0:
174,318,84623,1,0,0:0:0:0:
191,18,84758,1,8,0:0:0:0:
382,240,84893,1,0,0:0:0:0:
147,160,85028,1,2,0:0:0:0:
128,126,85096,1,0,0:0:0:0:
125,87,85164,1,2,0:0:0:0:
132,49,85231,1,0,0:0:0:0:
158,21,85299,1,4,0:0:0:0:
317,239,85434,1,2,0:0:0:0:
158,21,85569,6,0,B|157:121|157:121|144:142|144:142|162:166|162:166|163:268,1,218.500004167557,4|8,0:0|0:0,0:0:0:0:
47,354,85974,2,0,P|34:292|47:228,1,109.250002083778
131,113,86245,1,0,0:0:0:0:
211,333,86380,2,0,P|148:321|105:288,1,109.250002083778,8|0,0:0|0:0,0:0:0:0:
319,120,86650,2,0,B|359:216|325:261|325:261|341:291|343:351,1,218.500004167557,0|8,0:0|0:0,0:0:0:0:
191,145,87055,5,0,0:0:0:0:
477,283,87191,1,0,0:0:0:0:
186,276,87326,1,0,0:0:0:0:
494,115,87461,1,8,0:0:0:0:
228,381,87596,1,0,0:0:0:0:
349,122,87731,6,0,P|263:88|155:121,1,163.875003125668
68,145,88001,6,0,P|106:204|168:224,1,109.250002083778,8|0,0:0|0:0,0:0:0:0:
456,86,88272,2,0,P|418:27|356:7,1,109.250002083778,2|0,0:0|0:0,0:0:0:0:
195,328,88542,2,0,P|237:259|230:203,1,109.250002083778,8|0,0:0|0:0,0:0:0:0:
144,57,88812,2,0,P|198:107|345:108,1,218.500004167557,4|8,0:0|0:0,0:0:0:0:
440,42,89218,1,2,0:0:0:0:
354,315,89353,1,8,0:0:0:0:
231,39,89488,1,2,0:0:0:0:
398,161,89623,1,8,0:0:0:0:
190,250,89758,1,2,0:0:0:0:
505,277,89893,6,0,P|395:321|288:309,1,218.500004167557,12|0,0:0|0:0,0:0:0:0:
109,183,90299,1,0,0:0:0:0:
392,233,90434,2,0,P|401:171|379:95,1,109.250002083778
265,310,90704,1,8,0:0:0:0:
198,71,90839,1,0,0:0:0:0:
146,273,90974,6,0,B|133:193|163:151|163:151|105:113|123:43,1,218.500004167557,4|8,0:0|0:0,0:0:0:0:
256,247,91380,1,0,0:0:0:0:
197,79,91515,2,0,P|263:69|330:87,1,109.250002083778,2|0,0:0|0:0,0:0:0:0:
453,156,91785,1,8,0:0:0:0:
168,289,91920,1,0,0:0:0:0:
381,114,92055,6,0,B|404:176|387:245,1,109.250002083778,4|0,0:0|0:0,0:0:0:0:
42,350,92326,2,0,B|25:287|41:215,1,109.250002083778,8|0,0:0|0:0,0:0:0:0:
98,71,92596,1,0,0:0:0:0:
139,293,92731,1,0,0:0:0:0:
256,40,92866,2,0,L|292:181,1,109.250002083778,12|0,0:0|0:0,0:0:0:0:
259,376,93137,5,8,0:0:0:0:
181,168,93272,1,0,0:0:0:0:
334,300,93407,1,8,0:0:0:0:
91,112,93542,1,0,0:0:0:0:
443,144,93677,1,8,0:0:0:0:
87,274,93812,1,0,0:0:0:0:
428,326,93947,1,8,0:0:0:0:
242,38,94083,1,0,0:0:0:0:
248,383,94218,1,4,0:0:0:0:
241,61,94758,5,0,0:0:0:0:
181,330,95299,6,0,P|162:273|191:184,1,142.500005435944
268,129,95704,2,0,P|284:91|208:102,1,142.500005435944
263,268,96110,2,0,P|329:274|385:241,1,121.125002310276
439,190,96380,6,0,L|452:313,1,95,8|0,0:0|0:0,0:0:0:0:
311,189,96650,1,2,0:0:0:0:
473,219,96785,2,0,L|486:342,1,95,8|0,0:0|0:0,0:0:0:0:
309,156,97055,1,2,0:0:0:0:
503,257,97190,2,0,L|516:380,1,95,8|0,0:0|0:0,0:0:0:0:
259,124,97461,2,0,L|246:1,1,95,8|0,0:0|0:0,0:0:0:0:
353,307,97731,5,2,0:0:0:0:
147,111,97866,2,0,L|145:250,1,95,8|0,0:0|0:0,0:0:0:0:
313,278,98137,1,2,0:0:0:0:
109,62,98272,2,0,L|107:201,1,95,8|0,0:0|0:0,0:0:0:0:
265,251,98542,5,2,0:0:0:0:
59,42,98677,1,0,0:0:0:0:
370,303,98812,2,0,L|372:164,1,95,8|0,0:0|0:0,0:0:0:0:
59,42,99083,2,0,L|57:181,1,95,8|0,0:0|0:0,0:0:0:0:
379,208,99353,5,2,0:0:0:0:
111,164,99488,1,2,0:0:0:0:
315,132,99623,2,0,L|443:109,1,95,8|0,0:0|0:0,0:0:0:0:
191,298,99893,2,0,L|63:321,1,95,8|0,0:0|0:0,0:0:0:0:
106,132,100164,5,0,0:0:0:0:
143,112,100231,1,0,0:0:0:0:
184,101,100299,1,0,0:0:0:0:
226,103,100366,1,0,0:0:0:0:
267,112,100434,1,0,0:0:0:0:
298,140,100501,5,0,0:0:0:0:
257,173,100569,1,0,0:0:0:0:
210,198,100637,1,0,0:0:0:0:
163,221,100704,6,8,L|99:251,1,66.5
259,267,101245,2,0,P|269:209|239:157,1,114,4|2,0:1|0:0,0:0:0:0:
106,225,102326,1,2,0:0:0:0:
244,161,102596,1,2,0:0:0:0:
143,336,102866,6,0,B|109:352|109:352|28:328,1,118.75,4|0,0:3|0:0,0:0:0:0:
294,65,103137,2,0,B|329:55|329:55|433:76,1,118.75,8|0,0:0|0:0,0:0:0:0:
171,319,103407,2,0,P|149:244|178:167,1,118.75,2|0,0:0|0:0,0:0:0:0:
495,34,103677,2,0,B|514:116|474:164,1,118.75,10|0,0:0|0:0,0:0:0:0:
229,260,103947,1,0,0:0:0:0:
358,81,104083,1,0,0:0:0:0:
350,352,104218,2,0,B|336:281|371:210|371:210|342:153|366:90,1,237.5,10|0,0:0|0:0,0:0:0:0:
431,26,104623,5,2,0:0:0:0:
431,26,104691,1,0,0:0:0:0:
431,26,104758,2,0,P|449:84|417:166,1,118.75,8|0,0:0|0:0,0:0:0:0:
311,193,105028,2,0,P|178:199|96:276,1,237.5,4|0,0:0|0:0,0:0:0:0:
321,334,105434,1,0,0:0:0:0:
9,210,105569,1,0,0:0:0:0:
259,89,105704,1,0,0:0:0:0:
6,339,105839,2,0,L|111:240,1,118.75,8|0,0:0|0:0,0:0:0:0:
398,136,106110,6,0,P|325:167|249:148,1,118.75,2|0,0:0|0:0,0:0:0:0:
88,94,106380,2,0,P|161:63|237:82,1,118.75,10|0,0:0|0:0,0:0:0:0:
445,201,106650,1,0,0:0:0:0:
137,154,106785,1,0,0:0:0:0:
415,19,106920,2,0,P|436:95|408:140,1,118.75,8|0,0:0|0:0,0:0:0:0:
186,269,107191,5,2,0:0:0:0:
349,76,107326,1,2,0:0:0:0:
293,253,107461,2,0,L|255:379,1,118.75,8|0,0:0|0:0,0:0:0:0:
160,132,107731,5,2,0:0:0:0:
408,142,107866,1,2,0:0:0:0:
81,221,108001,2,0,P|63:150|83:84,1,118.75,8|0,0:0|0:0,0:0:0:0:
376,111,108272,1,0,0:0:0:0:
175,296,108407,1,0,0:0:0:0:
175,296,108474,1,0,0:0:0:0:
175,296,108542,2,0,P|160:235|176:183,1,118.75,8|0,0:0|0:0,0:0:0:0:
302,56,108812,5,2,0:0:0:0:
242,281,108947,1,0,0:0:0:0:
102,74,109083,2,0,L|176:205,1,118.75,8|0,0:0|0:0,0:0:0:0:
280,276,109353,2,0,B|297:242|297:242|298:121,1,118.75,4|0,0:0|0:0,0:0:0:0:
38,18,109623,2,0,P|22:94|53:176,1,118.75,8|0,0:0|0:0,0:0:0:0:
154,319,109893,5,0,0:0:0:0:
154,319,109961,1,0,0:0:0:0:
154,319,110028,2,0,P|166:241|151:179,1,118.75,0|8,0:0|0:0,0:0:0:0:
45,76,110299,1,0,0:0:0:0:
78,253,110434,2,0,L|92:188,1,59.375,2|0,0:0|0:0,0:0:0:0:
190,39,110569,2,0,L|202:97,1,59.375,2|0,0:0|0:0,0:0:0:0:
346,266,110704,2,0,P|333:214|312:120,1,118.75,8|0,0:0|0:0,0:0:0:0:
429,32,110974,5,0,0:0:0:0:
443,64,111042,1,0,0:0:0:0:
449,99,111110,1,0,0:0:0:0:
449,134,111177,1,0,0:0:0:0:
441,169,111245,2,0,P|407:226|344:265,1,118.75,8|0,0:0|0:0,0:0:0:0:
65,215,111515,2,0,B|153:210|196:161|196:161|245:192|293:183,1,237.5,4|2,0:0|0:0,0:0:0:0:
459,155,111920,1,0,0:0:0:0:
243,56,112055,2,0,P|174:56|107:93,1,118.75,10|0,0:0|0:0,0:0:0:0:
236,311,112326,2,0,P|305:311|372:274,1,118.75,8|0,0:0|0:0,0:0:0:0:
22,5,112596,6,0,P|-12:131|24:246,1,237.5,4|0,0:0|0:0,0:0:0:0:
175,360,113001,6,0,B|194:322|194:322|186:209,1,118.75,4|0,0:0|0:0,0:0:0:0:
141,74,113272,1,2,0:0:0:0:
0,363,113407,2,0,P|89:382|181:358,1,178.125,8|0,0:0|0:0,0:0:0:0:
246,329,113677,2,0,B|279:270|247:211|247:211|184:171|183:96,1,237.5,4|0,0:0|0:0,0:0:0:0:
167,277,114083,1,2,0:0:0:0:
281,71,114218,1,2,0:0:0:0:
22,179,114353,1,2,0:0:0:0:
326,225,114488,2,0,L|481:239,1,118.75,8|0,0:0|0:0,0:0:0:0:
112,52,114758,5,2,0:0:0:0:
118,284,114893,1,2,0:0:0:0:
358,39,115028,1,8,0:0:0:0:
0,203,115164,2,0,P|-13:289|116:285,1,237.5,4|0,0:0|0:0,0:0:0:0:
280,39,115569,2,0,P|203:30|119:56,1,118.75,10|0,0:0|0:0,0:0:0:0:
231,348,115839,2,0,B|249:255|210:188|210:188|233:137|226:101,1,237.5,4|0,0:0|0:0,0:0:0:0:
142,1,116245,1,2,0:0:0:0:
134,286,116380,1,2,0:0:0:0:
230,28,116515,1,2,0:0:0:0:
39,240,116650,6,0,P|25:297|34:355,1,118.75,12|0,0:0|0:0,0:0:0:0:
310,189,116920,1,2,0:0:0:0:
84,133,117055,1,0,0:0:0:0:
281,330,117191,1,10,0:0:0:0:
313,41,117326,1,0,0:0:0:0:
85,351,117461,2,0,P|60:261|94:160,1,178.125,4|0,0:0|0:0,0:0:0:0:
144,87,117731,2,0,P|191:52|275:58,1,118.75,8|0,0:0|0:0,0:0:0:0:
238,372,118001,6,0,B|261:295|228:226|228:226|245:171|211:101,1,237.5,4|0,0:0|0:0,0:0:0:0:
99,26,118407,1,2,0:0:0:0:
179,324,118542,1,2,0:0:0:0:
344,112,118677,1,2,0:0:0:0:
137,180,118812,2,0,L|12:228,1,118.75,8|0,0:0|0:0,0:0:0:0:
378,282,119083,5,2,0:0:0:0:
124,287,119218,1,8,0:0:0:0:
307,119,119353,1,8,0:0:0:0:
230,356,119488,1,2,0:0:0:0:
327,77,119623,1,8,0:0:0:0:
417,291,119758,1,2,0:0:0:0:
80,250,119893,2,0,P|159:213|217:222,1,118.75,8|0,0:0|0:0,0:0:0:0:
417,291,120164,6,0,L|390:157,1,118.75,12|0,0:0|0:0,0:0:0:0:
218,12,120434,1,8,0:0:0:0:
302,328,120569,1,0,0:0:0:0:
374,32,120704,1,8,0:0:0:0:
184,324,120839,1,0,0:0:0:0:
441,145,120974,2,0,P|447:203|440:262,1,118.75,12|0,0:0|0:0,0:0:0:0:
255,27,121245,1,8,0:0:0:0:
185,325,121380,1,0,0:0:0:0:
37,83,121515,6,0,L|66:228,1,118.75,12|0,0:0|0:0,0:0:0:0:
167,323,121785,1,8,0:0:0:0:
336,58,121920,1,0,0:0:0:0:
62,211,122055,1,10,0:0:0:0:
457,269,122191,1,0,0:0:0:0:
265,39,122326,2,0,P|205:27|117:59,1,118.75,14|0,0:0|0:0,0:0:0:0:
312,350,122596,2,0,P|372:362|460:330,1,118.75,8|0,0:0|0:0,0:0:0:0:
111,166,122866,1,8,0:0:0:0:
367,265,123001,1,0,0:0:0:0:
171,338,123137,1,8,0:0:0:0:
325,19,123272,1,0,0:0:0:0:
335,340,123407,6,0,P|374:273|359:205,1,118.75,10|0,0:0|0:0,0:0:0:0:
235,27,123677,1,8,0:0:0:0:
259,253,123812,1,0,0:0:0:0:
480,99,123947,1,8,0:0:0:0:
97,125,124083,1,0,0:0:0:0:
451,250,124218,2,0,P|466:180|454:124,1,118.75,8|0,0:0|0:0,0:0:0:0:
115,264,124488,2,0,L|116:408,1,118.75,12|0,0:0|0:0,0:0:0:0:
257,97,124758,5,8,0:0:0:0:
125,378,124893,1,0,0:0:0:0:
133,152,125028,1,8,0:0:0:0:
309,273,125164,1,0,0:0:0:0:
48,215,125299,2,0,P|38:156|46:98,1,118.75,10|0,0:0|0:0,0:0:0:0:
219,359,125569,1,8,0:0:0:0:
389,89,125704,1,0,0:0:0:0:
177,249,125839,6,0,P|270:270|332:240,1,118.75,10|0,0:0|0:0,0:0:0:0:
457,32,126110,2,0,P|364:11|302:41,1,118.75,10|0,0:0|0:0,0:0:0:0:
430,326,126380,2,0,P|453:245|442:190,1,118.75,10|0,0:0|0:0,0:0:0:0:
131,46,126650,2,0,P|114:133|132:196,1,118.75,12|0,0:0|0:0,0:0:0:0:
263,360,126920,5,8,0:0:0:0:
211,106,127055,1,0,0:0:0:0:
0,206,127191,1,8,0:0:0:0:
320,156,127326,1,0,0:0:0:0:
40,333,127461,1,8,0:0:0:0:
386,259,127596,1,0,0:0:0:0:
51,257,127731,6,0,P|37:168|54:104,1,118.75,10|0,0:0|0:0,0:0:0:0:
419,35,128001,2,0,B|375:124|287:142|287:142|260:178|225:197,1,237.5,8|0,0:0|0:0,0:0:0:0:
69,279,128407,1,0,0:0:0:0:
69,279,128474,1,0,0:0:0:0:
69,279,128542,2,0,P|55:215|80:144,1,118.75,10|0,0:0|0:0,0:0:0:0:
233,5,128812,2,0,B|250:61|209:142|209:142|233:195|213:257,1,237.5,4|8,0:0|0:0,0:0:0:0:
166,370,129218,5,2,0:0:0:0:
131,194,129353,1,2,0:0:0:0:
342,305,129488,1,2,0:0:0:0:
118,295,129623,2,0,L|-5:287,1,118.75,8|0,0:0|0:0,0:0:0:0:
303,142,129893,6,0,P|362:125|445:137,1,118.75
360,309,130164,1,8,0:0:0:0:
187,122,130299,1,0,0:0:0:0:
364,217,130434,1,0,0:0:0:0:
147,228,130569,1,0,0:0:0:0:
321,100,130704,2,0,L|435:18,1,118.75,8|0,0:0|0:0,0:0:0:0:
90,335,130974,6,0,B|97:291|82:245|82:245|112:167|112:167|99:131|113:82,1,237.5,4|8,0:0|0:0,0:0:0:0:
96,0,131380,1,2,0:0:0:0:
186,267,131515,1,2,0:0:0:0:
8,94,131650,1,2,0:0:0:0:
218,176,131785,2,0,L|348:226,1,118.75,8|0,0:0|0:0,0:0:0:0:
90,335,132055,6,0,B|92:276|74:243|74:243|75:192|75:192,1,118.75,4|0,0:0|0:0,0:0:0:0:
71,42,132326,2,0,B|79:80|79:80|176:133,1,118.75,8|0,0:0|0:0,0:0:0:0:
415,244,132596,2,0,P|438:175|418:92,1,118.75,2|0,0:0|0:0,0:0:0:0:
164,186,132866,2,0,P|231:220|258:161,1,118.75,8|0,0:0|0:0,0:0:0:0:
333,32,133137,6,0,L|351:176,1,118.75,8|0,0:0|0:0,0:0:0:0:
299,344,133407,1,8,0:0:0:0:
196,69,133542,1,0,0:0:0:0:
359,182,133677,1,8,0:0:0:0:
33,312,133812,1,0,0:0:0:0:
322,71,133947,6,0,P|263:63|202:72,1,118.75,8|0,0:0|0:0,0:0:0:0:
0,211,134218,1,8,0:0:0:0:
258,172,134353,1,0,0:0:0:0:
49,42,134488,1,8,0:0:0:0:
213,339,134623,1,0,0:0:0:0:
0,139,134758,1,8,0:0:0:0:
378,195,134893,1,0,0:0:0:0:
95,294,135028,1,8,0:0:0:0:
175,44,135164,1,0,0:0:0:0:
219,364,135299,6,0,L|260:234,1,118.75,12|0,0:0|0:0,0:0:0:0:
352,32,135569,1,8,0:0:0:0:
319,365,135704,1,0,0:0:0:0:
410,150,135839,1,8,0:0:0:0:
25,117,135974,1,0,0:0:0:0:
316,347,136110,1,8,0:0:0:0:
316,53,136245,1,0,0:0:0:0:
23,194,136380,6,0,P|16:135|34:79,1,118.75,12|0,0:0|0:0,0:0:0:0:
280,322,136650,1,8,0:0:0:0:
103,147,136785,1,0,0:0:0:0:
135,378,136920,1,0,0:0:0:0:
163,339,136988,1,0,0:0:0:0:
174,293,137055,1,0,0:0:0:0:
168,245,137123,1,0,0:0:0:0:
143,203,137191,2,0,L|99:144,1,59.375,2|0,0:0|0:0,0:0:0:0:
211,101,137326,2,0,L|234:32,1,59.375,2|0,0:0|0:0,0:0:0:0:
335,149,137461,6,0,B|327:198|327:198|262:280,1,118.75,4|0,0:0|0:0,0:0:0:0:
102,321,137731,2,0,B|103:254|103:254|134:182,1,118.75,8|0,0:0|0:0,0:0:0:0:
213,94,138001,1,0,0:0:0:0:
207,310,138137,1,0,0:0:0:0:
84,211,138272,2,0,L|-13:119,1,118.75,8|0,0:0|0:0,0:0:0:0:
298,162,138542,5,0,0:0:0:0:
101,234,138677,1,0,0:0:0:0:
303,322,138812,2,0,L|442:372,1,118.75,8|0,0:0|0:0,0:0:0:0:
311,129,139083,6,0,B|292:69|292:69|240:14,1,118.75,2|0,0:0|0:0,0:0:0:0:
181,151,139353,2,0,B|125:122|125:122|49:119,1,118.75,10|0,0:0|0:0,0:0:0:0:
204,328,139623,2,0,P|279:338|339:323,1,118.75,4|0,0:0|0:0,0:0:0:0:
448,244,139893,1,8,0:0:0:0:
259,219,140028,1,0,0:0:0:0:
332,343,140164,1,0,0:0:0:0:
324,104,140299,2,0,P|256:84|171:101,1,118.75,2|8,0:0|0:0,0:0:0:0:
332,343,140569,2,0,P|388:361|447:359,1,118.75,2|0,0:0|0:0,0:0:0:0:
193,170,140839,5,0,0:0:0:0:
395,255,140974,1,8,0:0:0:0:
242,284,141110,1,0,0:0:0:0:
406,86,141245,1,2,0:0:0:0:
175,368,141380,6,0,P|150:290|163:236,1,118.75,2|8,0:0|0:0,0:0:0:0:
273,132,141650,1,0,0:0:0:0:
291,176,141718,1,0,0:0:0:0:
293,223,141785,2,0,B|277:287|231:322|231:322|176:282|101:304,1,237.5,4|8,0:0|0:0,0:0:0:0:
21,307,142191,1,0,0:0:0:0:
160,377,142326,1,0,0:0:0:0:
72,108,142461,1,0,0:0:0:0:
142,257,142596,2,0,L|196:378,1,118.75,8|0,0:0|0:0,0:0:0:0:
210,119,142866,5,2,0:0:0:0:
207,351,143001,1,2,0:0:0:0:
136,187,143137,1,10,0:0:0:0:
291,300,143272,1,0,0:0:0:0:
134,269,143407,1,0,0:0:0:0:
388,268,143542,1,2,0:0:0:0:
163,349,143677,2,0,L|45:386,1,118.75,10|2,0:0|0:0,0:0:0:0:
143,152,143947,6,0,P|232:133|377:159,1,237.5,4|8,0:0|0:0,0:0:0:0:
376,194,144285,1,0,0:0:0:0:
376,194,144353,2,0,L|341:264,1,59.375,2|0,0:0|0:0,0:0:0:0:
251,348,144488,2,0,L|198:241,1,118.75,2|0,0:0|0:0,0:0:0:0:
141,91,144758,5,8,0:0:0:0:
143,310,144893,1,0,0:0:0:0:
307,129,145028,1,0,0:0:0:0:
172,170,145164,1,0,0:0:0:0:
355,292,145299,1,8,0:0:0:0:
300,152,145434,5,0,0:0:0:0:
236,277,145569,1,0,0:0:0:0:
462,275,145704,1,0,0:0:0:0:
314,266,145839,1,8,0:0:0:0:
405,368,145974,1,0,0:0:0:0:
255,201,146110,2,0,B|206:189|168:212|168:212|118:188|118:188|77:219|-5:210,1,237.5,6|8,0:0|0:0,0:0:0:0:
258,120,146515,1,2,0:0:0:0:
41,333,146650,2,0,P|17:254|31:212,1,118.75
172,12,146920,2,0,L|168:146,1,118.75,8|0,0:0|0:0,0:0:0:0:
212,302,147191,6,0,B|277:347|338:318|338:318|412:324|457:293,1,237.5,4|8,0:0|0:0,0:0:0:0:
280,247,147596,1,2,0:0:0:0:
448,197,147731,1,2,0:0:0:0:
179,92,147866,1,2,0:0:0:0:
271,268,148001,2,0,L|331:388,1,118.75,8|0,0:0|0:0,0:0:0:0:
399,244,148272,6,0,B|419:175|386:129|386:129|424:103|401:72|401:72|412:51|403:13,1,237.5,4|8,0:0|0:0,0:0:0:0:
310,189,148677,1,0,0:0:0:0:
188,68,148812,1,0,0:0:0:0:
296,72,148947,1,0,0:0:0:0:
173,206,149083,2,0,L|77:313,1,118.75,8|0,0:0|0:0,0:0:0:0:
91,126,149353,5,0,0:0:0:0:
174,353,149488,1,8,0:0:0:0:
210,75,149623,2,0,L|201:210,1,118.75,8|0,0:0|0:0,0:0:0:0:
205,60,149893,5,8,0:0:0:0:
387,313,150028,1,8,0:0:0:0:
343,58,150164,1,8,0:0:0:0:
253,384,150299,1,8,0:0:0:0:
415,283,150434,2,0,B|437:200|411:119|411:119|374:168|315:153,1,237.5,4|8,0:0|0:0,0:0:0:0:
188,93,150839,1,2,0:0:0:0:
336,73,150974,1,2,0:0:0:0:
266,275,151110,1,2,0:0:0:0:
263,146,151245,5,10,0:0:0:0:
365,190,151380,1,2,0:0:0:0:
147,251,151515,1,2,0:0:0:0:
223,83,151650,5,2,0:0:0:0:
256,228,151785,1,10,0:0:0:0:
109,83,151920,1,2,0:0:0:0:
320,110,152055,5,2,0:0:0:0:
139,176,152191,1,2,0:0:0:0:
265,28,152326,2,0,P|333:17|397:33,1,118.75,8|0,0:0|0:0,0:0:0:0:
102,338,152596,2,0,B|95:222|143:179|143:179|120:139|120:105,1,237.5,6|8,0:0|0:0,0:0:0:0:
210,116,153001,1,2,0:0:0:0:
40,170,153137,1,2,0:0:0:0:
288,303,153272,1,2,0:0:0:0:
333,135,153407,5,10,0:0:0:0:
182,201,153542,1,2,0:0:0:0:
443,253,153677,1,2,0:0:0:0:
207,72,153812,1,10,0:0:0:0:
252,322,153947,1,10,0:0:0:0:
253,331,154218,5,0,0:0:0:0:
269,299,154285,1,0,0:0:0:0:
275,263,154353,1,0,0:0:0:0:
269,228,154420,1,0,0:0:0:0:
252,196,154488,5,0,0:0:0:0:
236,164,154555,1,0,0:0:0:0:
235,128,154623,1,0,0:0:0:0:
250,95,154691,1,0,0:0:0:0:
281,77,154758,6,0,B|304:66|304:66|371:59,1,71.2500027179719,4|0,0:0|0:0,0:0:0:0:
354,188,155028,2,0,P|301:214|259:208,1,71.2500027179719
118,135,155839,6,0,L|166:206,1,71.2500027179719,2|0,0:0|0:0,0:0:0:0:
245,293,156110,1,0,0:0:0:0:
245,293,156245,2,0,P|266:227|231:137,1,142.500005435944
213,134,156920,6,0,P|286:114|375:131,1,142.500005435944,2|0,0:0|0:0,0:0:0:0:
297,269,157326,2,0,P|285:211|292:181,1,71.2500027179719
372,247,158001,6,0,P|309:288|221:280,1,142.500005435944,2|0,0:0|0:0,0:0:0:0:
156,237,158407,2,0,P|130:196|129:155,1,71.2500027179719
313,26,159083,6,0,L|294:153,1,109.250002083778,4|0,0:0|0:0,0:0:0:0:
263,258,159353,1,0,0:0:0:0:
299,149,159488,1,0,0:0:0:0:
282,284,159623,1,0,0:0:0:0:
318,175,159758,1,0,0:0:0:0:
296,302,159893,1,0,0:0:0:0:
332,193,160028,1,0,0:0:0:0:
299,334,160164,6,0,B|266:365|227:351|227:351|171:350|161:309|72:307,1,218.500004167557,4|0,0:0|0:0,0:0:0:0:
240,263,160569,1,0,0:0:0:0:
223,162,160704,2,0,B|195:91|161:81|161:81|141:49|70:36,1,163.875003125668,4|0,0:0|0:0,0:0:0:0:
91,133,160974,2,0,P|93:196|161:264,1,163.875003125668,4|0,0:0|0:0,0:0:0:0:
255,277,161245,6,0,B|327:243|324:192|324:192|317:138|369:95,1,218.500004167557,4|0,0:0|0:0,0:0:0:0:
400,97,162055,1,0,0:0:0:0:
414,123,162326,2,0,B|351:166|269:149|269:149|237:132|194:137,1,218.500004167557,4|0,0:0|0:0,0:0:0:0:
69,230,162731,1,0,0:0:0:0:
202,187,162866,1,0,0:0:0:0:
227,165,162934,1,0,0:0:0:0:
239,134,163001,1,0,0:0:0:0:
235,101,163069,1,0,0:0:0:0:
212,76,163137,1,0,0:0:0:0:
180,66,163204,1,0,0:0:0:0:
147,70,163272,1,0,0:0:0:0:
122,90,163339,1,0,0:0:0:0:
108,120,163407,6,0,B|103:169|103:169|134:248,1,109.250002083778,4|0,0:0|0:0,0:0:0:0:
227,345,163677,1,8,0:0:0:0:
187,154,163812,1,0,0:0:0:0:
116,324,163947,1,0,0:0:0:0:
411,196,164083,1,0,0:0:0:0:
187,177,164218,5,8,0:0:0:0:
298,308,164353,1,0,0:0:0:0:
452,195,164488,2,0,P|467:126|449:75,1,109.250002083778
171,39,164758,2,0,B|147:84|147:84|146:178,1,109.250002083778,8|0,0:0|0:0,0:0:0:0:
185,324,165028,1,0,0:0:0:0:
302,149,165164,2,0,L|363:44,1,109.250002083778,4|0,0:0|0:0,0:0:0:0:
178,329,165434,6,0,P|101:340|6:233,1,218.500004167557,4|0,0:0|0:0,0:0:0:0:
80,60,165839,2,0,B|94:95|94:95|181:130,1,109.250002083778,8|0,0:0|0:0,0:0:0:0:
400,229,166110,1,0,0:0:0:0:
264,130,166245,6,0,B|233:113|233:113|143:123,1,109.250002083778,8|0,0:0|0:0,0:0:0:0:
230,323,166515,2,0,B|261:340|261:340|351:330,1,109.250002083778,8|0,0:0|0:0,0:0:0:0:
371,108,166785,1,0,0:0:0:0:
368,339,166920,2,0,P|390:279|380:225,1,109.250002083778,8|0,0:0|0:0,0:0:0:0:
239,130,167191,1,0,0:0:0:0:
298,267,167326,1,0,0:0:0:0:
298,267,167393,1,0,0:0:0:0:
298,267,167461,2,0,P|230:280|135:238,1,163.875003125668,4|0,0:0|0:0,0:0:0:0:
119,216,167731,6,0,L|183:177,1,54.6250010418892
245,146,167866,2,0,P|252:89|232:18,1,109.250002083778,0|8,0:0|0:0,0:0:0:0:
118,99,168137,1,0,0:0:0:0:
335,233,168272,1,0,0:0:0:0:
221,41,168407,1,0,0:0:0:0:
211,322,168542,6,0,L|240:259,1,54.6250010418892,8|0,0:0|0:0,0:0:0:0:
120,168,168677,2,0,L|97:118,1,54.6250010418892
300,140,168812,2,0,L|364:27,1,109.250002083778
135,52,169083,5,8,0:0:0:0:
195,201,169218,1,0,0:0:0:0:
245,63,169353,1,0,0:0:0:0:
123,267,169488,2,0,P|191:285|258:271,1,109.250002083778,2|8,0:0|0:0,0:0:0:0:
428,203,169758,6,0,B|372:178|324:209|324:209|276:175|218:194,1,218.500004167557,6|0,0:0|0:0,0:0:0:0:
57,281,170164,1,8,0:0:0:0:
213,203,170299,1,0,0:0:0:0:
105,81,170434,1,0,0:0:0:0:
220,41,170569,1,0,0:0:0:0:
81,188,170704,1,8,0:0:0:0:
15,34,170839,2,0,P|83:0|215:60,1,218.500004167557
18,183,171245,2,0,B|10:220|10:220|30:303,1,109.250002083778,4|0,0:0|0:0,0:0:0:0:
123,62,171515,5,0,0:0:0:0:
166,59,171583,1,0,0:0:0:0:
207,71,171650,1,0,0:0:0:0:
238,101,171718,1,0,0:0:0:0:
271,128,171785,1,0,0:0:0:0:
311,145,171853,1,0,0:0:0:0:
354,145,171920,1,0,0:0:0:0:
395,129,171988,1,0,0:0:0:0:
429,102,172055,6,0,B|449:69|449:69|436:-12,1,109.250002083778,4|0,0:0|0:0,0:0:0:0:
229,117,172326,2,0,L|208:250,1,109.250002083778,8|0,0:0|0:0,0:0:0:0:
337,258,172596,1,0,0:0:0:0:
154,306,172731,1,0,0:0:0:0:
332,115,172866,1,8,0:0:0:0:
240,354,173001,1,0,0:0:0:0:
89,275,173137,6,0,P|70:208|90:143,1,109.250002083778
269,45,173407,2,0,B|278:78|278:78|254:159,1,109.250002083778,8|0,0:0|0:0,0:0:0:0:
135,289,173677,1,0,0:0:0:0:
292,226,173812,2,0,P|372:206|439:218,1,109.250002083778,0|8,0:0|0:0,0:0:0:0:
187,317,174083,1,0,0:0:0:0:
229,34,174218,2,0,B|253:89|212:148|212:148|213:175|198:201|198:201|235:230|225:272,1,218.500004167557,2|8,0:0|0:0,0:0:0:0:
93,262,174623,6,0,P|78:193|94:135,1,109.250002083778
162,78,174893,1,0,0:0:0:0:
343,254,175028,2,0,B|237:294|208:218|122:261,1,218.500004167557,8|0,0:0|0:0,0:0:0:0:
33,359,175434,1,0,0:0:0:0:
279,171,175569,1,8,0:0:0:0:
155,339,175704,1,0,0:0:0:0:
70,204,175839,6,0,P|52:138|76:78,1,109.250002083778,2|0,0:0|0:0,0:0:0:0:
403,201,176110,2,0,B|423:244|423:244|397:327,1,109.250002083778,10|0,0:0|0:0,0:0:0:0:
155,138,176380,2,0,P|224:91|295:94,1,109.250002083778,4|0,0:0|0:0,0:0:0:0:
468,118,176650,1,8,0:0:0:0:
240,176,176785,1,0,0:0:0:0:
341,19,176920,1,0,0:0:0:0:
283,281,177055,1,0,0:0:0:0:
41,83,177191,6,0,P|124:71|178:95,1,109.250002083778,8|0,0:0|0:0,0:0:0:0:
265,294,177461,2,0,P|182:306|128:282,1,109.250002083778
362,94,177731,1,10,0:0:0:0:
148,293,177866,1,2,0:0:0:0:
387,227,178001,1,0,0:0:0:0:
82,145,178137,1,2,0:0:0:0:
278,289,178272,1,8,0:0:0:0:
205,24,178407,2,0,B|169:89|189:134|189:134|168:199|188:257,1,218.500004167557,4|0,0:0|0:0,0:0:0:0:
317,335,178812,6,0,P|331:256|307:205,1,109.250002083778,8|0,0:0|0:0,0:0:0:0:
66,132,179083,1,0,0:0:0:0:
252,278,179218,1,0,0:0:0:0:
240,98,179353,1,8,0:0:0:0:
68,324,179488,2,0,P|153:353|241:264,1,218.500004167557,4|0,0:0|0:0,0:0:0:0:
272,68,179893,5,2,0:0:0:0:
159,265,180028,1,2,0:0:0:0:
390,184,180164,1,2,0:0:0:0:
151,50,180299,1,2,0:0:0:0:
140,92,180366,1,0,0:0:0:0:
150,134,180434,1,2,0:0:0:0:
174,169,180501,1,0,0:0:0:0:
197,205,180569,1,2,0:0:0:0:
206,247,180637,1,0,0:0:0:0:
192,288,180704,6,0,P|147:335|60:342,1,109.250002083778,12|0,0:3|0:0,0:0:0:0:
244,44,180974,2,0,P|328:23|391:46,1,109.250002083778,12|0,0:0|0:0,0:0:0:0:
289,293,181245,1,0,0:0:0:0:
308,110,181380,1,0,0:0:0:0:
431,376,181515,1,8,0:0:0:0:
213,225,181650,2,0,P|178:146|189:79,1,109.250002083778,2|0,0:0|0:0,0:0:0:0:
317,315,181920,5,2,0:0:0:0:
293,21,182055,2,0,B|239:59|139:45|139:45|108:70|40:74,1,218.500004167557,10|0,0:0|0:0,0:0:0:0:
0,211,182461,1,0,0:0:0:0:
264,150,182596,2,0,L|407:115,1,109.250002083778,8|0,0:0|0:0,0:0:0:0:
97,285,182866,2,0,B|74:192|102:130|102:130|120:91|114:61,1,218.500004167557,4|8,0:0|0:0,0:0:0:0:
174,207,183272,1,0,0:0:0:0:
9,82,183407,5,0,0:0:0:0:
190,52,183542,1,0,0:0:0:0:
68,308,183677,2,0,P|152:328|200:307,1,109.250002083778,8|0,0:0|0:0,0:0:0:0:
414,213,183947,6,0,B|330:197|267:239|267:239|223:200|163:197,1,218.500004167557,4|8,0:0|0:0,0:0:0:0:
56,223,184353,1,0,0:0:0:0:
201,317,184488,2,0,P|221:246|201:184,1,109.250002083778,2|0,0:0|0:0,0:0:0:0:
56,67,184758,2,0,P|36:138|56:200,1,109.250002083778,10|0,0:0|0:0,0:0:0:0:
314,144,185028,6,0,B|279:123|279:123|167:118,1,109.250002083778,4|0,0:0|0:0,0:0:0:0:
49,235,185299,1,10,0:0:0:0:
258,218,185434,1,0,0:0:0:0:
72,35,185569,1,2,0:0:0:0:
234,316,185704,1,0,0:0:0:0:
326,82,185839,2,0,P|264:68|182:87,1,109.250002083778,10|0,0:0|0:0,0:0:0:0:
1,324,186110,2,0,P|63:338|145:319,1,109.250002083778,2|0,0:0|0:0,0:0:0:0:
371,237,186380,1,8,0:0:0:0:
75,238,186515,1,0,0:0:0:0:
380,201,186650,1,0,0:0:0:0:
198,80,186785,5,2,0:0:0:0:
196,341,186920,1,10,0:0:0:0:
469,152,187055,1,2,0:0:0:0:
246,0,187191,2,0,P|151:-2|97:99,1,218.500004167557,4|8,0:0|0:0,0:0:0:0:
185,277,187596,5,2,0:0:0:0:
198,93,187731,1,2,0:0:0:0:
352,178,187866,1,2,0:0:0:0:
104,226,188001,2,0,L|-18:251,1,109.250002083778,8|0,0:0|0:0,0:0:0:0:
200,88,188272,5,0,0:0:0:0:
92,324,188407,1,0,0:0:0:0:
327,267,188542,2,0,L|459:235,1,109.250002083778,8|0,0:0|0:0,0:0:0:0:
290,73,188812,5,2,0:0:0:0:
246,49,188880,1,0,0:0:0:0:
197,41,188947,1,0,0:0:0:0:
147,46,189015,1,0,0:0:0:0:
103,69,189083,2,0,B|42:101|10:154,1,109.250002083778,10|0,0:0|0:0,0:0:0:0:
202,322,189353,2,0,B|242:246|200:195|200:195|181:133|213:87,1,218.500004167557,4|8,0:0|0:0,0:0:0:0:
340,162,189758,5,0,0:0:0:0:
50,165,189893,1,0,0:0:0:0:
356,290,190028,1,0,0:0:0:0:
214,147,190164,2,0,L|118:55,1,109.250002083778,8|0,0:0|0:0,0:0:0:0:
219,359,190434,2,0,B|283:336|367:363|367:363|417:351|440:300,1,218.500004167557,4|0,0:0|0:0,0:0:0:0:
444,131,190839,1,2,0:0:0:0:
427,318,190974,1,2,0:0:0:0:
301,147,191110,1,2,0:0:0:0:
215,348,191245,2,0,L|222:220,1,109.250002083778,8|0,0:0|0:0,0:0:0:0:
325,32,191515,6,0,B|347:95|323:140|323:140|332:233,1,163.875003125668,4|0,0:0|0:0,0:0:0:0:
280,294,191785,2,0,P|246:242|243:184,1,109.250002083778,10|0,0:0|0:0,0:0:0:0:
325,32,192055,2,0,P|359:84|362:142,1,109.250002083778,2|0,0:0|0:0,0:0:0:0:
298,290,192326,1,10,0:0:0:0:
276,111,192461,1,0,0:0:0:0:
424,263,192596,1,2,0:0:0:0:
154,187,192731,5,0,0:0:0:0:
287,285,192866,1,10,0:0:0:0:
31,326,193001,1,0,0:0:0:0:
210,107,193137,1,2,0:0:0:0:
146,324,193272,1,0,0:0:0:0:
63,80,193407,1,10,0:0:0:0:
327,308,193542,1,0,0:0:0:0:
74,303,193677,6,0,B|48:283|47:240|47:240|78:188|72:135|72:135|62:112|72:63,1,218.500004167557,4|8,0:0|0:0,0:0:0:0:
175,257,194083,1,0,0:0:0:0:
0,168,194218,1,2,0:0:0:0:
225,134,194353,1,0,0:0:0:0:
87,299,194488,2,0,L|2:388,1,109.250002083778,8|0,0:0|0:0,0:0:0:0:
280,276,194758,6,0,P|315:206|301:137,1,109.250002083778,6|0,0:0|0:0,0:0:0:0:
152,20,195028,2,0,P|126:96|133:146,1,109.250002083778,8|0,0:0|0:0,0:0:0:0:
247,307,195299,1,2,0:0:0:0:
204,98,195434,1,0,0:0:0:0:
96,290,195569,2,0,P|164:314|237:302,1,109.250002083778,8|0,0:0|0:0,0:0:0:0:
441,208,195839,2,0,P|378:182|274:203,1,163.875003125668,4|0,0:0|0:0,0:0:0:0:
210,272,196110,6,0,P|186:193|210:148,1,109.250002083778,8|0,0:0|0:0,0:0:0:0:
281,43,196380,1,0,0:0:0:0:
292,213,196515,1,0,0:0:0:0:
124,114,196650,2,0,L|22:45,1,109.250002083778,12|0,0:0|0:0,0:0:0:0:
328,258,196920,5,2,0:0:0:0:
100,242,197055,1,8,0:0:0:0:
373,78,197191,1,8,0:0:0:0:
202,312,197326,1,2,0:0:0:0:
359,101,197461,1,2,0:0:0:0:
436,338,197596,1,8,0:0:0:0:
63,209,197731,1,8,0:0:0:0:
255,62,197866,1,8,0:0:0:0:
255,384,198001,1,4,0:0:0:0:
246,41,198542,5,0,0:0:0:0:
132,198,199083,2,0,P|185:234|300:206,1,178.12500679493
350,156,199488,2,0,P|372:232|314:291,1,142.500005435944
367,363,199893,2,0,P|314:362|266:338,1,106.875004076958
173,255,200164,6,0,B|152:218|152:218|152:138,1,109.250002083778,8|0,0:0|0:0,0:0:0:0:
259,73,200434,1,2,0:0:0:0:
369,209,200569,2,0,B|390:246|390:246|390:326,1,109.250002083778,8|0,0:0|0:0,0:0:0:0:
237,51,200839,1,2,0:0:0:0:
422,228,200974,2,0,B|443:265|443:265|443:331,1,109.250002083778,8|0,0:0|0:0,0:0:0:0:
201,103,201245,2,0,B|180:66|180:66|180:-14,1,109.250002083778,8|0,0:0|0:0,0:0:0:0:
357,217,201515,5,2,0:0:0:0:
195,279,201650,2,0,B|153:288|153:288|63:253,1,109.250002083778,8|0,0:0|0:0,0:0:0:0:
326,220,201920,1,2,0:0:0:0:
157,313,202055,2,0,B|115:322|115:322|25:287,1,109.250002083778,8|0,0:0|0:0,0:0:0:0:
288,223,202326,1,2,0:0:0:0:
119,351,202461,1,2,0:0:0:0:
352,343,202596,2,0,B|394:352|394:352|484:317,1,109.250002083778,8|0,0:0|0:0,0:0:0:0:
119,351,202866,2,0,B|77:360|77:360|-13:325,1,109.250002083778,8|0,0:0|0:0,0:0:0:0:
261,240,203137,5,2,0:0:0:0:
88,188,203272,1,2,0:0:0:0:
175,353,203407,2,0,B|204:321|204:321|209:214,1,109.250002083778,8|0,0:0|0:0,0:0:0:0:
36,125,203677,2,0,B|7:157|7:157|2:264,1,109.250002083778,8|0,0:0|0:0,0:0:0:0:
177,349,203947,1,0,0:0:0:0:
203,313,204015,1,0,0:0:0:0:
218,271,204083,1,0,0:0:0:0:
218,227,204150,1,0,0:0:0:0:
197,187,204218,5,0,0:0:0:0:
183,145,204285,1,0,0:0:0:0:
188,101,204353,1,0,0:0:0:0:
218,70,204420,1,0,0:0:0:0:
268,69,204488,6,0,L|331:74,1,57,8|0,0:0|0:0,0:0:0:0:
207,137,205028,2,0,P|189:111|196:27,1,114,4|2,0:0|0:0,0:0:0:0:
258,78,206110,1,2,0:0:0:0:
288,107,206380,1,2,0:0:0:0:
358,279,206650,6,0,B|382:246|382:246|383:146,1,118.75,12|0,0:3|0:0,0:0:0:0:
108,50,206920,2,0,B|84:83|84:83|83:183,1,118.75,8|0,0:0|0:0,0:0:0:0:
268,337,207191,2,0,P|294:279|276:209,1,118.75,2|0,0:0|0:0,0:0:0:0:
0,186,207461,2,0,P|42:244|102:266,1,118.75,8|0,0:0|0:0,0:0:0:0:
404,260,207731,1,0,0:0:0:0:
88,161,207866,1,0,0:0:0:0:
270,295,208001,2,0,P|293:227|280:158,1,118.75,8|0,0:0|0:0,0:0:0:0:
159,44,208272,5,0,0:0:0:0:
200,227,208407,1,0,0:0:0:0:
398,66,208542,2,0,P|312:55|267:69,1,118.75,8|0,0:0|0:0,0:0:0:0:
120,322,208812,2,0,B|144:251|114:167|114:167|97:119|118:72,1,237.5,4|8,0:0|0:0,0:0:0:0:
363,277,209218,1,2,0:0:0:0:
33,270,209353,1,2,0:0:0:0:
245,72,209488,1,2,0:0:0:0:
223,343,209623,2,0,L|174:203,1,118.75,8|0,0:0|0:0,0:0:0:0:
128,62,209893,6,0,P|204:27|268:47,1,118.75,2|0,0:0|0:0,0:0:0:0:
451,106,210164,1,8,0:0:0:0:
201,120,210299,1,0,0:0:0:0:
347,288,210434,1,0,0:0:0:0:
350,47,210569,1,0,0:0:0:0:
147,293,210704,2,0,P|134:231|148:168,1,118.75,8|0,0:0|0:0,0:0:0:0:
329,63,210974,5,2,0:0:0:0:
221,242,211110,1,2,0:0:0:0:
132,103,211245,2,0,L|71:-7,1,118.75,12|0,0:0|0:0,0:0:0:0:
356,171,211515,5,2,0:0:0:0:
139,119,211650,1,0,0:0:0:0:
325,342,211785,2,0,P|344:280|336:218,1,118.75,10|0,0:0|0:0,0:0:0:0:
167,46,212055,1,0,0:0:0:0:
235,287,212191,1,0,0:0:0:0:
348,78,212326,5,10,0:0:0:0:
195,181,212461,1,0,0:0:0:0:
454,244,212596,1,0,0:0:0:0:
196,52,212731,1,0,0:0:0:0:
136,322,212866,6,0,P|168:246|160:193,1,118.75,10|0,0:0|0:0,0:0:0:0:
80,77,213137,2,0,B|158:38|240:75|240:75|283:57|347:65,1,237.5,6|10,0:0|0:0,0:0:0:0:
317,207,213542,1,2,0:0:0:0:
452,79,213677,1,2,0:0:0:0:
153,158,213812,1,2,0:0:0:0:
350,236,213947,2,0,L|476:278,1,118.75,8|0,0:0|0:0,0:0:0:0:
220,48,214218,5,2,0:0:0:0:
172,267,214353,1,0,0:0:0:0:
172,267,214420,1,0,0:0:0:0:
172,267,214488,2,0,P|231:283|302:268,1,118.75,8|0,0:0|0:0,0:0:0:0:
422,128,214758,1,0,0:0:0:0:
378,108,214826,1,0,0:0:0:0:
331,100,214893,1,0,0:0:0:0:
283,108,214961,1,0,0:0:0:0:
242,132,215028,2,0,P|170:160|96:147,1,118.75,8|0,0:0|0:0,0:0:0:0:
20,41,215299,6,0,B|51:28|51:28|177:21,1,118.75,4|0,0:0|0:0,0:0:0:0:
367,99,215569,1,10,0:0:0:0:
86,136,215704,1,0,0:0:0:0:
235,43,215839,1,2,0:0:0:0:
172,284,215974,1,0,0:0:0:0:
326,31,216110,2,0,P|394:17|452:34,1,118.75,8|0,0:0|0:0,0:0:0:0:
88,260,216380,2,0,P|69:188|79:130,1,118.75,2|0,0:0|0:0,0:0:0:0:
239,22,216650,6,0,L|259:94,1,59.375,8|0,0:0|0:0,0:0:0:0:
277,185,216785,2,0,B|281:226|281:226|267:282|197:312,1,118.75,4|0,0:0|0:0,0:0:0:0:
77,114,217055,1,0,0:0:0:0:
265,96,217191,2,0,P|340:116|397:192,1,118.75,8|0,0:0|0:0,0:0:0:0:
90,238,217461,2,0,P|60:159|82:89,1,118.75
407,64,217731,5,8,0:0:0:0:
162,166,217866,1,2,0:0:0:0:
441,162,218001,1,2,0:0:0:0:
236,45,218137,1,2,0:0:0:0:
245,253,218272,2,0,L|248:380,1,118.75,8|0,0:0|0:0,0:0:0:0:
330,86,218542,5,2,0:0:0:0:
325,325,218677,1,0,0:0:0:0:
156,100,218812,1,10,0:0:0:0:
405,228,218947,2,0,B|346:257|242:199|242:199|212:225|139:258,1,237.5,4|0,0:0|0:0,0:0:0:0:
25,275,219353,2,0,P|14:215|41:133,1,118.75,8|0,0:0|0:0,0:0:0:0:
245,0,219623,2,0,B|282:70|229:111|229:111|257:174|230:270,1,237.5,4|8,0:0|0:0,0:0:0:0:
171,359,220028,5,2,0:0:0:0:
160,184,220164,1,2,0:0:0:0:
344,375,220299,1,2,0:0:0:0:
52,276,220434,2,0,P|37:206|56:140,1,118.75,8|0,0:0|0:0,0:0:0:0:
337,0,220704,2,0,P|352:70|333:136,1,118.75,2|0,0:0|0:0,0:0:0:0:
203,298,220974,1,10,0:0:0:0:
266,62,221110,1,0,0:0:0:0:
409,291,221245,2,0,P|341:324|262:303,1,118.75,4|0,0:0|0:0,0:0:0:0:
58,163,221515,2,0,L|211:149,1,118.75,10|0,0:0|0:0,0:0:0:0:
336,238,221785,6,0,B|364:174|337:110|337:110|297:56|309:0,1,237.5,6|8,0:0|0:0,0:0:0:0:
257,183,222191,1,2,0:0:0:0:
416,26,222326,1,2,0:0:0:0:
129,61,222461,1,2,0:0:0:0:
345,229,222596,2,0,L|462:325,1,118.75,8|0,0:0|0:0,0:0:0:0:
165,60,222866,5,2,0:0:0:0:
164,312,223001,1,8,0:0:0:0:
351,159,223137,1,8,0:0:0:0:
160,91,223272,1,0,0:0:0:0:
377,357,223407,1,2,0:0:0:0:
394,306,223474,1,0,0:0:0:0:
401,252,223542,1,2,0:0:0:0:
395,198,223610,1,0,0:0:0:0:
375,148,223677,2,0,P|351:107|279:63,1,118.75,8|0,0:0|0:0,0:0:0:0:
114,313,223947,6,0,B|97:276|97:276|101:157,1,123.499994346619,12|0,0:0|0:0,0:0:0:0:
158,38,224218,1,8,0:0:0:0:
215,334,224353,1,0,0:0:0:0:
13,41,224488,2,0,P|103:33|154:56,1,123.499994346619,14|0,0:0|0:0,0:0:0:0:
345,238,224758,1,14,0:0:0:0:
62,138,224893,1,0,0:0:0:0:
383,91,225028,1,8,0:0:0:0:
96,331,225164,1,0,0:0:0:0:
402,103,225299,6,0,P|409:172|375:241,1,123.499994346619,14|0,0:0|0:0,0:0:0:0:
133,384,225569,1,8,0:0:0:0:
330,162,225704,1,0,0:0:0:0:
302,377,225839,1,12,0:0:0:0:
91,61,225974,1,0,0:0:0:0:
372,262,226110,6,0,P|296:295|217:270,1,123.499994346619,14|0,0:0|0:0,0:0:0:0:
0,139,226380,1,8,0:0:0:0:
293,202,226515,1,0,0:0:0:0:
0,322,226650,1,8,0:0:0:0:
135,48,226785,1,0,0:0:0:0:
171,356,226920,1,8,0:0:0:0:
273,66,227055,1,0,0:0:0:0:
319,289,227191,6,0,P|339:225|320:141,1,123.499994346619,10|0,0:0|0:0,0:0:0:0:
71,124,227461,2,0,P|51:188|70:272,1,123.499994346619,10|0,0:0|0:0,0:0:0:0:
281,50,227731,1,10,0:0:0:0:
184,305,227866,1,0,0:0:0:0:
460,233,228001,1,10,0:0:0:0:
183,63,228137,1,0,0:0:0:0:
489,327,228272,2,0,P|419:343|344:316,1,123.499994346619,14|0,0:0|0:0,0:0:0:0:
133,181,228542,1,8,0:0:0:0:
428,236,228677,1,0,0:0:0:0:
59,254,228812,6,0,P|37:187|59:103,1,123.499994346619,10|0,0:0|0:0,0:0:0:0:
420,248,229083,2,0,P|442:315|420:399,1,123.499994346619,10|0,0:0|0:0,0:0:0:0:
124,155,229353,1,8,0:0:0:0:
459,137,229488,1,0,0:0:0:0:
215,338,229623,2,0,P|141:342|74:287,1,123.499994346619,10|0,0:0|0:0,0:0:0:0:
289,39,229893,2,0,P|363:35|430:90,1,123.499994346619,10|0,0:0|0:0,0:0:0:0:
46,215,230164,2,0,P|31:138|64:63,1,123.499994346619,10|0,0:0|0:0,0:0:0:0:
380,312,230434,5,14,0:0:0:0:
114,148,230569,1,0,0:0:0:0:
367,301,230704,1,8,0:0:0:0:
250,37,230839,1,2,0:0:0:0:
235,363,230974,1,8,0:0:0:0:
166,73,231110,1,0,0:0:0:0:
27,299,231245,1,10,0:0:0:0:
399,200,231380,1,0,0:0:0:0:
168,67,231515,6,0,B|146:106|146:106|156:235,1,123.499994346619,8|0,0:0|0:0,0:0:0:0:
335,348,231785,2,0,P|363:265|306:123,1,246.999988693238,8|0,0:0|0:0,0:0:0:0:
58,94,232191,1,0,0:0:0:0:
44,147,232258,1,0,0:0:0:0:
64,199,232326,2,0,P|109:245|186:252,1,123.499994346619,8|0,0:0|0:0,0:0:0:0:
496,188,232596,2,0,B|450:167|433:145|433:145|390:174|340:139|340:139|247:150,1,246.999988693238,4|8,0:0|0:0,0:0:0:0:
63,194,233001,5,2,0:0:0:0:
324,296,233137,1,2,0:0:0:0:
154,155,233272,1,2,0:0:0:0:
210,362,233407,2,0,P|229:297|214:241,1,118.75,8|0,0:0|0:0,0:0:0:0:
51,72,233677,6,0,P|37:137|50:199,1,118.75,2|0,0:0|0:0,0:0:0:0:
134,324,233947,1,10,0:0:0:0:
120,130,234083,1,0,0:0:0:0:
54,254,234218,1,2,0:0:0:0:
311,274,234353,1,0,0:0:0:0:
174,52,234488,2,0,P|103:41|37:62,1,118.75,10|0,0:0|0:0,0:0:0:0:
132,309,234758,2,0,B|226:343|292:306|292:306|332:322|373:308,1,237.5,6|0,0:0|0:0,0:0:0:0:
498,260,235164,5,2,0:0:0:0:
201,233,235299,1,2,0:0:0:0:
411,183,235434,1,2,0:0:0:0:
235,84,235569,2,0,L|108:13,1,118.75,8|0,0:0|0:0,0:0:0:0:
90,252,235839,6,0,P|163:276|226:266,1,118.75,2|0,0:0|0:0,0:0:0:0:
405,139,236110,2,0,L|269:146,1,118.75,8|0,0:0|0:0,0:0:0:0:
89,157,236380,1,2,0:0:0:0:
319,0,236515,1,0,0:0:0:0:
292,148,236650,2,0,P|223:177|209:94,1,178.125,8|0,0:3|0:0,0:0:0:0:
249,42,236920,6,0,B|275:27|275:27|400:25,1,123.499994346619,8|0,0:0|0:0,0:0:0:0:
225,272,237191,2,0,B|199:287|199:287|74:289,1,123.499994346619,8|0,0:0|0:0,0:0:0:0:
330,99,237461,1,8,0:0:0:0:
169,196,237596,1,0,0:0:0:0:
432,297,237731,2,0,P|443:218|415:157,1,123.499994346619,8|0,0:0|0:0,0:0:0:0:
213,32,238001,5,8,0:0:0:0:
342,241,238137,1,0,0:0:0:0:
341,33,238272,1,8,0:0:0:0:
155,314,238407,1,0,0:0:0:0:
164,27,238542,1,8,0:0:0:0:
283,340,238677,1,0,0:0:0:0:
377,136,238812,1,8,0:0:0:0:
76,289,238947,1,0,0:0:0:0:
361,328,239083,6,0,P|399:250|382:180,1,123.499994346619,12|0,0:0|0:0,0:0:0:0:
262,46,239353,1,8,0:0:0:0:
308,246,239488,1,0,0:0:0:0:
366,98,239623,1,8,0:0:0:0:
108,297,239758,1,0,0:0:0:0:
325,123,239893,1,8,0:0:0:0:
340,344,240028,1,0,0:0:0:0:
403,66,240164,6,0,P|415:153|387:213,1,123.499994346619,12|2,0:0|0:0,0:0:0:0:
242,322,240434,1,2,0:0:0:0:
262,124,240569,1,2,0:0:0:0:
250,340,240704,1,2,0:0:0:0:
195,326,240772,1,0,0:0:0:0:
151,292,240839,1,2,0:0:0:0:
131,239,240907,1,0,0:0:0:0:
132,183,240974,2,0,L|143:94,1,61.7499971733095,2|0,0:0|0:0,0:0:0:0:
266,274,241110,2,0,L|255:334,1,61.7499971733095,2|0,0:0|0:0,0:0:0:0:
348,34,241245,6,0,B|351:79|351:79|293:180,1,123.499994346619,12|0,0:0|0:0,0:0:0:0:
120,312,241515,1,8,0:0:0:0:
242,64,241650,1,0,0:0:0:0:
244,313,241785,2,0,P|234:223|251:168,1,123.499994346619,8|0,0:0|0:0,0:0:0:0:
412,46,242055,5,0,0:0:0:0:
141,35,242191,2,0,L|242:142,1,123.499994346619,8|0,0:0|0:0,0:0:0:0:
357,246,242461,1,0,0:0:0:0:
118,188,242596,2,0,L|-15:135,1,123.499994346619,8|0,0:0|0:0,0:0:0:0:
262,38,242866,1,0,0:0:0:0:
110,311,243001,6,0,P|100:244|125:166,1,123.499994346619,10|0,0:0|0:0,0:0:0:0:
246,53,243272,1,2,0:0:0:0:
219,265,243407,1,10,0:0:0:0:
242,76,243542,1,2,0:0:0:0:
402,193,243677,2,0,L|512:271,1,123.499994346619,8|0,0:0|0:0,0:0:0:0:
41,333,243947,6,0,P|23:243|43:171,1,123.499994346619,8|0,0:0|0:0,0:0:0:0:
113,50,244218,1,2,0:0:0:0:
126,252,244353,1,8,0:0:0:0:
53,108,244488,1,0,0:0:0:0:
354,207,244623,1,0,0:0:0:0:
126,252,244758,2,0,L|-5:275,1,123.499994346619,8|2,0:0|0:0,0:0:0:0:
296,90,245028,5,2,0:0:0:0:
111,162,245164,1,2,0:0:0:0:
325,327,245299,1,2,0:0:0:0:
196,89,245434,1,2,0:0:0:0:
132,267,245569,2,0,L|91:390,1,123.499994346619,8|0,0:0|0:0,0:0:0:0:
256,293,245839,5,0,0:0:0:0:
133,172,245974,1,0,0:0:0:0:
247,146,246110,1,10,0:0:0:0:
110,282,246245,1,0,0:0:0:0:
134,60,246380,1,0,0:0:0:0:
289,225,246515,2,0,L|394:333,1,123.499994346619,8|0,0:0|0:0,0:0:0:0:
89,264,246785,2,0,L|-16:156,1,123.499994346619,8|0,0:0|0:0,0:0:0:0:
426,246,247055,2,0,L|531:354,1,123.499994346619,10|0,0:0|0:0,0:0:0:0:
69,260,247326,5,0,0:0:0:0:
395,230,247461,1,10,0:0:0:0:
159,60,247596,1,2,0:0:0:0:
249,340,247731,2,0,B|267:303|267:303|267:194,1,123.499994346619,10|0,0:0|0:0,0:0:0:0:
192,49,248001,2,0,P|277:34|344:56,1,123.499994346619,10|0,0:0|0:0,0:0:0:0:
478,146,248272,1,2,0:0:0:0:
96,194,248407,1,2,0:0:0:0:
258,117,248542,1,2,0:0:0:0:
171,266,248677,2,0,L|102:375,1,123.499994346619,8|0,0:0|0:0,0:0:0:0:
94,59,248947,5,2,0:0:0:0:
189,247,249083,1,2,0:0:0:0:
238,283,249150,1,0,0:0:0:0:
298,298,249218,1,2,0:0:0:0:
359,295,249285,1,0,0:0:0:0:
417,273,249353,6,2,P|433:202|412:132,1,123.499994346619,6|2,0:0|0:0,0:0:0:0:
92,10,249623,2,2,P|76:81|97:151,1,123.499994346619,10|2,0:0|0:0,0:0:0:0:
259,337,249893,1,2,0:0:0:0:
89,138,250028,1,2,0:0:0:0:
317,149,250164,1,10,0:0:0:0:
64,372,250299,1,2,0:0:0:0:
162,165,250434,1,0,0:0:0:0:
350,384,250569,1,2,0:0:0:0:
202,51,250704,5,10,0:0:0:0:
188,316,250839,1,2,0:0:0:0:
381,125,250974,1,2,0:0:0:0:
143,150,251110,1,0,0:0:0:0:
404,331,251245,2,0,P|421:269|409:198,1,123.499994346619,8|0,0:0|0:0,0:0:0:0:
163,0,251515,6,0,L|153:141,1,123.499994346619,4|0,0:0|0:0,0:0:0:0:
121,319,251785,1,8,0:0:0:0:
337,164,251920,1,0,0:0:0:0:
152,149,252055,1,0,0:0:0:0:
308,378,252191,1,0,0:0:0:0:
76,96,252326,2,0,B|72:175|125:214|171:187|171:187|221:205|235:292,1,246.999988693238,10|8,0:0|0:0,0:0:0:0:
195,371,252731,1,8,0:0:0:0:
314,135,252866,1,0,0:0:0:0:
148,274,253001,1,8,0:0:0:0:
459,302,253137,1,0,0:0:0:0:
157,46,253272,5,10,0:0:0:0:
141,105,253339,1,0,0:0:0:0:
142,167,253407,1,2,0:0:0:0:
164,223,253474,1,0,0:0:0:0:
213,260,253542,1,2,0:0:0:0:
243,314,253610,1,0,0:0:0:0:
224,372,253677,6,0,P|164:351|151:156,1,246.999988693238,4|8,0:0|0:0,0:0:0:0:
264,14,254083,1,2,0:0:0:0:
219,263,254218,1,2,0:0:0:0:
111,41,254353,1,2,0:0:0:0:
369,249,254488,2,0,L|478:330,1,123.499994346619,8|0,0:0|0:0,0:0:0:0:
45,269,254758,5,2,0:0:0:0:
362,254,254893,1,2,0:0:0:0:
95,51,255028,1,10,0:0:0:0:
236,351,255164,1,2,0:0:0:0:
407,58,255299,1,2,0:0:0:0:
161,193,255434,1,2,0:0:0:0:
386,344,255569,1,10,0:0:0:0:
275,18,255704,1,2,0:0:0:0:
88,312,255839,6,0,B|191:324|230:283|230:283|281:301|353:265,1,246.999988693238,4|8,0:0|0:0,0:0:0:0:
472,160,256245,1,2,0:0:0:0:
294,185,256380,1,2,0:0:0:0:
443,348,256515,1,2,0:0:0:0:
363,94,256650,2,0,B|278:66|198:106|198:106|152:84|94:112,1,246.999988693238,8|0,0:0|0:0,0:0:0:0:
406,181,257055,5,0,0:0:0:0:
149,22,257191,1,8,0:0:0:0:
292,158,257326,1,0,0:0:0:0:
75,289,257461,1,0,0:0:0:0:
103,103,257596,1,0,0:0:0:0:
230,266,257731,2,0,B|268:292|268:292|364:279,1,123.499994346619,8|0,0:0|0:0,0:0:0:0:
42,46,258001,6,0,P|18:130|46:213,1,123.499994346619,4|0,0:0|0:0,0:0:0:0:
101,336,258272,1,10,0:0:0:0:
125,110,258407,2,0,P|194:96|252:120,1,123.499994346619
319,242,258677,1,0,0:0:0:0:
319,242,258745,1,0,0:0:0:0:
319,242,258812,2,0,L|242:275,1,61.7499971733095,10|0,0:0|0:0,0:0:0:0:
395,143,258947,2,0,L|338:118,1,61.7499971733095,2|0,0:0|0:0,0:0:0:0:
447,291,259083,2,0,L|370:324,1,61.7499971733095,2|0,0:0|0:0,0:0:0:0:
511,85,259218,2,0,L|454:60,1,61.7499971733095,2|0,0:0|0:0,0:0:0:0:
94,77,259353,6,0,P|93:156|133:232,1,123.499994346619,8|2,0:0|0:0,0:0:0:0:
266,343,259623,1,2,0:0:0:0:
198,80,259758,1,2,0:0:0:0:
111,222,259893,1,2,0:0:0:0:
384,248,260028,1,2,0:0:0:0:
0,61,260164,2,0,B|-15:157|46:193|46:193|25:257|81:308,1,246.999988693238,4|8,0:0|0:0,0:0:0:0:
242,378,260569,1,2,0:0:0:0:
125,231,260704,1,2,0:0:0:0:
319,132,260839,1,2,0:0:0:0:
10,310,260974,6,0,P|-9:228|7:175,1,123.499994346619,8|0,0:0|0:0,0:0:0:0:
118,43,261245,1,2,0:0:0:0:
96,234,261380,1,0,0:0:0:0:
41,129,261515,1,10,0:0:0:0:
307,251,261650,1,0,0:0:0:0:
89,334,261785,5,0,0:0:0:0:
65,289,261853,1,0,0:0:0:0:
56,240,261920,1,0,0:0:0:0:
65,191,261988,1,0,0:0:0:0:
91,149,262055,2,0,B|106:120|106:120|197:62,1,123.499994346619,12|0,0:0|0:0,0:0:0:0:
438,240,262326,2,2,P|364:260|284:236,1,123.499994346619
184,62,262596,2,0,B|258:42|303:56|303:56|352:116|452:87,1,246.999988693238,14|0,0:0|0:0,0:0:0:0:
129,239,263001,5,0,0:0:0:0:
393,12,263137,1,8,0:0:0:0:
285,284,263272,1,0,0:0:0:0:
170,52,263407,1,4,0:0:0:0:
389,230,263542,1,0,0:0:0:0:
84,130,263677,1,8,0:0:0:0:
314,275,263812,2,0,L|448:337,1,123.499994346619,4|0,0:0|0:0,0:0:0:0:
170,72,264083,5,0,0:0:0:0:
271,258,264218,1,8,0:0:0:0:
277,78,264353,1,0,0:0:0:0:
165,361,264488,2,0,P|141:273|163:215,1,123.499994346619,6|0,0:0|0:0,0:0:0:0:
286,46,264758,1,10,0:0:0:0:
227,289,264893,1,0,0:0:0:0:
129,106,265028,1,0,0:0:0:0:
371,255,265164,1,0,0:0:0:0:
91,187,265299,2,0,B|197:141|232:193|232:193|296:149|348:161,1,246.999988693238,8|0,0:0|0:0,0:0:0:0:
473,128,265704,5,2,0:0:0:0:
322,270,265839,1,8,0:0:0:0:
248,62,265974,1,2,0:0:0:0:
404,193,266110,5,0,0:0:0:0:
390,240,266177,1,0,0:0:0:0:
351,272,266245,1,0,0:0:0:0:
302,276,266312,1,0,0:0:0:0:
257,239,266380,5,0,0:0:0:0:
207,214,266447,1,0,0:0:0:0:
151,215,266515,1,0,0:0:0:0:
99,236,266583,1,0,0:0:0:0:
75,285,266650,5,4,0:3:0:0:
130,288,266718,1,2,0:0:0:0:
178,262,266785,1,2,0:0:0:0:
202,211,266853,1,2,0:0:0:0:
189,157,266920,1,10,0:0:0:0:
154,113,266988,1,2,0:0:0:0:
157,57,267055,1,2,0:0:0:0:
198,19,267123,1,2,0:0:0:0:
253,9,267191,6,0,L|324:30,1,61.7499971733095,6|0,0:0|0:0,0:0:0:0:
400,118,267326,1,2,0:0:0:0:
391,172,267393,1,2,0:0:0:0:
352,212,267461,1,10,0:0:0:0:
300,230,267528,1,2,0:0:0:0:
244,226,267596,1,2,0:0:0:0:
204,186,267664,1,2,0:0:0:0:
184,134,267731,6,0,P|216:95|260:84,1,61.7499971733095,2|0,0:0|0:0,0:0:0:0:
432,62,267866,1,2,0:0:0:0:
462,115,267934,1,2,0:0:0:0:
473,175,268001,1,10,0:0:0:0:
462,236,268069,1,2,0:0:0:0:
432,290,268137,2,0,P|406:311|360:316,1,61.7499971733095,2|2,0:0|0:0,0:0:0:0:
141,226,268272,2,0,P|140:195|148:165,1,61.7499971733095,2|0,0:0|0:0,0:0:0:0:
371,150,268407,2,0,P|371:180|362:210,1,61.7499971733095,2|0,0:0|0:0,0:0:0:0:
88,305,268542,5,10,0:0:0:0:
56,251,268610,1,2,0:0:0:0:
49,190,268677,1,2,0:0:0:0:
51,127,268745,1,2,0:0:0:0:
82,74,268812,2,0,B|90:49|123:21|123:21|222:21|309:107,1,246.999988693238,6|8,0:0|0:0,0:0:0:0:
374,252,269218,1,2,0:0:0:0:
155,111,269353,1,2,0:0:0:0:
386,105,269488,1,2,0:0:0:0:
198,362,269623,6,0,P|162:295|173:168,1,185.249991519928,8|0,0:0|0:0,0:0:0:0:
224,72,269893,2,0,L|306:-2,1,61.7499971733095,8|0,0:0|0:0,0:0:0:0:
53,324,270028,2,0,L|-29:398,1,61.7499971733095,8|0,0:0|0:0,0:0:0:0:
283,236,270164,1,0,0:0:0:0:
109,148,270299,2,0,L|-4:82,1,123.499994346619,8|0,0:0|0:0,0:0:0:0:
126,308,270569,5,2,0:0:0:0:
275,218,270704,1,2,0:0:0:0:
135,158,270839,1,2,0:0:0:0:
266,326,270974,1,2,0:0:0:0:
261,77,271110,1,2,0:0:0:0:
68,293,271245,6,0,P|131:304|183:290,1,109.250002083778,4|0,0:0|0:0,0:0:0:0:
404,83,271515,2,0,P|341:72|289:86,1,109.250002083778,4|0,0:0|0:0,0:0:0:0:
168,307,271785,1,8,0:0:0:0:
270,129,271920,1,0,0:0:0:0:
284,105,271988,1,0,0:0:0:0:
304,87,272055,2,0,B|340:111|341:157|341:157|303:220|322:299,1,218.500004167557,2|8,0:0|0:0,0:0:0:0:
417,254,272461,5,0,0:0:0:0:
148,152,272596,1,0,0:0:0:0:
311,106,272731,1,0,0:0:0:0:
170,274,272866,2,0,L|68:381,1,109.250002083778,8|0,0:0|0:0,0:0:0:0:
406,181,273137,2,0,P|422:91|310:-9,1,218.500004167557,4|8,0:0|0:0,0:0:0:0:
157,148,273542,5,2,0:0:0:0:
332,111,273677,1,2,0:0:0:0:
120,26,273812,1,2,0:0:0:0:
275,301,273947,1,8,0:0:0:0:
230,59,274083,1,0,0:0:0:0:
43,240,274218,6,0,B|120:299|194:254|194:254|220:272|281:269,1,218.500004167557,6|8,0:0|0:0,0:0:0:0:
424,245,274623,1,2,0:0:0:0:
126,182,274758,1,2,0:0:0:0:
255,313,274893,1,2,0:0:0:0:
281,118,275028,2,0,L|298:-4,1,109.250002083778,8|0,0:0|0:0,0:0:0:0:
42,117,275299,6,0,P|18:199|42:270,1,163.875003125668,4|0,0:0|0:0,0:0:0:0:
114,336,275569,2,0,P|167:362|245:352,1,109.250002083778,10|0,0:0|0:0,0:0:0:0:
434,137,275839,2,0,P|381:111|303:121,1,109.250002083778,2|0,0:0|0:0,0:0:0:0:
308,336,276110,2,0,P|349:264|344:210,1,109.250002083778,10|0,0:0|0:0,0:0:0:0:
141,83,276380,2,0,P|160:167|205:199,1,109.250002083778,2|0,0:0|0:0,0:0:0:0:
385,255,276650,1,10,0:0:0:0:
226,108,276785,1,0,0:0:0:0:
198,321,276920,5,0,0:0:0:0:
221,112,277055,1,2,0:0:0:0:
422,341,277191,1,10,0:0:0:0:
32,191,277326,1,2,0:0:0:0:
353,232,277461,2,0,B|389:154|368:93|368:93|325:54|335:0,1,218.500004167557,4|8,0:0|0:0,0:0:0:0:
163,166,277866,5,2,0:0:0:0:
295,18,278001,1,2,0:0:0:0:
253,296,278137,1,2,0:0:0:0:
136,141,278272,2,0,L|57:21,1,109.250002083778,8|0,0:0|0:0,0:0:0:0:
358,188,278542,5,2,0:0:0:0:
102,331,278677,1,2,0:0:0:0:
273,106,278812,2,0,P|359:84|413:96,1,109.250002083778,8|0,0:0|0:0,0:0:0:0:
168,304,279083,5,2,0:0:0:0:
141,262,279150,1,0,0:0:0:0:
135,212,279218,1,2,0:0:0:0:
146,164,279285,1,0,0:0:0:0:
143,114,279353,2,0,P|123:49|70:2,1,109.250002083778,4|0,0:0|0:0,0:0:0:0:
172,319,279623,6,0,P|231:331|322:293,1,113.999996520996,6|0,0:0|0:0,0:0:0:0:
417,32,279893,2,0,B|368:36|368:36|331:61|260:68,1,113.999996520996,8|0,0:0|0:0,0:0:0:0:
63,127,280164,1,0,0:0:0:0:
367,266,280299,1,0,0:0:0:0:
164,49,280434,1,8,0:0:0:0:
106,324,280569,6,0,P|158:342|232:327,1,113.999996520996
445,235,280839,1,0,0:0:0:0:
164,241,280974,2,0,L|38:246,1,113.999996520996,8|0,0:0|0:0,0:0:0:0:
350,295,281245,5,0,0:0:0:0:
126,70,281380,1,0,0:0:0:0:
187,263,281515,2,0,L|227:391,1,113.999996520996,8|0,0:0|0:0,0:0:0:0:
412,234,281785,2,0,P|425:145|395:65,1,170.999994781494,4|0,0:0|0:0,0:0:0:0:
305,27,282055,6,0,P|223:16|178:32,1,113.999996520996,10|0,0:0|0:0,0:0:0:0:
58,260,282326,2,0,P|140:271|185:255,1,113.999996520996,2|0,0:0|0:0,0:0:0:0:
376,134,282596,1,8,0:0:0:0:
117,170,282731,1,0,0:0:0:0:
339,312,282866,5,0,0:0:0:0:
207,57,283001,1,0,0:0:0:0:
171,242,283137,1,8,0:0:0:0:
218,24,283272,1,0,0:0:0:0:
18,179,283407,1,0,0:0:0:0:
373,273,283542,1,0,0:0:0:0:
255,32,283677,1,8,0:0:0:0:
228,351,283812,1,0,0:0:0:0:
430,239,283947,6,0,B|466:160|425:88|425:88|426:45|420:11,1,227.999993041992,4|8,0:0|0:0,0:0:0:0:
97,198,284353,1,2,0:0:0:0:
362,175,284488,1,2,0:0:0:0:
204,32,284623,1,2,0:0:0:0:
239,336,284758,1,8,0:0:0:0:
347,38,284893,1,0,0:0:0:0:
82,255,285028,6,0,B|121:290|173:276|173:276|233:228|317:277,1,227.999993041992,2|8,0:0|0:0,0:0:0:0:
377,352,285434,1,0,0:0:0:0:
72,254,285569,2,0,P|67:179|86:131,1,113.999996520996,2|0,0:0|0:0,0:0:0:0:
197,41,285839,1,8,0:0:0:0:
78,272,285974,1,0,0:0:0:0:
218,66,286110,6,0,P|298:52|367:74,1,113.999996520996,4|0,0:0|0:0,0:0:0:0:
494,140,286380,1,8,0:0:0:0:
261,196,286515,1,0,0:0:0:0:
319,47,286650,1,0,0:0:0:0:
334,321,286785,1,0,0:0:0:0:
139,199,286920,6,0,L|22:117,1,113.999996520996,8|0,0:0|0:0,0:0:0:0:
407,168,287191,1,0,0:0:0:0:
134,221,287326,1,8,0:0:0:0:
451,301,287461,1,8,0:0:0:0:
140,286,287596,1,2,0:0:0:0:
223,57,287731,1,8,0:0:0:0:
230,310,287866,1,2,0:0:0:0:
238,51,288001,5,8,0:0:0:0:
363,271,288137,1,8,0:0:0:0:
8,163,288272,1,0,0:0:0:0:
403,262,288812,1,0,0:0:0:0:
15,222,289353,6,0,P|57:287|154:272,1,178.12500679493
240,316,289758,2,0,P|249:250|202:183,1,142.500005435944
98,205,290164,2,0,P|106:128|138:96,1,106.875004076958
266,118,290434,6,0,L|400:183,1,109.250002083778,8|0,0:0|0:0,0:0:0:0:
172,178,290704,1,2,0:0:0:0:
331,101,290839,2,0,L|465:166,1,109.250002083778,8|0,0:0|0:0,0:0:0:0:
136,198,291110,1,2,0:0:0:0:
397,75,291245,2,0,L|531:140,1,109.250002083778,8|0,0:0|0:0,0:0:0:0:
99,212,291515,2,0,L|0:164,1,109.250002083778,8|0,0:0|0:0,0:0:0:0:
379,80,291785,5,2,0:0:0:0:
263,217,291920,2,0,L|172:316,1,109.250002083778,8|0,0:0|0:0,0:0:0:0:
339,50,292191,1,2,0:0:0:0:
211,204,292326,2,0,L|120:303,1,109.250002083778,8|0,0:0|0:0,0:0:0:0:
290,28,292596,5,2,0:0:0:0:
304,264,292731,1,2,0:0:0:0:
397,147,292866,2,0,B|412:114|412:114|409:27,1,109.250002083778,8|0,0:0|0:0,0:0:0:0:
181,224,293137,2,0,B|166:257|166:257|169:344,1,109.250002083778,8|0,0:0|0:0,0:0:0:0:
300,74,293407,5,2,0:0:0:0:
251,292,293542,1,2,0:0:0:0:
472,190,293677,2,0,B|487:157|487:157|484:70,1,109.250002083778,8|0,0:0|0:0,0:0:0:0:
95,218,293947,2,0,B|80:251|80:251|83:338,1,109.250002083778,8|0,0:0|0:0,0:0:0:0:
330,340,294218,5,0,0:0:0:0:
351,296,294285,1,0,0:0:0:0:
354,246,294353,1,0,0:0:0:0:
337,200,294420,1,0,0:0:0:0:
297,169,294488,5,0,0:0:0:0:
275,125,294555,1,0,0:0:0:0:
280,75,294623,1,0,0:0:0:0:
314,39,294691,1,0,0:0:0:0:
371,45,294758,5,2,0:0:0:0:
435,148,295299,6,0,P|380:172|311:152,1,95,4|0,0:0|0:0,0:0:0:0:
112,120,295569,2,0,P|167:96|236:116,1,95,2|0,0:0|0:0,0:0:0:0:
301,157,295839,1,0,0:0:0:0:
322,179,295929,1,0,0:0:0:0:
328,210,296019,1,0,0:0:0:0:
324,241,296110,1,0,0:0:0:0:
303,265,296200,1,0,0:0:0:0:
289,293,296290,1,0,0:0:0:0:
291,324,296380,5,0,0:0:0:0:
314,345,296470,1,0,0:0:0:0:
344,351,296560,1,0,0:0:0:0:
372,337,296650,2,2,P|386:266|359:210,1,126.666666666667,2|0,0:0|0:0,0:0:0:0:
277,176,296920,2,0,B|211:129|220:48|220:48|276:84,1,190,4|0,0:2|0:0,0:0:0:0:
363,157,297461,5,0,0:0:0:0:
348,175,297528,1,0,0:0:0:0:
332,192,297596,1,0,0:0:0:0:
316,210,297664,1,0,0:0:0:0:
300,227,297731,1,0,0:0:0:0:
283,244,297799,1,0,0:0:0:0:
267,261,297866,1,0,0:0:0:0:
249,277,297934,1,0,0:0:0:0:
233,295,298001,1,0,0:0:0:0:
162,336,298272,5,2,0:0:0:0:
167,291,298542,1,2,0:0:0:0:
170,244,298812,1,2,0:0:0:0:
148,384,299083,6,0,L|147:234,1,123.499994346619,6|0,0:3|0:0,0:0:0:0:
403,0,299353,2,0,B|416:31|416:31|419:147,1,123.499994346619,8|0,0:0|0:0,0:0:0:0:
48,89,299623,2,0,P|106:59|186:61,1,123.499994346619,2|0,0:0|0:0,0:0:0:0:
434,270,299893,2,0,B|377:311|300:286,1,123.499994346619,10|0,0:0|0:0,0:0:0:0:
82,201,300164,1,2,0:0:0:0:
353,190,300299,1,2,0:0:0:0:
54,72,300434,2,0,B|137:34|201:62|201:62|253:51|317:81,1,246.999988693238,10|0,0:0|0:0,0:0:0:0:
266,367,300839,5,0,0:0:0:0:
81,152,300974,1,10,0:0:0:0:
448,227,301110,1,0,0:0:0:0:
169,369,301245,6,0,B|145:291|175:220,1,123.499994346619,6|0,0:0|0:0,0:0:0:0:
201,43,301515,1,2,0:0:0:0:
267,305,301650,1,2,0:0:0:0:
121,136,301785,1,2,0:0:0:0:
445,261,301920,1,2,0:0:0:0:
157,263,302055,2,0,L|-20:264,1,123.499994346619,8|0,0:0|0:0,0:0:0:0:
303,73,302326,5,2,0:0:0:0:
175,270,302461,1,0,0:0:0:0:
167,89,302596,1,8,0:0:0:0:
359,374,302731,2,0,B|386:314|359:238|359:238|315:177|343:96,1,246.999988693238,2|0,0:0|0:0,0:0:0:0:
288,12,303137,2,0,P|213:-1|127:25,1,123.499994346619,8|0,0:0|0:0,0:0:0:0:
56,280,303407,5,2,0:0:0:0:
274,275,303542,1,2,0:0:0:0:
100,116,303677,1,10,0:0:0:0:
395,129,303812,1,2,0:0:0:0:
171,346,303947,2,0,P|156:270|172:198,1,123.499994346619,2|0,0:0|0:0,0:0:0:0:
475,59,304218,2,0,P|490:135|474:207,1,123.499994346619,10|0,0:0|0:0,0:0:0:0:
319,326,304488,5,0,0:0:0:0:
392,117,304623,1,0,0:0:0:0:
392,117,304691,1,0,0:0:0:0:
392,117,304758,2,0,P|306:100|245:113,1,123.499994346619,10|0,0:0|0:0,0:0:0:0:
32,269,305028,2,0,P|129:302|237:266,1,185.249991519928
301,214,305299,6,0,P|330:157|325:86,1,123.499994346619,10|0,0:0|0:0,0:0:0:0:
48,147,305569,2,0,B|25:189|25:189|27:293,1,123.499994346619,6|0,0:0|0:0,0:0:0:0:
404,312,305839,2,0,B|427:270|427:270|425:166,1,123.499994346619,2|0,0:0|0:0,0:0:0:0:
309,47,306110,1,2,0:0:0:0:
232,237,306245,1,2,0:0:0:0:
412,111,306380,2,0,L|520:35,1,123.499994346619,8|0,0:0|0:0,0:0:0:0:
122,118,306650,5,2,0:0:0:0:
304,338,306785,1,0,0:0:0:0:
304,338,306853,1,0,0:0:0:0:
304,338,306920,2,0,P|318:263|299:209,1,123.499994346619,8|0,0:0|0:0,0:0:0:0:
116,53,307191,1,0,0:0:0:0:
101,93,307258,1,0,0:0:0:0:
101,136,307326,1,0,0:0:0:0:
108,178,307393,1,0,0:0:0:0:
131,214,307461,2,0,P|198:257|276:253,1,123.499994346619,8|0,0:0|0:0,0:0:0:0:
432,48,307731,6,0,B|452:86|452:86|441:172,1,123.499994346619,4|0,0:0|0:0,0:0:0:0:
144,303,308001,2,0,P|109:253|109:192,1,123.499994346619,10|0,0:0|0:0,0:0:0:0:
310,21,308272,2,0,P|344:70|344:131,1,123.499994346619,2|0,0:0|0:0,0:0:0:0:
36,314,308542,2,0,B|-3:248|43:128|43:128|24:103|27:66,1,246.999988693238,10|0,0:0|0:0,0:0:0:0:
233,304,308947,5,0,0:0:0:0:
136,53,309083,1,8,0:0:0:0:
121,261,309218,2,0,L|119:403,1,123.499994346619,4|0,0:0|0:0,0:0:0:0:
237,125,309488,1,0,0:0:0:0:
355,261,309623,2,0,P|363:321|245:355,1,185.249991519928,10|0,0:0|0:0,0:0:0:0:
152,311,309893,6,0,P|130:245|144:161,1,123.499994346619
370,22,310164,2,0,P|392:88|378:172,1,123.499994346619,10|0,0:0|0:0,0:0:0:0:
274,326,310434,1,0,0:0:0:0:
294,97,310569,1,0,0:0:0:0:
409,268,310704,2,0,L|481:379,1,123.499994346619,8|0,0:0|0:0,0:0:0:0:
175,302,310974,5,2,0:0:0:0:
361,244,311110,1,0,0:0:0:0:
157,271,311245,1,8,0:0:0:0:
378,184,311380,2,0,B|371:130|405:97|405:97|351:74|335:12|335:12|313:69,1,246.999988693238,2|0,0:0|0:0,0:0:0:0:
139,242,311785,2,0,P|60:270|-27:235,1,123.499994346619,10|0,0:0|0:0,0:0:0:0:
198,46,312055,2,0,B|249:47|276:34|276:34|299:44|299:44|376:16|443:59,1,246.999988693238,6|0,0:0|0:0,0:0:0:0:
165,207,312461,5,2,0:0:0:0:
367,117,312596,1,2,0:0:0:0:
331,286,312731,1,2,0:0:0:0:
129,175,312866,2,2,L|22:91,1,123.499994346619,10|0,0:0|0:0,0:0:0:0:
323,109,313137,1,0,0:0:0:0:
178,311,313272,1,2,0:0:0:0:
187,99,313407,1,10,0:0:0:0:
398,263,313542,1,2,0:0:0:0:
89,374,313677,6,0,P|78:301|91:241,1,123.499994346619,6|0,0:0|0:0,0:0:0:0:
272,0,313947,2,0,L|277:149,1,123.499994346619,8|0,0:0|0:0,0:0:0:0:
434,361,314218,2,0,B|459:269|428:211|428:211|448:175|429:98,1,246.999988693238,6|0,0:0|0:0,0:0:0:0:
324,303,314623,1,2,0:0:0:0:
356,145,314758,1,2,0:0:0:0:
136,237,314893,1,2,0:0:0:0:
335,296,315028,2,8,L|484:329,1,123.499994346619,8|0,0:0|0:0,0:0:0:0:
135,154,315299,5,10,0:0:0:0:
366,228,315434,1,8,0:0:0:0:
239,2,315569,1,10,0:0:0:0:
209,268,315704,1,2,0:0:0:0:
412,141,315839,1,10,0:0:0:0:
51,96,315974,1,0,0:0:0:0:
323,278,316110,2,0,P|409:299|467:283,1,123.499994346619,10|0,0:0|0:0,0:0:0:0:
119,88,316380,6,0,B|84:68|84:68|-47:61,1,123.499994346619,14|0,0:0|0:0,0:0:0:0:
390,251,316650,1,8,0:0:0:0:
106,174,316785,1,0,0:0:0:0:
382,43,316920,1,8,0:0:0:0:
166,314,317055,1,0,0:0:0:0:
488,42,317191,2,0,P|502:116|488:170,1,123.499994346619,14|0,0:0|0:0,0:0:0:0:
250,348,317461,1,8,0:0:0:0:
344,106,317596,1,0,0:0:0:0:
440,351,317731,6,0,P|478:255|452:198,1,123.499994346619,12|0,0:0|0:0,0:0:0:0:
185,27,318001,2,0,B|163:66|163:66|165:187,1,123.499994346619,8|0,0:0|0:0,0:0:0:0:
237,360,318272,1,10,0:0:0:0:
271,102,318407,1,0,0:0:0:0:
25,314,318542,2,0,P|89:332|182:290,1,123.499994346619,12|0,0:0|0:0,0:0:0:0:
400,126,318812,1,8,0:0:0:0:
87,230,318947,1,0,0:0:0:0:
441,326,319083,1,8,0:0:0:0:
134,48,319218,1,0,0:0:0:0:
266,369,319353,6,0,P|290:291|267:229,1,123.499994346619,8|0,0:0|0:0,0:0:0:0:
118,76,319623,1,10,0:0:0:0:
200,303,319758,1,0,0:0:0:0:
383,62,319893,1,10,0:0:0:0:
114,206,320028,1,0,0:0:0:0:
444,290,320164,1,8,0:0:0:0:
188,23,320299,1,0,0:0:0:0:
154,345,320434,1,8,0:0:0:0:
490,114,320569,1,0,0:0:0:0:
52,228,320704,6,0,P|118:256|199:231,1,123.499994346619,14|0,0:0|0:0,0:0:0:0:
417,83,320974,1,8,0:0:0:0:
120,167,321110,1,0,0:0:0:0:
419,348,321245,1,8,0:0:0:0:
288,70,321380,1,0,0:0:0:0:
68,352,321515,2,0,P|56:271|80:208,1,123.499994346619,10|0,0:0|0:0,0:0:0:0:
364,13,321785,2,0,P|378:87|350:153,1,123.499994346619,8|0,0:0|0:0,0:0:0:0:
174,343,322055,5,10,0:0:0:0:
302,59,322191,1,0,0:0:0:0:
369,297,322326,1,10,0:0:0:0:
171,149,322461,1,0,0:0:0:0:
466,113,322596,1,10,0:0:0:0:
66,47,322731,1,0,0:0:0:0:
224,363,322866,2,0,P|237:285|221:219,1,123.499994346619,14|0,0:0|0:0,0:0:0:0:
44,63,323137,6,0,P|31:141|47:207,1,123.499994346619,8|0,0:0|0:0,0:0:0:0:
186,374,323407,1,8,0:0:0:0:
169,101,323542,1,0,0:0:0:0:
23,228,323677,1,10,0:0:0:0:
415,222,323812,1,0,0:0:0:0:
21,309,323947,6,0,P|100:338|182:302,1,123.499994346619,12|0,0:0|0:0,0:0:0:0:
419,197,324218,2,0,B|386:160|322:159|322:159|259:199|176:198,1,246.999988693238,8|0,0:0|0:0,0:0:0:0:
57,117,324623,1,0,0:0:0:0:
57,117,324691,1,0,0:0:0:0:
57,117,324758,2,0,P|123:91|202:101,1,123.499994346619,8|0,0:0|0:0,0:0:0:0:
317,317,325028,2,0,B|336:238|316:157|316:157|337:110|317:45,1,246.999988693238,4|8,0:0|0:0,0:0:0:0:
221,251,325434,5,2,0:0:0:0:
441,100,325569,1,2,0:0:0:0:
225,105,325704,1,2,0:0:0:0:
401,247,325839,2,0,L|514:337,1,123.499994346619,8|0,0:0|0:0,0:0:0:0:
63,275,326110,6,0,P|56:192|75:126,1,123.499994346619,2|0,0:0|0:0,0:0:0:0:
165,40,326380,1,8,0:0:0:0:
164,226,326515,1,0,0:0:0:0:
54,64,326650,1,0,0:0:0:0:
350,209,326785,1,0,0:0:0:0:
84,319,326920,2,0,P|180:342|240:327,1,123.499994346619,8|0,0:0|0:0,0:0:0:0:
488,182,327191,6,0,B|401:175|342:207|342:207|286:180|212:203,1,246.999988693238,4|0,0:0|0:0,0:0:0:0:
29,210,327596,1,2,0:0:0:0:
276,288,327731,1,2,0:0:0:0:
134,47,327866,1,2,0:0:0:0:
143,261,328001,2,0,L|147:404,1,123.499994346619,8|0,0:0|0:0,0:0:0:0:
376,232,328272,6,0,P|403:161|377:88,1,123.499994346619,2|0,0:0|0:0,0:0:0:0:
226,37,328542,1,8,0:0:0:0:
305,162,328677,1,0,0:0:0:0:
343,16,328812,1,0,0:0:0:0:
147,192,328947,1,0,0:0:0:0:
321,145,329083,2,0,P|357:78|260:64,1,185.249991519928,8|0,0:0|0:0,0:0:0:0:
129,127,329353,6,0,B|92:159|92:159|74:255,1,123.499994346619,8|0,0:0|0:0,0:0:0:0:
332,331,329623,1,8,0:0:0:0:
430,97,329758,1,0,0:0:0:0:
173,209,329893,1,8,0:0:0:0:
475,299,330028,1,0,0:0:0:0:
222,49,330164,2,0,P|146:31|79:49,1,123.499994346619,8|0,0:0|0:0,0:0:0:0:
117,309,330434,5,8,0:0:0:0:
166,112,330569,1,0,0:0:0:0:
348,317,330704,1,8,0:0:0:0:
349,85,330839,1,0,0:0:0:0:
27,218,330974,1,8,0:0:0:0:
460,233,331110,1,0,0:0:0:0:
53,215,331245,1,8,0:0:0:0:
243,3,331380,1,0,0:0:0:0:
245,347,331515,5,8,0:0:0:0:
485,63,331650,1,0,0:0:0:0:
440,323,331785,1,8,0:0:0:0:
226,39,331920,1,0,0:0:0:0:
264,342,332055,1,8,0:0:0:0:
119,83,332191,1,0,0:0:0:0:
402,333,332326,2,0,B|423:255|398:181|398:181|418:133|402:67,1,246.999988693238,12|8,0:0|0:0,0:0:0:0:
249,351,332731,1,0,0:0:0:0:
204,47,332866,2,0,B|216:84|216:84|310:140,1,123.499994346619,10|0,0:0|0:0,0:0:0:0:
475,197,333137,5,8,0:0:0:0:
147,288,333272,1,0,0:0:0:0:
267,348,333407,2,0,P|335:361|410:328,1,123.499994346619,8|0,0:0|0:0,0:0:0:0:
205,210,333677,2,0,P|137:197|62:230,1,123.499994346619,8|0,0:0|0:0,0:0:0:0:
8,333,333947,5,8,0:0:0:0:
152,305,334083,1,0,0:0:0:0:
34,71,334218,1,8,0:0:0:0:
45,231,334353,1,0,0:0:0:0:
234,159,334488,2,0,L|388:106,1,123.499994346619,8|0,0:0|0:0,0:0:0:0:
55,102,334758,5,10,0:0:0:0:
43,143,334826,1,0,0:0:0:0:
46,185,334893,1,0,0:0:0:0:
63,224,334961,1,0,0:0:0:0:
93,249,335028,2,0,P|160:278|235:268,1,123.499994346619,8|0,0:0|0:0,0:0:0:0:
482,137,335299,2,0,B|415:108|371:112|371:112|320:166|225:153,1,246.999988693238,8|8,0:0|0:0,0:0:0:0:
68,107,335704,1,0,0:0:0:0:
320,245,335839,2,0,P|328:318|296:366,1,123.499994346619,12|0,0:0|0:0,0:0:0:0:
52,364,336110,5,8,0:0:0:0:
241,284,336245,1,0,0:0:0:0:
4,155,336380,1,8,0:0:0:0:
261,80,336515,1,0,0:0:0:0:
105,236,336650,2,0,L|4:335,1,123.499994346619,8|0,0:0|0:0,0:0:0:0:
272,337,336920,5,2,0:0:0:0:
327,338,336988,1,0,0:0:0:0:
378,318,337055,1,2,0:0:0:0:
417,278,337123,1,0,0:0:0:0:
435,225,337191,5,2,0:0:0:0:
404,186,337258,1,0,0:0:0:0:
386,139,337326,1,2,0:0:0:0:
390,90,337393,1,0,0:0:0:0:
421,51,337461,6,0,B|321:11|289:95|289:95|233:77|179:116,1,249.375009512902,4|0,0:0|0:0,0:0:0:0:
100,146,338001,2,0,P|131:196|184:214,1,95,6|0,0:0|0:0,0:0:0:0:
299,255,338272,2,0,P|268:305|215:323,1,95,2|0,0:0|0:0,0:0:0:0:
85,319,338542,1,2,0:0:0:0:
214,240,338677,1,2,0:0:0:0:
76,204,338812,2,0,P|49:149|60:102,1,95,2|0,0:0|0:0,0:0:0:0:
151,11,339083,5,0,0:0:0:0:
170,166,339218,1,0,0:0:0:0:
283,97,339353,1,0,0:0:0:0:
68,102,339488,1,0,0:0:0:0:
204,255,339623,1,0,0:0:0:0:
179,87,339758,1,0,0:0:0:0:
314,263,339893,5,0,0:0:0:0:
312,224,339961,1,0,0:0:0:0:
312,186,340028,1,0,0:0:0:0:
313,147,340096,1,0,0:0:0:0:
314,108,340164,2,2,L|313:9,1,95,6|2,0:0|0:0,0:0:0:0:
113,193,340434,2,2,P|188:236|229:230,1,95
442,165,340704,1,2,0:0:0:0:
186,145,340839,1,2,0:0:0:0:
373,309,340974,1,2,0:0:0:0:
303,132,341110,5,0,0:0:0:0:
303,132,341177,1,0,0:0:0:0:
303,132,341245,2,0,L|193:131,1,95,8|0,0:0|0:0,0:0:0:0:
84,272,341515,2,0,L|178:272,1,95,8|0,0:0|0:0,0:0:0:0:
375,213,341785,1,0,0:0:0:0:
176,125,341920,1,8,0:0:0:0:
213,345,342055,1,0,0:0:0:0:
242,320,342123,1,0,0:0:0:0:
254,283,342191,1,0,0:0:0:0:
251,245,342258,1,0,0:0:0:0:
228,214,342326,6,2,P|183:180|168:128,1,95
302,106,342596,2,2,P|347:140|362:192,1,95
309,334,342866,1,2,0:0:0:0:
282,191,343001,2,0,L|260:73,1,95,2|0,0:0|0:0,0:0:0:0:
416,299,343272,2,0,L|490:359,1,95,2|0,0:0|0:0,0:0:0:0:
189,310,343542,6,0,B|168:288|168:288|160:189,1,95,8|0,0:0|0:0,0:0:0:0:
163,80,343812,1,0,0:0:0:0:
311,160,343947,2,0,L|414:218,1,95,8|0,0:0|0:0,0:0:0:0:
82,201,344218,2,0,L|-21:143,1,95,8|0,0:0|0:0,0:0:0:0:
302,54,344488,5,0,0:0:0:0:
144,233,344623,1,2,0:0:0:0:
195,66,344758,2,0,P|252:53|304:70,1,95,2|0,0:0|0:0,0:0:0:0:
436,142,345028,1,2,0:0:0:0:
249,144,345164,1,2,0:0:0:0:
338,318,345299,1,2,0:0:0:0:
381,221,345434,5,0,0:0:0:0:
381,221,345501,1,0,0:0:0:0:
381,221,345569,2,0,L|266:220,1,95,8|0,0:0|0:0,0:0:0:0:
80,100,345839,2,0,L|195:101,1,95,8|0,0:0|0:0,0:0:0:0:
378,118,346110,1,2,0:0:0:0:
142,306,346245,2,0,P|130:235|147:190,1,95,8|0,0:0|0:0,0:0:0:0:
263,59,346515,1,0,0:0:0:0:
218,257,346650,1,0,0:0:0:0:
156,126,346785,5,2,0:0:0:0:
319,185,346920,1,2,0:0:0:0:
144,217,347055,1,2,0:0:0:0:
308,314,347191,2,2,P|326:250|311:201,1,95
81,163,347461,2,0,P|63:227|78:276,1,95,2|0,0:0|0:0,0:0:0:0:
285,209,347731,6,0,B|298:165|298:165|292:82,1,95,8|0,0:0|0:0,0:0:0:0:
147,182,348001,1,8,0:0:0:0:
150,210,348069,1,8,0:0:0:0:
151,238,348137,1,8,0:0:0:0:
153,266,348204,1,8,0:0:0:0:
154,294,348272,1,8,0:0:0:0:
148,129,348542,5,8,0:0:0:0:
145,101,348610,1,8,0:0:0:0:
144,73,348678,1,8,0:0:0:0:
142,45,348745,1,8,0:0:0:0:
141,17,348813,1,10,0:0:0:0:
282,256,348947,5,2,0:0:0:0:
39,128,349083,1,2,0:0:0:0:
383,194,349218,2,2,P|398:261|380:322,1,95
186,187,349488,2,0,P|171:120|189:59,1,95,2|0,0:0|0:0,0:0:0:0:
383,17,349758,2,0,P|375:107|270:138,1,190,4|0,0:0|0:0,0:0:0:0:
83,50,350164,2,0,B|121:31|121:31|199:34,1,95,8|0,0:0|0:0,0:0:0:0:
352,111,350434,1,0,0:0:0:0:
337,140,350501,1,0,0:0:0:0:
314,164,350569,1,0,0:0:0:0:
286,182,350637,1,0,0:0:0:0:
253,183,350704,5,0,0:0:0:0:
222,168,350772,1,0,0:0:0:0:
190,157,350839,1,0,0:0:0:0:
156,156,350907,1,0,0:0:0:0:
125,167,350974,2,2,P|62:194|32:230,1,95
302,279,351245,2,2,P|365:252|395:216,1,95
459,76,351515,1,2,0:0:0:0:
309,184,351650,1,2,0:0:0:0:
490,171,351785,1,2,0:0:0:0:
285,66,351920,5,0,0:0:0:0:
285,66,351988,1,0,0:0:0:0:
285,66,352055,2,0,L|173:67,1,95,8|0,0:0|0:0,0:0:0:0:
114,224,352326,1,2,0:0:0:0:
300,192,352461,2,0,L|434:166,1,95,8|0,0:0|0:0,0:0:0:0:
174,295,352731,2,0,L|90:310,1,47.5,8|0,0:0|0:0,0:0:0:0:
72,283,352866,5,0,0:0:0:0:
58,252,352934,1,0,0:0:0:0:
54,219,353001,1,0,0:0:0:0:
64,187,353069,1,0,0:0:0:0:
81,158,353137,6,0,B|95:128|95:128|168:93,1,95,8|0,0:0|0:0,0:0:0:0:
325,165,353407,1,2,0:0:0:0:
179,309,353542,2,0,P|115:321|69:307,1,95,8|0,0:0|0:0,0:0:0:0:
308,198,353812,5,2,0:0:0:0:
137,219,353947,1,2,0:0:0:0:
329,367,354083,1,8,0:0:0:0:
