osu file format v14

[General]
AudioFilename: audio.mp3
AudioLeadIn: 0
PreviewTime: 576654
Countdown: 0
SampleSet: Drum
StackLeniency: 0.2
Mode: 0
LetterboxInBreaks: 0
WidescreenStoryboard: 1

[Editor]
Bookmarks: 101358,355203,375848,406816,427461,545729,577457,589309
DistanceSpacing: 1.4
BeatDivisor: 3
GridSize: 8
TimelineZoom: 2.799999

[Metadata]
Title:Prison Of Abyss
TitleUnicode:Prison Of Abyss
Artist:TEARS OF TRAGEDY
ArtistUnicode:TEARS OF TRAGEDY
Creator:Hey lululu
Version:Death Penalty Executioner: lu^3 x _Shield
Source:
Tags:Continuation Of The Dream haruka toru yohei hayato hideyuki symphonic melodic power metal japanese rock _Shield
BeatmapID:2517071
BeatmapSetID:1161448

[Difficulty]
HPDrainRate:6
CircleSize:4.5
OverallDifficulty:8.5
ApproachRate:9.4
SliderMultiplier:1.8
SliderTickRate:1

[Events]
//Background and Video events
0,0,"BG.jpg",0,0
//Break Periods
2,240028,255695
2,449633,452473
//Storyboard Layer 0 (Background)
//Storyboard Layer 1 (Fail)
//Storyboard Layer 2 (Pass)
//Storyboard Layer 3 (Foreground)
//Storyboard Layer 4 (Overlay)
//Storyboard Sound Samples

[TimingPoints]
32159,740.740740740741,3,2,5,40,1,0
43270,983.606557377049,3,2,5,40,1,0
43515,810.810810810811,3,2,5,40,1,0
43717,800,3,2,5,40,1,0
43917,615.384615384615,3,2,5,40,1,0
44070,558.139534883721,3,2,5,40,1,0
44209,421.052631578947,3,2,5,40,1,0
44314,315.789473684211,3,2,5,40,1,0
44471,300,3,2,5,40,1,0
44621,272.727272727273,3,2,5,40,1,0
44757,240,3,2,5,40,1,0
44997,216.606498194946,3,2,5,40,1,0
45214,659.340659340659,3,2,5,40,1,0
47192,679.886685552408,3,2,5,40,1,0
49231,727.713765918739,3,2,5,40,1,0
51414,689.259046524986,3,2,5,20,1,0
53481,348.837209302326,4,2,5,70,1,0
53829,348.837209302326,4,3,1,70,1,0
53829,-66.6666666666667,4,3,1,70,0,0
54294,-71.4285714285714,4,3,1,70,0,0
54642,-76.9230769230769,4,3,1,70,0,0
54991,-83.3333333333333,4,3,1,70,0,0
55224,-66.6666666666667,4,3,1,70,0,0
55689,-71.4285714285714,4,3,1,70,0,0
56037,-76.9230769230769,4,3,1,70,0,0
56386,-83.3333333333333,4,3,1,70,0,0
56619,-66.6666666666667,4,3,1,70,0,0
57084,-71.4285714285714,4,3,1,70,0,0
57432,-76.9230769230769,4,3,1,70,0,0
57781,-83.3333333333333,4,3,1,70,0,0
58015,-66.6666666666667,4,3,1,70,0,0
58480,-71.4285714285714,4,3,1,70,0,0
58828,-76.9230769230769,4,3,1,70,0,0
59061,-200,4,3,1,70,0,0
59410,-66.6666666666667,4,3,1,70,0,0
59875,-71.4285714285714,4,3,1,70,0,0
60223,-76.9230769230769,4,3,1,70,0,0
60456,-83.3333333333333,4,3,1,70,0,0
60805,-66.6666666666667,4,3,1,70,0,0
61270,-71.4285714285714,4,3,1,70,0,0
61618,-76.9230769230769,4,3,1,70,0,0
61851,-83.3333333333333,4,3,1,70,0,0
62201,-66.6666666666667,4,3,1,70,0,0
62666,-71.4285714285714,4,3,1,70,0,0
63014,-76.9230769230769,4,3,1,70,0,0
63247,-83.3333333333333,4,3,1,70,0,0
66387,-66.6666666666667,4,3,1,70,0,0
66735,-71.4285714285714,4,3,1,70,0,0
67084,-76.9230769230769,4,3,1,70,0,0
67433,-83.3333333333333,4,3,1,70,0,0
69177,-66.6666666666667,4,3,1,70,0,0
69525,-71.4285714285714,4,3,1,70,0,0
69874,-76.9230769230769,4,3,1,70,0,0
70223,-83.3333333333333,4,3,1,70,0,0
73363,-100,4,3,1,70,0,0
73596,-83.3333333333333,4,3,1,70,0,0
73829,-71.4285714285714,4,3,1,70,0,0
74294,-83.3333333333333,4,3,1,70,0,0
74526,-100,4,3,1,70,0,0
74759,-200,4,2,1,70,0,0
83131,-100,4,2,1,70,0,0
84526,-100,4,3,1,70,0,0
85922,-100,4,3,2,80,0,0
97084,-58.8235294117647,4,3,1,80,0,0
102666,-100,4,2,1,70,0,0
105456,-100,4,3,1,70,0,0
111038,-66.6666666666667,4,3,1,80,0,0
127782,-142.857142857143,4,3,1,70,0,0
131968,-66.6666666666667,4,3,1,80,0,0
150108,-142.857142857143,4,3,1,70,0,0
155689,-58.8235294117647,4,3,1,80,0,0
166852,-142.857142857143,4,3,1,70,0,0
168945,-90.909090909091,4,3,1,70,0,0
169294,-76.9230769230769,4,3,1,70,0,0
169642,-142.857142857143,4,3,1,70,0,0
178015,-100,4,3,1,80,0,0
211154,-142.857142857143,4,3,1,80,0,0
211503,-142.857142857143,4,3,1,70,0,0
216387,-90.909090909091,4,3,1,70,0,0
216736,-76.9230769230769,4,3,1,70,0,0
217084,-142.857142857143,4,3,1,70,0,0
222666,-83.3333333333333,4,3,1,80,0,0
227898,-142.857142857143,4,3,1,80,0,0
228247,-83.3333333333333,4,3,1,80,0,0
231038,-83.3333333333333,4,3,1,80,0,1
233829,375,4,3,1,40,1,0
233829,-625,4,3,1,40,0,0
233922,-100,4,2,5,40,0,0
239829,-100,4,2,5,5,0,0
256235,458.015267175573,4,2,1,80,1,0
256235,-100,4,2,1,80,0,0
256349,322.58064516129,4,3,1,80,1,0
256994,279.06976744186,4,3,1,80,1,0
257133,363.636363636364,4,3,1,80,1,0
257314,279.06976744186,4,3,1,80,1,0
257453,375,4,3,1,80,1,0
257640,272.727272727273,4,3,1,80,1,0
257776,361.44578313253,4,3,1,80,1,0
257956,291.26213592233,4,3,1,80,1,0
258101,324.324324324324,4,3,1,80,1,0
258425,352.941176470588,4,3,1,80,1,0
258601,307.692307692308,4,3,1,80,1,0
258754,333.333333333333,4,3,1,80,1,0
259087,285.714285714286,4,3,1,80,1,0
259229,361.44578313253,4,3,1,80,1,0
259409,292.682926829268,4,3,1,80,1,0
259555,333.333333333333,4,3,1,80,1,0
259721,352.941176470588,4,3,1,80,1,0
259897,292.682926829268,4,3,1,80,1,0
260043,312.5,4,3,1,80,1,0
260199,326.086956521739,4,3,1,80,1,0
260525,338.983050847458,4,3,1,80,1,0
260694,309.278350515464,4,3,1,80,1,0
260848,344.827586206897,4,3,1,80,1,0
261020,306.122448979592,4,3,1,80,1,0
261173,326.086956521739,4,3,1,80,1,0
261336,312.5,4,3,1,80,1,0
261649,337.078651685393,4,3,1,80,1,0
261818,324.324324324324,4,3,1,80,1,0
262142,315.789473684211,4,3,1,80,1,0
262299,333.333333333333,4,3,1,80,1,0
262632,319.148936170213,4,3,1,80,1,0
262791,265.486725663717,4,3,1,80,1,0
262857,319.148936170213,4,3,1,80,1,0
262936,342.857142857143,4,3,1,80,1,0
263107,329.67032967033,4,3,1,80,1,0
263271,300,4,3,1,80,1,0
263421,315.789473684211,4,3,1,80,1,0
263578,333.333333333333,4,3,1,80,1,0
264077,338.983050847458,4,3,1,80,1,0
264246,326.086956521739,4,2,1,80,1,0
264572,320.855614973262,4,2,1,80,1,0
264732,298.507462686567,4,2,1,80,1,0
264881,322.58064516129,4,3,1,80,1,0
264881,-83.3333333333333,4,3,1,80,0,0
285042,-166.666666666667,4,3,1,80,0,0
285526,-66.6666666666667,4,3,1,80,0,0
305526,-100,4,3,1,80,0,0
305848,-66.6666666666667,4,3,1,80,0,0
313590,-142.857142857143,4,3,1,80,0,0
313913,287.081339712919,4,3,1,80,1,0
313913,-66.6666666666667,4,3,1,80,0,0
314558,322.58064516129,4,3,1,80,1,0
314558,-66.6666666666667,4,3,1,80,0,0
315203,322.58064516129,4,3,1,80,1,0
315203,-66.6666666666667,4,3,1,80,0,0
323590,-100,4,3,1,80,0,0
323912,352.941176470588,4,3,1,80,1,0
324029,307.692307692308,4,3,1,80,1,0
324235,322.58064516129,4,3,1,70,1,0
324235,-200,4,3,1,70,0,0
326816,-200,4,3,1,70,0,0
326924,-200,4,3,1,10,0,0
327031,-200,4,3,1,70,0,0
327139,-200,4,3,1,10,0,0
327246,-200,4,3,1,70,0,0
327354,-200,4,3,1,10,0,0
327461,-200,4,3,1,70,0,0
327569,-200,4,3,1,10,0,0
327676,-200,4,3,1,70,0,0
327784,-200,4,3,1,10,0,0
327891,-200,4,3,1,70,0,0
327999,-200,4,3,1,10,0,0
328106,-125,4,3,1,70,0,0
328214,-125,4,3,1,10,0,0
328321,-125,4,3,1,70,0,0
328429,-125,4,3,1,10,0,0
328536,-125,4,3,1,70,0,0
328644,-125,4,3,1,10,0,0
328751,-90.9090909090909,4,3,1,70,0,0
328859,-90.9090909090909,4,3,1,10,0,0
328967,-90.9090909090909,4,3,1,70,0,0
334235,-66.6666666666667,4,3,1,70,0,0
334558,-66.6666666666667,4,3,1,80,0,0
354558,-100,4,3,1,80,0,0
354880,-66.6666666666667,4,3,1,80,0,0
363175,315.789473684211,4,3,1,80,1,0
363589,322.58064516129,4,3,1,80,1,0
363730,322.58064516129,4,3,1,80,1,0
364072,322.58064516129,4,3,1,80,1,0
364235,322.58064516129,4,3,1,80,1,0
364396,-66.6666666666667,4,3,1,80,0,0
370364,-333.333333333333,4,3,1,80,0,0
370687,-66.6666666666667,4,3,1,80,0,0
374235,-100,4,3,1,80,0,0
374558,-66.6666666666667,4,3,1,80,0,0
375364,307.692307692308,4,3,1,80,1,0
375847,322.58064516129,4,3,1,70,1,0
391008,-333.333333333333,4,3,1,80,0,0
391332,-100,4,3,1,80,0,0
393913,-66.6666666666667,4,3,1,80,0,0
396492,-142.857142857143,4,3,1,80,0,0
400203,-142.857142857143,4,3,2,80,0,0
400284,-142.857142857143,4,3,1,80,0,0
402784,-142.857142857143,4,3,2,80,0,0
402865,-142.857142857143,4,3,1,80,0,0
406814,-83.3333333333333,4,3,1,80,0,0
434879,-166.666666666667,4,3,1,80,0,0
435203,-83.3333333333333,4,3,1,80,0,0
441655,312.5,4,3,1,80,1,0
441967,322.58064516129,4,3,1,80,1,0
442612,333.333333333333,4,3,1,50,1,0
442945,266.666666666667,4,3,1,50,1,0
443345,300,4,3,1,50,1,0
443495,315.789473684211,4,3,1,50,1,0
443652,292.682926829268,4,3,1,50,1,0
443798,408.163265306122,4,3,1,50,1,0
444206,600,4,3,1,50,1,0
444806,800,4,3,1,80,1,0
445606,246.913580246914,4,3,1,80,1,0
445606,-400,4,3,1,80,0,0
445667,-400,4,2,5,80,0,0
449309,-400,4,2,5,5,0,0
449433,-400,4,3,2,80,0,0
453013,-400,4,3,1,80,0,0
453445,-400,4,2,5,80,0,0
455235,-400,4,2,5,5,0,0
455359,-400,4,3,2,80,0,0
455729,-400,4,3,1,80,0,0
457334,-400,4,3,2,80,0,0
457396,-400,4,2,5,80,0,0
459186,-400,4,2,5,5,0,0
459309,-400,4,3,2,80,0,0
460667,-400,4,3,2,80,0,0
460914,-400,4,3,1,80,0,0
461285,-83.3333333333333,4,3,1,80,0,0
478568,-83.3333333333333,4,3,1,80,0,0
478692,246.913580246914,4,3,1,80,1,0
478692,-83.3333333333333,4,3,1,80,0,0
482519,-100,4,3,1,80,0,0
486469,-83.3333333333333,4,3,1,80,0,0
490420,-100,4,3,1,80,0,0
494741,-83.3333333333333,4,3,1,80,0,0
498321,-100,4,3,1,80,0,0
502272,-83.3333333333333,4,3,1,80,0,0
506346,-100,4,3,1,80,0,0
510790,-83.3333333333333,4,3,1,80,0,0
511284,-76.9230769230769,4,3,1,80,0,0
511778,-71.4285714285714,4,3,1,80,0,0
512148,-66.6666666666667,4,3,1,80,0,0
514247,-100,4,3,1,80,0,0
515975,-100,4,3,2,80,0,0
516222,-100,4,3,1,80,0,0
517951,-100,4,3,2,80,0,0
518198,-100,4,3,1,80,0,0
518692,-83.3333333333333,4,3,1,80,0,0
519186,-76.9230769230769,4,3,1,80,0,0
519679,-71.4285714285714,4,3,1,80,0,0
520050,-66.6666666666667,4,3,1,80,0,0
522148,-100,4,3,1,80,0,0
529926,-83.3333333333333,4,3,1,80,0,0
533877,-100,4,3,1,80,0,0
537827,-83.3333333333333,4,3,1,80,0,0
541778,-100,4,3,1,80,0,0
545729,-83.3333333333333,4,3,1,80,0,0
549679,-100,4,3,1,80,0,0
553629,-83.3333333333333,4,3,1,80,0,0
557580,-100,4,3,1,80,0,0
561901,-83.3333333333333,4,3,1,80,0,0
565481,-100,4,3,1,80,0,0
569432,-83.3333333333333,4,3,1,80,0,0
573506,-100,4,3,1,70,0,0
576963,-100,4,3,1,75,0,0
577210,-100,4,3,1,80,0,0
577457,-76.9230769230769,4,3,3,80,0,1
577519,-76.9230769230769,4,3,1,80,0,1
579432,-83.3333333333333,4,3,1,80,0,1
581408,-76.9230769230769,4,3,1,80,0,1
583383,-83.3333333333333,4,3,1,80,0,1
585358,-90.9090909090909,4,3,1,80,0,1
593259,-76.9230769230769,4,3,3,80,0,1
593321,-76.9230769230769,4,3,1,80,0,1
595234,-83.3333333333333,4,3,1,80,0,1
597210,-76.9230769230769,4,3,1,80,0,1
599185,-83.3333333333333,4,3,1,80,0,1
601161,-90.9090909090909,4,3,1,80,0,1
608074,-100,4,3,1,80,0,0
609062,-83.3333333333333,4,3,1,80,0,1
640667,-100,4,3,1,80,0,1
641654,-90.9090909090909,4,3,1,80,0,1
642642,-83.3333333333333,4,3,1,80,0,1
644371,-83.3333333333333,4,3,1,80,0,0
644617,697.674418604651,3,2,5,40,1,0
645314,681.818181818182,3,2,5,40,1,0
646677,681.818181818182,3,2,5,40,1,0
660654,705.882352941176,3,2,5,40,1,0
661006,740.740740740741,3,2,99,30,1,0

[Colours]
Combo1 : 128,128,128
Combo2 : 128,128,192
Combo3 : 192,192,192
Combo4 : 170,170,255

[HitObjects]
512,40,32159,6,0,L|411:52,1,90,4|2,0:0|0:0,0:0:0:0:
365,127,32899,2,0,L|264:139,1,90,0|2,0:0|0:0,0:0:0:0:
199,200,33640,1,0,0:0:0:0:
199,200,34010,1,2,0:0:0:0:
89,123,34381,6,0,P|103:146|95:211,1,90,4|2,0:0|0:0,0:0:0:0:
185,288,35121,2,0,P|178:314|127:354,1,90,0|2,0:0|0:0,0:0:0:0:
12,219,35862,2,0,P|18:245|69:285,1,90,0|2,0:0|0:0,0:0:0:0:
97,206,36603,5,4,0:0:0:0:
200,174,36973,1,2,0:0:0:0:
280,246,37344,1,0,0:0:0:0:
250,349,37714,1,2,0:0:0:0:
147,382,38084,1,0,0:0:0:0:
147,382,38455,1,2,0:0:0:0:
268,335,38825,6,0,L|364:354,1,90,4|2,0:0|0:0,0:0:0:0:
481,384,39566,1,0,0:0:0:0:
481,384,39936,1,2,0:0:0:0:
404,291,40307,1,0,0:0:0:0:
510,185,40677,1,2,0:0:0:0:
408,39,41047,5,4,0:0:0:0:
500,66,41418,1,2,0:0:0:0:
304,203,41788,5,0,0:0:0:0:
396,176,42159,1,2,0:0:0:0:
168,0,42529,5,0,0:0:0:0:
260,27,42899,1,2,0:0:0:0:
68,123,43270,6,0,P|49:128|-6:136,1,45,2|2,0:0|0:0,0:0:0:0:
132,180,43717,6,0,P|151:171|206:167,1,45,2|2,0:0|0:0,0:0:0:0:
18,220,44070,5,2,0:0:0:0:
14,243,44209,1,2,0:0:0:0:
24,264,44314,1,2,0:0:0:0:
34,278,44392,1,0,0:0:0:0:
50,286,44471,6,0,P|78:278|116:290,1,45,0|0,0:0|0:0,0:0:0:0:
110,289,44621,2,0,P|127:302|144:331,1,45,0|0,0:0|0:0,0:0:0:0:
147,340,44757,6,0,P|147:367|137:397,3,45,0|0|0|0,0:0|0:0|0:0|0:0,0:0:0:0:
187,251,44997,2,0,P|186:228|191:206,3,45,0|0|0|0,0:0|0:0|0:0|0:0,0:0:0:0:
256,288,45214,5,2,0:0:0:0:
256,288,47192,5,2,0:0:0:0:
256,288,49231,5,2,0:0:0:0:
256,288,51414,5,2,0:0:0:0:
256,96,53481,5,2,0:0:0:0:
256,96,53829,5,4,0:2:0:0:
210,21,53945,5,2,0:2:0:0:
210,21,54061,2,0,P|175:53|167:108,1,90.0000034332277,2|10,0:2|0:0,0:0:0:0:
84,68,54294,5,2,0:2:0:0:
84,68,54410,2,0,P|81:115|115:159,1,83.9999974365235,2|0,0:2|0:0,0:0:0:0:
24,184,54642,5,2,0:2:0:0:
24,184,54759,2,0,P|56:219|111:227,1,77.9999964294435,2|10,0:2|0:0,0:0:0:0:
58,305,54991,5,2,0:2:0:0:
58,305,55108,2,0,P|105:307|149:273,1,71.9999978027344,2|0,0:2|0:2,0:0:0:0:
243,287,55340,5,2,0:2:0:0:
243,287,55456,2,0,L|266:380,1,90.0000034332277,2|10,0:2|0:0,0:0:0:0:
256,205,55689,5,2,0:2:0:0:
256,205,55805,2,0,L|279:298,1,83.9999974365235,2|0,0:2|0:0,0:0:0:0:
264,123,56038,5,2,0:2:0:0:
264,123,56154,2,0,L|287:216,1,77.9999964294435,2|10,0:2|0:0,0:0:0:0:
274,42,56387,5,2,0:2:0:0:
274,42,56503,2,0,L|297:135,1,71.9999978027344,2|4,0:2|0:2,0:0:0:0:
387,46,56735,5,2,0:2:0:0:
387,46,56852,2,0,B|427:22|427:22|507:33,1,90.0000034332277,2|10,0:2|0:0,0:0:0:0:
447,121,57084,5,2,0:2:0:0:
447,121,57201,2,0,B|486:130|486:130|530:187,1,83.9999974365235,2|0,0:2|0:0,0:0:0:0:
443,210,57433,5,2,0:2:0:0:
443,210,57549,2,0,B|462:242|462:242|453:307,1,77.9999964294435,2|10,0:2|0:0,0:0:0:0:
364,259,57782,5,2,0:2:0:0:
364,259,57898,2,0,B|354:295|354:295|302:335,1,71.9999978027344,2|0,0:2|0:2,0:0:0:0:
219,335,58131,5,2,0:2:0:0:
219,335,58247,2,0,L|111:306,1,90.0000034332277,2|10,0:2|0:0,0:0:0:0:
124,230,58480,5,2,0:2:0:0:
124,230,58596,2,0,L|16:201,1,83.9999974365235,2|0,0:2|0:0,0:0:0:0:
17,131,58829,5,2,0:2:0:0:
17,131,58945,1,2,0:2:0:0:
106,90,59061,6,0,B|122:65|122:65|100:-9,1,90,4|4,0:2|0:2,0:0:0:0:
214,12,59526,5,2,0:2:0:0:
214,12,59642,2,0,P|255:24|308:17,1,90.0000034332277,2|10,0:2|0:0,0:0:0:0:
366,116,59875,5,2,0:2:0:0:
366,116,59991,2,0,P|398:98|426:61,1,83.9999974365235,2|0,0:2|0:0,0:0:0:0:
361,213,60224,5,2,0:2:0:0:
361,213,60340,2,0,P|325:223|278:217,1,77.9999964294435,2|10,0:2|0:0,0:0:0:0:
227,305,60573,5,2,0:2:0:0:
227,305,60689,2,0,P|199:289|174:257,1,71.9999978027344,2|0,0:2|0:2,0:0:0:0:
17,117,60922,5,2,0:2:0:0:
17,117,61038,2,0,P|48:150|46:209,1,90.0000034332277,2|10,0:2|0:0,0:0:0:0:
177,119,61270,5,2,0:2:0:0:
177,119,61387,2,0,P|175:164|132:204,1,83.9999974365235,2|0,0:2|0:0,0:0:0:0:
271,233,61619,5,2,0:2:0:0:
271,233,61735,2,0,P|238:264|179:262,1,77.9999964294435,2|10,0:2|0:0,0:0:0:0:
254,384,61968,5,2,0:2:0:0:
254,384,62084,2,0,P|208:382|168:339,1,71.9999978027344,2|4,0:2|0:2,0:0:0:0:
123,269,62317,5,2,0:2:0:0:
123,269,62433,2,0,P|166:254|218:281,1,90.0000034332277,2|10,0:2|0:0,0:0:0:0:
335,87,62666,5,2,0:2:0:0:
335,87,62782,2,0,P|349:130|322:182,1,83.9999974365235,2|0,0:2|0:0,0:0:0:0:
188,130,63015,5,2,0:2:0:0:
188,130,63131,2,0,P|228:150|246:206,1,77.9999964294435,2|10,0:2|0:0,0:0:0:0:
206,269,63363,5,2,0:2:0:0:
206,269,63480,1,2,0:2:0:0:
330,312,63596,5,4,0:3:0:0:
355,337,63712,1,0,0:2:0:0:
321,346,63829,1,0,0:2:0:0:
418,227,63945,5,4,0:3:0:0:
393,252,64061,1,2,0:2:0:0:
427,261,64177,1,2,0:2:0:0:
304,144,64294,5,4,0:3:0:0:
329,169,64410,1,0,0:2:0:0:
295,178,64526,1,0,0:2:0:0:
361,37,64642,6,0,B|381:27|390:0|390:0|419:52|388:113,1,143.999995605469,4|0,0:2|0:0,0:0:0:0:
275,35,64991,5,4,0:2:0:0:
205,53,65108,1,2,0:2:0:0:
135,72,65224,1,2,0:2:0:0:
97,51,65340,5,10,0:1:0:0:
68,100,65456,1,2,0:2:0:0:
39,150,65573,1,2,0:2:0:0:
4,176,65689,5,0,0:0:0:0:
15,220,65805,1,2,0:2:0:0:
27,264,65922,1,2,0:2:0:0:
10,304,66038,5,10,0:1:0:0:
41,322,66154,1,2,0:2:0:0:
72,340,66270,1,2,0:2:0:0:
121,361,66387,6,0,L|231:341,2,90.0000034332277,2|2|2,0:1|0:2|0:2,0:0:0:0:
267,240,66735,6,0,L|184:255,2,83.9999974365235,10|2|2,0:1|0:2|0:2,0:0:0:0:
343,364,67084,6,0,L|425:348,2,77.9999964294435,2|2|2,0:1|0:2|0:2,0:0:0:0:
497,256,67433,6,0,L|420:269,2,71.9999978027344,12|2|2,3:2|0:2|0:2,0:0:0:0:
511,125,67782,5,4,0:2:0:0:
480,62,67898,1,2,0:2:0:0:
412,45,68015,1,2,0:2:0:0:
375,24,68131,5,10,0:1:0:0:
350,73,68247,1,2,0:2:0:0:
295,87,68363,1,2,0:2:0:0:
270,122,68480,5,2,0:1:0:0:
250,82,68596,1,2,0:2:0:0:
206,71,68712,1,2,0:2:0:0:
168,48,68829,5,10,0:1:0:0:
151,80,68945,1,2,0:2:0:0:
116,88,69061,1,2,0:2:0:0:
101,139,69177,6,0,P|62:109|7:106,2,90.0000034332277,2|2|2,0:1|0:2|0:2,0:0:0:0:
151,227,69526,6,0,P|194:219|229:191,2,83.9999974365235,10|2|2,0:1|0:2|0:2,0:0:0:0:
88,147,69875,6,0,P|41:130|-11:144,2,77.9999964294435,2|2|2,0:1|0:2|0:2,0:0:0:0:
162,215,70224,6,0,P|201:194|225:156,2,71.9999978027344,12|2|2,3:2|0:2|0:2,0:0:0:0:
38,329,70573,5,2,0:0:0:0:
39,265,70689,1,2,0:2:0:0:
89,224,70805,1,2,0:2:0:0:
207,277,70922,5,2,0:0:0:0:
207,340,71038,1,2,0:2:0:0:
161,384,71154,1,2,0:2:0:0:
122,307,71270,5,4,0:3:0:0:
122,307,71619,2,0,L|268:289,1,143.999995605469,4|0,0:2|0:0,0:0:0:0:
390,360,71968,5,4,0:3:0:0:
430,346,72084,1,2,0:2:0:0:
444,304,72201,1,2,0:2:0:0:
501,249,72317,5,4,0:0:0:0:
497,206,72433,1,2,0:2:0:0:
460,182,72549,1,2,0:2:0:0:
425,110,72666,5,4,0:3:0:0:
382,103,72782,1,2,0:2:0:0:
349,132,72898,1,2,0:2:0:0:
269,131,73015,5,4,0:0:0:0:
251,170,73131,1,2,0:2:0:0:
270,210,73247,1,2,0:2:0:0:
373,310,73363,6,0,P|365:281|352:254,1,60,4|0,0:0|0:0,0:0:0:0:
131,223,73596,2,0,P|140:187|155:155,1,71.9999978027344,4|0,0:0|0:0,0:0:0:0:
372,142,73829,2,0,P|360:100|342:61,1,83.9999974365235,4|0,0:0|0:0,0:0:0:0:
343,63,74061,2,0,P|360:101|372:142,1,83.9999974365235,4|0,0:0|0:0,0:0:0:0:
154,155,74294,2,0,P|139:188|131:223,1,71.9999978027344,4|0,0:1|0:0,0:0:0:0:
352,254,74526,2,0,P|365:281|373:310,1,60,4|0,0:1|0:0,0:0:0:0:
256,368,74759,5,4,3:3:0:0:
256,368,75108,1,0,3:2:0:0:
191,303,75456,2,0,L|178:226,1,45,0|0,3:2|0:0,0:0:0:0:
321,303,75805,2,0,L|334:226,1,45,0|0,3:2|0:0,0:0:0:0:
256,368,76154,5,0,3:2:0:0:
256,368,76503,1,0,3:2:0:0:
190,266,76852,2,0,L|177:189,1,45,0|0,3:2|0:0,0:0:0:0:
320,266,77201,2,0,L|333:189,1,45,0|0,3:2|0:0,0:0:0:0:
256,368,77549,5,0,3:2:0:0:
256,368,77898,1,0,3:2:0:0:
189,213,78247,2,0,L|176:136,1,45,0|0,3:2|0:0,0:0:0:0:
319,213,78596,2,0,L|332:136,1,45,0|0,3:2|0:0,0:0:0:0:
256,368,78945,5,0,3:2:0:0:
256,368,79294,1,0,3:2:0:0:
190,183,79642,2,0,L|177:106,1,45,0|0,3:2|0:0,0:0:0:0:
320,183,79991,2,0,L|333:106,1,45,0|8,3:2|3:2,0:0:0:0:
256,68,80253,1,8,3:2:0:0:
256,68,80340,5,4,3:3:0:0:
256,68,80689,1,0,3:2:0:0:
171,139,81038,1,0,3:2:0:0:
341,139,81387,1,0,3:2:0:0:
256,68,81561,1,8,3:2:0:0:
256,68,81648,1,8,3:2:0:0:
256,68,81735,5,4,3:3:0:0:
256,68,82084,1,0,3:2:0:0:
157,156,82433,1,0,3:2:0:0:
355,156,82782,1,0,3:2:0:0:
256,68,82956,1,8,3:2:0:0:
256,68,83044,1,8,3:2:0:0:
256,68,83131,6,0,B|187:54|187:54|154:69|154:69|69:46,1,180,6|0,3:2|3:2,0:0:0:0:
256,148,83654,2,0,B|325:134|325:134|358:149|358:149|443:126,1,180,2|0,0:0|3:2,0:0:0:0:
368,63,84090,1,0,3:2:0:0:
368,63,84177,1,6,3:2:0:0:
203,354,84526,5,4,3:2:0:0:
207,309,84613,1,0,0:0:0:0:
188,269,84701,1,8,3:2:0:0:
151,245,84788,1,0,0:0:0:0:
107,243,84875,1,8,3:2:0:0:
65,225,84962,1,0,3:0:0:0:
40,188,85049,1,0,1:0:0:0:
36,144,85137,1,0,1:0:0:0:
57,104,85224,5,0,1:0:0:0:
65,111,85311,1,0,1:0:0:0:
73,119,85398,1,0,1:0:0:0:
79,128,85485,1,0,1:0:0:0:
85,138,85573,1,0,1:0:0:0:
89,148,85660,1,0,1:0:0:0:
91,159,85747,1,0,1:0:0:0:
93,171,85834,1,0,1:0:0:0:
92,182,85922,6,0,B|135:163|135:163|200:175,1,90,6|0,3:2|0:0,0:0:0:0:
286,211,86183,1,0,0:0:0:0:
286,211,86270,2,0,L|346:196,1,45,10|0,3:2|0:0,0:0:0:0:
309,82,86445,2,0,L|369:67,1,45,0|0,3:2|3:2,0:0:0:0:
467,158,86619,1,2,3:2:0:0:
467,158,86794,1,0,3:2:0:0:
439,0,86968,2,0,B|418:23|418:23|443:94,1,90,10|0,3:2|3:2,0:0:0:0:
510,40,87230,1,0,3:2:0:0:
510,40,87317,5,2,3:2:0:0:
309,82,87491,2,0,L|205:68,1,90,2|10,0:1|3:2,0:0:0:0:
75,132,87840,1,0,3:2:0:0:
75,132,87927,1,0,0:0:0:0:
75,132,88015,2,0,B|93:89|93:89|60:-2,2,135,2|2|2,3:1|0:1|3:1,0:0:0:0:
177,158,88625,1,0,3:2:0:0:
177,158,88712,6,0,P|270:176|330:232,1,180,6|10,3:1|3:2,0:0:0:0:
132,223,89235,2,0,P|185:301|187:383,1,180,2|0,3:1|3:2,0:0:0:0:
58,250,89759,2,0,P|49:296|21:326,1,90,10|0,3:1|3:2,0:0:0:0:
8,166,90108,5,2,3:2:0:0:
92,108,90282,2,0,L|189:129,1,90,2|8,0:1|3:2,0:0:0:0:
304,157,90631,1,0,3:2:0:0:
304,157,90718,1,0,3:2:0:0:
304,157,90805,2,0,B|317:117|317:117|283:49,1,90,2|0,3:2|3:2,0:0:0:0:
406,188,91154,2,0,B|393:228|393:228|427:296,1,90,10|0,3:2|3:2,0:0:0:0:
462,351,91416,1,0,3:2:0:0:
462,351,91503,6,0,L|279:329,1,180,6|10,3:1|3:2,0:0:0:0:
182,317,92026,1,2,3:1:0:0:
182,317,92113,1,0,3:2:0:0:
182,317,92201,1,2,3:2:0:0:
99,376,92375,1,0,3:2:0:0:
27,223,92549,1,10,3:2:0:0:
94,286,92724,1,0,3:2:0:0:
94,286,92811,1,0,3:2:0:0:
94,286,92898,6,0,P|120:301|176:290,1,60,6|0,2:2|2:0,0:0:0:0:
192,225,93131,2,0,P|213:203|217:146,1,60,2|8,2:1|2:0,0:0:0:0:
141,110,93363,2,0,P|125:84|71:65,1,60,2|0,2:1|2:0,0:0:0:0:
18,154,93596,6,0,L|90:136,1,60,2|0,2:1|2:0,0:0:0:0:
280,161,93829,2,0,L|221:175,1,60,2|10,2:1|2:2,0:0:0:0:
211,369,94061,2,0,L|269:354,1,60,2|0,2:1|2:0,0:0:0:0:
389,224,94294,6,0,B|355:203|355:203|343:228|354:251|354:251|404:272|416:334,1,180,6|10,3:2|3:2,0:0:0:0:
328,340,94817,1,0,3:2:0:0:
328,340,94904,1,0,3:2:0:0:
328,340,94991,1,2,3:2:0:0:
470,255,95166,1,0,3:2:0:0:
304,156,95340,5,6,3:1:0:0:
422,384,95515,1,2,3:1:0:0:
470,255,95689,5,8,3:2:0:0:
428,240,95776,1,8,3:2:0:0:
384,250,95863,1,0,3:2:0:0:
353,281,95951,1,0,1:2:0:0:
351,326,96038,5,0,1:2:0:0:
343,356,96125,1,0,1:2:0:0:
322,377,96212,1,0,1:2:0:0:
291,384,96299,1,0,1:2:0:0:
261,375,96387,5,0,1:2:0:0:
263,364,96474,1,0,1:2:0:0:
266,353,96561,1,0,1:2:0:0:
268,342,96648,1,0,1:2:0:0:
271,331,96735,1,0,3:0:0:0:
175,334,96910,1,0,3:3:0:0:
54,241,97084,6,0,P|99:123|85:83,1,153.000002918243,4|8,3:2|3:2,0:0:0:0:
9,0,97346,1,0,0:0:0:0:
9,0,97433,2,0,P|10:40|60:75,1,76.5000014591217,0|0,3:2|0:0,0:0:0:0:
135,147,97608,2,0,P|173:156|220:117,1,76.5000014591217,8|0,3:2|0:0,0:0:0:0:
352,59,97782,5,0,3:2:0:0:
352,59,97869,1,0,3:2:0:0:
352,59,97956,2,0,B|330:56|307:67|307:67|273:36,1,76.5000014591217,10|0,3:2|0:0,0:0:0:0:
443,145,98131,1,0,3:2:0:0:
443,145,98218,1,0,3:2:0:0:
443,145,98305,2,0,B|464:142|488:153|488:153|522:122,1,76.5000014591217,10|0,3:2|0:0,0:0:0:0:
460,27,98480,5,0,3:2:0:0:
337,149,98654,1,8,3:2:0:0:
332,118,98741,1,0,0:0:0:0:
326,87,98829,1,0,3:2:0:0:
251,233,99003,1,8,3:2:0:0:
257,264,99090,1,0,3:2:0:0:
262,295,99177,1,0,0:0:0:0:
121,85,99352,1,8,3:2:0:0:
116,54,99439,1,0,0:0:0:0:
110,23,99526,1,2,3:2:0:0:
9,143,99701,1,14,3:2:0:0:
120,317,99875,6,0,B|147:280|143:230|143:230|104:215|88:177,1,153.000002918243,4|8,3:2|3:2,0:0:0:0:
165,155,100137,1,0,0:0:0:0:
165,155,100224,2,0,P|182:138|200:88,1,76.5000014591217,0|0,3:2|0:0,0:0:0:0:
121,0,100398,1,8,3:2:0:0:
130,28,100485,1,0,0:0:0:0:
0,115,100660,1,0,3:2:0:0:
9,143,100747,1,10,3:2:0:0:
138,234,100922,1,0,3:2:0:0:
147,262,101009,1,0,3:2:0:0:
156,290,101096,1,10,3:2:0:0:
297,384,101270,6,0,L|314:301,1,76.5000014591217,0|0,3:2|0:0,0:0:0:0:
336,190,101445,2,0,L|353:107,1,76.5000014591217,8|0,3:2|0:0,0:0:0:0:
375,8,101619,1,0,3:2:0:0:
375,8,101706,1,0,3:2:0:0:
375,8,101794,1,8,3:2:0:0:
196,5,101968,5,0,1:2:0:0:
201,23,102055,1,0,1:2:0:0:
206,41,102142,1,0,1:2:0:0:
211,60,102230,1,0,1:2:0:0:
216,78,102317,5,0,1:2:0:0:
212,90,102404,1,0,1:2:0:0:
209,102,102491,1,0,1:2:0:0:
206,115,102579,1,0,1:2:0:0:
203,127,102666,6,0,P|118:61|37:79,1,180,4|0,3:2|3:2,0:0:0:0:
169,217,103189,2,0,P|254:151|335:169,1,180,2|0,0:0|0:0,0:0:0:0:
384,250,103712,1,0,3:2:0:0:
485,187,103887,1,8,3:2:0:0:
495,221,103974,1,8,3:2:0:0:
504,255,104061,5,6,3:2:0:0:
504,255,104177,2,0,L|531:184,1,60,2|0,0:0|0:0,0:0:0:0:
491,91,104410,1,2,3:2:0:0:
491,91,104526,2,0,L|518:20,1,60,2|0,0:0|0:0,0:0:0:0:
343,46,104759,5,8,3:2:0:0:
286,27,104875,1,8,3:2:0:0:
231,49,104991,1,0,3:2:0:0:
198,85,105108,5,0,1:2:0:0:
255,95,105224,1,0,1:2:0:0:
295,139,105340,1,0,1:2:0:0:
295,198,105456,6,0,L|228:217,2,60,4|0|0,0:0|0:0|0:0,0:0:0:0:
238,333,105805,2,0,L|180:349,2,60,8|0|0,0:0|0:0|0:0,0:0:0:0:
75,174,106154,2,0,L|17:190,2,60,2|0|0,0:0|0:0|0:0,0:0:0:0:
192,100,106503,1,10,0:0:0:0:
192,100,106619,1,0,0:0:0:0:
192,100,106735,1,0,0:0:0:0:
130,27,106852,6,0,P|103:10|42:-5,2,60,0|0|0,0:0|0:0|0:0,0:0:0:0:
286,82,107201,2,0,P|313:67|357:22,2,60,8|0|0,0:0|0:0|0:0,0:0:0:0:
159,190,107549,2,0,P|158:221|174:281,2,60,0|0|0,0:0|0:0|0:0,0:0:0:0:
130,27,107898,2,0,P|103:10|42:-5,2,60,12|0|0,0:0|0:0|0:0,0:0:0:0:
254,171,108247,5,2,0:0:0:0:
283,165,108363,1,0,0:0:0:0:
313,160,108480,1,0,0:0:0:0:
354,136,108596,5,10,0:0:0:0:
383,142,108712,1,0,0:0:0:0:
413,147,108829,1,0,0:0:0:0:
457,129,108945,5,0,3:0:0:0:
373,39,109119,5,0,1:0:0:0:
367,83,109206,1,0,1:0:0:0:
361,128,109294,1,0,1:0:0:0:
355,172,109381,1,0,1:0:0:0:
349,217,109468,1,0,1:0:0:0:
343,262,109555,1,0,1:0:0:0:
337,306,109642,5,0,1:0:0:0:
47,232,110602,1,0,3:0:0:0:
58,265,110689,1,4,3:0:0:0:
125,75,110863,1,8,3:0:0:0:
136,108,110951,1,8,3:0:0:0:
147,141,111038,6,0,L|162:66,1,67.5000025749208,6|0,0:2|0:0,0:0:0:0:
257,61,111212,2,0,L|227:206,1,135.000005149842,8|0,0:2|0:2,0:0:0:0:
89,244,111561,2,0,B|123:222|159:236|159:236|180:267|220:272,1,135.000005149842,8|0,0:2|0:2,0:0:0:0:
326,340,111910,1,8,0:2:0:0:
326,340,111997,1,0,0:0:0:0:
326,340,112084,5,0,0:2:0:0:
320,306,112172,1,0,0:0:0:0:
314,273,112259,1,8,0:2:0:0:
308,240,112346,1,0,0:0:0:0:
302,207,112433,6,0,B|346:237|392:211|392:211|371:198|361:183,1,135.000005149842,2|8,0:2|0:2,0:0:0:0:
438,135,112695,1,0,0:0:0:0:
438,135,112782,2,0,B|448:118|448:118|434:67,1,67.5000025749208,0|0,0:2|0:0,0:0:0:0:
412,0,112956,2,0,B|402:17|402:17|416:68,1,67.5000025749208,8|0,0:2|0:0,0:0:0:0:
362,184,113131,5,2,0:2:0:0:
278,37,113305,1,8,0:2:0:0:
244,32,113392,1,2,0:2:0:0:
210,28,113480,1,0,0:2:0:0:
177,24,113567,1,0,0:0:0:0:
143,20,113654,1,10,0:2:0:0:
110,16,113741,1,0,0:0:0:0:
76,12,113829,6,0,L|98:87,1,67.5000025749208,2|0,0:2|0:0,0:0:0:0:
83,205,114003,2,0,B|66:161|66:161|29:141|29:141|5:77,1,135.000005149842,10|0,0:3|0:2,0:0:0:0:
30,288,114352,2,0,B|-9:279|-9:279|22:223|89:234,1,135.000005149842,10|2,0:3|0:3,0:0:0:0:
180,334,114701,1,10,0:3:0:0:
180,334,114788,1,0,0:0:0:0:
180,334,114875,5,2,0:3:0:0:
213,340,114962,1,0,0:0:0:0:
246,346,115049,1,10,0:3:0:0:
279,353,115137,1,0,0:0:0:0:
312,359,115224,6,0,L|288:270,1,67.5000025749208,2|0,0:2|0:0,0:0:0:0:
306,138,115398,2,0,B|351:120|351:120|405:153|379:223,1,135.000005149842,10|0,0:3|0:2,0:0:0:0:
223,241,115660,1,0,0:0:0:0:
223,241,115747,2,0,B|200:250|200:250|173:233|186:198,1,67.5000025749208,10|0,0:3|0:0,0:0:0:0:
306,138,115922,6,0,L|231:122,1,67.5000025749208,2|0,0:3|0:0,0:0:0:0:
159,105,116096,2,0,L|84:89,1,67.5000025749208,10|0,0:3|0:0,0:0:0:0:
15,72,116270,1,2,0:3:0:0:
88,246,116445,1,8,0:3:0:0:
73,216,116532,1,8,0:3:0:0:
56,186,116619,6,0,L|33:285,1,67.5000025749208,6|0,0:2|0:0,0:0:0:0:
103,365,116794,2,0,B|123:372|151:350|151:350|168:246,1,135.000005149842,8|0,0:2|0:2,0:0:0:0:
181,162,117055,1,0,0:0:0:0:
181,162,117142,1,8,0:2:0:0:
194,193,117230,1,0,0:0:0:0:
237,25,117404,1,0,0:0:0:0:
250,56,117491,1,8,0:2:0:0:
263,87,117579,1,0,0:0:0:0:
276,118,117666,5,0,0:2:0:0:
308,108,117753,1,0,0:0:0:0:
340,98,117840,1,8,0:2:0:0:
372,88,117927,1,0,0:0:0:0:
405,79,118015,6,0,L|374:170,1,67.5000025749208,2|0,0:2|0:0,0:0:0:0:
395,280,118189,2,0,B|412:236|412:236|449:216|449:216|473:152,1,135.000005149842,8|0,0:2|0:2,0:0:0:0:
237,25,118538,2,0,L|269:100,1,67.5000025749208,8|0,0:2|0:0,0:0:0:0:
221,230,118712,5,2,0:2:0:0:
221,230,118799,2,0,P|245:209|264:165,1,67.5000025749208,0|8,0:0|0:2,0:0:0:0:
150,143,118974,1,2,0:2:0:0:
150,143,119061,2,0,P|152:111|134:66,1,67.5000025749208,0|0,0:2|0:0,0:0:0:0:
52,174,119235,2,0,P|31:150|-12:131,1,67.5000025749208,10|0,0:2|0:0,0:0:0:0:
9,307,119410,6,0,L|94:289,1,67.5000025749208,2|0,0:2|0:0,0:0:0:0:
125,373,119584,2,0,L|311:333,1,135.000005149842,10|0,0:3|0:2,0:0:0:0:
378,320,119933,1,10,0:3:0:0:
388,288,120020,1,0,0:0:0:0:
320,190,120195,1,0,0:0:0:0:
330,158,120282,1,10,0:3:0:0:
471,35,120456,5,2,3:3:0:0:
478,68,120544,1,0,0:0:0:0:
485,101,120631,1,10,3:3:0:0:
492,134,120718,1,0,0:0:0:0:
499,167,120805,1,0,0:2:0:0:
292,359,120980,6,0,B|277:335|277:335|293:283,1,67.5000025749208,10|0,0:3|0:0,0:0:0:0:
163,234,121154,1,0,0:2:0:0:
129,238,121241,1,0,0:0:0:0:
96,243,121329,1,8,0:3:0:0:
62,247,121416,1,0,0:0:0:0:
29,252,121503,6,0,B|0:220|0:220|28:110,1,135.000005149842,4|0,0:3|0:0,0:0:0:0:
114,0,121765,2,0,B|143:32|143:32|115:142,1,135.000005149842,4|0,0:3|0:0,0:0:0:0:
238,192,122026,1,4,0:3:0:0:
238,192,122113,1,0,0:0:0:0:
238,192,122201,6,0,B|219:217|219:217|344:190,1,135.000005149842,6|8,3:2|3:2,0:0:0:0:
410,178,122462,2,0,B|429:153|429:153|304:180,1,135.000005149842,0|0,0:0|0:0,0:0:0:0:
280,291,122724,1,10,3:2:0:0:
432,365,122898,1,0,3:2:0:0:
432,365,122985,1,0,0:0:0:0:
432,365,123073,1,10,3:2:0:0:
511,206,123247,1,2,3:2:0:0:
511,206,123334,1,0,0:0:0:0:
511,206,123422,1,10,3:2:0:0:
335,233,123596,6,0,P|271:170|283:110,1,135.000005149842,2|8,3:2|3:2,0:0:0:0:
231,0,123858,2,0,P|223:65|169:102,1,135.000005149842,0|0,0:0|0:0,0:0:0:0:
84,91,124119,1,8,3:2:0:0:
23,207,124294,1,2,3:2:0:0:
23,207,124381,1,0,0:0:0:0:
23,207,124468,1,8,3:2:0:0:
185,255,124642,1,0,3:2:0:0:
185,255,124730,1,0,0:0:0:0:
185,255,124817,1,10,3:2:0:0:
13,347,124991,6,0,B|94:361|62:309|146:326,1,135.000005149842,4|8,3:3|3:2,0:0:0:0:
370,371,125340,1,0,3:2:0:0:
370,371,125427,1,0,0:0:0:0:
370,371,125515,1,10,3:2:0:0:
467,168,125689,6,0,B|385:182|417:130|333:147,1,135.000005149842,4|8,3:3|3:2,0:0:0:0:
110,192,126038,1,2,3:2:0:0:
110,192,126125,1,0,0:0:0:0:
110,192,126212,1,10,3:2:0:0:
250,366,126387,6,0,B|277:324|277:324|247:193,1,180.000006866455,4|0,3:2|3:0,0:0:0:0:
184,128,126735,1,0,3:0:0:0:
184,128,126852,2,0,L|276:104,1,90.0000034332277,0|0,3:0|3:0,0:0:0:0:
425,6,127084,5,0,1:0:0:0:
418,35,127201,1,0,1:0:0:0:
411,64,127317,1,0,1:0:0:0:
405,93,127433,1,0,1:0:0:0:
398,123,127549,1,0,1:0:0:0:
392,152,127666,1,0,1:0:0:0:
385,181,127782,6,0,L|362:101,2,62.9999980773926,4|0|2,3:0|0:0|0:0,0:0:0:0:
408,287,128305,1,0,0:0:0:0:
408,287,128392,1,0,0:0:0:0:
408,287,128480,2,0,B|356:278|356:278|328:290|328:290|268:278,1,125.999996154785,10|2,0:0|0:0,0:0:0:0:
202,234,129003,1,8,0:0:0:0:
138,365,129177,6,0,B|150:348|150:348|137:292,1,62.9999980773926,2|8,0:0|0:0,0:0:0:0:
0,175,129526,1,2,0:0:0:0:
102,242,129701,1,0,0:0:0:0:
183,88,129875,1,10,0:0:0:0:
183,88,130224,1,2,0:0:0:0:
259,170,130398,1,8,0:0:0:0:
312,69,130573,5,4,0:2:0:0:
114,159,130747,1,8,0:0:0:0:
114,159,131096,1,0,0:0:0:0:
114,159,131183,1,0,0:0:0:0:
114,159,131270,1,10,0:0:0:0:
299,251,131619,1,12,0:0:0:0:
120,384,131968,5,0,1:0:0:0:
114,350,132055,1,0,1:0:0:0:
108,317,132142,1,0,1:0:0:0:
102,284,132230,1,0,1:0:0:0:
96,251,132317,6,0,L|3:269,1,67.5000025749208,8|0,1:0|0:0,0:0:0:0:
187,163,132491,1,0,1:0:0:0:
187,163,132579,2,0,L|253:150,1,67.5000025749208,8|0,1:0|0:0,0:0:0:0:
67,40,132753,1,0,1:0:0:0:
67,40,132840,2,0,L|0:52,1,67.5000025749208,8|0,1:0|0:0,0:0:0:0:
279,0,133015,1,0,1:0:0:0:
311,6,133102,1,0,1:0:0:0:
338,27,133189,1,0,1:0:0:0:
352,57,133276,1,0,1:0:0:0:
352,90,133363,6,0,L|433:77,1,67.5000025749208,6|0,0:2|0:0,0:0:0:0:
512,117,133538,2,0,B|485:150|485:150|387:165,1,135.000005149842,8|0,0:2|0:1,0:0:0:0:
321,279,133887,1,8,0:2:0:0:
321,279,133974,2,0,B|267:270|267:270|241:281|241:281|180:273,1,135.000005149842,0|0,0:0|0:0,0:0:0:0:
75,342,134235,5,8,0:2:0:0:
67,309,134323,1,0,0:0:0:0:
60,276,134410,1,0,0:1:0:0:
53,243,134497,1,0,0:0:0:0:
45,210,134584,1,8,0:2:0:0:
38,177,134672,1,0,0:0:0:0:
31,144,134759,6,0,B|50:130|50:130|70:66,1,67.5000025749208,2|0,0:2|0:0,0:0:0:0:
106,0,134933,2,0,P|131:58|208:63,1,135.000005149842,8|0,0:2|0:2,0:0:0:0:
374,0,135282,2,0,B|348:-19|348:-19|233:7,1,135.000005149842,8|2,0:2|0:2,0:0:0:0:
269,155,135631,5,8,0:2:0:0:
277,187,135718,1,2,0:2:0:0:
286,220,135805,1,0,0:2:0:0:
296,252,135892,1,0,0:0:0:0:
304,285,135980,1,10,0:2:0:0:
313,318,136067,1,0,0:0:0:0:
323,350,136154,6,0,B|403:331,1,67.5000025749208,2|0,0:2|0:0,0:0:0:0:
505,354,136329,2,0,B|469:334|458:281|458:281|475:265|488:225,1,135.000005149842,10|0,0:3|0:2,0:0:0:0:
512,133,136677,1,10,0:3:0:0:
479,139,136765,1,0,0:0:0:0:
446,131,136852,1,2,0:3:0:0:
421,110,136939,1,0,0:0:0:0:
407,80,137026,1,10,0:3:0:0:
476,0,137201,1,2,0:3:0:0:
476,0,137288,1,0,0:0:0:0:
476,0,137375,2,0,B|495:9|495:9|478:88,1,67.5000025749208,10|0,0:3|0:0,0:0:0:0:
328,111,137549,6,0,L|259:122,1,67.5000025749208,2|0,0:2|0:0,0:0:0:0:
270,211,137724,2,0,B|218:219|218:219|198:245|198:245|138:261,1,135.000005149842,10|0,0:3|0:2,0:0:0:0:
34,298,138073,2,0,B|52:303|71:317|71:317|33:276|60:209,2,135.000005149842,10|2|10,0:3|0:3|0:3,0:0:0:0:
151,258,138596,1,2,0:3:0:0:
10,156,138770,1,8,0:3:0:0:
10,156,138858,1,8,0:3:0:0:
10,156,138945,6,0,L|81:143,1,67.5000025749208,6|0,0:2|0:0,0:0:0:0:
170,33,139119,2,0,B|72:17|72:17|107:50,1,135.000005149842,8|0,0:2|0:2,0:0:0:0:
271,45,139468,1,8,0:2:0:0:
271,45,139555,2,0,B|293:29|282:0|282:0|265:11,1,67.5000025749208,0|0,0:0|0:2,0:0:0:0:
333,196,139817,5,8,0:2:0:0:
365,201,139904,1,0,0:0:0:0:
398,193,139991,1,0,0:2:0:0:
424,171,140079,1,0,0:0:0:0:
438,141,140166,1,8,0:2:0:0:
438,108,140253,1,0,0:0:0:0:
424,77,140340,6,0,L|345:66,1,67.5000025749208,2|0,0:2|0:0,0:0:0:0:
213,1,140515,2,0,P|271:56|264:127,1,135.000005149842,8|0,0:2|0:2,0:0:0:0:
103,76,140863,2,0,P|104:47|149:21,1,67.5000025749208,8|0,0:2|0:0,0:0:0:0:
63,154,141038,6,0,B|46:166|37:193|37:193|40:139|0:92,1,135.000005149842,2|8,0:2|0:2,0:0:0:0:
126,217,141299,2,0,B|143:229|152:256|152:256|149:202|189:155,1,135.000005149842,2|0,0:2|0:0,0:0:0:0:
16,294,141561,1,10,0:2:0:0:
16,294,141648,1,0,0:0:0:0:
16,294,141735,6,0,P|54:280|97:288,1,67.5000025749208,2|0,0:2|0:0,0:0:0:0:
183,367,141910,2,0,P|205:311|313:290,1,135.000005149842,10|0,0:3|0:2,0:0:0:0:
438,314,142259,2,0,P|420:301|398:245,1,67.5000025749208,10|0,0:3|0:0,0:0:0:0:
467,165,142433,1,2,0:3:0:0:
467,165,142520,1,0,0:0:0:0:
467,165,142608,1,10,0:3:0:0:
408,51,142782,5,2,0:3:0:0:
374,54,142869,1,0,0:0:0:0:
340,58,142956,1,10,0:3:0:0:
307,62,143044,1,0,0:0:0:0:
273,65,143131,6,0,L|192:52,1,67.5000025749208,0|0,0:2|0:0,0:0:0:0:
67,129,143305,2,0,L|-14:115,1,67.5000025749208,10|0,0:3|0:0,0:0:0:0:
121,11,143480,2,0,L|155:151,1,135.000005149842,4|8,0:3|0:3,0:0:0:0:
175,212,143741,1,0,0:0:0:0:
175,212,143829,5,4,0:3:0:0:
317,241,144090,5,4,0:3:0:0:
459,270,144352,5,12,0:3:0:0:
459,270,144439,1,8,0:0:0:0:
459,270,144526,6,0,L|377:300,1,67.5000025749208,6|0,3:2|0:0,0:0:0:0:
330,368,144701,2,0,B|283:354|283:354|267:326|267:326|206:307,1,135.000005149842,8|0,3:2|3:2,0:0:0:0:
135,349,144962,1,0,0:0:0:0:
135,349,145049,1,10,3:2:0:0:
24,239,145224,1,0,3:2:0:0:
30,258,145311,1,0,0:0:0:0:
35,277,145398,1,10,3:2:0:0:
84,117,145573,1,2,3:2:0:0:
90,136,145660,1,0,0:0:0:0:
95,155,145747,1,10,3:2:0:0:
0,20,145922,6,0,L|155:51,1,135.000005149842,2|8,3:2|3:2,0:0:0:0:
187,114,146183,2,0,L|342:145,1,135.000005149842,0|0,0:0|0:0,0:0:0:0:
408,160,146445,1,8,3:2:0:0:
273,259,146619,1,2,3:2:0:0:
281,240,146706,1,0,0:0:0:0:
289,221,146794,1,8,3:2:0:0:
379,382,146968,1,2,3:2:0:0:
387,363,147055,1,0,0:0:0:0:
395,344,147142,1,10,3:2:0:0:
437,245,147317,6,0,L|466:334,1,67.5000025749208,6|0,3:2|0:0,0:0:0:0:
485,123,147491,2,0,L|514:212,1,67.5000025749208,8|0,3:2|0:0,0:0:0:0:
384,61,147666,1,0,3:2:0:0:
384,61,147753,1,0,0:0:0:0:
384,61,147840,1,10,3:2:0:0:
282,121,148015,6,0,L|204:106,1,67.5000025749208,4|0,3:3|0:0,0:0:0:0:
122,92,148189,2,0,L|44:77,1,67.5000025749208,10|0,3:2|0:0,0:0:0:0:
12,6,148363,1,2,3:2:0:0:
12,6,148451,1,0,0:0:0:0:
12,6,148538,1,10,3:2:0:0:
0,216,148712,6,0,L|180:186,1,180.000006866455,4|0,3:2|3:0,0:0:0:0:
260,175,149061,1,0,3:0:0:0:
260,175,149177,2,0,B|275:149|275:149|249:75,1,90.0000034332277,0|0,3:0|3:0,0:0:0:0:
370,5,149410,5,0,1:0:0:0:
414,2,149526,1,0,1:0:0:0:
455,19,149642,1,0,1:0:0:0:
482,54,149759,1,0,1:0:0:0:
489,98,149875,1,0,1:0:0:0:
475,140,149991,1,0,1:0:0:0:
442,171,150108,6,0,L|359:153,2,62.9999980773926,4|0|2,3:0|0:0|0:0,0:0:0:0:
494,253,150631,1,0,0:0:0:0:
494,253,150718,1,0,0:0:0:0:
494,253,150805,2,0,P|436:286|422:350,1,125.999996154785,4|2,0:0|0:0,0:0:0:0:
486,384,151329,1,8,0:0:0:0:
420,339,151503,5,2,0:0:0:0:
256,384,151677,1,8,0:0:0:0:
256,384,152026,1,0,0:0:0:0:
256,352,152113,1,0,0:0:0:0:
256,320,152201,1,14,0:0:0:0:
256,320,152549,1,2,0:0:0:0:
110,227,152898,5,4,0:2:0:0:
110,227,153247,1,2,0:0:0:0:
110,227,153596,1,10,0:0:0:0:
40,284,153770,1,0,0:0:0:0:
3,159,153945,1,12,0:0:0:0:
256,192,154294,5,0,1:0:0:0:
433,361,154468,1,8,1:0:0:0:
478,350,154555,1,8,1:0:0:0:
508,315,154642,1,0,1:0:0:0:
511,269,154729,1,0,0:0:0:0:
487,229,154817,5,0,1:0:0:0:
455,223,154904,1,0,0:0:0:0:
424,217,154991,5,0,1:0:0:0:
388,185,155078,1,0,0:0:0:0:
378,140,155165,1,0,0:0:0:0:
397,98,155252,1,0,0:0:0:0:
438,75,155340,5,8,1:0:0:0:
256,144,155515,1,0,1:0:0:0:
256,144,155602,1,0,1:0:0:0:
256,144,155689,6,0,P|214:126|200:99,1,76.5000014591217,6|0,0:2|0:0,0:0:0:0:
147,5,155863,2,0,P|97:91|113:150,1,153.000002918243,8|0,0:0|0:0,0:0:0:0:
167,218,156125,1,0,0:0:0:0:
174,196,156212,1,10,0:2:0:0:
310,87,156387,6,0,P|331:117|333:164,1,76.5000014591217,0|0,0:0|0:0,0:0:0:0:
425,159,156561,2,0,P|418:195|386:229,1,76.5000014591217,8|0,0:0|0:0,0:0:0:0:
458,283,156735,2,0,P|427:304|380:306,1,76.5000014591217,2|0,0:2|0:0,0:0:0:0:
309,275,156910,1,8,0:0:0:0:
309,275,156997,1,0,0:0:0:0:
309,275,157084,6,0,L|128:303,1,153.000002918243,0|8,0:0|0:0,0:0:0:0:
80,373,157433,2,0,B|97:382|97:382|101:356|71:329,1,76.5000014591217,2|0,0:2|0:0,0:0:0:0:
0,240,157608,2,0,B|-17:231|-17:231|-21:257|9:284,1,76.5000014591217,8|0,0:0|0:0,0:0:0:0:
123,222,157782,5,2,0:2:0:0:
125,212,157869,1,0,0:0:0:0:
127,203,157956,1,8,0:0:0:0:
129,194,158044,1,0,0:0:0:0:
131,184,158131,1,2,0:2:0:0:
133,175,158218,1,0,0:0:0:0:
135,166,158305,1,8,0:0:0:0:
137,156,158392,1,0,0:0:0:0:
140,147,158480,6,0,L|160:228,1,76.5000014591217,2|0,0:2|0:0,0:0:0:0:
181,71,158654,2,0,B|118:43|72:90|72:90|85:40,1,153.000002918243,8|0,0:0|0:0,0:0:0:0:
281,152,158916,1,0,0:0:0:0:
299,138,159003,2,0,L|272:291,1,153.000002918243,10|0,0:2|0:0,0:0:0:0:
393,366,159352,1,8,0:0:0:0:
393,366,159439,1,0,0:0:0:0:
393,366,159526,2,0,L|406:290,1,76.5000014591217,2|0,0:2|0:0,0:0:0:0:
428,194,159701,2,0,L|441:118,1,76.5000014591217,8|0,0:0|0:0,0:0:0:0:
512,43,159875,6,0,B|450:64|405:22|405:22|431:22|462:4,1,153.000002918243,0|8,0:0|0:0,0:0:0:0:
328,127,160224,1,0,0:0:0:0:
305,129,160311,1,0,0:0:0:0:
282,132,160398,2,0,L|370:161,1,76.5000014591217,8|0,0:0|0:0,0:0:0:0:
509,266,160573,5,0,0:0:0:0:
499,268,160660,1,0,0:0:0:0:
490,271,160747,1,8,0:0:0:0:
481,274,160834,1,0,0:0:0:0:
472,277,160922,1,2,0:2:0:0:
463,279,161009,1,0,0:0:0:0:
454,282,161096,1,8,0:0:0:0:
444,285,161183,1,0,0:0:0:0:
435,288,161270,6,0,P|402:259|352:253,1,76.5000014591217,6|0,0:2|0:0,0:0:0:0:
226,341,161445,2,0,B|208:348|182:341|182:341|234:389|294:343,1,153.000002918243,8|0,0:0|0:0,0:0:0:0:
207,243,161706,1,0,0:0:0:0:
204,267,161794,1,8,0:0:0:0:
230,139,161968,1,0,0:0:0:0:
279,38,162142,6,0,B|269:21|269:21|233:32|249:103,1,76.5000014591217,8|0,0:0|0:0,0:0:0:0:
115,151,162317,2,0,B|105:168|105:168|132:193|186:144,1,76.5000014591217,0|0,0:0|0:0,0:0:0:0:
296,232,162491,2,0,B|315:231|315:231|324:195|254:173,1,76.5000014591217,8|0,0:0|0:0,0:0:0:0:
0,276,162666,6,0,L|78:266,1,76.5000014591217,0|0,0:0|0:0,0:0:0:0:
73,359,162840,2,0,B|127:351|127:351|155:316|155:316|234:301,1,153.000002918243,8|2,0:0|0:2,0:0:0:0:
349,384,163102,1,0,0:0:0:0:
322,368,163189,2,0,B|296:349|296:349|312:271,1,76.5000014591217,8|0,0:0|0:0,0:0:0:0:
321,138,163363,1,2,0:2:0:0:
437,243,163538,1,8,0:0:0:0:
429,213,163625,1,0,0:0:0:0:
494,101,163799,1,0,0:0:0:0:
486,71,163887,1,8,0:0:0:0:
321,138,164061,6,0,B|301:118|301:118|319:45,1,76.5000014591217,2|0,0:2|0:0,0:0:0:0:
202,0,164235,2,0,B|233:31|233:31|205:147,1,153.000002918243,8|0,0:0|0:0,0:0:0:0:
174,237,164497,1,0,0:0:0:0:
166,207,164584,1,10,0:2:0:0:
54,164,164759,5,0,0:0:0:0:
43,355,164933,2,0,B|25:351|25:351|110:340,1,76.5000014591217,8|0,0:0|0:0,0:0:0:0:
206,369,165108,2,0,B|188:373|188:373|273:384,1,76.5000014591217,0|0,0:0|0:0,0:0:0:0:
360,326,165282,2,0,B|342:322|342:322|427:311,1,76.5000014591217,8|0,0:0|0:0,0:0:0:0:
506,356,165456,5,0,0:0:0:0:
500,333,165544,1,0,0:0:0:0:
492,311,165631,2,0,L|467:398,1,76.5000014591217,8|0,0:0|0:0,0:0:0:0:
330,210,165805,5,0,0:0:0:0:
336,187,165892,1,0,0:0:0:0:
344,165,165980,2,0,L|369:252,1,76.5000014591217,12|0,0:0|0:0,0:0:0:0:
485,81,166154,5,0,1:3:0:0:
434,74,166270,1,0,1:0:0:0:
383,67,166387,1,0,1:0:0:0:
333,60,166503,1,0,1:0:0:0:
282,53,166619,1,0,1:0:0:0:
232,47,166735,1,0,1:0:0:0:
181,40,166852,6,0,P|197:74|189:161,1,125.999996154785,4|2,0:2|0:0,0:0:0:0:
67,230,167375,1,0,0:0:0:0:
67,230,167462,1,0,0:0:0:0:
67,230,167549,2,0,L|203:260,1,125.999996154785,2|2,0:0|0:0,0:0:0:0:
276,277,168073,1,8,0:0:0:0:
205,384,168247,5,2,0:0:0:0:
191,303,168422,1,8,0:0:0:0:
279,187,168596,1,2,0:0:0:0:
293,268,168770,1,0,0:0:0:0:
403,359,168945,6,0,B|461:386|503:340|503:340|489:352|456:347,1,148.50000453186,12|0,0:0|0:0,0:0:0:0:
468,275,169294,2,0,B|450:258|450:258|484:93,1,175.499991966248,12|0,0:0|0:0,0:0:0:0:
509,20,169642,6,0,B|420:9|420:9|376:32,1,125.999996154785,4|2,0:2|0:0,0:0:0:0:
323,95,170166,1,0,0:0:0:0:
152,84,170340,2,0,P|210:86|240:11,1,125.999996154785,10|2,0:0|0:0,0:0:0:0:
243,33,171038,5,2,0:0:0:0:
136,172,171212,2,0,P|78:174|48:99,1,125.999996154785,8|0,0:0|0:0,0:0:0:0:
47,48,171648,1,0,0:0:0:0:
47,48,171735,1,0,1:0:0:0:
135,6,171910,1,0,1:0:0:0:
228,113,172084,1,0,1:0:0:0:
228,113,172259,1,0,1:0:0:0:
356,0,172433,6,0,L|339:132,1,125.999996154785,4|2,3:2|3:0,0:0:0:0:
318,241,172956,1,0,0:0:0:0:
318,241,173044,1,0,0:0:0:0:
318,241,173131,1,10,3:0:0:0:
173,157,173480,2,0,P|95:178|72:208,1,94.499997116089,6|0,3:0|0:0,0:0:0:0:
10,227,173829,6,0,P|60:261|80:335,1,125.999996154785,6|2,3:0|3:0,0:0:0:0:
28,382,174352,1,0,0:0:0:0:
179,301,174526,2,0,L|304:333,1,125.999996154785,10|2,3:0|3:0,0:0:0:0:
390,356,175049,1,8,3:0:0:0:
474,243,175224,5,4,3:0:0:0:
366,135,175398,1,0,3:0:0:0:
512,97,175573,1,8,3:0:0:0:
450,158,175747,1,0,0:0:0:0:
450,158,175834,1,0,0:0:0:0:
450,158,175922,5,0,3:0:0:0:
291,112,176096,1,0,3:0:0:0:
132,66,176270,1,8,1:3:0:0:
129,50,176358,1,0,1:3:0:0:
126,34,176445,1,0,1:3:0:0:
43,123,176619,5,0,1:3:0:0:
149,152,176794,1,0,1:3:0:0:
152,168,176881,1,0,1:3:0:0:
155,184,176968,1,0,1:3:0:0:
158,200,177055,1,0,1:3:0:0:
161,216,177142,1,0,1:3:0:0:
164,232,177230,1,0,1:3:0:0:
167,248,177317,1,8,1:3:0:0:
498,104,178015,5,8,1:3:0:0:
416,21,178189,1,0,1:3:0:0:
421,42,178276,1,0,1:3:0:0:
458,189,178451,1,0,1:3:0:0:
421,42,178625,1,0,0:0:0:0:
416,21,178712,5,8,1:3:0:0:
307,188,178887,1,0,1:3:0:0:
291,203,178974,2,0,L|175:187,1,90,0|0,1:3|1:3,0:0:0:0:
12,170,179323,1,0,0:0:0:0:
21,190,179410,5,8,1:3:0:0:
64,319,179584,1,0,1:3:0:0:
70,297,179672,1,0,1:3:0:0:
95,177,179846,1,0,1:3:0:0:
226,321,180020,1,0,0:0:0:0:
224,296,180108,1,8,1:3:0:0:
223,272,180195,1,0,0:0:0:0:
222,247,180282,1,0,1:3:0:0:
221,223,180369,1,0,1:3:0:0:
184,206,180456,5,0,0:0:0:0:
180,181,180544,1,0,1:3:0:0:
176,157,180631,1,0,1:3:0:0:
171,133,180718,1,0,0:0:0:0:
167,110,180805,6,0,B|222:100|222:100|279:122,1,90,8|0,1:3|1:3,0:0:0:0:
296,42,181067,2,0,B|351:52|351:52|408:30,1,90,0|0,1:3|1:3,0:0:0:0:
512,0,181416,1,0,0:0:0:0:
492,11,181503,2,0,L|480:113,1,90,8|0,1:3|1:3,0:0:0:0:
401,152,181765,2,0,L|389:254,1,90,0|0,1:3|1:3,0:0:0:0:
489,374,182113,1,0,0:0:0:0:
482,352,182201,5,8,1:3:0:0:
505,216,182375,1,0,1:3:0:0:
512,238,182462,1,0,1:3:0:0:
347,343,182637,1,0,1:3:0:0:
267,182,182811,1,0,0:0:0:0:
250,195,182898,5,8,1:3:0:0:
227,156,182985,1,0,1:3:0:0:
191,130,183073,1,0,1:3:0:0:
147,122,183160,1,0,1:3:0:0:
104,134,183247,5,0,1:3:0:0:
132,138,183334,1,0,1:3:0:0:
156,157,183422,1,0,1:3:0:0:
171,184,183509,1,0,1:3:0:0:
172,214,183596,6,0,B|109:223|109:223|72:264,1,90,8|0,1:3|1:3,0:0:0:0:
43,351,183858,2,0,B|106:342|106:342|143:301,1,90,0|0,1:3|1:3,0:0:0:0:
32,179,184206,1,0,0:0:0:0:
14,164,184294,2,0,B|-10:147|-10:147|4:58,1,90,8|0,1:3|1:3,0:0:0:0:
11,0,184555,2,0,B|35:17|35:17|21:106,1,90,0|0,1:3|1:3,0:0:0:0:
161,78,184904,1,0,0:0:0:0:
182,72,184991,5,8,1:3:0:0:
111,199,185166,1,0,1:3:0:0:
132,193,185253,1,0,1:3:0:0:
286,221,185427,1,0,1:3:0:0:
258,344,185602,1,0,0:0:0:0:
233,340,185689,1,8,1:3:0:0:
209,334,185776,1,0,0:0:0:0:
185,330,185863,1,0,1:3:0:0:
161,324,185951,1,0,1:3:0:0:
131,353,186038,5,0,0:0:0:0:
106,357,186125,1,0,1:3:0:0:
82,361,186212,1,0,1:3:0:0:
58,367,186299,1,0,0:0:0:0:
37,372,186387,6,0,B|10:354|10:354|27:267,1,90,8|0,1:3|1:3,0:0:0:0:
82,227,186648,2,0,B|109:209|109:209|92:122,1,90,0|0,1:3|1:3,0:0:0:0:
4,30,186997,1,0,0:0:0:0:
16,48,187084,2,0,B|50:41|50:41|73:49|73:49|119:40,1,90,8|0,1:3|1:3,0:0:0:0:
193,0,187346,2,0,B|227:7|227:7|250:-1|250:-1|296:8,1,90,0|0,1:3|1:3,0:0:0:0:
379,97,187695,1,0,0:0:0:0:
382,74,187782,5,8,1:3:0:0:
489,192,187956,1,0,1:3:0:0:
492,169,188044,1,0,1:3:0:0:
364,268,188218,1,0,1:3:0:0:
286,119,188392,1,0,0:0:0:0:
282,94,188480,5,8,1:3:0:0:
238,101,188567,1,0,0:0:0:0:
208,133,188654,1,0,1:3:0:0:
204,177,188741,1,0,0:0:0:0:
229,214,188829,5,0,1:0:0:0:
283,206,188916,1,0,1:0:0:0:
330,234,189003,1,0,1:0:0:0:
349,286,189090,1,0,1:0:0:0:
330,338,189177,6,0,L|207:363,1,90,4|0,0:2|0:0,0:0:0:0:
159,383,189439,1,0,0:0:0:0:
144,378,189526,1,10,0:0:0:0:
130,373,189613,1,0,0:0:0:0:
158,256,189788,1,0,0:0:0:0:
160,278,189875,1,2,0:0:0:0:
0,240,190049,1,0,0:0:0:0:
14,236,190137,1,0,0:0:0:0:
29,232,190224,1,10,0:0:0:0:
43,229,190311,1,0,0:0:0:0:
39,101,190485,1,0,0:0:0:0:
37,125,190573,6,0,P|7:83|30:20,1,90,2|0,0:0|0:0,0:0:0:0:
90,7,190834,1,0,0:0:0:0:
104,10,190922,1,10,0:0:0:0:
119,13,191009,1,0,0:0:0:0:
266,47,191183,1,0,0:0:0:0:
262,24,191270,1,2,0:0:0:0:
396,57,191445,1,0,0:0:0:0:
400,80,191532,1,0,0:0:0:0:
404,102,191619,1,10,0:0:0:0:
418,215,191794,1,0,0:0:0:0:
311,383,191968,6,0,B|272:356|272:356|293:241,1,135,4|0,0:0|0:0,0:0:0:0:
340,213,192317,2,0,B|307:188|269:196|269:196|287:176,1,90,10|0,0:0|0:0,0:0:0:0:
193,60,192579,1,0,0:0:0:0:
193,60,192666,2,0,B|238:42|238:42|274:67|238:145,1,135,4|0,0:0|0:0,0:0:0:0:
176,188,193015,2,0,B|161:163|161:163|126:150|91:172,1,90,10|0,0:0|0:0,0:0:0:0:
51,247,193276,1,0,0:0:0:0:
51,247,193363,6,0,B|85:199|58:144|58:144|17:134|-5:98,1,180,4|10,0:0|0:0,0:0:0:0:
77,50,193887,1,0,0:0:0:0:
77,50,193974,1,0,0:0:0:0:
77,50,194061,1,0,1:0:0:0:
250,10,194235,5,0,1:0:0:0:
257,31,194323,1,0,1:0:0:0:
263,52,194410,2,0,L|279:2,2,45,0|0|0,1:0|1:0|1:0,0:0:0:0:
464,143,194759,5,4,0:2:0:0:
428,143,194846,1,0,0:0:0:0:
395,158,194933,1,0,0:0:0:0:
371,185,195020,1,0,0:0:0:0:
360,218,195108,1,10,0:0:0:0:
362,254,195195,1,0,0:0:0:0:
379,286,195282,5,0,0:0:0:0:
389,251,195369,1,0,0:0:0:0:
387,216,195456,1,2,0:0:0:0:
371,184,195544,1,0,0:0:0:0:
344,160,195631,1,0,0:0:0:0:
311,147,195718,1,0,0:0:0:0:
275,148,195805,1,10,0:0:0:0:
242,163,195892,1,0,0:0:0:0:
206,168,195980,1,0,0:0:0:0:
170,163,196067,1,0,0:0:0:0:
139,145,196154,1,2,0:0:0:0:
119,117,196241,1,0,0:0:0:0:
109,81,196329,1,0,0:0:0:0:
113,45,196416,1,0,0:0:0:0:
129,15,196503,5,10,0:0:0:0:
173,21,196590,1,0,0:0:0:0:
207,49,196677,1,0,0:0:0:0:
222,90,196765,1,0,0:0:0:0:
213,134,196852,6,0,P|198:108|192:70,2,45,2|0|0,0:0|0:0|0:0,0:0:0:0:
278,196,197113,2,0,P|293:169|299:131,2,45,0|10|0,0:0|0:0|0:0,0:0:0:0:
206,275,197375,2,0,P|180:257|158:226,1,45,0|0,0:0|0:0,0:0:0:0:
24,56,197549,5,2,0:0:0:0:
29,73,197637,1,0,0:0:0:0:
34,90,197724,1,0,0:0:0:0:
40,107,197811,1,0,0:0:0:0:
45,124,197898,1,10,0:0:0:0:
51,141,197985,1,0,0:0:0:0:
56,159,198073,1,0,0:0:0:0:
61,176,198160,1,0,0:0:0:0:
67,193,198247,1,2,0:0:0:0:
72,210,198334,1,0,0:0:0:0:
78,227,198422,5,2,0:2:0:0:
183,148,198596,1,10,0:3:0:0:
298,328,198770,1,2,0:2:0:0:
498,206,198945,6,0,P|419:143|423:97,1,135,2|0,0:0|0:0,0:0:0:0:
476,43,199294,5,14,0:0:0:0:
476,43,199381,1,0,0:0:0:0:
476,43,199468,2,0,P|498:63|512:99,1,45,0|0,0:0|0:0,0:0:0:0:
447,169,199642,1,2,0:0:0:0:
447,169,199730,1,0,0:0:0:0:
447,169,199817,2,0,P|448:198|432:234,1,45,0|0,0:0|0:0,0:0:0:0:
326,168,199991,1,10,0:0:0:0:
326,168,200079,1,0,0:0:0:0:
326,168,200166,2,0,P|306:190|270:204,1,45,0|0,1:0|1:0,0:0:0:0:
273,95,200340,5,2,0:0:0:0:
237,99,200427,1,0,0:0:0:0:
202,93,200515,1,0,0:0:0:0:
170,76,200602,1,0,0:0:0:0:
152,45,200689,1,10,0:0:0:0:
125,20,200776,1,0,0:0:0:0:
91,9,200863,1,0,0:0:0:0:
56,14,200951,1,0,0:0:0:0:
26,33,201038,1,2,0:0:0:0:
7,63,201125,1,0,0:0:0:0:
1,98,201212,1,0,0:0:0:0:
11,132,201299,1,0,0:0:0:0:
35,158,201387,1,10,0:0:0:0:
68,172,201474,1,0,0:0:0:0:
104,170,201561,1,0,0:0:0:0:
138,181,201648,1,0,0:0:0:0:
165,205,201735,1,2,0:0:0:0:
181,237,201823,1,0,0:0:0:0:
184,272,201910,1,0,0:0:0:0:
173,306,201997,1,0,0:0:0:0:
149,333,202084,1,10,0:0:0:0:
118,350,202172,1,0,0:0:0:0:
82,353,202259,1,0,0:0:0:0:
48,341,202346,1,0,0:0:0:0:
22,318,202433,1,2,0:0:0:0:
7,285,202520,1,0,0:0:0:0:
5,249,202608,1,0,0:0:0:0:
18,216,202695,1,0,0:0:0:0:
43,191,202782,1,10,0:0:0:0:
76,177,202869,1,0,0:0:0:0:
101,151,202956,1,0,0:0:0:0:
112,117,203044,1,0,0:0:0:0:
110,81,203131,5,2,0:0:0:0:
78,106,203218,1,0,0:0:0:0:
57,140,203305,1,0,0:0:0:0:
48,180,203392,1,0,0:0:0:0:
52,220,203480,1,10,0:0:0:0:
69,256,203567,1,0,0:0:0:0:
97,285,203654,1,0,0:0:0:0:
132,304,203741,1,0,0:0:0:0:
172,310,203829,5,2,0:0:0:0:
164,271,203916,1,0,0:0:0:0:
168,231,204003,1,0,0:0:0:0:
184,194,204090,1,0,0:0:0:0:
211,164,204177,1,10,0:0:0:0:
246,144,204265,1,0,0:0:0:0:
286,135,204352,1,0,0:0:0:0:
326,140,204439,1,0,0:0:0:0:
361,160,204526,5,2,0:0:0:0:
323,184,204613,1,0,0:0:0:0:
279,194,204701,1,0,0:0:0:0:
235,189,204788,1,0,0:0:0:0:
195,169,204875,1,10,0:0:0:0:
164,136,204962,1,0,0:0:0:0:
147,95,205049,1,0,0:0:0:0:
145,50,205137,1,0,0:0:0:0:
158,7,205224,5,0,1:0:0:0:
214,21,205311,1,0,1:0:0:0:
259,58,205398,1,0,1:0:0:0:
285,110,205485,1,0,1:0:0:0:
287,168,205573,1,0,1:0:0:0:
264,221,205660,1,0,1:0:0:0:
221,260,205747,1,0,1:0:0:0:
166,277,205834,1,0,1:0:0:0:
108,270,205922,5,2,0:0:0:0:
122,237,206009,1,0,0:0:0:0:
146,210,206096,1,0,0:0:0:0:
177,192,206183,1,0,0:0:0:0:
212,185,206270,1,10,0:0:0:0:
248,188,206358,1,0,0:0:0:0:
281,203,206445,1,0,0:0:0:0:
308,227,206532,1,0,0:0:0:0:
325,258,206619,1,2,0:0:0:0:
355,277,206706,1,0,0:0:0:0:
391,279,206794,1,0,0:0:0:0:
423,264,206881,1,0,0:0:0:0:
444,235,206968,1,10,0:0:0:0:
449,200,207055,1,0,0:0:0:0:
437,166,207142,1,0,0:0:0:0:
410,143,207230,1,0,0:0:0:0:
377,128,207317,1,2,0:0:0:0:
351,102,207404,1,0,0:0:0:0:
338,69,207491,1,0,0:0:0:0:
341,33,207579,1,0,0:0:0:0:
358,1,207666,5,10,0:0:0:0:
402,4,207753,1,0,0:0:0:0:
439,28,207840,1,0,0:0:0:0:
460,67,207927,1,0,0:0:0:0:
459,112,208015,5,2,0:0:0:0:
441,80,208102,1,0,0:0:0:0:
411,62,208189,1,0,0:0:0:0:
376,59,208276,1,0,0:0:0:0:
344,76,208363,5,10,0:0:0:0:
380,77,208451,1,0,0:0:0:0:
409,97,208538,1,0,0:0:0:0:
426,127,208625,1,0,0:0:0:0:
425,164,208712,5,2,0:0:0:0:
404,134,208799,1,0,0:0:0:0:
372,119,208887,1,0,0:0:0:0:
337,122,208974,1,0,0:0:0:0:
307,142,209061,1,10,0:0:0:0:
291,174,209148,1,0,0:0:0:0:
294,209,209235,1,0,0:0:0:0:
313,239,209323,1,0,0:0:0:0:
345,255,209410,1,2,0:0:0:0:
380,258,209497,1,0,0:0:0:0:
408,280,209584,1,0,0:0:0:0:
418,314,209672,1,0,0:0:0:0:
408,348,209759,1,10,0:0:0:0:
381,371,209846,1,0,0:0:0:0:
346,375,209933,1,0,0:0:0:0:
314,358,210020,1,0,0:0:0:0:
295,332,210108,6,0,L|304:267,1,60,4|0,1:3|1:3,0:0:0:0:
297,101,210340,1,0,1:3:0:0:
259,71,210456,1,0,1:3:0:0:
217,56,210573,1,0,1:3:0:0:
170,53,210689,1,0,1:3:0:0:
126,63,210805,1,0,1:3:0:0:
87,87,210922,1,0,1:3:0:0:
57,121,211038,1,0,1:3:0:0:
41,170,211154,6,0,B|10:146|10:146|27:72,1,94.499997116089,0|0,1:3|0:0,0:0:0:0:
31,174,211503,6,0,B|-1:149|-1:149|21:50,1,125.999996154785,4|2,3:2|0:0,0:0:0:0:
121,24,212026,1,0,0:0:0:0:
241,106,212201,2,0,B|273:80|273:80|243:-15,1,125.999996154785,10|2,0:0|0:0,0:0:0:0:
248,0,212898,5,2,0:0:0:0:
291,174,213073,1,8,0:0:0:0:
291,174,213422,1,0,0:0:0:0:
309,169,213509,1,0,0:0:0:0:
327,165,213596,1,2,0:0:0:0:
427,231,213770,1,8,0:0:0:0:
427,231,214119,1,0,0:0:0:0:
509,182,214294,5,4,0:2:0:0:
450,355,214468,1,8,0:0:0:0:
450,355,214817,1,0,0:0:0:0:
321,268,214991,2,0,L|180:238,1,125.999996154785,10|6,0:0|0:0,0:0:0:0:
197,241,215689,5,2,0:0:0:0:
246,366,215863,2,0,B|290:342|290:342|268:242,1,125.999996154785,8|0,0:0|0:0,0:0:0:0:
131,353,216387,6,0,B|73:380|31:334|31:334|45:346|78:341,1,148.50000453186,8|0,0:0|0:0,0:0:0:0:
66,269,216736,2,0,B|84:252|84:252|50:87,1,175.499991966248,4|0,0:0|0:0,0:0:0:0:
35,24,217084,6,0,L|184:51,1,125.999996154785,4|2,0:2|0:0,0:0:0:0:
241,121,217608,1,0,0:0:0:0:
331,11,217782,1,8,0:0:0:0:
331,11,218131,1,4,0:0:0:0:
424,172,218305,1,0,0:0:0:0:
451,87,218480,6,0,L|524:69,1,62.9999980773926,2|8,0:0|0:0,0:0:0:0:
408,262,218829,2,0,L|346:277,1,62.9999980773926,2|0,0:0|0:0,0:0:0:0:
227,381,219177,2,0,P|256:329|227:257,1,125.999996154785,10|2,0:0|0:0,0:0:0:0:
151,199,219875,6,0,L|12:230,1,125.999996154785,4|2,0:2|0:0,0:0:0:0:
24,141,220398,1,0,0:0:0:0:
126,285,220573,1,8,0:0:0:0:
126,285,220922,1,4,0:0:0:0:
151,199,221096,1,0,0:0:0:0:
261,313,221270,6,0,P|242:289|244:237,1,62.9999980773926,2|8,0:0|0:0,0:0:0:0:
331,240,221619,2,0,P|334:209|372:174,1,62.9999980773926,2|0,0:0|0:0,0:0:0:0:
457,202,221968,1,8,0:0:0:0:
410,31,222317,5,0,1:0:0:0:
407,38,222404,1,0,1:0:0:0:
404,45,222491,1,0,1:0:0:0:
401,53,222579,1,0,1:0:0:0:
398,60,222666,6,0,L|253:85,1,107.999996704102,6|8,0:2|0:0,0:0:0:0:
129,166,223015,2,0,B|103:150|103:150|88:114,1,53.9999983520508,2|0,0:2|0:0,0:0:0:0:
166,101,223189,2,0,L|144:237,1,107.999996704102,8|0,0:0|0:0,0:0:0:0:
6,344,223538,1,10,0:2:0:0:
0,317,223625,1,0,0:0:0:0:
48,220,223799,1,0,0:0:0:0:
42,193,223887,1,10,0:2:0:0:
151,303,224061,6,0,P|200:338|250:329,2,107.999996704102,2|10|2,0:2|0:2|0:2,0:0:0:0:
209,237,224497,1,0,0:0:0:0:
215,263,224584,1,10,0:2:0:0:
352,384,224759,2,0,B|378:351|378:351|357:281,1,107.999996704102,0|10,0:0|0:2,0:0:0:0:
351,262,225020,1,0,0:0:0:0:
478,129,225195,1,0,0:0:0:0:
470,154,225282,1,10,0:2:0:0:
463,180,225369,1,0,0:0:0:0:
454,205,225456,6,0,P|413:184|391:110,1,107.999996704102,4|8,0:2|0:0,0:0:0:0:
224,15,225805,2,0,L|235:69,1,53.9999983520508,2|0,0:2|0:0,0:0:0:0:
210,140,225980,2,0,P|256:140|310:85,1,107.999996704102,8|0,0:0|0:0,0:0:0:0:
406,4,226329,1,10,0:2:0:0:
401,30,226416,1,0,0:0:0:0:
512,153,226590,1,0,0:0:0:0:
507,179,226677,1,8,0:0:0:0:
384,365,226852,5,0,1:0:0:0:
388,329,226939,1,0,0:0:0:0:
380,294,227026,1,0,0:0:0:0:
361,264,227113,1,0,0:0:0:0:
332,242,227201,1,0,0:0:0:0:
298,232,227288,1,0,0:0:0:0:
262,234,227375,5,0,1:0:0:0:
297,262,227462,1,0,0:0:0:0:
341,269,227549,1,0,0:0:0:0:
383,255,227637,1,0,0:0:0:0:
414,223,227724,1,0,0:0:0:0:
426,180,227811,1,0,0:0:0:0:
416,137,227898,6,0,B|307:120,1,94.499997116089,4|0,1:3|0:0,0:0:0:0:
425,121,228247,6,0,B|315:103,1,107.999996704102,4|8,0:2|0:0,0:0:0:0:
160,181,228596,2,0,B|148:166|148:166|161:123,1,53.9999983520508,2|0,0:2|0:0,0:0:0:0:
107,35,228770,2,0,P|56:34|8:111,1,107.999996704102,8|0,0:0|0:0,0:0:0:0:
8,190,229119,1,10,0:2:0:0:
33,182,229206,1,0,0:0:0:0:
155,260,229381,1,0,0:0:0:0:
180,252,229468,1,8,0:0:0:0:
340,359,229642,6,0,B|327:340|327:340|341:285,1,53.9999983520508,2|0,0:2|0:0,0:0:0:0:
399,163,229817,2,0,B|422:197|422:197|397:297,1,107.999996704102,8|0,0:0|0:0,0:0:0:0:
141,335,230166,5,10,0:2:0:0:
111,321,230253,1,0,0:0:0:0:
89,297,230340,1,0,0:0:0:0:
75,268,230427,1,0,0:0:0:0:
72,236,230515,1,8,0:0:0:0:
80,205,230602,1,0,0:0:0:0:
99,178,230689,5,2,0:2:0:0:
129,204,230776,1,0,0:0:0:0:
168,212,230863,1,8,0:0:0:0:
206,201,230950,1,0,0:0:0:0:
234,172,231038,5,0,1:3:0:0:
188,199,231125,1,0,0:0:0:0:
162,246,231212,1,0,0:0:0:0:
161,299,231299,1,0,0:0:0:0:
189,346,231387,5,0,1:3:0:0:
202,294,231474,1,0,0:0:0:0:
189,242,231561,1,8,1:3:0:0:
154,201,231648,1,0,0:0:0:0:
105,181,231735,1,0,0:0:0:0:
51,187,231823,1,0,1:3:0:0:
9,216,231910,5,0,1:3:0:0:
55,240,231997,1,0,0:0:0:0:
109,243,232084,1,8,1:3:0:0:
158,223,232172,1,0,0:0:0:0:
195,184,232259,1,0,1:3:0:0:
212,133,232346,1,0,0:0:0:0:
206,80,232433,5,4,1:3:0:0:
176,110,232520,1,0,0:0:0:0:
135,123,232608,1,0,0:0:0:0:
93,117,232695,1,0,0:0:0:0:
58,93,232782,1,0,1:3:0:0:
37,56,232869,1,0,0:0:0:0:
35,13,232956,5,0,0:0:0:0:
65,35,233044,1,0,1:3:0:0:
87,65,233131,1,0,0:0:0:0:
97,102,233218,1,0,0:0:0:0:
95,139,233305,1,4,1:1:0:0:
80,174,233392,1,0,0:0:0:0:
49,197,233480,5,0,1:3:0:0:
61,159,233567,1,0,0:0:0:0:
90,131,233654,1,0,0:0:0:0:
129,119,233741,1,0,0:0:0:0:
168,126,233829,6,0,B|188:223|126:286|126:286|170:322|180:380|180:380|272:335|231:226,1,460.8,4|0,1:2|0:0,0:0:0:0:
422,41,256235,5,0,1:0:0:0:
422,41,256292,1,0,1:0:0:0:
422,41,256349,1,4,1:2:0:0:
422,41,257133,5,0,1:0:0:0:
332,144,257453,1,0,1:0:0:0:
480,252,257776,1,0,1:0:0:0:
432,61,258101,5,0,1:0:0:0:
399,192,258263,1,0,1:0:0:0:
366,323,258425,1,4,1:3:0:0:
332,144,258754,1,4,1:2:0:0:
118,350,259229,5,0,1:0:0:0:
118,350,259555,1,0,1:0:0:0:
164,227,259721,1,0,1:0:0:0:
164,227,260043,1,0,1:0:0:0:
47,151,260199,1,0,1:0:0:0:
125,364,260362,1,0,1:0:0:0:
314,265,260525,5,4,1:3:0:0:
150,213,260848,1,4,1:2:0:0:
150,213,261173,1,0,1:3:0:0:
287,73,261336,5,8,0:0:0:0:
331,66,261414,1,8,0:0:0:0:
376,59,261492,1,8,0:0:0:0:
420,53,261570,1,8,0:0:0:0:
465,46,261649,1,12,0:0:0:0:
305,87,261818,5,0,1:0:0:0:
340,81,261898,1,0,1:0:0:0:
376,76,261979,1,0,1:0:0:0:
411,71,262061,1,0,1:0:0:0:
447,65,262142,1,4,1:3:0:0:
324,106,262299,5,0,1:0:0:0:
352,101,262382,1,0,1:0:0:0:
380,97,262465,1,0,1:0:0:0:
408,93,262549,1,0,1:0:0:0:
437,88,262632,1,4,1:3:0:0:
187,1,262857,5,8,3:0:0:0:
191,5,262936,1,8,3:0:0:0:
43,129,263107,1,4,1:3:0:0:
215,237,263271,1,0,1:3:0:0:
109,359,263421,1,8,3:0:0:0:
0,248,263578,5,8,1:3:0:0:
14,245,263661,1,8,1:3:0:0:
29,243,263744,1,0,1:3:0:0:
44,241,263828,1,0,1:3:0:0:
59,239,263911,1,0,1:3:0:0:
74,237,263994,1,0,1:3:0:0:
89,235,264077,1,0,1:3:0:0:
215,384,264246,5,2,0:0:0:0:
173,303,264409,1,2,0:0:0:0:
209,180,264572,1,2,0:0:0:0:
334,89,264732,1,2,0:0:0:0:
414,243,264881,6,0,P|463:270|532:250,1,107.999996704102,4|10,0:2|0:0,0:0:0:0:
335,363,265203,1,0,0:0:0:0:
332,346,265284,1,0,0:0:0:0:
329,330,265364,1,10,0:0:0:0:
261,195,265526,2,0,P|212:222|143:202,1,107.999996704102,0|10,0:2|0:0,0:0:0:0:
371,106,265848,1,0,0:0:0:0:
368,122,265929,1,0,0:0:0:0:
365,139,266010,1,10,0:0:0:0:
314,44,266171,5,0,0:0:0:0:
359,226,266332,1,10,0:0:0:0:
413,0,266493,2,0,L|482:14,2,53.9999983520508,0|0|10,1:3|1:3|1:3,0:0:0:0:
314,44,266816,1,0,1:3:0:0:
300,45,266897,1,0,1:3:0:0:
287,46,266977,1,10,1:3:0:0:
273,47,267058,1,0,1:3:0:0:
260,48,267139,1,0,1:3:0:0:
246,49,267219,1,0,1:3:0:0:
233,50,267300,1,10,1:3:0:0:
219,51,267381,1,0,1:0:0:0:
206,53,267461,6,0,L|87:28,1,107.999996704102,0|10,0:2|0:0,0:0:0:0:
250,227,267784,1,0,0:0:0:0:
265,223,267864,1,0,0:0:0:0:
280,219,267945,1,10,0:0:0:0:
125,123,268106,2,0,B|88:152|88:152|75:188|90:225,1,107.999996704102,0|10,0:0|0:0,0:0:0:0:
166,357,268429,1,0,0:0:0:0:
151,361,268510,1,0,0:0:0:0:
136,365,268590,1,10,0:0:0:0:
264,364,268751,5,0,0:0:0:0:
60,308,268913,1,10,0:0:0:0:
259,345,269074,2,0,L|240:273,2,53.9999983520508,0|0|10,1:3|1:3|1:3,0:0:0:0:
367,359,269397,1,0,1:3:0:0:
380,361,269477,1,0,1:3:0:0:
393,363,269558,1,10,1:3:0:0:
406,365,269639,1,0,1:3:0:0:
420,367,269719,1,0,1:3:0:0:
433,370,269800,1,0,1:3:0:0:
446,372,269881,1,10,1:3:0:0:
460,374,269961,1,0,1:0:0:0:
473,376,270042,6,0,B|498:341|498:341|473:269,1,107.999996704102,0|10,0:2|0:0,0:0:0:0:
361,242,270364,1,0,0:0:0:0:
365,226,270445,1,0,0:0:0:0:
370,210,270526,1,10,0:0:0:0:
293,97,270687,1,0,0:0:0:0:
312,116,270768,2,0,L|382:107,1,53.9999983520508,0|10,0:0|0:0,0:0:0:0:
512,210,271010,1,0,0:0:0:0:
488,197,271090,1,0,0:0:0:0:
465,185,271171,1,10,0:0:0:0:
432,0,271332,6,0,L|449:112,1,107.999996704102,0|10,0:0|0:0,0:0:0:0:
332,177,271655,2,0,L|322:117,2,53.9999983520508,0|0|10,1:3|1:3|1:3,0:0:0:0:
411,258,271977,1,0,1:3:0:0:
422,266,272058,1,0,1:3:0:0:
431,276,272139,1,10,1:3:0:0:
439,287,272219,1,0,1:3:0:0:
445,299,272300,1,0,1:3:0:0:
449,312,272381,1,0,1:3:0:0:
452,325,272461,1,10,1:3:0:0:
453,339,272542,1,0,1:0:0:0:
451,352,272622,6,0,B|407:338|407:338|337:354,1,107.999996704102,0|10,0:2|0:0,0:0:0:0:
240,383,272945,1,0,0:0:0:0:
243,367,273026,1,0,0:0:0:0:
248,351,273106,1,10,0:0:0:0:
154,163,273268,2,0,B|118:188|118:188|115:222|159:262,1,107.999996704102,0|10,0:0|0:0,0:0:0:0:
280,210,273590,1,0,0:0:0:0:
275,226,273671,1,0,0:0:0:0:
272,242,273751,1,10,0:0:0:0:
391,347,273913,6,0,L|367:280,1,53.9999983520508,4|0,0:0|0:0,0:0:0:0:
444,190,274074,2,0,L|420:123,1,53.9999983520508,10|0,0:0|0:0,0:0:0:0:
458,315,274235,2,0,L|434:248,1,53.9999983520508,0|0,1:3|1:3,0:0:0:0:
511,158,274397,2,0,L|487:91,1,53.9999983520508,10|0,1:3|1:3,0:0:0:0:
396,31,274558,5,0,1:3:0:0:
356,36,274639,1,0,1:3:0:0:
326,63,274719,1,10,1:3:0:0:
316,101,274800,1,0,1:3:0:0:
329,139,274881,5,0,1:3:0:0:
329,85,274961,1,0,1:3:0:0:
305,38,275042,1,10,1:3:0:0:
260,8,275122,1,0,1:0:0:0:
207,4,275203,5,4,0:2:0:0:
220,39,275284,1,0,0:0:0:0:
245,67,275364,1,10,0:0:0:0:
278,83,275445,1,0,0:0:0:0:
316,87,275526,1,0,0:0:0:0:
352,76,275606,1,0,0:0:0:0:
381,52,275687,1,10,0:0:0:0:
418,44,275768,1,0,0:0:0:0:
454,53,275848,1,0,0:0:0:0:
483,76,275929,1,0,0:0:0:0:
500,110,276010,1,10,0:0:0:0:
500,147,276090,1,0,0:0:0:0:
484,181,276171,1,0,0:0:0:0:
450,198,276251,1,0,0:0:0:0:
413,198,276332,1,10,0:0:0:0:
377,187,276413,1,0,0:0:0:0:
349,161,276493,6,0,P|358:185|356:229,1,53.9999983520508,0|0,0:0|0:0,0:0:0:0:
239,363,276655,1,10,0:0:0:0:
221,326,276735,1,0,0:0:0:0:
214,286,276816,1,0,1:3:0:0:
220,246,276897,1,0,1:3:0:0:
236,209,276977,6,0,L|304:200,1,53.9999983520508,10|0,1:3|1:3,0:0:0:0:
113,168,277139,2,0,L|59:174,1,53.9999983520508,0|0,1:3|1:3,0:0:0:0:
271,45,277300,2,0,L|324:38,1,53.9999983520508,10|0,1:3|1:3,0:0:0:0:
151,101,277461,5,0,1:3:0:0:
111,98,277542,1,0,1:3:0:0:
77,76,277622,1,14,1:3:0:0:
59,40,277703,1,0,1:0:0:0:
62,0,277784,5,4,0:2:0:0:
96,13,277864,1,0,0:0:0:0:
122,40,277945,1,10,0:0:0:0:
135,76,278026,1,0,0:0:0:0:
131,113,278106,1,0,0:0:0:0:
113,146,278187,1,0,0:0:0:0:
81,166,278268,1,10,0:0:0:0:
53,190,278348,1,0,0:0:0:0:
38,225,278429,1,0,0:0:0:0:
40,262,278510,1,0,0:0:0:0:
58,295,278590,1,10,0:0:0:0:
89,316,278671,1,0,0:0:0:0:
126,322,278751,1,0,0:0:0:0:
162,310,278832,1,0,0:0:0:0:
189,284,278913,1,10,0:0:0:0:
202,249,278993,1,0,0:0:0:0:
197,211,279074,6,0,P|168:216|130:248,1,53.9999983520508,0|0,0:0|0:0,0:0:0:0:
284,340,279235,1,10,0:0:0:0:
323,349,279316,1,0,0:0:0:0:
362,358,279397,1,0,1:3:0:0:
402,367,279477,1,0,1:3:0:0:
441,376,279558,6,0,L|423:299,1,53.9999983520508,10|0,1:3|1:3,0:0:0:0:
507,241,279719,2,0,L|488:163,1,53.9999983520508,0|0,1:3|1:3,0:0:0:0:
313,144,279881,2,0,L|294:66,1,53.9999983520508,10|0,1:3|1:3,0:0:0:0:
401,6,280042,5,4,1:3:0:0:
440,2,280122,1,0,1:3:0:0:
477,18,280203,1,10,1:3:0:0:
503,48,280284,1,0,1:0:0:0:
511,88,280364,5,4,0:2:0:0:
477,72,280445,1,0,0:0:0:0:
439,73,280526,1,10,0:0:0:0:
406,89,280606,1,0,0:0:0:0:
382,118,280687,1,0,0:0:0:0:
373,154,280768,1,0,0:0:0:0:
380,191,280848,1,10,0:0:0:0:
402,222,280929,1,0,0:0:0:0:
437,237,281010,1,0,0:0:0:0:
473,245,281090,1,0,0:0:0:0:
498,273,281171,1,10,0:0:0:0:
503,310,281251,1,0,0:0:0:0:
486,343,281332,1,0,0:0:0:0:
454,361,281413,1,0,0:0:0:0:
417,358,281493,1,10,0:0:0:0:
388,334,281574,1,0,0:0:0:0:
377,298,281655,6,0,L|396:231,1,53.9999983520508,0|0,0:0|0:0,0:0:0:0:
262,172,281816,1,10,0:0:0:0:
268,212,281897,1,0,0:0:0:0:
274,252,281977,1,0,1:3:0:0:
280,292,282058,1,0,1:3:0:0:
287,332,282139,6,0,L|269:387,1,53.9999983520508,10|0,1:3|1:3,0:0:0:0:
361,136,282300,2,0,L|343:191,1,53.9999983520508,0|0,1:3|1:3,0:0:0:0:
177,211,282461,2,0,L|159:266,1,53.9999983520508,10|0,1:3|1:3,0:0:0:0:
57,68,282622,5,0,1:3:0:0:
29,96,282703,1,0,1:3:0:0:
21,135,282784,1,10,1:3:0:0:
37,172,282864,1,0,1:0:0:0:
71,195,282945,6,0,L|182:180,1,107.999996704102,4|8,3:2|3:2,0:0:0:0:
292,168,283187,1,0,0:0:0:0:
285,205,283268,1,0,0:0:0:0:
418,312,283429,1,0,0:0:0:0:
512,175,283590,5,0,1:0:0:0:
473,163,283671,1,0,0:0:0:0:
434,172,283751,1,0,0:0:0:0:
405,200,283832,1,0,0:0:0:0:
393,238,283913,5,0,1:0:0:0:
433,236,283993,1,0,1:0:0:0:
470,253,284074,1,0,1:0:0:0:
494,284,284155,1,0,1:0:0:0:
501,324,284235,5,0,1:0:0:0:
448,334,284316,1,0,1:0:0:0:
395,343,284397,1,8,1:3:0:0:
342,353,284477,1,8,1:3:0:0:
289,363,284558,1,0,1:0:0:0:
78,209,284719,6,0,P|153:242|162:289,1,107.999996704102,4|0,1:3|0:0,0:0:0:0:
220,92,285042,2,0,P|249:168|222:207,1,107.999996704102,4|0,1:3|1:0,0:0:0:0:
229,210,285526,6,0,L|404:181,1,135.000005149842,6|8,0:2|0:0,0:0:0:0:
444,268,285848,1,0,0:0:0:0:
512,151,286010,2,0,B|487:112|487:112|512:-3,1,135.000005149842,10|0,0:2|0:0,0:0:0:0:
342,46,286332,2,0,L|359:126,1,67.5000025749208,8|0,0:0|0:0,0:0:0:0:
429,201,286493,2,0,L|446:281,1,67.5000025749208,0|0,0:0|0:0,0:0:0:0:
466,379,286655,1,8,0:0:0:0:
329,294,286816,6,0,P|284:344|210:332,1,135.000005149842,0|8,0:0|0:0,0:0:0:0:
86,234,287139,1,2,0:2:0:0:
112,239,287219,1,0,0:0:0:0:
130,259,287300,1,8,0:0:0:0:
255,272,287461,2,0,B|225:244|225:244|249:130,1,135.000005149842,2|8,0:2|0:0,0:0:0:0:
144,16,287703,1,0,0:0:0:0:
165,0,287784,2,0,B|195:28|195:28|171:142,1,135.000005149842,2|8,0:2|0:0,0:0:0:0:
50,96,288106,5,2,0:2:0:0:
176,137,288268,1,8,0:0:0:0:
185,162,288348,2,0,L|257:145,1,67.5000025749208,0|2,0:0|0:2,0:0:0:0:
123,252,288590,1,10,0:2:0:0:
266,384,288751,2,0,L|286:243,1,135.000005149842,0|8,0:0|0:0,0:0:0:0:
429,203,289074,1,0,0:0:0:0:
429,203,289155,1,0,0:0:0:0:
429,203,289235,1,8,0:0:0:0:
449,289,289397,6,0,P|418:292|381:272,1,67.5000025749208,0|0,0:0|0:0,0:0:0:0:
253,211,289558,2,0,P|284:208|321:228,1,67.5000025749208,8|0,0:0|0:0,0:0:0:0:
445,297,289719,2,0,P|413:297|378:274,1,67.5000025749208,0|0,0:0|0:0,0:0:0:0:
256,202,289881,2,0,P|287:201|322:224,1,67.5000025749208,8|0,0:0|0:0,0:0:0:0:
440,305,290042,2,0,P|408:302|375:276,1,67.5000025749208,2|0,0:2|0:0,0:0:0:0:
261,194,290203,2,0,P|292:196|325:222,1,67.5000025749208,10|0,0:2|0:0,0:0:0:0:
435,313,290364,2,0,P|404:307|373:278,1,67.5000025749208,0|0,0:0|0:0,0:0:0:0:
266,186,290526,2,0,P|296:191|327:220,1,67.5000025749208,10|0,0:2|0:0,0:0:0:0:
206,326,290687,6,0,P|162:320|87:381,1,135.000005149842,4|8,0:2|0:0,0:0:0:0:
9,266,291010,1,0,0:0:0:0:
9,266,291090,1,0,0:0:0:0:
9,266,291171,1,8,0:0:0:0:
122,157,291332,2,0,P|166:151|241:212,1,135.000005149842,0|8,0:0|0:0,0:0:0:0:
319,97,291655,1,2,0:2:0:0:
319,97,291735,1,0,0:0:0:0:
319,97,291816,1,10,0:2:0:0:
458,275,291977,6,0,B|439:260|439:260|454:197,1,67.5000025749208,0|0,0:0|0:0,0:0:0:0:
463,141,292139,2,0,B|482:126|482:126|467:63,1,67.5000025749208,8|0,0:0|0:0,0:0:0:0:
449,13,292300,1,2,0:2:0:0:
449,13,292381,1,0,0:0:0:0:
449,13,292461,1,8,0:0:0:0:
367,184,292622,6,0,L|279:170,1,67.5000025749208,2|0,0:2|0:0,0:0:0:0:
198,160,292784,2,0,L|110:146,1,67.5000025749208,8|0,0:0|0:0,0:0:0:0:
27,133,292945,1,2,0:2:0:0:
27,133,293026,1,0,0:0:0:0:
27,133,293106,1,8,0:0:0:0:
43,309,293268,6,0,B|30:319|16:316|16:316|45:330|78:321|63:294|130:312,1,135.000005149842,4|8,0:0|0:0,0:0:0:0:
309,374,293590,1,0,0:0:0:0:
309,374,293671,1,0,0:0:0:0:
309,374,293751,1,8,0:0:0:0:
472,170,293913,2,0,B|485:180|499:177|499:177|470:191|437:182|452:155|385:173,1,135.000005149842,4|8,0:0|0:0,0:0:0:0:
206,235,294235,1,0,0:0:0:0:
206,235,294316,1,0,0:0:0:0:
206,235,294397,1,8,0:0:0:0:
344,141,294558,5,4,0:0:0:0:
339,167,294639,1,0,0:0:0:0:
156,54,294800,1,0,0:0:0:0:
161,80,294881,1,0,0:0:0:0:
256,0,295042,1,8,0:0:0:0:
56,133,295203,6,0,P|117:180|185:155,1,135.000005149842,0|8,0:0|0:0,0:0:0:0:
373,44,295526,1,0,1:0:0:0:
419,59,295606,1,0,1:0:0:0:
451,97,295687,1,0,1:0:0:0:
455,147,295768,1,0,1:0:0:0:
432,191,295848,6,0,B|400:205|400:205|392:329,1,135.000005149842,6|8,0:2|0:0,0:0:0:0:
323,384,296171,1,2,0:2:0:0:
182,259,296332,2,0,P|245:300|322:277,1,135.000005149842,10|0,0:2|0:0,0:0:0:0:
181,48,296655,2,0,L|165:124,1,67.5000025749208,8|0,0:0|0:0,0:0:0:0:
256,222,296816,2,0,L|270:156,1,67.5000025749208,0|0,0:0|0:0,0:0:0:0:
172,45,296977,2,0,L|156:121,1,67.5000025749208,8|0,0:0|0:0,0:0:0:0:
386,173,297139,6,0,P|483:109|463:59,1,135.000005149842,0|8,0:0|0:0,0:0:0:0:
420,0,297461,1,2,0:2:0:0:
420,0,297542,1,0,0:0:0:0:
420,0,297622,1,8,0:0:0:0:
251,46,297784,2,0,P|348:110|328:160,1,135.000005149842,2|8,0:2|0:0,0:0:0:0:
285,219,298106,1,2,0:2:0:0:
285,219,298187,1,0,0:0:0:0:
285,219,298268,1,8,0:0:0:0:
120,118,298429,6,0,B|90:92|90:92|115:-11,1,135.000005149842,2|8,0:2|0:0,0:0:0:0:
177,66,298671,1,0,0:0:0:0:
302,198,298832,1,0,0:0:0:0:
285,219,298913,2,0,L|130:243,1,135.000005149842,10|0,0:2|0:0,0:0:0:0:
35,174,299235,1,8,0:0:0:0:
106,348,299397,1,2,0:2:0:0:
106,348,299477,1,0,0:0:0:0:
106,348,299558,1,10,0:2:0:0:
320,277,299719,6,0,P|335:243|332:204,1,67.5000025749208,0|0,0:0|0:0,0:0:0:0:
192,107,299881,2,0,P|177:141|180:180,1,67.5000025749208,8|0,0:0|0:0,0:0:0:0:
327,271,300042,2,0,P|339:235|332:197,1,67.5000025749208,0|0,0:0|0:0,0:0:0:0:
184,112,300203,2,0,P|172:148|179:186,1,67.5000025749208,8|0,0:0|0:0,0:0:0:0:
333,264,300364,2,0,P|342:228|332:190,1,67.5000025749208,0|0,0:0|0:0,0:0:0:0:
178,119,300526,2,0,P|169:155|179:193,1,67.5000025749208,10|0,0:2|0:0,0:0:0:0:
339,257,300687,2,0,P|345:220|332:183,1,67.5000025749208,2|0,0:2|0:0,0:0:0:0:
172,126,300848,2,0,P|166:163|179:200,1,67.5000025749208,10|0,0:2|0:0,0:0:0:0:
127,269,301010,6,0,B|138:290|178:298|178:298|217:268|280:292,1,135.000005149842,6|8,0:2|0:0,0:0:0:0:
457,240,301332,1,0,0:0:0:0:
457,240,301413,1,0,0:0:0:0:
457,240,301493,1,8,0:0:0:0:
428,102,301655,2,0,B|417:123|377:131|377:131|338:101|275:125,1,135.000005149842,0|8,0:0|0:0,0:0:0:0:
174,191,301977,1,2,0:2:0:0:
174,191,302058,1,0,0:0:0:0:
174,191,302139,1,10,0:2:0:0:
318,373,302300,6,0,B|343:336|343:336|295:221,1,135.000005149842,0|8,0:0|0:0,0:0:0:0:
160,365,302622,1,2,0:2:0:0:
160,365,302703,1,0,0:0:0:0:
160,365,302784,1,8,0:0:0:0:
28,249,302945,2,0,B|3:212|3:212|51:97,1,135.000005149842,2|8,0:2|0:0,0:0:0:0:
186,241,303268,1,2,0:2:0:0:
186,241,303348,1,0,0:0:0:0:
186,241,303429,1,8,0:0:0:0:
332,159,303590,6,0,P|264:148|234:69,1,135.000005149842,2|8,0:2|0:0,0:0:0:0:
301,20,303832,1,0,0:0:0:0:
304,42,303913,1,0,0:0:0:0:
308,64,303993,1,0,0:0:0:0:
311,86,304074,1,8,0:0:0:0:
425,209,304235,2,0,B|412:187|412:187|426:132,1,67.5000025749208,2|0,0:2|0:0,0:0:0:0:
510,239,304397,2,0,B|523:261|523:261|512:301,1,67.5000025749208,8|0,0:0|0:0,0:0:0:0:
417,374,304558,1,0,0:0:0:0:
383,379,304639,1,0,0:0:0:0:
350,384,304719,1,8,0:0:0:0:
228,255,304880,6,0,P|190:322|129:316,1,135.000005149842,4|8,0:0|0:0,0:0:0:0:
23,236,305122,1,0,0:0:0:0:
23,236,305203,1,0,1:0:0:0:
29,202,305284,1,0,1:0:0:0:
36,169,305364,1,0,1:0:0:0:
43,136,305445,1,0,1:0:0:0:
50,103,305526,6,0,B|39:82|15:77|15:77|65:47|130:95,1,135,4|0,1:3|0:0,0:0:0:0:
79,173,305848,2,0,P|0:219|6:142,1,202.500007724762,4|0,1:3|0:0,0:0:0:0:
148,136,306171,6,0,L|329:123,1,135.000005149842,6|8,0:2|0:0,0:0:0:0:
369,176,306493,2,0,B|384:154|384:154|366:90,1,67.5000025749208,0|0,0:0|0:0,0:0:0:0:
458,0,306655,2,0,B|443:22|443:22|461:86,1,67.5000025749208,8|0,0:0|0:0,0:0:0:0:
497,215,306816,5,0,0:0:0:0:
421,345,306977,1,10,0:2:0:0:
430,312,307058,1,0,0:0:0:0:
286,234,307219,1,0,0:0:0:0:
277,201,307300,1,10,0:2:0:0:
114,365,307461,6,0,B|124:319|124:319|111:286|111:286|131:203,1,135.000005149842,0|8,0:0|0:0,0:0:0:0:
46,143,307784,1,0,1:3:0:0:
45,137,307864,1,0,1:3:0:0:
44,131,307945,1,8,1:3:0:0:
43,126,308026,1,0,1:3:0:0:
43,120,308106,1,0,1:3:0:0:
42,115,308187,1,0,1:3:0:0:
41,109,308268,1,8,1:3:0:0:
40,103,308348,1,0,1:3:0:0:
40,98,308429,1,0,1:3:0:0:
39,92,308510,1,0,1:3:0:0:
38,87,308590,1,8,1:3:0:0:
37,81,308671,1,0,1:3:0:0:
37,76,308751,6,0,L|193:106,1,135.000005149842,4|8,0:3|0:0,0:0:0:0:
282,131,309074,1,0,0:0:0:0:
286,150,309155,1,0,0:0:0:0:
290,169,309235,1,8,0:0:0:0:
311,345,309397,5,0,0:0:0:0:
175,237,309558,1,10,0:2:0:0:
141,242,309639,1,0,0:0:0:0:
344,350,309800,1,0,0:0:0:0:
378,355,309880,1,10,0:2:0:0:
512,193,310042,6,0,P|456:199|401:121,1,135.000005149842,0|8,0:0|0:0,0:0:0:0:
458,20,310364,1,0,1:3:0:0:
459,25,310445,1,0,1:3:0:0:
461,30,310526,1,8,1:3:0:0:
462,36,310606,1,0,1:3:0:0:
464,41,310687,1,0,1:3:0:0:
465,47,310768,1,0,1:3:0:0:
467,52,310848,1,8,1:3:0:0:
468,57,310929,1,0,1:3:0:0:
470,63,311010,1,0,1:3:0:0:
471,68,311090,1,0,1:3:0:0:
473,74,311171,1,8,1:3:0:0:
474,79,311251,1,0,1:3:0:0:
476,85,311332,6,0,B|491:109|482:129|482:129|486:162|502:184|502:184|500:218,1,135.000005149842,4|8,0:3|0:0,0:0:0:0:
497,315,311655,2,0,B|511:309|511:309|447:296,1,67.5000025749208,0|0,0:0|0:0,0:0:0:0:
347,330,311816,2,0,B|295:319|295:319|309:313,1,67.5000025749208,8|0,0:0|0:0,0:0:0:0:
387,240,311977,5,2,0:2:0:0:
311,115,312139,1,8,0:0:0:0:
299,146,312219,1,0,0:0:0:0:
156,207,312380,1,0,0:0:0:0:
168,238,312461,1,10,0:2:0:0:
31,379,312622,6,0,B|1:344|1:344|37:245,1,135.000005149842,0|8,0:0|0:0,0:0:0:0:
68,163,312945,1,2,1:2:0:0:
68,163,313026,1,0,1:3:0:0:
68,163,313106,1,8,1:3:0:0:
0,0,313268,1,2,1:2:0:0:
9,32,313348,1,0,1:3:0:0:
31,57,313429,1,8,1:3:0:0:
61,71,313510,1,0,1:3:0:0:
95,70,313590,6,0,P|134:50|194:56,1,94.499997116089,4|0,1:3|0:0,0:0:0:0:
244,131,313913,6,0,P|201:84|126:76,1,135.000005149842,4|0,0:2|0:0,0:0:0:0:
197,199,314200,1,0,1:0:0:0:
227,212,314271,1,0,1:0:0:0:
261,212,314343,1,0,1:0:0:0:
292,200,314415,1,0,0:0:0:0:
387,193,314558,6,0,L|508:210,2,90.0000034332277,4|0|0,1:3|1:0|1:0,0:0:0:0:
477,282,314880,1,0,1:0:0:0:
475,112,315042,6,0,B|484:88|520:70|520:70|475:49|462:-8|462:-8|433:-5|420:38,1,225.000008583069,4|0,3:0|0:0,0:0:0:0:
392,101,315364,1,0,0:0:0:0:
278,14,315526,2,0,L|255:95,1,67.5000025749208,8|0,3:0|0:0,0:0:0:0:
230,172,315687,2,0,L|207:253,1,67.5000025749208,8|0,3:0|0:0,0:0:0:0:
105,368,315848,5,0,1:0:0:0:
101,351,315929,1,0,1:0:0:0:
97,335,316010,1,0,1:0:0:0:
93,318,316090,1,0,1:0:0:0:
75,307,316171,5,0,1:0:0:0:
71,290,316251,1,0,1:0:0:0:
67,274,316332,1,0,1:0:0:0:
63,257,316413,1,0,1:0:0:0:
70,237,316493,6,0,B|57:293|57:293|42:306|42:306|28:374,1,135.000005149842,6|8,0:2|0:0,0:0:0:0:
0,199,316816,1,0,0:0:0:0:
7,180,316897,1,0,0:0:0:0:
15,161,316977,1,8,0:0:0:0:
191,260,317139,5,0,0:0:0:0:
286,160,317300,1,10,0:2:0:0:
277,127,317380,1,0,0:0:0:0:
135,21,317542,1,0,0:0:0:0:
126,54,317622,1,10,0:2:0:0:
277,127,317784,6,0,B|309:128|334:97|334:97|371:83|417:106,1,135.000005149842,0|8,0:0|0:0,0:0:0:0:
497,206,318106,1,0,1:3:0:0:
498,200,318187,1,0,1:3:0:0:
499,195,318268,1,8,1:3:0:0:
500,189,318348,1,0,1:3:0:0:
502,184,318429,1,0,1:3:0:0:
503,178,318510,1,0,1:3:0:0:
504,173,318590,1,8,1:3:0:0:
505,167,318671,1,0,1:3:0:0:
507,162,318751,1,0,1:3:0:0:
508,156,318832,1,0,1:3:0:0:
509,151,318913,1,8,1:3:0:0:
511,145,318993,1,0,1:3:0:0:
512,140,319074,6,0,B|554:107|521:53|521:53|459:64,1,135.000005149842,4|8,0:3|0:0,0:0:0:0:
343,85,319397,1,0,0:0:0:0:
338,65,319477,1,0,0:0:0:0:
332,45,319558,1,8,0:0:0:0:
334,166,319719,5,0,0:0:0:0:
403,339,319880,1,10,0:2:0:0:
436,344,319961,1,0,0:0:0:0:
279,271,320122,1,0,0:0:0:0:
245,275,320203,1,10,0:2:0:0:
169,347,320364,6,0,P|202:317|180:205,1,135.000005149842,0|8,0:0|0:0,0:0:0:0:
68,164,320687,1,0,1:3:0:0:
62,165,320768,1,0,1:3:0:0:
56,166,320848,1,8,1:3:0:0:
51,167,320929,1,0,1:3:0:0:
45,168,321010,1,0,1:3:0:0:
40,169,321090,1,0,1:3:0:0:
34,170,321171,1,8,1:3:0:0:
29,171,321251,1,0,1:3:0:0:
23,172,321332,1,0,1:3:0:0:
18,174,321413,1,0,1:3:0:0:
12,175,321493,1,8,1:3:0:0:
7,176,321574,1,0,1:3:0:0:
2,177,321655,6,0,P|57:191|98:278,1,135.000005149842,4|8,0:3|0:0,0:0:0:0:
165,156,321977,1,0,0:0:0:0:
165,156,322058,1,0,0:0:0:0:
165,156,322139,1,8,0:0:0:0:
217,282,322300,2,0,P|272:268|313:181,1,135.000005149842,2|8,0:2|0:0,0:0:0:0:
380,303,322622,1,0,0:0:0:0:
380,303,322703,1,0,0:0:0:0:
380,303,322784,1,10,0:2:0:0:
467,164,322945,5,0,0:0:0:0:
486,169,323026,1,0,0:0:0:0:
504,175,323106,1,8,0:0:0:0:
410,217,323268,2,0,B|384:191|384:191|389:131,1,67.5000025749208,2|0,1:2|1:3,0:0:0:0:
407,0,323429,2,0,B|433:26|433:26|428:86,1,67.5000025749208,8|0,1:3|0:0,0:0:0:0:
323,93,323590,2,0,P|273:107|199:52,1,120,4|0,1:3|1:0,0:0:0:0:
86,82,323912,1,0,0:0:0:0:
86,82,324029,2,0,L|104:140,1,60,0|0,1:0|1:0,0:0:0:0:
115,251,324235,5,4,3:3:0:0:
89,259,324558,1,0,0:0:0:0:
62,264,324880,1,0,0:0:0:0:
35,271,325203,1,0,0:0:0:0:
120,343,325364,1,2,2:2:0:0:
120,343,325445,1,2,2:2:0:0:
120,343,325526,5,2,3:2:0:0:
199,185,325848,1,2,3:2:0:0:
281,225,326010,2,0,P|338:219|360:193,2,90,2|2|2,2:2|2:2|2:2,0:0:0:0:
248,142,326816,6,0,L|218:136,1,30,2|0,2:2|2:0,0:0:0:0:
224,111,327031,2,0,L|194:105,1,30,2|0,2:2|3:0,0:0:0:0:
210,82,327246,2,0,L|180:76,1,30,2|0,2:2|2:0,0:0:0:0:
400,31,327461,6,0,L|456:20,1,30,2|0,2:2|2:0,0:0:0:0:
483,78,327676,2,0,L|539:67,1,30,2|0,2:2|2:0,0:0:0:0:
442,158,327944,1,2,2:2:0:0:
461,308,328106,6,0,L|491:240,1,48,2|0,2:2|2:0,0:0:0:0:
359,211,328321,2,0,L|332:141,1,48,2|0,2:2|3:0,0:0:0:0:
231,264,328536,2,0,L|163:234,1,48,2|0,2:2|2:0,0:0:0:0:
6,276,328751,6,0,P|22:256|61:241,1,66.0000020141602,2|0,3:2|2:0,0:0:0:0:
125,142,328967,2,0,P|148:152|183:255,1,132.00000402832,2|2,2:2|2:2,0:0:0:0:
155,361,329235,5,8,3:2:0:0:
155,361,329316,1,8,3:2:0:0:
155,361,329397,2,0,B|232:345|189:308|289:305|289:305|264:314|250:338,1,198.000006042481,4|0,3:2|0:0,0:0:0:0:
252,334,329880,1,2,2:0:0:0:
98,227,330203,1,2,2:0:0:0:
421,263,330526,5,8,3:2:0:0:
421,263,330606,1,8,3:2:0:0:
421,263,330687,2,0,B|344:247|387:210|287:207|287:207|312:216|326:240,1,198.000006042481,4|0,3:2|0:0,0:0:0:0:
323,236,331171,1,2,2:0:0:0:
478,129,331493,1,2,2:0:0:0:
90,86,331816,5,8,3:2:0:0:
90,86,331897,1,8,3:2:0:0:
90,86,331977,2,0,B|167:70|124:33|224:30|224:30|199:39|185:63,1,198.000006042481,4|0,3:2|0:0,0:0:0:0:
287,119,332622,2,0,B|289:157|246:173|246:173|222:136|259:98,2,148.50000453186,2|2|2,3:2|2:0|2:0,0:0:0:0:
318,43,333268,5,0,1:0:0:0:
342,15,333348,1,0,0:0:0:0:
376,0,333429,1,8,1:0:0:0:
412,1,333510,1,0,0:0:0:0:
445,18,333590,1,0,1:0:0:0:
468,47,333671,1,0,0:0:0:0:
477,82,333751,1,8,1:0:0:0:
469,118,333832,1,0,0:0:0:0:
447,148,333913,6,0,B|396:173|354:136|354:136|323:159|342:193,1,148.50000453186,4|0,1:3|0:0,0:0:0:0:
342,325,334235,2,0,B|361:358|403:356|403:356|444:275|377:218,1,202.500007724762,4|0,1:3|0:0,0:0:0:0:
263,202,334558,6,0,B|234:193|205:217|205:217|199:269|142:267,1,135.000005149842,6|8,0:2|0:0,0:0:0:0:
0,211,334880,1,2,0:2:0:0:
19,214,334961,1,0,0:0:0:0:
39,217,335042,1,10,0:2:0:0:
143,137,335203,2,0,B|158:116|158:116|146:60,1,67.5000025749208,0|0,0:0|0:0,0:0:0:0:
68,0,335364,2,0,B|53:21|53:21|65:77,1,67.5000025749208,8|0,0:0|0:0,0:0:0:0:
236,93,335526,1,0,0:0:0:0:
256,90,335606,1,0,0:0:0:0:
275,87,335687,1,8,0:0:0:0:
414,153,335848,6,0,B|382:130|382:130|358:79|413:35,1,135.000005149842,0|8,0:0|0:0,0:0:0:0:
485,101,336090,1,0,0:0:0:0:
485,101,336171,2,0,P|507:126|502:182,1,67.5000025749208,2|0,0:2|0:0,0:0:0:0:
353,202,336332,2,0,P|331:227|336:283,1,67.5000025749208,8|0,0:0|0:0,0:0:0:0:
431,354,336493,2,0,B|438:326|399:319|399:319|363:362|297:347,1,135.000005149842,2|8,0:2|0:0,0:0:0:0:
200,378,336816,1,2,0:2:0:0:
205,358,336897,1,0,0:0:0:0:
210,338,336977,1,8,0:0:0:0:
227,246,337139,5,2,0:2:0:0:
141,165,337300,1,8,0:0:0:0:
139,131,337380,1,0,0:0:0:0:
339,219,337542,1,0,0:0:0:0:
358,190,337622,1,10,0:2:0:0:
280,53,337784,6,0,L|307:143,1,67.5000025749208,0|0,0:0|0:0,0:0:0:0:
436,82,337945,2,0,L|416:17,1,67.5000025749208,8|0,0:0|0:0,0:0:0:0:
274,52,338106,2,0,L|303:149,1,67.5000025749208,0|0,0:0|0:0,0:0:0:0:
442,83,338268,2,0,L|420:12,1,67.5000025749208,8|0,0:0|0:0,0:0:0:0:
369,112,338429,5,0,0:0:0:0:
495,220,338590,1,8,0:0:0:0:
463,231,338671,1,0,0:0:0:0:
334,335,338832,1,0,0:0:0:0:
366,346,338913,1,8,0:0:0:0:
243,384,339074,6,0,B|233:358|211:338|211:338|216:304|216:304|200:276|203:230,1,135.000005149842,2|10,0:2|0:2,0:0:0:0:
301,140,339397,1,0,0:0:0:0:
299,159,339477,1,0,0:0:0:0:
296,179,339558,1,10,0:2:0:0:
202,240,339719,5,4,0:2:0:0:
79,146,339880,1,8,0:0:0:0:
46,154,339961,1,0,0:0:0:0:
222,24,340122,1,0,0:0:0:0:
255,16,340203,1,8,0:0:0:0:
82,4,340364,6,0,B|38:-11|38:-11|-4:40|23:84,1,135.000005149842,0|8,0:0|0:0,0:0:0:0:
173,146,340687,1,2,0:2:0:0:
168,126,340768,1,0,0:0:0:0:
164,106,340848,1,10,0:2:0:0:
255,16,341010,5,0,0:0:0:0:
304,146,341171,1,8,0:0:0:0:
296,178,341251,1,0,0:0:0:0:
434,33,341413,1,0,0:0:0:0:
442,1,341493,1,8,0:0:0:0:
508,161,341655,6,0,P|452:122|376:139,1,135.000005149842,2|8,0:2|0:0,0:0:0:0:
348,284,341977,1,2,0:2:0:0:
328,290,342058,1,0,0:0:0:0:
309,297,342139,1,8,0:0:0:0:
132,362,342299,6,0,B|121:311|121:311|137:284|137:284|124:210,1,135.000005149842,4|8,0:0|0:0,0:0:0:0:
50,119,342622,1,0,0:0:0:0:
50,119,342703,1,0,0:0:0:0:
50,119,342784,1,8,0:0:0:0:
232,24,342945,6,0,B|221:75|221:75|237:102|237:102|224:176,1,135.000005149842,4|8,0:0|0:0,0:0:0:0:
150,267,343268,1,0,0:0:0:0:
150,267,343348,1,0,0:0:0:0:
150,267,343429,1,8,0:0:0:0:
348,363,343590,6,0,B|337:312|337:312|353:285|353:285|340:211,1,135.000005149842,0|12,0:0|0:0,0:0:0:0:
266,120,343913,1,0,0:0:0:0:
266,120,343993,1,0,0:0:0:0:
266,120,344074,1,8,0:0:0:0:
470,0,344235,6,0,B|459:51|459:51|475:78|475:78|462:152,1,135.000005149842,0|12,0:0|0:0,0:0:0:0:
450,351,344558,5,0,1:0:0:0:
439,301,344639,1,0,1:0:0:0:
408,262,344719,1,0,1:0:0:0:
363,241,344800,1,0,1:0:0:0:
312,242,344880,6,0,B|274:276|274:276|257:321|292:379,1,135.000005149842,6|8,0:2|0:0,0:0:0:0:
359,375,345122,1,0,0:0:0:0:
359,375,345203,1,2,0:2:0:0:
168,311,345364,2,0,B|122:309|88:329|88:329|39:304|52:273,1,135.000005149842,10|0,0:2|0:0,0:0:0:0:
130,211,345687,1,8,0:0:0:0:
11,131,345848,1,0,0:0:0:0:
15,150,345929,1,0,0:0:0:0:
18,170,346010,1,8,0:0:0:0:
146,193,346171,6,0,P|217:187|244:109,1,135.000005149842,0|8,0:0|0:0,0:0:0:0:
200,40,346493,1,2,0:2:0:0:
180,33,346574,1,0,0:0:0:0:
160,26,346655,1,8,0:0:0:0:
347,82,346816,2,0,P|275:87|249:166,1,135.000005149842,2|8,0:2|0:0,0:0:0:0:
293,235,347139,1,2,0:2:0:0:
313,242,347219,1,0,0:0:0:0:
333,249,347300,1,8,0:0:0:0:
220,285,347461,5,4,0:0:0:0:
372,358,347622,1,8,0:0:0:0:
360,326,347703,1,0,0:0:0:0:
299,129,347864,1,0,0:0:0:0:
311,161,347945,1,10,0:2:0:0:
466,270,348106,6,0,L|479:195,1,67.5000025749208,0|0,0:0|0:0,0:0:0:0:
503,43,348268,2,0,L|491:109,1,67.5000025749208,8|0,0:0|0:0,0:0:0:0:
421,141,348429,1,2,0:2:0:0:
401,136,348510,1,0,0:0:0:0:
381,132,348590,1,10,0:2:0:0:
251,227,348751,5,0,0:0:0:0:
127,131,348913,1,8,0:0:0:0:
160,125,348993,1,0,0:0:0:0:
339,26,349155,1,0,0:0:0:0:
306,20,349235,1,8,0:0:0:0:
172,0,349397,6,0,L|202:156,1,135.000005149842,0|10,0:0|0:2,0:0:0:0:
92,269,349719,1,2,0:2:0:0:
88,248,349800,1,0,0:0:0:0:
83,228,349880,1,10,0:2:0:0:
14,151,350042,5,6,0:2:0:0:
159,206,350203,1,8,0:0:0:0:
192,199,350284,1,0,0:0:0:0:
264,76,350445,1,0,0:0:0:0:
297,83,350526,1,8,0:0:0:0:
106,111,350687,6,0,L|175:127,1,67.5000025749208,0|0,0:0|0:0,0:0:0:0:
261,153,350848,2,0,L|330:169,1,67.5000025749208,8|0,0:0|0:0,0:0:0:0:
433,203,351010,1,2,0:2:0:0:
430,183,351090,1,0,0:0:0:0:
428,162,351171,1,10,0:2:0:0:
501,90,351332,5,0,0:0:0:0:
339,51,351493,1,8,0:0:0:0:
330,18,351574,1,0,0:0:0:0:
503,132,351735,1,0,0:0:0:0:
512,99,351816,1,8,0:0:0:0:
327,64,351977,6,0,P|246:111|242:162,1,135.000005149842,2|8,0:2|0:0,0:0:0:0:
322,263,352300,1,2,0:2:0:0:
341,258,352380,1,0,0:0:0:0:
360,253,352461,1,8,0:0:0:0:
337,372,352622,5,4,0:0:0:0:
227,298,352784,1,8,0:0:0:0:
210,268,352864,1,0,0:0:0:0:
185,247,352945,1,0,0:0:0:0:
153,237,353026,1,0,0:0:0:0:
119,239,353106,1,12,0:0:0:0:
0,333,353268,5,0,0:0:0:0:
9,288,353348,1,0,0:0:0:0:
18,244,353429,1,8,0:0:0:0:
28,200,353510,1,0,0:0:0:0:
37,156,353590,1,0,0:0:0:0:
46,112,353671,1,0,0:0:0:0:
56,68,353751,5,12,0:0:0:0:
151,318,353913,1,4,0:0:0:0:
190,142,354074,1,8,0:0:0:0:
213,118,354155,1,0,0:0:0:0:
244,106,354235,1,0,1:0:0:0:
278,106,354316,1,0,1:0:0:0:
309,120,354397,1,0,1:0:0:0:
332,144,354477,1,0,1:0:0:0:
363,156,354558,6,0,P|431:156|480:93,1,135,4|0,1:3|0:0,0:0:0:0:
511,100,354880,2,0,P|438:172|335:171,1,202.500007724762,4|0,1:3|0:0,0:0:0:0:
265,181,355203,6,0,B|236:350,1,135.000005149842,6|8,0:2|0:0,0:0:0:0:
155,275,355526,1,0,0:0:0:0:
150,255,355606,1,0,0:0:0:0:
145,235,355687,1,8,0:0:0:0:
38,173,355848,5,0,0:0:0:0:
132,41,356010,1,10,0:2:0:0:
126,73,356090,1,0,0:0:0:0:
241,242,356251,1,0,0:0:0:0:
235,210,356332,1,10,0:2:0:0:
382,123,356493,6,0,P|314:110|294:41,1,135.000005149842,0|8,0:0|0:0,0:0:0:0:
484,0,356816,1,0,1:3:0:0:
482,5,356897,1,0,1:3:0:0:
481,10,356977,1,8,1:3:0:0:
479,16,357058,1,0,1:3:0:0:
478,21,357139,1,0,1:3:0:0:
477,27,357219,1,0,1:3:0:0:
475,32,357300,1,8,1:3:0:0:
474,38,357380,1,0,1:3:0:0:
473,43,357461,1,0,1:3:0:0:
471,49,357542,1,0,1:3:0:0:
470,54,357622,1,8,1:3:0:0:
468,60,357703,1,0,1:3:0:0:
467,65,357784,6,0,L|323:86,1,135.000005149842,4|8,0:3|0:0,0:0:0:0:
204,105,358106,1,0,0:0:0:0:
206,84,358187,1,0,0:0:0:0:
208,63,358268,1,8,0:0:0:0:
284,178,358429,5,0,0:0:0:0:
406,259,358590,1,10,0:2:0:0:
399,225,358671,1,0,0:0:0:0:
276,350,358832,1,0,0:0:0:0:
283,384,358913,1,10,0:2:0:0:
174,259,359074,6,0,B|121:268|121:268|103:295|103:295|39:310,1,135.000005149842,0|8,0:0|0:0,0:0:0:0:
8,190,359397,1,0,1:3:0:0:
8,184,359477,1,0,1:3:0:0:
9,178,359558,1,8,1:3:0:0:
10,173,359639,1,0,1:3:0:0:
11,167,359719,1,0,1:3:0:0:
12,162,359800,1,0,1:3:0:0:
13,156,359880,1,8,1:3:0:0:
14,151,359961,1,0,1:3:0:0:
15,145,360042,1,0,1:3:0:0:
16,140,360122,1,0,1:3:0:0:
17,134,360203,1,8,1:3:0:0:
18,128,360284,1,0,1:3:0:0:
19,123,360364,6,0,P|99:118|123:32,1,135.000005149842,4|8,0:3|0:0,0:0:0:0:
199,6,360687,1,0,0:0:0:0:
204,25,360768,1,0,0:0:0:0:
209,44,360848,1,8,0:0:0:0:
353,142,361010,5,2,0:2:0:0:
390,0,361171,1,8,0:0:0:0:
357,7,361251,1,0,0:0:0:0:
201,145,361413,1,0,0:0:0:0:
234,152,361493,1,10,0:2:0:0:
485,158,361655,6,0,B|451:147|423:166|423:166|414:207|366:214,1,135.000005149842,0|8,0:0|0:0,0:0:0:0:
249,266,361977,1,0,1:3:0:0:
254,246,362058,1,0,1:3:0:0:
260,226,362139,1,8,1:3:0:0:
4,165,362300,1,0,1:3:0:0:
0,214,362380,1,0,1:3:0:0:
22,259,362461,1,8,1:3:0:0:
63,288,362542,1,0,1:3:0:0:
113,291,362622,1,4,1:3:0:0:
512,200,362945,5,4,0:2:0:0:
416,362,363176,1,0,0:0:0:0:
422,328,363253,1,0,0:0:0:0:
428,295,363332,1,0,1:0:0:0:
435,262,363411,1,0,1:0:0:0:
441,229,363490,1,0,1:0:0:0:
512,200,363589,5,4,1:3:0:0:
357,89,363731,1,0,0:0:0:0:
348,128,363810,1,0,0:0:0:0:
341,168,363891,1,0,1:0:0:0:
333,207,363971,1,0,0:0:0:0:
325,247,364072,1,4,3:0:0:0:
325,247,364396,6,0,P|297:225|239:219,1,67.5000025749208,0|0,0:0|0:0,0:0:0:0:
206,90,364558,2,0,P|177:111|156:165,1,67.5000025749208,8|0,3:0|0:0,0:0:0:0:
42,202,364719,2,0,P|55:235|102:269,1,67.5000025749208,8|0,3:0|0:0,0:0:0:0:
73,367,364880,5,0,1:0:0:0:
89,364,364961,1,0,1:0:0:0:
106,361,365042,1,0,1:0:0:0:
123,359,365122,1,0,1:0:0:0:
136,343,365203,5,0,1:0:0:0:
152,345,365284,1,0,1:0:0:0:
169,348,365364,1,0,1:0:0:0:
186,350,365445,1,0,1:0:0:0:
203,360,365526,6,0,B|189:324|189:324|217:220,1,135.000005149842,6|8,0:2|0:0,0:0:0:0:
299,303,365848,1,0,0:0:0:0:
318,310,365928,1,0,0:0:0:0:
336,317,366009,1,8,0:0:0:0:
419,238,366170,5,0,0:0:0:0:
332,135,366332,1,10,0:2:0:0:
299,143,366413,1,0,0:0:0:0:
469,6,366574,1,0,0:0:0:0:
502,14,366655,1,10,0:2:0:0:
483,130,366816,6,0,L|346:107,1,135.000005149842,0|8,0:0|0:0,0:0:0:0:
174,119,367139,1,0,1:3:0:0:
170,114,367219,1,0,1:3:0:0:
166,110,367300,1,8,1:3:0:0:
163,105,367380,1,0,1:3:0:0:
161,100,367461,1,0,1:3:0:0:
158,95,367542,1,0,1:3:0:0:
156,90,367622,1,8,1:3:0:0:
155,84,367703,1,0,1:3:0:0:
154,79,367784,1,0,1:3:0:0:
153,73,367864,1,0,1:3:0:0:
153,68,367945,1,12,1:3:0:0:
153,62,368026,1,0,1:3:0:0:
153,56,368106,6,0,P|200:145|186:198,1,135.000005149842,4|8,0:3|0:0,0:0:0:0:
90,233,368429,1,0,0:0:0:0:
70,228,368510,1,0,0:0:0:0:
50,224,368590,1,8,0:0:0:0:
117,333,368751,5,0,0:0:0:0:
241,241,368913,1,10,0:2:0:0:
250,273,368993,1,0,0:0:0:0:
380,384,369155,1,0,0:0:0:0:
389,352,369235,1,10,0:2:0:0:
506,257,369397,5,4,0:0:0:0:
509,207,369477,1,0,0:0:0:0:
480,166,369558,1,0,1:3:0:0:
433,152,369639,1,0,1:3:0:0:
387,170,369719,1,8,1:3:0:0:
336,166,369800,1,0,1:3:0:0:
299,135,369880,1,0,1:3:0:0:
289,85,369961,1,0,1:3:0:0:
313,41,370042,5,8,1:3:0:0:
329,44,370122,1,8,1:3:0:0:
345,48,370203,1,0,1:3:0:0:
362,52,370284,1,0,1:3:0:0:
378,56,370364,6,0,L|386:103,1,40.4999987640381,4|0,0:3|0:0,0:0:0:0:
447,177,370687,5,2,1:3:0:0:
447,177,370768,1,0,0:0:0:0:
447,177,370848,2,0,P|481:164|541:175,1,67.5000025749208,0|0,0:0|0:0,0:0:0:0:
445,278,371010,1,10,1:3:0:0:
445,278,371090,1,0,0:0:0:0:
445,278,371171,2,0,P|467:306|475:366,1,67.5000025749208,0|0,0:0|0:0,0:0:0:0:
354,315,371332,5,2,1:3:0:0:
354,315,371413,1,0,0:0:0:0:
354,315,371493,2,0,P|334:345|279:371,1,67.5000025749208,0|0,0:0|0:0,0:0:0:0:
272,256,371655,1,10,1:3:0:0:
272,256,371735,1,0,0:0:0:0:
272,256,371816,2,0,P|236:246|194:202,1,67.5000025749208,0|0,0:0|0:0,0:0:0:0:
275,136,371977,5,2,1:3:0:0:
275,136,372058,1,0,0:0:0:0:
275,136,372139,2,0,B|290:119|290:119|275:46,1,67.5000025749208,0|0,0:0|0:0,0:0:0:0:
114,0,372300,1,10,1:3:0:0:
114,0,372380,1,0,0:0:0:0:
114,0,372461,2,0,B|99:17|99:17|114:90,1,67.5000025749208,0|0,0:0|0:0,0:0:0:0:
115,194,372622,5,6,1:3:0:0:
94,167,372703,1,0,0:0:0:0:
65,151,372784,1,0,0:0:0:0:
31,147,372864,1,0,0:0:0:0:
0,156,372945,5,14,1:3:0:0:
43,180,373026,1,0,0:0:0:0:
69,223,373106,1,0,0:0:0:0:
69,273,373187,1,0,0:0:0:0:
45,317,373268,6,0,B|20:292|20:292|27:251,3,67.5000025749208,2|0|0|0,1:3|0:0|0:0|0:0,0:0:0:0:
151,255,373590,2,0,B|167:223|167:223|208:217,3,67.5000025749208,10|0|0|0,1:3|0:0|0:0|0:0,0:0:0:0:
254,336,373913,2,0,B|288:341|288:341|307:378,3,67.5000025749208,2|0|0|0,1:3|0:0|0:0|0:0,0:0:0:0:
355,282,374235,6,0,P|434:271|443:208,1,135,14|0,1:3|0:0,0:0:0:0:
401,155,374558,5,8,1:3:0:0:
484,44,374719,1,0,1:3:0:0:
490,63,374800,1,0,1:3:0:0:
495,82,374880,1,0,1:3:0:0:
313,137,375042,5,0,1:3:0:0:
303,101,375122,1,0,1:3:0:0:
291,66,375203,1,4,1:3:0:0:
129,33,375364,5,0,1:3:0:0:
129,33,375440,1,0,1:3:0:0:
129,33,375517,5,0,1:3:0:0:
86,59,375594,1,0,1:3:0:0:
69,106,375671,1,0,1:3:0:0:
82,153,375748,1,0,1:3:0:0:
121,184,375847,6,0,L|225:165,2,90,4|0|2,3:2|0:0|0:0,0:0:0:0:
283,210,376331,1,0,0:0:0:0:
283,210,376412,1,0,0:0:0:0:
283,209,376491,2,0,P|292:167|258:115,1,90,2|8,0:0|0:0,0:0:0:0:
205,0,376815,2,0,P|195:41|229:93,1,90,2|8,0:0|0:0,0:0:0:0:
303,39,377138,5,2,0:0:0:0:
442,10,377299,2,0,L|429:101,1,90,8|2,3:0|0:0,0:0:0:0:
509,189,377621,1,0,0:0:0:0:
441,302,377783,5,2,0:0:0:0:
359,168,377944,1,0,0:0:0:0:
317,371,378105,1,4,0:0:0:0:
337,167,378267,1,0,0:0:0:0:
170,241,378428,6,0,P|112:219|80:169,1,90,4|0,3:2|0:0,0:0:0:0:
89,90,378750,1,2,0:0:0:0:
89,90,378912,1,0,0:0:0:0:
174,39,379073,2,0,B|192:70|192:70|168:152,1,90,2|8,0:0|3:0,0:0:0:0:
260,255,379396,2,0,B|242:224|242:224|266:142,1,90,2|8,0:0|3:0,0:0:0:0:
336,216,379718,5,2,0:0:0:0:
170,241,379879,2,0,L|60:256,1,90,8|2,3:0|0:0,0:0:0:0:
39,335,380202,1,0,0:0:0:0:
39,335,380283,1,0,0:0:0:0:
39,335,380363,2,0,P|53:283|2:203,1,135,4|0,0:0|0:0,0:0:0:0:
92,85,380686,2,0,P|58:143|-9:119,1,135,4|0,0:3|0:0,0:0:0:0:
18,39,381009,6,0,B|123:25|81:95|194:78,1,180,4|2,3:2|0:0,0:0:0:0:
279,12,381492,1,0,0:0:0:0:
328,193,381654,1,2,0:0:0:0:
328,193,381976,1,2,0:0:0:0:
368,82,382138,1,8,0:0:0:0:
439,255,382299,5,2,0:0:0:0:
512,156,382460,2,0,L|419:182,1,90,8|2,3:0|0:0,0:0:0:0:
299,276,382783,1,0,0:0:0:0:
299,276,382863,1,0,0:0:0:0:
299,276,382944,2,0,P|258:225|179:216,1,135,2|0,0:0|0:0,0:0:0:0:
85,149,383267,2,0,P|150:160|191:212,1,135,4|0,0:0|0:0,0:0:0:0:
152,300,383589,6,0,L|32:324,2,90,4|0|2,3:2|0:0|0:0,0:0:0:0:
287,363,384073,1,0,0:0:0:0:
287,363,384154,1,0,0:0:0:0:
287,363,384234,2,0,P|302:305|264:227,1,135,6|0,0:0|0:0,0:0:0:0:
195,200,384557,1,2,0:0:0:0:
311,117,384718,1,12,3:0:0:0:
311,117,385041,5,8,3:0:0:0:
161,11,385202,1,2,0:0:0:0:
397,63,385444,5,0,0:0:0:0:
402,45,385525,1,0,1:0:0:0:
503,114,385686,1,0,1:0:0:0:
498,235,385847,1,0,1:0:0:0:
365,275,386009,1,0,1:0:0:0:
207,159,386170,6,0,L|16:114,1,180,4|2,3:2|0:0,0:0:0:0:
24,192,386654,1,0,0:0:0:0:
144,69,386815,1,2,0:0:0:0:
144,69,387138,1,2,0:0:0:0:
215,250,387299,1,8,0:0:0:0:
215,250,387621,5,8,3:0:0:0:
343,208,387783,1,2,0:0:0:0:
215,250,387944,1,0,0:0:0:0:
371,293,388105,2,0,B|420:303|420:303|443:329|443:329|512:342,1,135,2|0,0:0|0:0,0:0:0:0:
512,267,388428,1,4,0:0:0:0:
379,379,388589,1,0,0:0:0:0:
343,208,388750,5,4,3:2:0:0:
194,319,388912,2,0,P|142:270|145:228,1,90,8|2,0:0|0:0,0:0:0:0:
212,151,389234,1,0,0:0:0:0:
212,151,389315,1,0,0:0:0:0:
212,151,389396,2,0,B|174:181|174:181|52:154,1,135,6|0,0:0|0:0,0:0:0:0:
26,114,389718,2,0,B|-1:91|13:55|13:55|54:56|70:95,1,135,10|0,0:0|0:0,0:0:0:0:
89,162,390041,5,2,0:0:0:0:
47,305,390202,1,8,3:0:0:0:
204,373,390363,2,0,B|239:345|239:345|205:239,1,135,2|0,0:0|0:0,0:0:0:0:
302,153,390686,2,0,B|267:181|267:181|301:287,1,135,2|0,0:0|0:0,0:0:0:0:
391,323,391008,6,0,L|437:312,1,40.4999987640381,4|0,1:0|0:0,0:0:0:0:
510,291,391331,5,4,1:3:0:0:
422,211,391492,1,0,1:0:0:0:
503,101,391654,1,0,1:0:0:0:
503,101,391734,1,0,1:0:0:0:
503,101,391815,1,0,1:0:0:0:
402,217,391976,6,0,L|341:229,1,45,0|0,1:0|0:0,0:0:0:0:
252,246,392138,2,0,L|191:258,1,45,0|0,1:0|0:0,0:0:0:0:
82,282,392299,1,0,1:0:0:0:
78,292,392379,1,0,1:0:0:0:
74,303,392460,1,0,1:0:0:0:
70,313,392541,1,0,1:0:0:0:
66,324,392621,5,4,1:3:0:0:
0,212,392783,1,0,1:0:0:0:
105,78,392944,5,0,1:0:0:0:
136,66,393025,1,0,1:0:0:0:
169,71,393105,1,0,1:0:0:0:
196,90,393186,1,0,0:0:0:0:
211,120,393267,5,0,1:0:0:0:
205,152,393347,1,0,0:0:0:0:
217,183,393428,1,0,1:0:0:0:
242,206,393509,1,0,0:0:0:0:
275,214,393589,6,0,P|322:171|404:190,1,135,4|0,1:3|1:0,0:0:0:0:
451,253,393912,5,4,1:3:0:0:
451,253,394234,1,0,1:0:0:0:
484,164,394396,1,0,1:0:0:0:
377,212,394557,5,0,1:0:0:0:
419,328,394718,1,0,1:0:0:0:
290,268,394879,5,0,1:0:0:0:
340,129,395041,1,0,1:0:0:0:
196,186,395202,5,0,1:0:0:0:
256,353,395363,1,0,1:0:0:0:
103,264,395525,5,0,1:0:0:0:
166,88,395686,1,0,1:0:0:0:
21,54,395847,5,8,1:0:0:0:
4,83,395928,1,8,1:0:0:0:
0,116,396009,1,0,1:0:0:0:
8,148,396089,1,0,1:0:0:0:
27,175,396170,1,0,1:0:0:0:
56,193,396250,1,0,1:0:0:0:
89,198,396331,1,0,1:0:0:0:
122,191,396412,1,0,1:0:0:0:
149,173,396492,6,0,B|134:142|162:107|216:112|222:260|140:225|82:209|64:300|127:356|124:375|124:375|129:357|214:332|193:259,1,440.999986541748,4|4,0:0|0:0,0:0:0:0:
460,281,398105,5,2,2:3:0:0:
462,288,398186,1,0,2:2:0:0:
462,296,398267,1,0,2:2:0:0:
459,303,398347,1,0,2:2:0:0:
453,308,398428,1,2,2:3:0:0:
445,310,398509,1,0,2:2:0:0:
438,309,398589,1,0,2:2:0:0:
431,304,398670,1,0,2:2:0:0:
427,298,398750,1,2,2:3:0:0:
426,290,398831,1,2,2:2:0:0:
428,283,398912,1,10,3:2:0:0:
433,277,398992,1,10,3:2:0:0:
440,273,399073,6,0,B|370:276|315:236|315:236|272:277|153:271|153:271|243:296|276:360,1,440.999986541748,4|4,0:0|0:0,0:0:0:0:
404,186,400363,5,0,2:0:0:0:
397,179,400444,1,0,2:0:0:0:
404,172,400525,1,0,2:0:0:0:
410,179,400605,1,0,2:0:0:0:
404,186,400686,1,2,2:3:0:0:
397,179,400767,1,2,2:0:0:0:
404,172,400847,1,2,2:0:0:0:
410,179,400928,1,2,2:0:0:0:
404,179,401009,5,0,1:0:0:0:
350,175,401089,1,0,1:0:0:0:
309,139,401170,1,0,1:0:0:0:
301,85,401250,1,0,1:0:0:0:
327,38,401331,5,0,1:0:0:0:
359,37,401412,1,0,1:0:0:0:
388,49,401492,1,0,1:0:0:0:
410,71,401573,1,0,1:0:0:0:
422,99,401654,6,0,B|516:147|473:248|473:248|391:178|313:219|313:219|349:261|395:250,1,440.999986541748,4|4,0:0|0:0,0:0:0:0:
164,337,402944,5,0,2:0:0:0:
162,330,403025,1,0,2:2:0:0:
162,322,403105,1,0,2:2:0:0:
165,315,403186,1,0,2:2:0:0:
171,310,403267,1,2,2:3:0:0:
179,308,403347,1,0,2:2:0:0:
186,309,403428,1,0,2:2:0:0:
193,314,403509,1,0,2:2:0:0:
197,320,403589,1,8,1:0:0:0:
198,328,403670,1,8,1:0:0:0:
196,335,403750,6,0,L|67:317,1,125.999996154785,4|0,1:3|0:0,0:0:0:0:
0,264,404154,1,0,0:0:0:0:
0,264,404234,5,4,1:3:0:0:
116,183,404396,1,0,1:0:0:0:
0,95,404557,1,0,1:0:0:0:
10,124,404638,1,0,1:0:0:0:
140,222,404799,1,0,1:0:0:0:
130,193,404879,1,4,1:3:0:0:
224,78,405041,1,0,1:0:0:0:
299,220,405202,5,0,1:0:0:0:
330,224,405283,1,0,0:0:0:0:
361,228,405363,1,0,1:0:0:0:
392,232,405444,1,0,0:0:0:0:
423,237,405525,5,4,1:3:0:0:
352,141,405686,1,0,1:0:0:0:
408,0,405847,1,0,1:0:0:0:
479,96,406009,1,0,1:0:0:0:
335,138,406170,5,0,1:0:0:0:
288,130,406250,1,0,1:0:0:0:
241,124,406331,1,0,1:0:0:0:
194,118,406412,1,0,1:0:0:0:
147,112,406492,5,4,1:3:0:0:
21,336,406815,6,0,P|45:293|116:283,1,107.999996704102,2|0,0:2|0:0,0:0:0:0:
212,234,407138,2,0,P|164:220|107:263,1,107.999996704102,10|0,0:2|0:0,0:0:0:0:
182,358,407460,2,0,L|342:383,1,161.999995056153,2|0,3:1|0:0,0:0:0:0:
418,351,407783,1,10,0:2:0:0:
512,264,407944,6,0,B|484:240|484:240|506:166,1,107.999996704102,2|2,0:2|0:1,0:0:0:0:
415,9,408267,2,0,B|443:33|443:33|421:107,1,107.999996704102,2|8,0:2|0:0,0:0:0:0:
358,193,408589,1,2,0:2:0:0:
192,130,408750,1,2,0:1:0:0:
313,24,408912,1,2,0:2:0:0:
294,125,409073,1,10,0:2:0:0:
287,151,409154,1,0,0:0:0:0:
281,177,409234,1,0,1:0:0:0:
275,203,409315,1,0,1:0:0:0:
269,230,409396,6,0,L|135:253,1,107.999996704102,2|0,0:2|0:0,0:0:0:0:
401,125,409718,2,0,L|535:148,1,107.999996704102,10|0,0:1|0:0,0:0:0:0:
232,11,410041,2,0,B|221:-18|182:2|182:2|144:57|232:111,1,161.999995056153,2|0,0:2|0:0,0:0:0:0:
284,103,410363,1,10,0:1:0:0:
99,167,410525,6,0,P|37:185|-26:135,1,107.999996704102,2|0,0:2|0:0,0:0:0:0:
198,249,410847,2,0,P|260:231|323:281,1,107.999996704102,2|10,0:2|0:1,0:0:0:0:
132,358,411170,1,2,0:2:0:0:
99,167,411331,1,2,0:2:0:0:
133,374,411492,1,2,0:2:0:0:
7,261,411654,2,0,B|-21:235|-21:235|10:130,1,107.999996704102,10|0,0:1|0:0,0:0:0:0:
173,34,411976,6,0,L|200:151,1,107.999996704102,6|0,0:2|0:0,0:0:0:0:
240,283,412299,1,10,0:2:0:0:
240,283,412460,1,0,0:0:0:0:
314,119,412621,1,2,0:1:0:0:
314,119,412944,1,10,0:2:0:0:
378,213,413105,1,0,0:0:0:0:
460,128,413267,6,0,P|498:154|505:233,1,107.999996704102,2|0,0:1|0:0,0:0:0:0:
452,275,413589,1,10,0:2:0:0:
366,35,413750,2,0,P|328:61|321:140,1,107.999996704102,2|2,0:2|0:1,0:0:0:0:
378,213,414073,1,0,0:0:0:0:
283,326,414234,1,8,0:0:0:0:
221,158,414396,1,0,0:0:0:0:
94,339,414557,6,0,P|75:321|65:286,1,53.9999983520508,0|0,1:0|0:0,0:0:0:0:
0,237,414718,2,0,P|0:210|16:179,1,53.9999983520508,4|0,1:3|0:0,0:0:0:0:
102,132,414879,1,0,1:0:0:0:
102,132,414960,1,0,1:0:0:0:
102,132,415041,1,0,1:0:0:0:
313,7,415202,6,0,P|294:25|284:60,1,53.9999983520508,0|0,1:0|0:0,0:0:0:0:
219,109,415363,2,0,P|218:135|235:166,1,53.9999983520508,4|0,1:3|0:0,0:0:0:0:
321,214,415525,1,0,1:0:0:0:
321,214,415605,1,0,1:0:0:0:
321,214,415686,1,0,1:0:0:0:
505,367,415847,6,0,P|486:349|476:314,1,53.9999983520508,0|0,1:0|0:0,0:0:0:0:
410,264,416009,2,0,P|409:237|426:206,1,53.9999983520508,4|0,1:3|0:0,0:0:0:0:
512,113,416170,5,0,1:0:0:0:
506,125,416250,1,0,1:0:0:0:
501,137,416331,1,0,1:0:0:0:
495,150,416412,1,0,0:0:0:0:
490,162,416492,5,0,1:0:0:0:
449,167,416573,1,0,1:0:0:0:
409,172,416654,1,0,1:0:0:0:
369,178,416734,1,0,1:0:0:0:
329,183,416815,5,4,1:3:0:0:
62,82,417138,6,0,B|40:41|-14:48|-14:48|17:79,1,107.999996704102,2|0,0:2|0:0,0:0:0:0:
169,145,417460,2,0,B|191:104|245:111|245:111|214:142,1,107.999996704102,10|0,0:2|0:0,0:0:0:0:
85,235,417783,2,0,B|22:210|-30:267|-30:267|32:273,1,161.999995056153,2|0,0:1|0:0,0:0:0:0:
49,337,418105,1,10,0:2:0:0:
232,375,418267,6,0,B|204:357|204:357|182:318|216:263,1,107.999996704102,2|2,0:2|0:1,0:0:0:0:
288,112,418589,2,0,B|260:130|260:130|238:169|272:224,1,107.999996704102,2|8,0:2|0:0,0:0:0:0:
368,328,418912,1,2,0:2:0:0:
512,248,419073,1,2,0:1:0:0:
331,173,419234,1,2,0:2:0:0:
499,221,419396,1,10,0:2:0:0:
472,227,419476,1,0,0:0:0:0:
446,234,419557,1,0,0:0:0:0:
420,241,419638,1,0,0:0:0:0:
394,247,419718,6,0,B|364:220|364:220|378:146,1,107.999996704102,2|0,0:1|0:0,0:0:0:0:
234,0,420041,2,0,B|264:27|264:27|250:101,1,107.999996704102,10|0,0:2|0:0,0:0:0:0:
178,195,420363,2,0,B|123:182|123:182|80:198|80:198|6:179,1,161.999995056153,2|0,0:1|0:0,0:0:0:0:
0,103,420686,1,10,0:2:0:0:
251,93,420847,6,0,B|289:80|289:80|311:88|311:88|361:76,1,107.999996704102,2|2,0:2|0:1,0:0:0:0:
251,283,421170,2,0,B|212:270|212:270|191:278|191:278|141:266,1,107.999996704102,2|8,0:2|0:0,0:0:0:0:
340,362,421492,1,2,0:2:0:0:
469,271,421654,1,2,0:1:0:0:
292,197,421815,1,2,0:2:0:0:
512,94,421976,1,10,0:2:0:0:
510,133,422057,1,0,0:0:0:0:
487,166,422138,1,0,1:0:0:0:
450,181,422218,1,0,1:0:0:0:
411,174,422299,6,0,L|272:147,1,107.999996704102,6|0,0:2|0:0,0:0:0:0:
172,130,422621,1,10,0:2:0:0:
172,130,422783,1,0,0:0:0:0:
56,206,422944,2,0,B|87:186|87:186|60:226|92:272,1,107.999996704102,2|0,0:1|0:0,0:0:0:0:
182,280,423267,2,0,B|151:300|151:300|178:260|146:214,1,107.999996704102,10|0,0:2|0:0,0:0:0:0:
180,16,423589,6,0,P|224:26|264:79,1,107.999996704102,2|0,0:1|0:0,0:0:0:0:
253,153,423831,1,0,0:0:0:0:
253,153,423912,1,10,0:2:0:0:
331,25,424073,1,2,0:2:0:0:
418,232,424234,1,2,0:1:0:0:
418,232,424396,1,0,0:0:0:0:
494,84,424557,2,0,B|472:62|442:64|442:64|420:79|431:125,1,107.999996704102,8|0,0:0|0:0,0:0:0:0:
492,163,424879,5,2,1:1:0:0:
492,163,425041,1,0,1:0:0:0:
418,232,425202,2,0,B|386:224|370:207|370:207|342:197|313:209,1,107.999996704102,12|0,0:0|0:0,0:0:0:0:
59,98,425525,5,2,1:1:0:0:
59,98,425686,1,0,1:0:0:0:
133,167,425847,2,0,B|165:159|181:142|181:142|209:132|238:144,1,107.999996704102,12|0,0:0|0:0,0:0:0:0:
473,0,426170,5,2,1:1:0:0:
473,0,426331,1,0,1:0:0:0:
399,69,426492,2,0,B|367:61|351:44|351:44|323:34|294:46,1,107.999996704102,12|0,0:0|0:0,0:0:0:0:
90,19,426815,5,2,1:1:0:0:
214,173,426976,1,0,1:0:0:0:
214,173,427057,1,0,0:0:0:0:
214,173,427138,5,8,1:0:0:0:
236,139,427218,1,0,1:0:0:0:
236,99,427299,1,0,1:0:0:0:
214,66,427379,1,0,1:0:0:0:
177,50,427460,5,2,3:0:0:0:
147,80,427541,1,0,0:0:0:0:
135,121,427621,1,0,0:0:0:0:
143,163,427702,1,0,0:0:0:0:
171,196,427783,1,10,3:0:0:0:
211,213,427863,1,0,0:0:0:0:
252,203,427944,1,0,0:0:0:0:
293,215,428025,1,0,0:0:0:0:
321,247,428105,1,2,3:0:0:0:
329,289,428186,1,0,0:0:0:0:
315,329,428267,1,0,0:0:0:0:
277,348,428347,1,0,0:0:0:0:
235,341,428428,1,10,3:0:0:0:
205,310,428509,1,0,0:0:0:0:
199,268,428589,6,0,L|273:250,3,53.9999983520508,0|0|2|0,0:0|0:0|3:0|0:0,0:0:0:0:
311,154,428912,2,0,L|258:167,3,53.9999983520508,0|0|10|0,0:0|0:0|3:0|0:0,0:0:0:0:
379,247,429234,6,0,L|392:163,1,53.9999983520508,0|0,0:0|0:0,0:0:0:0:
501,187,429396,2,0,L|514:103,1,53.9999983520508,2|0,3:0|0:0,0:0:0:0:
344,53,429557,2,0,L|357:-31,1,53.9999983520508,0|0,0:0|0:0,0:0:0:0:
455,83,429718,5,10,3:0:0:0:
464,136,429799,1,0,0:0:0:0:
474,189,429879,1,0,0:0:0:0:
484,242,429960,1,0,0:0:0:0:
494,295,430041,5,2,3:0:0:0:
464,264,430121,1,0,0:0:0:0:
423,251,430202,1,0,0:0:0:0:
381,257,430283,1,0,0:0:0:0:
346,282,430363,1,10,3:0:0:0:
311,306,430444,1,0,0:0:0:0:
268,311,430525,1,0,0:0:0:0:
229,294,430605,1,0,0:0:0:0:
203,259,430686,1,2,3:0:0:0:
198,217,430767,1,0,0:0:0:0:
213,177,430847,1,0,0:0:0:0:
247,151,430928,1,0,0:0:0:0:
290,148,431009,1,10,3:0:0:0:
328,166,431089,1,0,0:0:0:0:
356,198,431170,6,0,P|359:175|377:133,3,53.9999983520508,0|0|2|0,0:0|0:0|3:0|0:0,0:0:0:0:
298,8,431492,2,0,P|295:31|277:73,3,53.9999983520508,0|0|10|0,0:0|0:0|3:0|0:0,0:0:0:0:
196,101,431815,6,0,L|121:110,1,53.9999983520508,0|0,0:0|0:0,0:0:0:0:
53,210,431976,2,0,L|-22:219,1,53.9999983520508,2|0,3:0|0:0,0:0:0:0:
264,319,432138,2,0,L|189:328,1,53.9999983520508,0|0,0:0|0:0,0:0:0:0:
105,370,432299,5,10,3:0:0:0:
99,316,432379,1,0,0:0:0:0:
118,267,432460,1,0,0:0:0:0:
160,234,432541,1,0,0:0:0:0:
213,226,432621,5,2,3:0:0:0:
220,268,432702,1,0,0:0:0:0:
246,301,432783,1,0,0:0:0:0:
285,319,432863,1,0,0:0:0:0:
328,315,432944,1,10,3:0:0:0:
364,292,433025,1,0,0:0:0:0:
386,256,433105,1,0,0:0:0:0:
426,241,433186,1,0,0:0:0:0:
467,253,433267,1,2,3:0:0:0:
492,287,433347,1,0,0:0:0:0:
491,329,433428,1,0,0:0:0:0:
464,363,433509,1,0,0:0:0:0:
423,373,433589,1,10,3:0:0:0:
384,357,433670,1,0,0:0:0:0:
361,321,433750,1,0,0:0:0:0:
365,279,433831,1,0,0:0:0:0:
402,255,433912,5,2,3:0:0:0:
440,235,433992,1,0,0:0:0:0:
465,200,434073,1,0,0:0:0:0:
472,158,434154,1,0,0:0:0:0:
459,117,434234,5,10,3:0:0:0:
417,105,434315,1,0,0:0:0:0:
375,114,434396,1,0,0:0:0:0:
342,140,434476,1,0,0:0:0:0:
324,180,434557,5,2,3:0:0:0:
282,169,434638,1,0,0:0:0:0:
249,142,434718,1,0,0:0:0:0:
232,103,434799,1,0,0:0:0:0:
235,59,434879,6,0,L|334:42,1,80.9999975280763,10|0,3:0|0:0,0:0:0:0:
397,28,435202,5,4,3:2:0:0:
97,142,435525,1,0,1:0:0:0:
60,124,435605,1,0,1:0:0:0:
37,92,435686,1,0,1:0:0:0:
33,52,435767,1,0,1:0:0:0:
48,15,435847,1,4,1:3:0:0:
143,263,436170,5,0,1:0:0:0:
104,276,436250,1,0,1:0:0:0:
65,270,436331,1,0,1:0:0:0:
34,244,436412,1,0,1:0:0:0:
18,207,436492,1,4,1:3:0:0:
224,131,436815,6,0,L|237:184,1,53.9999983520508,4|0,1:3|0:0,0:0:0:0:
263,296,436976,1,0,1:0:0:0:
263,296,437057,1,0,1:0:0:0:
263,296,437138,5,0,1:0:0:0:
301,305,437218,1,0,1:0:0:0:
340,294,437299,1,8,1:0:0:0:
368,266,437379,1,8,1:0:0:0:
379,228,437460,1,4,1:3:0:0:
495,14,437783,5,0,1:3:0:0:
373,106,438025,1,8,1:3:0:0:
362,81,438105,1,8,1:3:0:0:
174,94,438267,5,0,1:3:0:0:
278,209,438509,1,8,1:3:0:0:
289,184,438589,1,8,1:3:0:0:
299,159,438670,5,0,1:3:0:0:
392,280,438831,1,0,1:3:0:0:
392,280,438992,1,0,1:3:0:0:
444,166,439154,5,0,1:3:0:0:
509,334,439315,1,0,1:3:0:0:
482,340,439396,1,0,1:3:0:0:
331,381,439557,1,0,1:3:0:0:
199,254,439718,1,4,1:1:0:0:
271,109,439879,1,0,1:3:0:0:
271,109,439960,1,0,1:3:0:0:
271,109,440041,5,0,0:0:0:0:
230,104,440121,1,0,1:3:0:0:
190,99,440202,1,0,1:3:0:0:
150,94,440283,1,0,1:3:0:0:
110,89,440363,5,4,1:3:0:0:
378,59,440525,1,8,1:3:0:0:
378,59,440605,1,8,1:3:0:0:
378,59,440686,1,4,1:3:0:0:
102,180,440847,1,8,1:3:0:0:
102,180,440928,1,8,1:3:0:0:
102,180,441009,1,4,1:3:0:0:
428,261,441170,1,8,1:3:0:0:
428,261,441250,1,8,1:3:0:0:
428,261,441331,1,4,1:3:0:0:
256,368,441492,1,8,1:3:0:0:
183,268,441655,5,4,1:3:0:0:
340,189,441811,1,0,1:3:0:0:
335,162,441889,1,0,1:3:0:0:
330,135,441967,1,0,1:3:0:0:
325,109,442047,1,0,1:3:0:0:
320,82,442128,1,0,1:3:0:0:
315,56,442208,1,0,1:3:0:0:
309,30,442289,5,0,1:3:0:0:
365,17,442397,1,0,1:3:0:0:
412,51,442504,1,0,1:3:0:0:
417,109,442612,5,0,1:3:0:0:
398,163,442723,1,0,1:3:0:0:
427,213,442834,1,0,1:3:0:0:
485,223,442945,5,4,1:3:0:0:
352,320,443211,5,0,1:3:0:0:
307,325,443345,5,8,1:3:0:0:
262,331,443495,5,8,1:3:0:0:
218,336,443652,5,8,1:3:0:0:
173,342,443798,5,4,1:1:0:0:
192,215,444206,5,4,1:1:0:0:
222,47,444806,5,4,1:1:0:0:
56,321,445606,6,0,B|114:312|163:362|163:362|93:285|116:222|116:222|39:212|-16:153|10:34|10:34|116:75|38:104|99:149,1,675,4|0,1:3|0:0,0:0:0:0:
242,79,449433,1,4,3:3:0:0:
476,358,453013,5,4,1:1:0:0:
476,358,453260,1,8,0:0:0:0:
383,303,453383,6,0,B|318:318|278:273|278:273|245:312|187:307|187:307|163:229|225:204,1,337.5,4|0,0:0|0:0,0:0:0:0:
353,214,455359,1,4,0:0:0:0:
503,131,455729,5,4,1:1:0:0:
449,53,456099,5,4,1:1:0:0:
327,42,456470,5,4,1:1:0:0:
247,166,456840,5,4,1:1:0:0:
46,110,457210,5,8,1:1:0:0:
106,53,457334,2,0,B|147:92|120:153|120:153|114:205|114:205|66:236|76:293|76:293|98:251|137:247,1,337.5,4|0,0:0|0:0,0:0:0:0:
145,319,459309,1,4,0:0:0:0:
506,286,460667,5,4,0:0:0:0:
386,225,460914,1,0,1:0:0:0:
389,202,460976,1,0,1:0:0:0:
392,180,461038,1,0,1:0:0:0:
395,158,461099,1,0,1:0:0:0:
398,135,461161,1,8,1:0:0:0:
512,82,461285,6,0,B|428:67|428:67|400:20|400:20|307:-4,1,215.999993408203,4|0,0:2|0:0,0:0:0:0:
264,190,461655,2,0,B|298:172|298:172|274:86,1,107.999996704102,8|0,0:0|0:0,0:0:0:0:
188,9,461902,1,2,0:0:0:0:
188,9,462025,1,0,0:0:0:0:
96,113,462149,2,0,P|32:116|-11:72,1,107.999996704102,8|0,0:0|0:0,0:0:0:0:
188,9,462396,5,2,0:0:0:0:
188,9,462519,1,0,0:0:0:0:
264,190,462643,2,0,P|308:161|360:167,1,107.999996704102,8|0,0:0|0:0,0:0:0:0:
465,297,462889,1,2,0:0:0:0:
492,146,463013,1,0,0:0:0:0:
462,317,463136,1,8,0:0:0:0:
391,91,463260,6,0,L|157:48,1,215.999993408203,0|0,0:0|0:0,0:0:0:0:
2,2,463630,2,0,B|14:41|14:41|35:52|35:52|52:110,1,107.999996704102,8|0,0:0|0:0,0:0:0:0:
0,205,463877,1,2,0:0:0:0:
0,205,464001,1,0,0:0:0:0:
70,343,464124,2,0,B|82:303|82:303|103:293|103:293|120:235,1,107.999996704102,8|0,0:0|0:0,0:0:0:0:
187,180,464371,5,2,0:0:0:0:
187,180,464494,1,0,0:0:0:0:
241,3,464618,2,0,B|253:42|253:42|274:53|274:53|291:111,1,107.999996704102,8|0,0:0|0:0,0:0:0:0:
398,221,464865,1,2,0:0:0:0:
511,129,464988,1,0,0:0:0:0:
367,76,465112,1,8,0:0:0:0:
464,0,465235,6,0,B|502:155|502:155|464:98,1,215.999993408203,4|0,0:2|0:0,0:0:0:0:
306,260,465606,2,0,B|285:178|285:178|306:208,1,107.999996704102,8|0,0:0|0:0,0:0:0:0:
380,351,465852,1,2,0:0:0:0:
380,351,465976,1,0,0:0:0:0:
481,201,466099,2,0,B|501:119|501:119|481:149,1,107.999996704102,8|0,0:0|0:0,0:0:0:0:
398,221,466346,5,2,0:0:0:0:
398,221,466470,1,0,0:0:0:0:
311,25,466593,2,0,B|290:106|290:106|311:76,1,107.999996704102,8|0,0:0|0:0,0:0:0:0:
222,213,466840,1,2,0:0:0:0:
127,118,466964,1,0,0:0:0:0:
31,291,467087,1,8,0:0:0:0:
6,161,467210,6,0,P|81:178|116:302,1,215.999993408203,0|0,0:0|0:0,0:0:0:0:
215,348,467581,2,0,P|202:288|248:248,1,107.999996704102,8|0,0:0|0:0,0:0:0:0:
323,203,467828,1,2,0:0:0:0:
323,203,467951,1,0,0:0:0:0:
320,384,468075,2,0,P|366:344|354:284,1,107.999996704102,8|0,0:0|0:0,0:0:0:0:
323,203,468322,5,2,0:0:0:0:
323,203,468445,1,0,0:0:0:0:
197,55,468568,2,0,P|184:114|230:154,1,107.999996704102,8|0,0:0|0:0,0:0:0:0:
415,168,468815,1,2,0:0:0:0:
382,12,468939,1,0,0:0:0:0:
419,187,469062,1,8,0:0:0:0:
512,55,469186,6,0,B|419:76|419:76|408:86|408:86|289:110,1,215.999993408203,4|0,0:2|0:0,0:0:0:0:
133,94,469556,2,0,B|156:77|156:77|203:89|193:155,1,107.999996704102,8|0,0:0|0:0,0:0:0:0:
111,206,469803,1,2,0:0:0:0:
111,206,469926,1,0,0:0:0:0:
193,282,470050,2,0,B|196:310|196:310|162:345|110:303,1,107.999996704102,8|0,0:0|0:0,0:0:0:0:
111,206,470297,5,2,0:0:0:0:
111,206,470420,1,0,0:0:0:0:
0,241,470544,2,0,B|-26:229|-26:229|-39:182|22:158,1,107.999996704102,8|0,0:0|0:0,0:0:0:0:
236,175,470791,1,2,0:0:0:0:
111,206,470914,1,0,0:0:0:0:
70,36,471038,1,8,0:0:0:0:
166,123,471161,6,0,L|137:338,1,215.999993408203,0|0,0:0|0:0,0:0:0:0:
320,384,471531,2,0,B|308:343|308:343|297:332|297:332|282:276,1,107.999996704102,8|0,0:0|0:0,0:0:0:0:
413,279,471778,1,2,0:0:0:0:
413,279,471902,1,0,0:0:0:0:
240,150,472025,2,0,B|281:160|281:160|296:156|296:156|352:171,1,107.999996704102,8|0,0:0|0:0,0:0:0:0:
284,283,472272,5,2,0:0:0:0:
284,283,472396,1,0,0:0:0:0:
481,197,472519,2,0,B|451:227|451:227|447:242|447:242|406:283,1,107.999996704102,8|0,0:0|0:0,0:0:0:0:
321,59,472766,5,2,0:0:0:0:
410,169,472889,1,0,0:0:0:0:
454,0,473013,1,8,0:0:0:0:
316,79,473136,6,0,B|276:79|241:107|241:107|217:98|189:100|189:100|146:128|100:128,1,215.999993408203,4|0,0:2|0:0,0:0:0:0:
15,185,473507,2,0,B|14:171|-7:149|-7:149|-17:119|12:79,1,107.999996704102,8|0,0:0|0:0,0:0:0:0:
110,228,473754,1,2,0:0:0:0:
110,228,473877,1,0,0:0:0:0:
198,266,474001,2,0,B|199:280|220:302|220:302|230:332|201:372,1,107.999996704102,8|0,0:0|0:0,0:0:0:0:
110,228,474247,5,2,0:0:0:0:
110,228,474371,1,0,0:0:0:0:
15,185,474494,2,0,B|14:171|-7:149|-7:149|-17:119|12:79,1,107.999996704102,8|0,0:0|0:0,0:0:0:0:
227,101,474741,1,2,0:0:0:0:
78,129,474865,1,0,0:0:0:0:
241,105,474988,1,8,0:0:0:0:
107,0,475112,6,0,B|75:28|75:28|200:5|200:5|248:40,1,215.999993408203,0|0,0:0|0:0,0:0:0:0:
350,215,475482,2,0,B|383:208|383:208|403:122,1,107.999996704102,8|0,0:0|0:0,0:0:0:0:
345,55,475729,1,2,0:0:0:0:
345,55,475852,1,0,0:0:0:0:
464,0,475976,2,0,B|491:20|491:20|471:106,1,107.999996704102,8|0,0:0|0:0,0:0:0:0:
345,55,476223,5,2,0:0:0:0:
345,55,476346,1,0,0:0:0:0:
191,0,476470,2,0,B|164:21|164:21|189:106,1,107.999996704102,8|0,0:0|0:0,0:0:0:0:
233,275,476717,5,2,0:0:0:0:
264,161,476840,1,0,0:0:0:0:
89,31,476964,1,8,0:0:0:0:
58,145,477087,1,0,0:0:0:0:
353,73,478198,5,0,1:0:0:0:
379,67,478260,1,0,1:0:0:0:
405,61,478322,1,0,1:0:0:0:
432,56,478383,1,0,1:0:0:0:
458,50,478445,1,8,1:0:0:0:
291,190,478568,6,0,B|244:149|244:149|282:-2,1,215.999993408203,4|0,0:2|0:0,0:0:0:0:
52,114,478938,2,0,B|67:137|67:137|151:122,1,107.999996704102,8|0,0:2|0:0,0:0:0:0:
220,270,479185,1,2,0:0:0:0:
220,270,479309,1,0,0:0:0:0:
223,125,479432,2,0,B|208:102|208:102|124:117,1,107.999996704102,8|0,0:0|0:0,0:0:0:0:
68,199,479679,6,0,B|57:248|57:248|46:255|46:255|29:322,1,107.999996704102,2|0,0:0|0:0,0:0:0:0:
130,359,479926,1,8,0:0:0:0:
220,270,480050,2,0,P|269:270|323:195,1,107.999996704102,0|2,0:0|0:0,0:0:0:0:
144,127,480296,2,0,P|95:127|41:52,1,107.999996704102,0|8,0:0|0:0,0:0:0:0:
249,0,480543,6,0,P|339:46|332:152,1,215.999993408203,0|0,0:0|0:0,0:0:0:0:
415,250,480914,2,0,B|435:226|466:227|466:227|492:248|541:240,1,107.999996704102,8|0,0:0|0:0,0:0:0:0:
404,375,481161,1,2,0:0:0:0:
404,375,481284,1,0,0:0:0:0:
366,180,481408,2,0,B|346:156|315:157|315:157|289:178|240:170,1,107.999996704102,8|0,0:0|0:0,0:0:0:0:
123,347,481654,6,0,B|97:324|97:324|83:290|122:255,1,107.999996704102,2|0,0:0|0:0,0:0:0:0:
221,238,481901,1,8,0:0:0:0:
0,149,482025,2,0,B|20:166|20:166|115:136,1,107.999996704102,0|2,0:0|0:0,0:0:0:0:
193,6,482272,2,0,B|173:-11|173:-11|78:19,1,107.999996704102,0|8,0:0|0:0,0:0:0:0:
217,139,482519,6,0,L|413:175,1,180,4|0,0:2|0:0,0:0:0:0:
495,21,482889,2,0,B|448:-5|448:-5|367:23|406:116,1,180,10|2,0:2|0:0,0:0:0:0:
488,142,483259,1,0,0:0:0:0:
488,142,483383,1,10,0:2:0:0:
383,262,483506,6,0,P|350:233|356:171,1,90,2|2,0:2|0:0,0:0:0:0:
476,131,483753,2,0,P|509:160|503:222,1,90,2|8,0:2|0:0,0:0:0:0:
409,361,484000,2,0,L|318:346,1,90,2|2,0:2|0:0,0:0:0:0:
233,251,484247,1,0,0:0:0:0:
183,374,484371,1,10,0:2:0:0:
51,301,484494,6,0,B|17:274|17:274|37:117,1,180,4|0,0:3|0:1,0:0:0:0:
123,0,484864,2,0,B|101:17|101:17|114:116,1,90,8|0,0:1|0:1,0:0:0:0:
246,172,485111,1,2,0:1:0:0:
246,172,485235,1,0,0:1:0:0:
391,119,485358,2,0,P|391:56|355:9,1,90,8|0,0:1|0:1,0:0:0:0:
349,257,485605,6,0,L|464:272,1,90,2|0,0:1|0:1,0:0:0:0:
145,144,485852,2,0,L|30:159,1,90,10|0,0:2|0:1,0:0:0:0:
309,84,486099,1,2,0:1:0:0:
246,172,486222,1,0,0:1:0:0:
220,4,486346,1,8,0:1:0:0:
409,117,486469,6,0,B|422:83|450:77|450:77|412:51|403:-8|403:-8|381:29|331:60,1,215.999993408203,4|0,0:2|0:0,0:0:0:0:
412,193,486840,2,0,B|444:193|462:175|462:175|493:171|522:200,1,107.999996704102,8|0,0:0|0:0,0:0:0:0:
428,293,487087,1,2,0:0:0:0:
189,384,487333,2,0,P|197:331|174:282,1,107.999996704102,8|0,0:0|0:0,0:0:0:0:
0,223,487580,6,0,B|40:266|40:266|116:255,1,107.999996704102,2|0,0:0|0:0,0:0:0:0:
72,174,487827,1,8,0:0:0:0:
180,94,487951,2,0,B|155:114|151:153|151:153|146:122|118:98,1,107.999996704102,0|2,0:0|0:0,0:0:0:0:
25,40,488198,2,0,B|50:60|54:99|54:99|59:68|87:44,1,107.999996704102,0|8,0:0|0:0,0:0:0:0:
231,154,488445,6,0,B|269:160|291:143|291:143|326:135|326:135|390:175|443:120,1,215.999993408203,4|0,0:2|0:0,0:0:0:0:
420,17,488815,2,0,B|393:1|353:2|353:2|378:13|387:46,1,107.999996704102,8|0,0:0|0:0,0:0:0:0:
456,130,489062,2,0,B|483:114|523:115|523:115|498:126|489:159,1,107.999996704102,2|0,0:0|0:0,0:0:0:0:
375,233,489309,2,0,B|348:217|308:218|308:218|333:229|342:262,1,107.999996704102,8|0,0:0|0:0,0:0:0:0:
275,384,489556,6,0,B|296:364|296:364|267:276,1,107.999996704102,2|0,0:0|0:0,0:0:0:0:
330,113,489803,1,8,0:0:0:0:
262,164,489926,2,0,B|232:186|232:186|135:153,1,107.999996704102,0|2,0:0|0:0,0:0:0:0:
9,52,490173,2,0,B|39:30|39:30|136:63,1,107.999996704102,0|8,0:0|0:0,0:0:0:0:
0,172,490420,6,0,L|178:133,1,180,4|0,0:2|0:0,0:0:0:0:
237,58,490790,1,8,0:0:0:0:
424,238,491037,1,2,0:0:0:0:
501,175,491161,1,0,0:0:0:0:
446,92,491284,1,8,0:0:0:0:
122,238,491531,5,2,0:0:0:0:
67,321,491654,1,0,0:0:0:0:
144,384,491778,1,10,0:2:0:0:
228,134,492025,5,2,0:0:0:0:
131,114,492148,1,0,0:0:0:0:
34,90,492272,1,10,0:2:0:0:
132,81,492395,6,0,B|166:84|203:73|203:73|238:81|238:81|264:61|319:59,1,180,4|0,0:3|0:1,0:0:0:0:
436,48,492766,2,0,B|406:46|389:37|389:37|383:11|355:-5,1,90,8|0,0:1|0:1,0:0:0:0:
321,149,493012,1,2,0:1:0:0:
321,149,493136,1,0,0:1:0:0:
425,195,493259,2,0,B|455:193|472:184|472:184|478:158|506:142,1,90,8|0,0:1|0:1,0:0:0:0:
350,324,493506,5,2,0:1:0:0:
350,324,493630,1,0,0:1:0:0:
235,200,493753,2,0,B|210:220|210:220|233:303,1,90,8|0,0:1|0:1,0:0:0:0:
321,149,494000,1,2,0:1:0:0:
321,149,494124,1,0,0:1:0:0:
203,82,494247,1,8,0:1:0:0:
319,18,494371,6,0,B|394:30|394:30|418:56|418:56|493:75,1,180,4|0,0:3|0:3,0:0:0:0:
151,153,494741,2,0,L|29:175,1,107.999996704102,8|0,0:0|0:0,0:0:0:0:
339,112,494988,2,0,B|372:270|372:270|322:213,1,215.999993408203,2|8,0:0|0:0,0:0:0:0:
28,0,495482,6,0,P|70:16|89:77,1,107.999996704102,2|0,0:0|0:0,0:0:0:0:
64,188,495729,1,8,0:0:0:0:
243,167,495852,2,0,B|153:145|153:145|178:171,1,107.999996704102,0|2,0:0|0:0,0:0:0:0:
0,321,496099,2,0,B|90:299|90:299|65:325,1,107.999996704102,0|8,0:0|0:0,0:0:0:0:
238,384,496346,6,0,B|202:322|242:260|242:260|285:257|325:216,1,215.999993408203,4|0,0:2|0:0,0:0:0:0:
398,123,496716,2,0,B|425:207|425:207|447:218,1,107.999996704102,8|0,0:0|0:0,0:0:0:0:
289,92,496963,2,0,B|262:8|262:8|240:-3,1,107.999996704102,2|0,0:0|0:0,0:0:0:0:
464,12,497210,2,0,B|408:10|408:10|333:45,1,107.999996704102,8|0,0:0|0:0,0:0:0:0:
147,124,497457,6,0,B|125:106|125:106|177:102|229:161,1,107.999996704102,2|0,0:0|0:0,0:0:0:0:
282,229,497704,1,8,0:0:0:0:
398,123,497827,2,0,B|410:164|410:164|430:176|430:176|448:244,1,107.999996704102,0|2,0:0|0:0,0:0:0:0:
318,384,498074,2,0,B|328:343|328:343|348:331|348:331|360:290,1,107.999996704102,0|8,0:0|0:0,0:0:0:0:
195,212,498321,6,0,B|128:175|70:241|70:241|111:268,1,180,6|0,0:2|0:0,0:0:0:0:
190,297,498692,1,8,0:0:0:0:
415,101,498938,1,2,0:0:0:0:
450,193,499062,1,0,0:0:0:0:
415,101,499185,1,8,0:0:0:0:
204,0,499432,5,2,0:0:0:0:
169,92,499556,1,0,0:0:0:0:
204,0,499679,1,8,0:0:0:0:
40,215,499926,5,2,0:0:0:0:
136,192,500050,1,0,0:0:0:0:
194,271,500173,1,10,0:2:0:0:
287,184,500296,6,0,L|322:368,1,180,6|0,0:2|0:0,0:0:0:0:
391,282,500667,1,8,0:1:0:0:
184,361,500914,1,2,0:1:0:0:
101,306,501037,1,0,0:1:0:0:
194,271,501161,1,8,0:1:0:0:
325,198,501408,5,2,0:1:0:0:
408,143,501531,1,0,0:1:0:0:
315,108,501654,1,8,0:1:0:0:
23,17,501901,5,2,0:1:0:0:
49,112,502025,1,0,0:1:0:0:
79,205,502148,1,10,0:2:0:0:
35,39,502272,6,0,B|-8:86|-8:86|176:48,1,215.999993408203,4|0,0:2|0:0,0:0:0:0:
260,92,502642,2,0,B|235:77|235:77|250:-5,1,107.999996704102,8|0,0:0|0:0,0:0:0:0:
315,185,502889,1,2,0:0:0:0:
315,185,503012,1,0,0:0:0:0:
211,211,503136,2,0,B|169:221|169:221|152:248|152:248|106:261,1,107.999996704102,8|0,0:0|0:0,0:0:0:0:
385,381,503383,5,2,0:0:0:0:
431,364,503465,1,0,0:0:0:0:
455,321,503547,1,0,0:0:0:0:
445,273,503630,1,8,0:0:0:0:
271,288,503753,2,0,L|392:309,1,107.999996704102,0|2,0:0|0:0,0:0:0:0:
501,159,504000,2,0,L|380:180,1,107.999996704102,0|8,0:0|0:0,0:0:0:0:
253,0,504247,6,0,B|314:53|314:53|296:191,1,215.999993408203,4|0,0:2|0:0,0:0:0:0:
165,136,504617,2,0,B|98:118|126:162|52:141,1,107.999996704102,8|0,0:0|0:0,0:0:0:0:
310,205,504864,2,0,B|377:187|349:231|423:210,1,107.999996704102,2|0,0:0|0:0,0:0:0:0:
234,375,505111,1,8,0:0:0:0:
148,304,505235,6,0,B|123:286|123:286|143:203,1,107.999996704102,4|0,0:2|0:0,0:0:0:0:
39,54,505482,1,0,1:0:0:0:
144,76,505605,1,0,1:0:0:0:
227,98,505729,1,0,1:0:0:0:
289,113,505852,1,0,1:0:0:0:
330,125,505975,1,0,1:0:0:0:
350,131,506099,1,2,1:2:0:0:
360,134,506222,1,0,1:0:0:0:
443,103,506346,5,2,3:0:0:0:
399,233,506469,2,0,B|373:211|373:211|388:141,1,90,8|2,3:0|3:0,0:0:0:0:
233,130,506716,1,0,0:0:0:0:
277,0,506840,2,0,B|303:22|303:22|288:92,1,90,10|0,0:0|0:0,0:0:0:0:
128,1,507087,1,0,3:0:0:0:
20,83,507210,6,0,B|12:72|-13:68|-13:68|43:47|100:118|64:173,1,180,12|0,3:0|0:0,0:0:0:0:
19,228,507580,1,2,3:0:0:0:
19,228,507827,1,0,1:0:0:0:
81,330,507951,1,0,1:0:0:0:
160,163,508074,1,0,1:0:0:0:
214,293,508198,6,0,B|280:281|280:281|310:294|310:294|413:275,1,180,4|0,3:2|0:0,0:0:0:0:
468,334,508568,1,2,0:0:0:0:
480,135,508815,2,0,B|495:105|489:72|489:72|515:82|522:112,1,90,12|0,0:0|0:0,0:0:0:0:
417,16,509062,2,0,B|402:46|407:78|407:78|381:68|374:38,1,90,8|0,0:0|0:0,0:0:0:0:
387,198,509309,5,0,1:0:0:0:
335,226,509391,1,0,0:0:0:0:
279,212,509473,1,0,0:0:0:0:
248,162,509556,1,8,1:3:0:0:
250,102,509638,1,0,0:0:0:0:
211,59,509720,1,0,0:0:0:0:
152,53,509803,6,0,L|72:73,2,60,0|0|0,1:0|0:0|0:0,0:0:0:0:
0,137,510050,2,0,L|80:157,2,60,0|0|0,1:0|0:0|0:0,0:0:0:0:
149,140,510296,6,0,L|181:311,1,135,4|0,3:2|0:0,0:0:0:0:
173,272,510543,2,0,B|204:256|204:256|271:268,1,90,10|0,3:3|0:0,0:0:0:0:
409,367,510790,5,2,0:2:0:0:
409,367,510914,1,0,0:0:0:0:
450,235,511037,2,0,B|524:267|524:267|483:283,1,107.999996704102,10|0,3:3|0:0,0:0:0:0:
409,367,511284,5,2,0:2:0:0:
409,367,511408,1,0,0:0:0:0:
322,224,511531,2,0,B|385:174|385:174|379:218,1,116.999994644165,10|0,3:3|0:0,0:0:0:0:
409,367,511778,5,2,0:2:0:0:
409,367,511901,1,0,0:0:0:0:
309,304,512025,1,10,3:3:0:0:
196,329,512148,6,0,B|2:379|2:379|75:317,1,270.000010299683,6|0,0:2|0:0,0:0:0:0:
104,248,512519,2,0,B|119:148|119:148|82:120,1,135.000005149842,10|0,3:3|0:0,0:0:0:0:
0,0,512766,2,0,B|-15:100|-15:100|22:128,1,135.000005149842,0|0,0:0|0:0,0:0:0:0:
140,33,513012,1,10,3:3:0:0:
264,146,513136,6,0,B|317:165|317:165|473:126|473:126|398:197,1,270.000010299683,4|0,0:2|0:0,0:0:0:0:
359,77,513506,2,0,B|325:57|325:57|332:-1|332:-1|374:29,1,135.000005149842,10|0,3:3|0:0,0:0:0:0:
393,220,513753,2,0,B|427:240|427:240|420:298|420:298|378:268,1,135.000005149842,0|0,0:0|0:0,0:0:0:0:
277,244,514000,1,10,3:3:0:0:
277,244,514124,1,0,0:0:0:0:
138,379,514247,5,0,1:0:0:0:
132,349,514329,1,0,1:0:0:0:
127,319,514412,1,0,1:0:0:0:
122,290,514494,1,0,1:0:0:0:
117,260,514576,1,0,1:0:0:0:
112,231,514659,1,0,1:0:0:0:
107,201,514741,1,4,1:3:0:0:
0,67,514988,5,0,1:0:0:0:
28,76,515070,1,0,1:0:0:0:
58,76,515152,1,0,1:0:0:0:
86,67,515235,1,0,1:0:0:0:
111,50,515317,1,0,1:0:0:0:
129,27,515399,1,0,1:0:0:0:
140,0,515482,1,4,1:3:0:0:
223,141,515729,5,0,1:0:0:0:
267,150,515811,1,0,1:0:0:0:
311,159,515893,1,0,1:0:0:0:
355,169,515975,1,4,1:3:0:0:
468,352,516222,5,0,1:0:0:0:
468,324,516305,1,0,1:0:0:0:
490,338,516387,1,0,1:0:0:0:
462,358,516469,1,0,1:0:0:0:
462,316,516552,1,0,1:0:0:0:
498,337,516634,1,0,1:0:0:0:
474,337,516716,1,4,1:3:0:0:
266,273,516963,5,0,1:0:0:0:
266,247,517045,1,0,1:0:0:0:
244,260,517128,1,0,1:0:0:0:
269,280,517210,1,0,1:0:0:0:
269,238,517292,1,0,1:0:0:0:
233,259,517375,1,0,1:0:0:0:
257,259,517457,1,4,1:3:0:0:
423,139,517704,5,0,1:0:0:0:
423,97,517786,1,0,1:0:0:0:
459,118,517868,1,0,1:0:0:0:
435,118,517951,1,4,1:3:0:0:
209,76,518198,6,0,B|110:59|110:59|76:14,1,135,4|0,3:2|0:0,0:0:0:0:
89,31,518445,2,0,B|41:19|41:19|-9:51,1,90,10|0,3:1|0:0,0:0:0:0:
65,143,518692,5,2,0:2:0:0:
65,143,518815,1,0,0:0:0:0:
147,219,518938,2,0,B|104:232|104:232|92:248|92:248|39:269,1,107.999996704102,10|0,3:1|0:0,0:0:0:0:
272,246,519185,5,2,0:2:0:0:
272,246,519309,1,0,0:0:0:0:
190,322,519432,2,0,B|233:335|233:335|245:351|245:351|296:366,1,116.999994644165,10|0,3:1|0:0,0:0:0:0:
502,369,519679,6,0,B|498:228|399:319|397:153,1,251.999992309571,2|10,0:2|3:1,0:0:0:0:
462,0,520050,6,0,B|494:32|494:32|383:0|383:0|273:18,1,270.000010299683,6|0,0:2|0:0,0:0:0:0:
277,212,520420,2,0,B|177:232|177:232|204:198,1,135.000005149842,10|0,3:1|0:0,0:0:0:0:
210,100,520667,1,0,0:0:0:0:
210,100,520790,1,0,0:0:0:0:
145,23,520914,2,0,B|45:3|45:3|72:37,1,135.000005149842,10|0,3:1|0:0,0:0:0:0:
326,296,521161,6,0,B|370:269|370:269|336:101,1,202.500007724762,0|0,0:0|0:0,0:0:0:0:
340,121,521408,2,0,B|436:100|436:100|412:139,1,135.000005149842,10|0,3:1|0:0,0:0:0:0:
256,192,521654,1,2,0:2:0:0:
256,192,521778,1,0,0:0:0:0:
154,140,521901,2,0,P|121:72|159:12,1,135.000005149842,10|0,3:1|0:0,0:0:0:0:
379,57,522148,5,4,1:3:0:0:
349,60,522231,1,0,1:0:0:0:
319,63,522313,1,0,1:0:0:0:
289,67,522395,1,0,1:0:0:0:
259,70,522478,1,0,1:0:0:0:
229,74,522560,1,0,1:0:0:0:
200,77,522642,5,4,1:3:0:0:
230,80,522724,1,0,1:0:0:0:
260,83,522807,1,0,1:0:0:0:
290,86,522889,1,0,1:0:0:0:
320,90,522971,1,0,1:0:0:0:
350,94,523054,1,0,1:0:0:0:
379,97,523136,5,4,1:3:0:0:
355,128,523218,1,0,1:0:0:0:
354,167,523301,1,0,1:0:0:0:
376,200,523383,1,0,1:0:0:0:
407,221,523465,1,0,1:0:0:0:
421,258,523547,1,0,1:0:0:0:
411,296,523630,5,4,1:3:0:0:
383,328,523712,1,0,1:0:0:0:
342,339,523794,1,0,1:0:0:0:
302,326,523877,1,0,1:0:0:0:
276,293,523959,1,0,1:0:0:0:
272,251,524041,1,0,1:0:0:0:
293,214,524124,5,4,1:3:0:0:
253,214,524206,1,0,1:0:0:0:
220,235,524288,1,0,1:0:0:0:
202,270,524371,5,4,1:3:0:0:
199,230,524453,1,0,1:0:0:0:
218,195,524535,1,0,1:0:0:0:
252,176,524617,5,4,1:3:0:0:
213,175,524700,1,0,1:0:0:0:
179,196,524782,1,0,1:0:0:0:
161,232,524864,5,4,1:3:0:0:
158,191,524947,1,0,1:0:0:0:
177,156,525029,1,0,1:0:0:0:
211,138,525111,5,4,0:3:0:0:
168,96,525194,1,0,1:0:0:0:
112,78,525276,1,0,1:0:0:0:
53,90,525358,5,0,1:3:0:0:
56,97,525440,1,0,1:0:0:0:
58,103,525523,1,0,1:0:0:0:
60,109,525605,1,0,1:0:0:0:
62,116,525687,1,0,1:0:0:0:
64,122,525770,1,0,1:0:0:0:
66,128,525852,1,0,1:3:0:0:
68,135,525934,1,0,1:0:0:0:
70,141,526017,1,0,1:0:0:0:
73,147,526099,6,0,B|98:144|123:130|123:130|220:142,1,135,6|0,0:2|0:0,0:0:0:0:
204,140,526346,2,0,B|222:118|222:118|205:58,1,90,8|0,0:0|0:0,0:0:0:0:
284,0,526593,1,2,0:0:0:0:
284,0,526716,1,0,0:0:0:0:
372,100,526840,1,8,0:0:0:0:
485,30,526963,6,0,B|448:74|448:74|482:195,1,180,6|0,0:2|0:0,0:0:0:0:
323,231,527333,2,0,B|252:216|252:216|286:201,1,90,8|0,0:0|0:0,0:0:0:0:
453,326,527580,2,0,B|524:311|524:311|490:296,1,90,2|0,0:0|0:0,0:0:0:0:
395,172,527827,1,10,0:2:0:0:
332,309,527951,6,0,B|254:325|254:325|235:355|235:355|157:371,1,180,6|0,0:2|0:0,0:0:0:0:
69,290,528321,2,0,B|49:278|49:278|79:185,1,90,10|0,0:2|0:0,0:0:0:0:
5,119,528568,2,0,B|25:107|25:107|-5:14,1,90,2|0,0:0|0:0,0:0:0:0:
118,126,528815,1,10,0:2:0:0:
201,43,528938,6,0,P|282:21|356:86,1,180,2|0,0:2|0:0,0:0:0:0:
435,221,529309,2,0,P|473:216|519:159,1,90,10|0,0:2|0:0,0:0:0:0:
367,158,529556,1,2,0:0:0:0:
320,279,529679,1,0,0:0:0:0:
268,109,529803,1,10,0:2:0:0:
112,283,529926,6,0,B|178:269|178:269|240:295|240:295|329:276,1,215.999993408203,6|0,0:2|0:0,0:0:0:0:
295,189,530296,2,0,B|219:205|219:205|260:225,1,107.999996704102,8|0,0:0|0:0,0:0:0:0:
508,108,530543,2,0,B|459:97|459:97|414:116|414:116|348:102,1,161.999995056153,2|0,0:0|0:0,0:0:0:0:
352,103,530790,2,0,B|371:87|371:87|346:-4,1,107.999996704102,8|0,0:0|0:0,0:0:0:0:
47,12,531037,6,0,B|95:22|95:22|140:3|140:3|206:17,1,161.999995056153,2|0,0:0|0:0,0:0:0:0:
202,16,531284,2,0,B|183:32|183:32|208:123,1,107.999996704102,8|0,0:0|0:0,0:0:0:0:
158,273,531531,2,0,P|125:221|46:202,1,107.999996704102,2|0,0:0|0:0,0:0:0:0:
17,277,531778,1,8,0:0:0:0:
231,384,531901,6,0,L|258:155,1,215.999993408203,4|0,0:2|0:0,0:0:0:0:
351,94,532272,2,0,B|386:133|386:133|354:212,1,107.999996704102,8|0,3:1|0:0,0:0:0:0:
410,376,532519,1,2,3:1:0:0:
463,266,532642,1,0,0:0:0:0:
491,347,532766,1,8,3:1:0:0:
381,294,532889,1,0,0:0:0:0:
461,372,533012,5,2,0:1:0:0:
408,262,533136,1,0,0:0:0:0:
380,343,533259,1,8,0:1:0:0:
490,290,533383,1,0,0:0:0:0:
438,317,533506,5,2,0:1:0:0:
320,298,533630,1,0,0:0:0:0:
203,278,533753,1,8,0:1:0:0:
123,346,533877,6,0,B|172:299|172:299|131:174,1,180,6|0,0:2|0:0,0:0:0:0:
0,153,534247,2,0,B|-10:171|-10:171|88:141,1,90,8|0,0:0|0:0,0:0:0:0:
188,11,534494,2,0,B|198:-7|198:-7|100:23,1,90,2|0,0:0|0:0,0:0:0:0:
221,152,534741,1,8,0:0:0:0:
334,61,534864,6,0,B|318:120|318:120|345:163|345:163|322:248,1,180,4|0,0:2|0:0,0:0:0:0:
444,379,535235,2,0,P|457:338|425:285,1,90,10|0,0:2|0:0,0:0:0:0:
327,228,535482,1,2,0:0:0:0:
327,228,535605,1,0,0:0:0:0:
219,287,535729,1,10,0:2:0:0:
126,204,535852,6,0,L|145:95,1,90,6|0,0:2|0:0,0:0:0:0:
165,33,536099,1,0,0:0:0:0:
13,0,536222,2,0,B|26:31|26:31|46:42|46:42|66:95,1,90,8|0,0:1|0:0,0:0:0:0:
9,182,536469,1,2,0:1:0:0:
67,193,536593,1,0,0:0:0:0:
126,204,536716,1,8,0:1:0:0:
185,216,536840,1,0,0:0:0:0:
253,318,536963,5,2,0:1:0:0:
312,306,537087,1,0,0:0:0:0:
371,295,537210,1,8,0:1:0:0:
429,284,537333,1,0,0:0:0:0:
486,334,537457,5,2,0:1:0:0:
369,219,537580,1,0,0:0:0:0:
511,114,537704,1,8,0:1:0:0:
360,190,537827,6,0,B|348:170|317:154|317:154|336:111|336:54|336:54|372:89|369:128,1,215.999993408203,6|0,0:2|0:0,0:0:0:0:
172,160,538198,2,0,L|44:177,1,107.999996704102,10|0,0:2|0:0,0:0:0:0:
318,267,538445,2,0,B|335:299|335:299|432:311|432:311|459:341,1,161.999995056153,2|0,0:0|0:0,0:0:0:0:
400,383,538692,1,10,0:2:0:0:
198,317,538815,6,0,B|211:242|211:242|251:209|251:209|263:105,1,215.999993408203,6|0,0:2|0:0,0:0:0:0:
193,13,539185,2,0,B|165:-15|165:-15|136:28|175:65,1,107.999996704102,10|0,0:2|0:0,0:0:0:0:
380,101,539432,2,0,B|416:64|416:64|454:120|403:168,1,161.999995056153,2|0,0:0|0:0,0:0:0:0:
327,167,539679,1,10,0:2:0:0:
475,358,539803,6,0,P|390:257|311:270,1,215.999993408203,6|0,0:2|0:0,0:0:0:0:
183,346,540173,2,0,B|199:325|199:325|177:228,1,107.999996704102,10|0,0:2|0:0,0:0:0:0:
67,56,540420,2,0,B|22:41|22:41|53:164,1,161.999995056153,2|0,0:0|0:0,0:0:0:0:
22,228,540667,1,10,0:2:0:0:
154,163,540790,6,0,B|194:113|284:130|284:130|303:176|375:185,1,215.999993408203,6|0,0:2|0:0,0:0:0:0:
378,0,541161,2,0,B|364:47|364:47|369:51|369:51|351:119,1,107.999996704102,8|0,0:0|0:0,0:0:0:0:
505,223,541408,5,0,1:0:0:0:
498,196,541469,1,0,1:0:0:0:
492,170,541531,1,0,1:0:0:0:
486,144,541593,1,0,1:0:0:0:
479,117,541654,1,8,0:0:0:0:
512,315,541778,6,0,B|491:311|462:322|462:322|427:305|427:305|376:302|328:351,1,180,4|0,0:0|0:0,0:0:0:0:
200,368,542148,5,2,0:0:0:0:
206,336,542272,1,0,0:0:0:0:
130,307,542395,5,2,0:0:0:0:
136,275,542519,1,0,0:0:0:0:
63,249,542642,5,2,0:0:0:0:
69,217,542766,1,0,0:0:0:0:
72,368,542889,5,2,0:0:0:0:
66,336,543012,1,0,0:0:0:0:
142,307,543136,5,2,0:0:0:0:
136,275,543259,1,0,0:0:0:0:
209,249,543383,5,2,0:0:0:0:
303,324,543506,1,0,0:0:0:0:
379,196,543630,1,8,0:0:0:0:
507,339,543753,5,4,0:0:0:0:
507,339,544124,1,0,0:0:0:0:
483,216,544371,5,4,0:0:0:0:
483,216,544617,1,0,0:0:0:0:
459,93,544864,5,4,0:0:0:0:
459,93,545111,1,0,0:0:0:0:
459,93,545358,5,4,0:0:0:0:
483,216,545482,1,0,0:0:0:0:
507,339,545605,1,0,0:0:0:0:
349,363,545729,6,0,B|392:349|392:349|413:224|413:224|462:200,1,215.999993408203,4|0,0:2|0:0,0:0:0:0:
264,118,546099,2,0,B|260:173|260:173|314:212,1,107.999996704102,8|0,0:0|0:0,0:0:0:0:
459,93,546346,1,2,0:0:0:0:
459,93,546469,1,0,0:0:0:0:
323,24,546593,2,0,L|175:7,1,107.999996704102,8|0,0:0|0:0,0:0:0:0:
143,126,546840,6,0,P|153:78|108:12,1,107.999996704102,2|0,0:0|0:0,0:0:0:0:
49,156,547087,1,8,0:0:0:0:
192,216,547210,2,0,B|227:190|268:199|268:199|226:172,1,107.999996704102,0|2,0:0|0:0,0:0:0:0:
67,343,547457,2,0,B|32:317|-9:326|-9:326|33:299,1,107.999996704102,0|8,0:0|0:0,0:0:0:0:
92,209,547704,6,0,B|117:343|183:238|199:401,1,215.999993408203,0|0,0:0|0:0,0:0:0:0:
344,356,548074,2,0,B|320:337|320:337|344:248,1,107.999996704102,8|0,0:0|0:0,0:0:0:0:
440,259,548321,1,2,0:0:0:0:
440,259,548445,1,0,0:0:0:0:
392,98,548568,2,0,B|416:117|416:117|392:206,1,107.999996704102,8|0,0:0|0:0,0:0:0:0:
286,210,548815,6,0,B|234:214|200:181|200:181|188:149|188:149|145:111|99:131,1,215.999993408203,2|8,0:0|0:0,0:0:0:0:
95,264,549185,2,0,B|111:278|134:276|134:276|110:199,1,107.999996704102,0|2,0:0|0:0,0:0:0:0:
28,56,549432,2,0,B|12:42|-11:44|-11:44|13:121,1,107.999996704102,0|8,0:0|0:0,0:0:0:0:
106,127,549679,6,0,B|148:130|176:103|176:103|186:76|186:76|222:45|259:61,1,180,4|0,0:2|0:0,0:0:0:0:
393,159,550050,2,0,B|432:177|432:177|470:164|499:129,1,90,10|0,0:2|0:0,0:0:0:0:
372,290,550296,2,0,B|333:308|333:308|295:295|266:260,1,90,2|0,0:0|0:0,0:0:0:0:
242,209,550482,1,0,0:0:0:0:
242,209,550543,1,10,0:2:0:0:
376,153,550667,6,0,L|398:46,1,90,2|2,0:2|0:0,0:0:0:0:
234,0,550914,2,0,L|215:88,1,90,2|8,0:2|0:0,0:0:0:0:
85,216,551161,2,0,B|39:225|39:225|-20:197,1,90,2|2,0:2|0:0,0:0:0:0:
121,127,551408,1,0,0:0:0:0:
164,272,551531,1,10,0:2:0:0:
215,178,551654,6,0,B|280:167|280:167|326:189|326:189|402:177,1,180,6|0,0:2|0:0,0:0:0:0:
353,107,552025,2,0,B|335:117|305:87|337:39,1,90,8|0,0:1|0:1,0:0:0:0:
455,170,552272,1,2,0:1:0:0:
455,170,552395,1,0,0:1:0:0:
373,258,552519,2,0,B|391:248|421:278|389:326,1,90,8|0,0:1|0:1,0:0:0:0:
270,364,552766,6,0,L|167:343,1,90,2|0,0:1|0:1,0:0:0:0:
0,235,553012,2,0,L|103:214,1,90,8|0,0:1|0:1,0:0:0:0:
255,159,553259,2,0,P|220:160|166:89,1,90,4|0,0:3|0:1,0:0:0:0:
161,20,553506,1,8,0:1:0:0:
304,36,553630,6,0,P|324:200|261:250,1,215.999993408203,4|0,0:2|0:0,0:0:0:0:
328,350,554000,2,0,B|362:349|380:324|380:324|453:315,1,107.999996704102,8|0,0:0|0:0,0:0:0:0:
299,227,554247,1,2,0:0:0:0:
299,227,554371,1,0,0:0:0:0:
174,250,554494,2,0,B|140:249|122:224|122:224|49:215,1,107.999996704102,8|0,0:0|0:0,0:0:0:0:
189,170,554741,6,0,B|209:9|209:9|161:69,1,215.999993408203,2|8,0:0|0:0,0:0:0:0:
27,143,555111,2,0,B|17:65|17:65|40:94,1,107.999996704102,0|2,0:0|0:0,0:0:0:0:
266,216,555358,2,0,B|275:293|275:293|252:264,1,107.999996704102,0|8,0:0|0:0,0:0:0:0:
23,336,555605,6,0,B|184:320|184:320|220:366,1,215.999993408203,4|0,0:2|0:0,0:0:0:0:
427,355,555975,2,0,P|410:359|354:298,1,107.999996704102,8|0,0:0|0:0,0:0:0:0:
393,184,556222,1,2,0:0:0:0:
393,184,556346,1,0,0:0:0:0:
194,197,556469,2,0,P|211:201|267:140,1,107.999996704102,8|0,0:0|0:0,0:0:0:0:
109,36,556716,6,0,B|125:-14|59:-34|-16:26|64:125,1,215.999993408203,2|8,0:0|0:0,0:0:0:0:
132,164,557087,1,0,0:0:0:0:
132,164,557210,1,2,0:0:0:0:
82,247,557333,1,0,0:0:0:0:
173,369,557457,1,8,0:0:0:0:
20,298,557580,6,0,L|223:271,1,180,6|0,0:2|0:0,0:0:0:0:
270,330,557951,1,8,0:0:0:0:
401,169,558198,1,2,0:0:0:0:
485,199,558321,1,0,0:0:0:0:
416,257,558445,1,8,0:0:0:0:
220,12,558692,5,2,0:0:0:0:
136,42,558815,1,0,0:0:0:0:
205,100,558938,2,0,L|306:79,1,90,10|0,0:2|0:0,0:0:0:0:
89,177,559185,2,0,L|-12:156,1,90,2|0,0:0|0:0,0:0:0:0:
136,42,559432,1,10,0:2:0:0:
215,232,559556,6,0,B|235:173|235:173|271:157|271:157|297:66,1,180,6|0,0:2|0:0,0:0:0:0:
367,0,559926,2,0,L|407:87,1,90,8|0,0:1|0:1,0:0:0:0:
481,245,560173,1,2,0:1:0:0:
481,245,560296,1,0,0:1:0:0:
512,164,560420,2,0,B|480:159|480:159|454:168|454:168|407:164,1,90,8|0,0:1|0:1,0:0:0:0:
357,375,560667,6,0,B|366:348|343:323|343:323|330:278|330:278|346:229,1,135,4|0,0:3|0:1,0:0:0:0:
339,248,560914,2,0,B|316:264|316:264|286:261|248:234,1,90,8|0,0:1|0:1,0:0:0:0:
159,134,561161,2,0,B|182:149|182:149|212:147|250:119,1,90,4|0,0:3|0:1,0:0:0:0:
181,26,561408,1,8,0:1:0:0:
57,87,561531,6,0,B|62:121|39:151|39:151|23:207|23:207|43:267,1,180,4|0,0:3|0:3,0:0:0:0:
13,370,561901,2,0,B|28:348|66:349|66:349|92:382|143:375,1,107.999996704102,8|0,0:0|0:0,0:0:0:0:
159,267,562148,1,2,0:0:0:0:
159,267,562272,1,0,0:0:0:0:
306,372,562395,2,0,P|265:375|220:324,1,107.999996704102,8|0,0:0|0:0,0:0:0:0:
336,241,562642,6,0,L|448:218,1,107.999996704102,2|0,0:0|0:0,0:0:0:0:
246,175,562889,1,8,0:0:0:0:
349,140,563012,2,0,B|362:182|362:182|335:242,1,107.999996704102,0|2,0:0|0:0,0:0:0:0:
172,102,563259,2,0,B|159:60|159:60|186:0,1,107.999996704102,0|8,0:0|0:0,0:0:0:0:
303,54,563506,6,0,B|392:67|392:67|418:82|418:82|518:97,1,215.999993408203,4|0,0:2|0:0,0:0:0:0:
363,206,563877,2,0,B|338:197|328:179|328:179|318:218|343:253,1,107.999996704102,8|0,0:0|0:0,0:0:0:0:
401,364,564124,1,2,0:0:0:0:
401,364,564247,1,0,0:0:0:0:
484,276,564371,2,0,B|509:267|519:249|519:249|529:288|504:323,1,107.999996704102,8|0,0:0|0:0,0:0:0:0:
255,318,564617,6,0,B|102:285|102:285|77:202,1,215.999993408203,2|8,0:0|0:0,0:0:0:0:
363,206,564988,2,0,B|447:187|447:187|404:172,1,107.999996704102,0|2,0:0|0:0,0:0:0:0:
200,108,565235,2,0,B|116:89|116:89|159:74,1,107.999996704102,0|8,0:0|0:0,0:0:0:0:
394,0,565482,6,0,B|386:49|386:49|436:121|436:121|427:189,1,180,6|0,0:2|0:0,0:0:0:0:
494,44,565852,1,8,0:0:0:0:
391,292,566099,1,2,0:0:0:0:
363,206,566222,1,0,0:0:0:0:
391,292,566346,1,8,0:0:0:0:
121,92,566593,5,2,0:0:0:0:
149,178,566716,1,0,0:0:0:0:
121,92,566840,2,0,B|50:110|50:110|24:156,1,90,10|0,0:2|0:0,0:0:0:0:
166,185,567087,2,0,B|237:203|237:203|263:249,1,90,2|0,0:0|0:0,0:0:0:0:
110,317,567333,1,10,0:2:0:0:
271,377,567457,6,0,B|225:330|225:330|250:190,1,180,6|0,0:2|0:0,0:0:0:0:
314,291,567827,1,8,0:1:0:0:
501,131,568074,1,2,0:1:0:0:
413,153,568198,1,0,0:1:0:0:
474,217,568321,1,8,0:1:0:0:
225,16,568568,6,0,B|185:44|185:44|211:163,1,135,2|0,0:1|0:1,0:0:0:0:
203,128,568815,2,0,B|172:158|172:158|105:148,1,90,8|0,0:1|0:1,0:0:0:0:
20,142,569062,1,2,0:1:0:0:
20,142,569185,1,0,0:1:0:0:
73,251,569309,1,8,0:1:0:0:
32,355,569432,6,0,B|1:309|1:309|56:203|56:203|20:127,1,215.999993408203,4|0,0:2|0:0,0:0:0:0:
171,231,569803,2,0,L|284:208,1,107.999996704102,8|0,0:0|0:0,0:0:0:0:
364,141,570050,1,2,0:0:0:0:
364,141,570173,1,0,0:0:0:0:
255,34,570296,2,0,B|224:16|224:16|199:57|252:97,1,107.999996704102,8|0,0:0|0:0,0:0:0:0:
503,59,570543,6,0,B|516:29|516:29|325:68,1,215.999993408203,2|8,0:0|0:0,0:0:0:0:
394,247,570914,2,0,B|404:211|404:211|432:195|432:195|445:148,1,107.999996704102,0|2,0:0|0:0,0:0:0:0:
216,11,571161,2,0,B|226:47|226:47|254:63|254:63|267:110,1,107.999996704102,0|8,0:0|0:0,0:0:0:0:
181,191,571408,6,0,B|113:167|113:167|87:115|87:115|-1:84,1,215.999993408203,4|0,0:2|0:0,0:0:0:0:
0,262,571778,2,0,P|43:273|98:231,1,107.999996704102,8|0,0:0|0:0,0:0:0:0:
168,113,572025,1,2,0:0:0:0:
168,113,572148,1,0,0:0:0:0:
294,310,572272,2,0,P|251:321|196:279,1,107.999996704102,8|0,0:0|0:2,0:0:0:0:
341,197,572519,6,0,B|393:177|393:177|506:215,1,161.999995056153,0|0,0:0|0:0,0:0:0:0:
493,210,572766,2,0,B|488:255|488:255|498:275|498:275|490:326,1,107.999996704102,4|0,1:3|0:0,0:0:0:0:
294,310,573012,1,4,1:3:0:0:
253,295,573136,1,0,0:0:0:0:
226,236,573259,1,8,1:0:0:0:
264,158,573383,1,8,1:0:0:0:
207,66,573506,6,0,B|161:91|111:70|111:70|78:76|78:76|57:99|26:104,2,180,2|2|10,3:3|3:3|3:3,0:0:0:0:
351,0,574247,5,8,3:3:0:0:
426,87,574371,2,0,B|487:67|487:67|525:83,1,90,2|0,3:3|0:0,0:0:0:0:
329,133,574617,1,8,3:3:0:0:
254,220,574741,2,0,B|193:200|193:200|155:216,1,90,2|0,3:3|0:0,0:0:0:0:
344,322,574988,1,8,3:3:0:0:
344,322,575235,1,8,3:3:0:0:
414,222,575358,1,8,3:3:0:0:
499,333,575482,6,0,P|465:355|407:352,1,90,4|0,3:3|0:0,0:0:0:0:
259,180,575729,1,8,0:0:0:0:
200,239,575852,2,0,P|234:261|292:258,1,90,4|0,3:3|0:0,0:0:0:0:
452,53,576099,1,8,0:0:0:0:
511,112,576222,2,0,P|477:134|419:131,1,90,4|0,3:3|0:0,0:0:0:0:
207,42,576469,6,0,L|98:21,1,90,4|0,3:3|0:0,0:0:0:0:
0,131,576716,1,0,1:0:0:0:
13,107,576840,1,0,1:0:0:0:
111,117,576963,1,0,1:0:0:0:
150,107,577087,1,0,1:0:0:0:
145,202,577210,1,0,1:0:0:0:
195,232,577333,1,0,1:0:0:0:
155,369,577457,6,0,B|69:371|57:287|57:287|91:259|151:287,1,233.999989288331,12|10,0:3|0:1,0:0:0:0:
370,294,577827,2,0,B|450:266|434:184|434:184|392:168|345:215,1,233.999989288331,0|0,0:0|0:0,0:0:0:0:
157,143,578198,2,0,B|118:111|143:70|143:70|169:70|184:105,1,116.999994644165,10|0,0:1|0:0,0:0:0:0:
256,192,578445,5,0,0:0:0:0:
256,192,578568,1,0,0:0:0:0:
383,84,578692,1,10,0:1:0:0:
218,8,578815,2,0,B|117:28|117:28|94:52|94:52|-9:78,1,233.999989288331,0|0,0:0|0:0,0:0:0:0:
239,113,579185,2,0,B|290:122|290:122|302:135|302:135|351:145,1,116.999994644165,10|0,0:1|0:0,0:0:0:0:
512,0,579432,6,0,P|464:35|473:98,1,107.999996704102,2|0,0:1|0:0,0:0:0:0:
512,263,579679,2,0,P|502:215|449:195,1,107.999996704102,10|0,0:1|0:0,0:0:0:0:
388,336,579926,1,2,0:1:0:0:
388,336,580050,1,0,0:0:0:0:
311,282,580173,1,10,0:1:0:0:
249,371,580296,6,0,B|283:330|283:330|230:173,1,215.999993408203,4|0,0:0|0:0,0:0:0:0:
150,264,580667,1,10,0:1:0:0:
150,264,580790,1,0,0:0:0:0:
0,164,580914,2,0,P|25:198|107:211,1,107.999996704102,4|0,0:3|0:0,0:0:0:0:
187,50,581161,2,0,B|110:40|110:40|86:75|28:85,1,161.999995056153,10|0,0:1|0:0,0:0:0:0:
40,83,581408,6,0,P|92:107|144:280,1,233.999989288331,4|10,0:2|0:1,0:0:0:0:
268,222,581778,2,0,P|361:173|391:51,1,233.999989288331,0|0,0:0|0:0,0:0:0:0:
425,379,582148,2,0,P|373:377|330:331,1,116.999994644165,10|0,0:1|0:0,0:0:0:0:
268,222,582395,5,0,0:0:0:0:
268,222,582519,1,0,0:0:0:0:
404,306,582642,1,10,0:1:0:0:
512,192,582766,2,0,P|422:180|366:58,1,233.999989288331,0|0,0:0|0:0,0:0:0:0:
164,45,583136,2,0,P|218:40|254:-32,1,116.999994644165,10|0,0:1|0:0,0:0:0:0:
44,18,583383,6,0,B|14:46|14:46|39:139,1,107.999996704102,2|0,0:1|0:0,0:0:0:0:
122,255,583630,2,0,B|94:225|94:225|119:132,1,107.999996704102,10|0,0:1|0:0,0:0:0:0:
225,131,583877,1,2,0:1:0:0:
225,131,584000,1,0,0:0:0:0:
354,234,584124,1,10,0:1:0:0:
442,39,584247,6,0,B|286:59|286:59|346:96,1,215.999993408203,4|0,0:0|0:0,0:0:0:0:
445,201,584617,2,0,B|529:217|529:217|508:229,1,107.999996704102,10|0,0:1|0:0,0:0:0:0:
371,381,584864,1,4,0:3:0:0:
327,203,584988,1,0,0:0:0:0:
445,307,585111,1,10,0:1:0:0:
270,340,585235,1,0,0:0:0:0:
391,154,585358,6,0,L|229:178,1,148.50000453186,4|0,0:2|0:0,0:0:0:0:
244,175,585605,2,0,B|223:151|223:151|235:85,1,99.0000030212403,10|0,0:1|0:0,0:0:0:0:
329,32,585852,1,0,0:0:0:0:
329,32,585975,1,0,0:0:0:0:
129,66,586099,2,0,B|108:77|83:71|83:71|62:50|13:47,1,99.0000030212403,10|0,0:1|0:0,0:0:0:0:
206,0,586346,6,0,B|233:-20|233:-20|215:110,1,148.50000453186,0|0,0:0|0:0,0:0:0:0:
217,93,586593,2,0,B|295:113|295:113|273:79,1,99.0000030212403,10|0,0:1|0:0,0:0:0:0:
129,66,586840,1,0,0:0:0:0:
129,66,586963,1,0,0:0:0:0:
74,164,587087,2,0,B|3:182|3:182|23:151,1,99.0000030212403,10|0,0:1|0:0,0:0:0:0:
115,384,587333,6,0,B|91:342|112:303|112:303|142:290|164:265,1,148.50000453186,4|0,0:3|0:0,0:0:0:0:
163,266,587580,2,0,L|53:236,1,99.0000030212403,10|0,0:1|0:0,0:0:0:0:
247,169,587827,1,0,0:0:0:0:
247,169,587951,1,0,0:0:0:0:
281,356,588074,2,0,L|389:385,1,99.0000030212403,10|0,0:1|0:0,0:0:0:0:
503,232,588321,6,0,B|483:164|407:178|407:178|436:206,1,148.50000453186,4|0,0:3|0:0,0:0:0:0:
425,196,588568,2,0,B|451:179|451:179|468:92,1,99.0000030212403,10|0,0:1|0:0,0:0:0:0:
375,0,588815,1,0,0:0:0:0:
375,0,588938,1,0,0:0:0:0:
225,0,589062,2,0,B|199:17|199:17|182:104,1,99.0000030212403,10|0,0:1|0:0,0:0:0:0:
170,242,589309,5,0,1:0:0:0:
150,248,589391,1,0,1:0:0:0:
131,254,589473,1,0,1:0:0:0:
112,260,589556,2,0,B|86:235|86:235|110:118,1,132.00000402832,4|0,1:3|0:0,0:0:0:0:
67,31,589803,5,0,1:0:0:0:
87,25,589885,1,0,1:0:0:0:
106,19,589967,1,0,1:0:0:0:
125,13,590050,2,0,B|151:38|151:38|123:162,1,132.00000402832,4|0,1:3|0:0,0:0:0:0:
293,215,590296,5,0,1:3:0:0:
302,176,590379,1,0,1:0:0:0:
329,148,590461,1,0,1:0:0:0:
367,137,590543,5,4,1:3:0:0:
343,168,590626,1,0,1:0:0:0:
338,207,590708,1,0,1:0:0:0:
353,243,590790,5,4,1:3:0:0:
389,258,590873,1,0,1:0:0:0:
412,290,590955,1,0,1:0:0:0:
415,330,591037,5,4,1:3:0:0:
476,45,591284,5,0,1:0:0:0:
488,60,591366,1,0,1:0:0:0:
500,76,591449,1,0,1:0:0:0:
512,92,591531,2,0,L|374:66,1,132.00000402832,4|0,1:3|0:0,0:0:0:0:
174,125,591778,5,0,1:0:0:0:
162,140,591860,1,0,1:0:0:0:
150,156,591943,1,0,1:0:0:0:
138,172,592025,2,0,L|277:138,1,132.00000402832,4|0,1:3|0:0,0:0:0:0:
133,20,592272,6,0,L|-7:-2,1,132.00000402832,4|0,0:0|0:0,0:0:0:0:
11,203,592519,1,0,1:0:0:0:
11,203,592642,1,0,1:0:0:0:
165,318,592766,5,0,1:0:0:0:
194,323,592848,1,0,1:0:0:0:
223,329,592930,1,0,1:0:0:0:
253,335,593012,1,0,1:0:0:0:
282,340,593095,1,0,1:0:0:0:
312,346,593177,1,0,1:0:0:0:
341,352,593259,6,0,B|357:259|457:256|457:256|437:293|452:340,1,233.999989288331,12|10,0:3|0:1,0:0:0:0:
193,193,593630,2,0,B|177:100|77:97|77:97|97:134|82:181,1,233.999989288331,0|0,0:0|0:0,0:0:0:0:
310,64,594000,2,0,B|318:14|371:13|371:13|363:29|369:48,1,116.999994644165,10|0,0:1|0:0,0:0:0:0:
441,178,594247,5,0,0:0:0:0:
441,178,594371,1,0,0:0:0:0:
468,36,594494,1,10,0:1:0:0:
334,218,594617,2,0,B|335:128|234:87|198:112|207:168|246:162|277:144,1,233.999989288331,0|0,0:0|0:0,0:0:0:0:
442,303,594988,2,0,B|437:254|492:237|510:250|505:278|485:284|467:273,1,116.999994644165,10|0,0:1|0:0,0:0:0:0:
365,354,595235,6,0,L|173:385,1,161.999995056153,2|0,0:1|0:0,0:0:0:0:
206,380,595482,2,0,B|180:355|180:355|193:282,1,107.999996704102,10|0,0:1|0:0,0:0:0:0:
334,218,595729,1,2,0:1:0:0:
334,218,595852,1,0,0:0:0:0:
204,134,595975,1,10,0:1:0:0:
357,60,596099,6,0,B|336:86|285:90|285:90|241:26|159:52,1,215.999993408203,4|0,0:0|0:0,0:0:0:0:
9,206,596469,1,10,0:1:0:0:
9,206,596593,1,0,0:0:0:0:
37,84,596716,2,0,B|56:2|56:2|83:30,1,107.999996704102,4|0,0:3|0:0,0:0:0:0:
204,134,596963,2,0,B|178:244|178:244|141:206,1,161.999995056153,10|0,0:1|0:0,0:0:0:0:
144,209,597210,6,0,P|242:205|316:310,1,233.999989288331,4|10,0:2|0:1,0:0:0:0:
507,14,597580,2,0,P|426:69|432:200,1,233.999989288331,0|0,0:0|0:0,0:0:0:0:
211,0,597951,2,0,P|258:11|279:71,1,116.999994644165,10|0,0:1|0:0,0:0:0:0:
210,268,598198,5,0,0:0:0:0:
210,268,598321,1,0,0:0:0:0:
52,213,598445,1,10,0:1:0:0:
194,127,598568,2,0,B|187:73|156:30|78:32|78:32|111:47|129:84,1,233.999989288331,0|0,0:0|0:0,0:0:0:0:
326,195,598938,2,0,B|329:167|345:145|385:146|385:146|368:154|359:173,1,116.999994644165,10|0,0:1|0:0,0:0:0:0:
361,338,599185,6,0,B|253:364|253:364|199:338,1,161.999995056153,4|0,0:3|0:0,0:0:0:0:
206,341,599432,2,0,L|229:220,1,107.999996704102,10|0,0:1|0:0,0:0:0:0:
52,213,599679,1,2,0:1:0:0:
52,213,599803,1,0,0:0:0:0:
194,127,599926,1,10,0:1:0:0:
65,38,600050,6,0,B|44:34|16:-2|16:-2|-48:79|52:152,1,215.999993408203,4|0,0:0|0:0,0:0:0:0:
194,127,600420,2,0,L|319:104,1,107.999996704102,10|0,0:1|0:0,0:0:0:0:
214,266,600667,1,4,0:3:0:0:
104,194,600790,1,0,0:0:0:0:
194,127,600914,1,10,0:1:0:0:
126,322,601037,1,0,0:0:0:0:
331,369,601161,6,0,B|302:317|329:273|329:273|359:264|384:233,1,148.50000453186,4|0,0:2|0:0,0:0:0:0:
370,249,601408,2,0,B|356:210|356:210|376:149,1,99.0000030212403,10|0,0:1|0:0,0:0:0:0:
468,217,601654,1,0,0:0:0:0:
468,217,601778,1,0,0:0:0:0:
269,101,601901,2,0,L|169:124,1,99.0000030212403,10|0,0:1|0:0,0:0:0:0:
435,111,602148,6,0,B|409:77|409:77|430:12|430:12|468:47,1,148.50000453186,0|0,0:0|0:0,0:0:0:0:
458,38,602395,2,0,B|528:13|528:13|481:7,1,99.0000030212403,10|0,0:1|0:0,0:0:0:0:
351,0,602642,1,0,0:0:0:0:
351,0,602766,1,0,0:0:0:0:
301,127,602889,2,0,B|237:105|237:105|280:99,1,99.0000030212403,10|0,0:1|0:0,0:0:0:0:
376,258,603136,6,0,L|205:294,1,148.50000453186,4|0,0:3|0:0,0:0:0:0:
230,288,603383,2,0,B|217:367|217:367|243:352,1,99.0000030212403,10|0,0:1|0:0,0:0:0:0:
246,191,603630,1,0,0:0:0:0:
246,191,603753,1,0,0:0:0:0:
268,100,603877,2,0,B|280:20|280:20|254:35,1,99.0000030212403,10|0,0:1|0:0,0:0:0:0:
0,123,604124,6,0,B|44:149|44:149|152:122,1,148.50000453186,4|0,0:3|0:0,0:0:0:0:
138,125,604371,2,0,B|197:111|197:111|169:162,1,99.0000030212403,10|0,0:1|0:0,0:0:0:0:
101,268,604617,1,0,0:0:0:0:
101,268,604741,1,0,0:0:0:0:
226,363,604864,2,0,B|242:343|242:343|221:258,1,99.0000030212403,10|0,0:1|0:0,0:0:0:0:
268,100,605111,5,0,1:0:0:0:
287,102,605194,1,0,1:0:0:0:
305,111,605276,1,0,1:0:0:0:
318,126,605358,2,0,P|298:69|319:-1,1,132.00000402832,4|0,1:3|0:0,0:0:0:0:
370,207,605605,5,0,1:0:0:0:
373,225,605687,1,0,1:0:0:0:
370,245,605770,1,0,1:0:0:0:
360,262,605852,2,0,P|408:225|481:223,1,132.00000402832,4|0,1:3|0:0,0:0:0:0:
304,354,606099,5,0,1:3:0:0:
304,354,606181,1,0,1:0:0:0:
304,354,606264,1,0,1:0:0:0:
304,354,606346,5,4,1:3:0:0:
277,323,606428,1,0,1:0:0:0:
266,285,606510,1,0,1:0:0:0:
271,245,606593,5,4,1:3:0:0:
237,266,606675,1,0,1:0:0:0:
216,300,606757,1,0,1:0:0:0:
210,339,606840,5,4,1:3:0:0:
183,308,606922,1,0,1:0:0:0:
172,270,607004,1,0,1:0:0:0:
177,230,607087,5,0,1:0:0:0:
177,230,607333,1,4,1:3:0:0:
293,44,607457,2,0,B|279:54|275:77|275:77|288:98|292:144,1,99.0000030212403,0|0,0:0|1:0,0:0:0:0:
402,232,607704,1,0,0:0:0:0:
512,183,607827,1,4,1:3:0:0:
421,101,607951,1,0,0:0:0:0:
464,325,608074,5,0,0:0:0:0:
464,325,608321,1,4,1:3:0:0:
321,206,608568,6,0,L|335:134,2,60,0|0|0,1:0|1:0|1:0,0:0:0:0:
229,309,608815,2,0,L|217:367,2,60,0|0|0,1:0|1:0|1:0,0:0:0:0:
61,323,609062,5,4,3:2:0:0:
21,308,609144,1,0,0:0:0:0:
0,271,609226,1,0,0:0:0:0:
9,230,609309,1,10,0:0:0:0:
44,205,609391,1,0,0:0:0:0:
86,209,609473,1,0,0:0:0:0:
114,240,609556,1,0,0:0:0:0:
128,280,609638,1,0,0:0:0:0:
157,312,609720,1,0,0:0:0:0:
196,330,609803,1,10,0:0:0:0:
239,331,609885,1,0,0:0:0:0:
279,316,609967,1,0,0:0:0:0:
304,281,610050,5,0,0:0:0:0:
335,309,610132,1,0,0:0:0:0:
377,316,610214,1,0,0:0:0:0:
417,299,610296,1,10,0:0:0:0:
441,265,610379,1,0,0:0:0:0:
443,222,610461,1,0,0:0:0:0:
423,185,610543,1,0,0:0:0:0:
388,160,610626,1,0,0:0:0:0:
372,120,610708,1,0,0:0:0:0:
379,78,610790,1,10,0:0:0:0:
408,47,610873,1,0,0:0:0:0:
449,36,610955,1,0,0:0:0:0:
490,48,611037,6,0,L|469:132,2,71.9999978027344,0|0|0,0:0|0:0|0:0,0:0:0:0:
512,186,611284,2,0,L|437:229,2,71.9999978027344,10|0|0,0:0|0:0|0:0,0:0:0:0:
417,299,611531,2,0,L|333:277,2,71.9999978027344,0|0|0,0:0|0:0|0:0,0:0:0:0:
265,320,611778,2,0,L|221:245,2,71.9999978027344,10|0|0,0:0|0:0|0:0,0:0:0:0:
132,275,612025,5,4,0:3:0:0:
117,227,612107,1,0,0:0:0:0:
126,177,612189,1,0,0:0:0:0:
155,137,612272,1,10,0:0:0:0:
199,113,612354,1,0,0:0:0:0:
249,111,612436,1,0,0:0:0:0:
292,138,612519,5,4,0:3:0:0:
248,162,612601,1,0,0:0:0:0:
198,169,612683,1,0,0:0:0:0:
150,155,612766,1,10,0:0:0:0:
111,124,612848,1,0,0:0:0:0:
88,79,612930,1,0,0:0:0:0:
93,30,613012,5,4,0:2:0:0:
124,59,613095,1,0,0:0:0:0:
164,76,613177,1,0,0:0:0:0:
207,78,613259,1,10,0:0:0:0:
248,67,613342,1,0,0:0:0:0:
283,42,613424,1,0,0:0:0:0:
320,20,613506,1,0,0:0:0:0:
363,16,613589,1,0,0:0:0:0:
403,30,613671,1,0,0:0:0:0:
434,59,613753,1,10,0:0:0:0:
450,99,613836,1,0,0:0:0:0:
447,142,613918,1,0,0:0:0:0:
427,180,614000,5,0,0:0:0:0:
394,153,614082,1,0,0:0:0:0:
352,146,614165,1,0,0:0:0:0:
313,163,614247,1,10,0:0:0:0:
289,199,614329,1,0,0:0:0:0:
287,241,614412,1,0,0:0:0:0:
302,282,614494,1,0,0:0:0:0:
290,323,614576,1,0,0:0:0:0:
257,351,614659,1,0,0:0:0:0:
216,357,614741,1,10,0:0:0:0:
176,342,614823,1,0,0:0:0:0:
151,307,614905,1,0,0:0:0:0:
146,263,614988,6,0,L|218:273,2,71.9999978027344,0|0|0,0:0|0:0|0:0,0:0:0:0:
73,169,615235,2,0,L|1:159,2,71.9999978027344,10|0|0,0:0|0:0|0:0,0:0:0:0:
176,103,615482,2,0,L|248:113,2,71.9999978027344,0|0|0,0:0|0:0|0:0,0:0:0:0:
103,9,615729,2,0,L|31:-1,2,71.9999978027344,10|0|0,0:0|0:0|0:0,0:0:0:0:
300,177,615975,5,4,3:3:0:0:
313,129,616058,1,0,0:0:0:0:
349,94,616140,1,0,0:0:0:0:
398,83,616222,1,10,0:0:0:0:
442,108,616305,5,4,3:3:0:0:
394,120,616387,1,0,0:0:0:0:
346,106,616469,1,0,0:0:0:0:
312,70,616552,1,0,0:0:0:0:
292,23,616634,5,4,3:3:0:0:
326,58,616716,1,10,0:0:0:0:
338,106,616798,1,0,0:0:0:0:
323,154,616881,1,0,0:0:0:0:
280,181,616963,5,4,3:2:0:0:
247,152,617045,1,0,0:0:0:0:
206,139,617128,1,0,0:0:0:0:
163,143,617210,1,10,0:0:0:0:
126,164,617292,1,0,0:0:0:0:
84,163,617375,1,0,0:0:0:0:
48,140,617457,1,0,0:0:0:0:
29,102,617539,1,0,0:0:0:0:
32,60,617622,1,0,0:0:0:0:
57,25,617704,1,10,0:0:0:0:
96,8,617786,1,0,0:0:0:0:
138,14,617868,1,0,0:0:0:0:
172,41,617951,5,0,0:0:0:0:
192,78,618033,1,0,0:0:0:0:
225,104,618115,1,0,0:0:0:0:
267,117,618198,1,10,0:0:0:0:
310,115,618280,1,0,0:0:0:0:
349,96,618362,1,0,0:0:0:0:
373,61,618445,1,0,0:0:0:0:
408,35,618527,1,0,0:0:0:0:
449,37,618609,1,0,0:0:0:0:
485,59,618692,1,10,0:0:0:0:
500,99,618774,1,0,0:0:0:0:
490,140,618856,1,0,0:0:0:0:
460,171,618938,5,0,0:0:0:0:
418,143,619021,1,0,0:0:0:0:
369,137,619103,1,0,0:0:0:0:
322,155,619185,1,10,0:0:0:0:
289,193,619268,1,0,0:0:0:0:
277,241,619350,1,0,0:0:0:0:
293,289,619432,5,0,0:0:0:0:
322,256,619515,1,0,0:0:0:0:
335,216,619597,1,0,0:0:0:0:
334,173,619679,1,10,0:0:0:0:
316,134,619761,1,0,0:0:0:0:
286,104,619844,1,0,0:0:0:0:
240,82,619926,5,0,0:0:0:0:
211,123,620008,1,0,0:0:0:0:
167,147,620091,1,0,0:0:0:0:
118,148,620173,1,10,0:0:0:0:
72,127,620255,1,0,0:0:0:0:
41,87,620338,1,0,0:0:0:0:
49,37,620420,5,0,0:0:0:0:
97,49,620502,1,0,0:0:0:0:
135,82,620585,1,0,0:0:0:0:
152,128,620667,1,10,0:0:0:0:
149,179,620749,1,0,0:0:0:0:
122,221,620831,1,0,0:0:0:0:
73,235,620914,5,0,1:0:0:0:
86,238,620996,1,0,1:0:0:0:
99,241,621078,1,0,1:0:0:0:
171,271,621161,2,0,L|21:301,1,143.999995605469,4|0,1:3|0:0,0:0:0:0:
241,384,621408,5,0,1:0:0:0:
228,381,621490,1,0,1:0:0:0:
215,378,621572,1,0,1:0:0:0:
143,348,621654,2,0,L|293:318,1,143.999995605469,4|0,1:3|0:0,0:0:0:0:
412,375,621901,5,0,1:3:0:0:
415,362,621984,1,0,1:0:0:0:
418,349,622066,1,0,1:0:0:0:
421,336,622148,1,4,1:3:0:0:
424,323,622231,1,0,1:0:0:0:
427,310,622313,1,0,1:0:0:0:
430,297,622395,1,4,1:3:0:0:
433,284,622478,1,0,1:0:0:0:
436,271,622560,1,0,1:0:0:0:
439,258,622642,1,4,1:3:0:0:
207,241,622889,6,0,P|265:231|295:175,1,107.999996704102,0|0,1:0|0:0,0:0:0:0:
510,94,623136,1,4,1:3:0:0:
456,176,623259,2,0,P|398:166|368:110,1,107.999996704102,0|0,0:0|1:0,0:0:0:0:
353,2,623506,1,0,0:0:0:0:
353,2,623568,1,0,0:0:0:0:
353,2,623630,1,4,1:3:0:0:
88,92,623877,6,0,B|71:16|71:16|101:-3,1,107.999996704102,4|0,0:0|0:0,0:0:0:0:
272,65,624124,2,0,B|289:141|289:141|259:160,1,107.999996704102,4|0,1:3|0:0,0:0:0:0:
143,166,624371,2,0,L|70:180,2,71.9999978027344,0|0|0,1:0|1:0|1:0,0:0:0:0:
209,255,624617,2,0,L|279:241,2,71.9999978027344,0|0|0,1:0|1:0|1:0,0:0:0:0:
411,384,624864,5,4,3:2:0:0:
375,360,624947,1,0,0:0:0:0:
353,323,625029,1,0,0:0:0:0:
350,280,625111,1,10,0:0:0:0:
367,241,625194,1,0,0:0:0:0:
399,213,625276,1,0,0:0:0:0:
439,199,625358,1,0,0:0:0:0:
469,169,625440,1,0,0:0:0:0:
482,128,625523,1,0,0:0:0:0:
475,86,625605,1,10,0:0:0:0:
449,52,625687,1,0,0:0:0:0:
411,33,625770,1,0,0:0:0:0:
367,34,625852,5,0,0:0:0:0:
345,70,625934,1,0,0:0:0:0:
340,113,626017,1,0,0:0:0:0:
353,154,626099,1,10,0:0:0:0:
383,185,626181,1,0,0:0:0:0:
422,201,626264,1,0,0:0:0:0:
462,214,626346,1,0,0:0:0:0:
491,246,626428,1,0,0:0:0:0:
501,287,626510,1,0,0:0:0:0:
490,328,626593,1,10,0:0:0:0:
460,359,626675,1,0,0:0:0:0:
419,372,626757,1,0,0:0:0:0:
378,363,626840,6,0,L|396:277,2,71.9999978027344,0|0|0,0:0|0:0|0:0,0:0:0:0:
266,211,627087,2,0,L|284:125,2,71.9999978027344,10|0|0,0:0|0:0|0:0,0:0:0:0:
290,371,627333,2,0,L|308:285,2,71.9999978027344,0|0|0,0:0|0:0|0:0,0:0:0:0:
178,219,627580,2,0,L|196:133,2,71.9999978027344,10|0|0,0:0|0:0|0:0,0:0:0:0:
46,178,627827,5,4,0:3:0:0:
19,135,627910,1,0,0:0:0:0:
15,86,627992,1,0,0:0:0:0:
34,40,628074,1,10,0:0:0:0:
74,9,628157,1,0,0:0:0:0:
123,0,628239,1,0,0:0:0:0:
173,7,628321,5,4,0:3:0:0:
175,56,628403,1,0,0:0:0:0:
198,101,628486,1,0,0:0:0:0:
237,133,628568,1,10,0:0:0:0:
285,147,628650,1,0,0:0:0:0:
334,140,628733,1,0,0:0:0:0:
376,110,628815,5,4,0:2:0:0:
342,83,628897,1,0,0:0:0:0:
301,68,628980,1,0,0:0:0:0:
258,69,629062,1,10,0:0:0:0:
218,83,629144,1,0,0:0:0:0:
185,110,629226,1,0,0:0:0:0:
163,147,629309,1,0,0:0:0:0:
154,189,629391,1,0,0:0:0:0:
160,232,629473,1,0,0:0:0:0:
186,266,629556,1,10,0:0:0:0:
224,284,629638,1,0,0:0:0:0:
267,283,629720,1,0,0:0:0:0:
304,263,629803,5,0,0:0:0:0:
322,224,629885,1,0,0:0:0:0:
356,198,629967,1,0,0:0:0:0:
398,190,630050,1,10,0:0:0:0:
439,203,630132,1,0,0:0:0:0:
469,234,630214,1,0,0:0:0:0:
481,275,630296,1,0,0:0:0:0:
473,317,630379,1,0,0:0:0:0:
446,350,630461,1,0,0:0:0:0:
406,364,630543,1,10,0:0:0:0:
364,357,630626,1,0,0:0:0:0:
329,332,630708,1,0,0:0:0:0:
311,293,630790,6,0,P|286:316|274:369,2,71.9999978027344,0|0|0,0:0|0:0|0:0,0:0:0:0:
340,178,631037,2,0,P|353:208|400:236,2,71.9999978027344,10|0|0,0:0|0:0|0:0,0:0:0:0:
247,106,631284,2,0,P|280:102|321:66,2,71.9999978027344,0|0|0,0:0|0:0|0:0,0:0:0:0:
141,141,631531,2,0,P|148:108|126:58,2,71.9999978027344,10|0|0,0:0|0:0|0:0,0:0:0:0:
36,220,631778,5,4,3:3:0:0:
84,208,631860,1,0,0:0:0:0:
132,222,631943,1,0,0:0:0:0:
167,258,632025,1,10,0:0:0:0:
180,306,632107,5,4,3:3:0:0:
137,278,632189,1,0,0:0:0:0:
114,234,632272,1,0,0:0:0:0:
116,184,632354,1,0,0:0:0:0:
141,141,632436,5,4,3:3:0:0:
167,184,632519,1,10,0:0:0:0:
210,209,632601,1,0,0:0:0:0:
260,209,632683,1,0,0:0:0:0:
304,185,632766,5,4,3:2:0:0:
261,181,632848,1,0,0:0:0:0:
227,155,632930,1,0,0:0:0:0:
212,115,633012,1,10,0:0:0:0:
221,74,633095,1,0,0:0:0:0:
251,43,633177,1,0,0:0:0:0:
293,34,633259,1,0,0:0:0:0:
333,48,633342,1,0,0:0:0:0:
359,82,633424,1,0,0:0:0:0:
376,120,633506,1,10,0:0:0:0:
412,143,633589,1,0,0:0:0:0:
455,141,633671,1,0,0:0:0:0:
489,115,633753,5,0,0:0:0:0:
456,89,633836,1,0,0:0:0:0:
413,81,633918,1,0,0:0:0:0:
373,96,634000,1,10,0:0:0:0:
345,128,634082,1,0,0:0:0:0:
337,170,634165,1,0,0:0:0:0:
351,211,634247,1,0,0:0:0:0:
382,240,634329,1,0,0:0:0:0:
395,281,634412,1,0,0:0:0:0:
385,322,634494,1,10,0:0:0:0:
356,353,634576,1,0,0:0:0:0:
315,366,634659,1,0,0:0:0:0:
274,356,634741,5,0,0:0:0:0:
263,307,634823,1,0,0:0:0:0:
272,258,634905,1,0,0:0:0:0:
298,215,634988,1,10,0:0:0:0:
338,185,635070,1,0,0:0:0:0:
387,173,635152,1,0,0:0:0:0:
439,183,635235,5,0,0:0:0:0:
411,225,635317,1,0,0:0:0:0:
370,253,635399,1,0,0:0:0:0:
322,265,635482,1,10,0:0:0:0:
272,258,635564,1,0,0:0:0:0:
229,232,635646,1,0,0:0:0:0:
198,191,635729,5,0,0:0:0:0:
241,165,635811,1,0,0:0:0:0:
291,158,635893,1,0,0:0:0:0:
339,170,635975,1,10,0:0:0:0:
380,198,636058,1,0,0:0:0:0:
408,240,636140,1,0,0:0:0:0:
404,290,636222,5,0,0:0:0:0:
371,251,636305,1,0,0:0:0:0:
351,205,636387,1,0,0:0:0:0:
343,155,636469,1,10,0:0:0:0:
348,105,636552,1,0,0:0:0:0:
367,59,636634,1,0,0:0:0:0:
412,35,636716,5,0,1:0:0:0:
414,48,636798,1,0,1:0:0:0:
416,61,636881,1,0,1:0:0:0:
489,74,636963,2,0,L|316:113,1,143.999995605469,4|0,1:3|0:0,0:0:0:0:
135,117,637210,5,0,1:0:0:0:
133,130,637292,1,0,1:0:0:0:
131,143,637375,1,0,1:0:0:0:
58,156,637457,2,0,L|231:195,1,143.999995605469,4|0,1:3|0:0,0:0:0:0:
116,336,637704,5,0,1:3:0:0:
103,339,637786,1,0,1:0:0:0:
90,342,637868,1,0,1:0:0:0:
77,346,637951,1,4,1:3:0:0:
64,349,638033,1,0,1:0:0:0:
51,353,638115,1,0,1:0:0:0:
38,356,638198,1,4,1:3:0:0:
25,360,638280,1,0,1:0:0:0:
12,363,638362,1,0,1:0:0:0:
0,367,638445,1,4,1:3:0:0:
473,239,638692,5,0,1:0:0:0:
490,251,638774,1,0,1:0:0:0:
475,266,638856,1,0,1:0:0:0:
457,253,638938,2,0,B|409:240|409:240|362:251|362:251|297:236,1,143.999995605469,4|0,1:3|0:0,0:0:0:0:
50,132,639185,5,0,1:0:0:0:
33,144,639268,1,0,1:0:0:0:
48,159,639350,1,0,1:0:0:0:
66,146,639432,2,0,B|114:133|114:133|161:144|161:144|226:129,1,143.999995605469,4|0,1:3|0:0,0:0:0:0:
341,80,639679,5,0,1:0:0:0:
360,90,639761,1,0,1:0:0:0:
341,101,639844,1,0,1:0:0:0:
349,91,639926,2,0,B|381:193|381:193|340:160,1,143.999995605469,4|0,1:3|0:0,0:0:0:0:
171,304,640173,5,0,1:0:0:0:
152,294,640255,1,0,1:0:0:0:
171,283,640338,1,0,1:0:0:0:
165,294,640420,2,0,B|133:192|133:192|174:225,1,143.999995605469,4|0,1:3|0:0,0:0:0:0:
334,319,640667,5,4,1:2:0:0:
375,355,640749,1,0,1:0:0:0:
430,346,640831,1,0,1:0:0:0:
459,299,640914,1,10,1:3:0:0:
441,247,640996,1,0,1:0:0:0:
389,227,641078,1,0,1:0:0:0:
336,248,641161,5,10,1:3:0:0:
283,232,641243,1,0,1:0:0:0:
261,181,641325,1,0,1:0:0:0:
286,132,641408,1,10,1:3:0:0:
340,119,641490,1,0,1:0:0:0:
385,153,641572,1,0,1:0:0:0:
393,208,641654,5,10,1:3:0:0:
350,252,641737,1,0,1:0:0:0:
289,259,641819,1,0,1:0:0:0:
237,224,641901,1,10,1:3:0:0:
218,165,641984,1,0,1:0:0:0:
164,135,642066,1,0,1:0:0:0:
104,145,642148,5,10,1:3:0:0:
61,189,642231,1,0,1:0:0:0:
58,249,642313,1,0,1:0:0:0:
96,297,642395,1,10,1:3:0:0:
157,307,642478,1,0,1:0:0:0:
208,274,642560,1,0,1:0:0:0:
225,215,642642,5,10,1:3:0:0:
191,157,642724,1,0,1:0:0:0:
127,137,642807,1,0,1:0:0:0:
62,148,642889,1,10,1:3:0:0:
18,99,642971,1,0,1:0:0:0:
36,37,643054,1,0,1:0:0:0:
100,20,643136,1,10,1:3:0:0:
156,59,643218,1,0,1:0:0:0:
222,70,643301,1,0,1:0:0:0:
288,52,643383,5,10,1:3:0:0:
449,384,643630,5,0,1:0:0:0:
450,376,643712,1,0,1:0:0:0:
451,369,643794,1,0,1:0:0:0:
453,362,643877,1,0,1:0:0:0:
454,355,643959,1,0,1:0:0:0:
456,348,644041,1,0,1:0:0:0:
457,341,644124,1,0,1:0:0:0:
458,334,644206,1,0,1:0:0:0:
460,327,644288,1,0,1:0:0:0:
461,320,644371,5,0,1:0:0:0:
156,234,644617,6,0,P|132:193|137:142,1,90,0|0,0:0|0:0,0:0:0:0:
189,6,645314,2,0,P|213:47|208:98,1,90,2|0,0:0|0:0,0:0:0:0:
77,79,645995,1,2,0:0:0:0:
77,79,646677,5,4,0:0:0:0:
181,106,647017,1,0,0:0:0:0:
210,210,647358,1,2,0:0:0:0:
181,106,647699,1,0,0:0:0:0:
259,32,648039,1,2,0:0:0:0:
250,41,648722,5,2,0:0:0:0:
93,84,649063,1,0,0:0:0:0:
207,197,649404,1,2,0:0:0:0:
181,106,649745,1,0,0:0:0:0:
210,209,650086,1,2,0:0:0:0:
316,213,650427,1,2,0:0:0:0:
345,316,650767,5,2,0:0:0:0:
345,316,651449,1,2,0:0:0:0:
450,293,652131,2,0,P|455:339|436:376,1,90,2|0,0:0|0:0,0:0:0:0:
240,339,652813,2,0,P|233:295|253:255,1,90,2|0,0:0|0:0,0:0:0:0:
410,369,653495,2,0,P|367:350|344:315,1,90,2|0,0:0|0:0,0:0:0:0:
312,192,654177,1,2,0:0:0:0:
384,45,654858,6,0,P|390:88|370:128,1,90,4|0,0:0|0:0,0:0:0:0:
213,14,655540,2,0,P|254:30|278:67,1,90,2|0,0:0|0:0,0:0:0:0:
312,192,656222,1,2,0:0:0:0:
312,192,656904,5,4,0:0:0:0:
207,381,657245,1,0,0:0:0:0:
83,226,657586,1,2,0:0:0:0:
253,284,657927,1,0,0:0:0:0:
215,126,658267,1,2,0:0:0:0:
168,262,658608,1,0,0:0:0:0:
290,231,658949,1,2,0:0:0:0:
188,193,659290,1,0,0:0:0:0:
236,269,659631,1,0,0:0:0:0:
300,300,659972,1,0,0:0:0:0:
353,301,660313,1,2,0:0:0:0:
384,285,660654,1,0,0:0:0:0:
395,272,661006,5,2,0:0:0:0:
