osu file format v14

[General]
AudioFilename: audio.ogg
AudioLeadIn: 0
PreviewTime: 257383
Countdown: 0
SampleSet: Soft
StackLeniency: 0.7
Mode: 0
LetterboxInBreaks: 0
EpilepsyWarning: 1
WidescreenStoryboard: 1

[Editor]
DistanceSpacing: 0.3
BeatDivisor: 4
GridSize: 32
TimelineZoom: 2.099999

[Metadata]
Title:Epitaph
TitleUnicode:Epitaph
Artist:TEARS OF TRAGEDY
ArtistUnicode:TEARS OF TRAGEDY
Creator:jiwoas
Version:Poem
Source:
Tags:melize HARUKA TORU HAYATO MAKI Hiro Naoki Takeyama Shiho Kondo Limitmaker film power melodic japanese rock j-rock jrock symphonic metal Miyazu
BeatmapID:3817010
BeatmapSetID:1857211

[Difficulty]
HPDrainRate:5
CircleSize:4.5
OverallDifficulty:9.7
ApproachRate:9.7
SliderMultiplier:1.93
SliderTickRate:1

[Events]
//Background and Video events
0,0,"bg.jpg",0,0
//Break Periods
//Storyboard Layer 0 (Background)
//Storyboard Layer 1 (Fail)
//Storyboard Layer 2 (Pass)
//Storyboard Layer 3 (Foreground)
//Storyboard Layer 4 (Overlay)
//Storyboard Sound Samples

[TimingPoints]
893,314.13612565445,4,2,3,70,1,0
893,-97.0873786407767,4,2,3,70,0,0
8432,-120.481927710843,4,2,3,70,0,0
15971,-107.52688172043,4,2,3,70,0,0
18092,-107.52688172043,4,2,3,5,0,0
18171,-107.52688172043,4,2,3,60,0,0
19663,-107.52688172043,4,2,3,5,0,0
19741,-107.52688172043,4,2,3,60,0,0
20997,-97.0873786407766,4,2,3,70,0,1
41102,-120.481927710843,4,2,3,60,0,0
47621,-120.481927710843,4,2,3,5,0,0
47699,-120.481927710843,4,2,3,60,0,0
48877,-120.481927710843,4,2,3,5,0,0
48956,-120.481927710843,4,2,3,60,0,0
50134,-120.481927710843,4,2,3,5,0,0
50212,-120.481927710843,4,2,3,60,0,0
51076,-120.481927710843,4,2,3,5,0,0
51154,314.13612565445,3,2,3,60,1,0
51154,-120.481927710843,4,2,3,60,0,0
52333,-120.481927710843,4,2,3,5,0,0
52411,-120.481927710843,4,2,3,60,0,0
53511,-232.558139534884,3,2,3,50,0,0
53903,-232.558139534884,3,2,3,5,0,0
53982,-107.52688172043,3,2,3,60,0,0
55160,-107.52688172043,3,2,3,5,0,0
55238,-107.52688172043,3,2,3,60,0,0
56102,-107.52688172043,3,2,3,5,0,0
56181,-107.52688172043,3,2,3,60,0,0
57673,-107.52688172043,3,2,3,5,0,0
57752,-107.52688172043,3,2,3,60,0,0
58930,-107.52688172043,3,2,3,5,0,0
59008,-107.52688172043,3,2,3,60,0,0
59558,-107.52688172043,3,2,3,5,0,0
59636,-107.52688172043,3,2,3,60,0,0
62699,-107.52688172043,3,2,3,5,0,0
62778,-107.52688172043,3,2,3,60,0,0
63642,-107.52688172043,3,2,3,5,0,0
63720,-107.52688172043,3,2,3,60,0,0
64584,-107.52688172043,3,2,3,5,0,0
64663,-107.52688172043,3,2,3,60,0,0
65526,-107.52688172043,3,2,3,5,0,0
65605,-107.52688172043,3,2,3,60,0,0
66469,-107.52688172043,3,2,3,5,0,0
66547,-107.52688172043,3,2,3,60,0,0
67097,-107.52688172043,3,2,3,5,0,0
67176,-107.52688172043,3,2,3,60,0,0
69060,-120.481927710843,3,2,3,50,0,0
70238,-120.481927710843,3,2,3,5,0,0
70317,-120.481927710843,3,2,3,50,0,0
71181,-120.481927710843,3,2,3,5,0,0
71259,-120.481927710843,3,2,3,50,0,0
72123,-120.481927710843,3,2,3,5,0,0
72202,-120.481927710843,3,2,3,50,0,0
73066,-120.481927710843,3,2,3,5,0,0
73144,-120.481927710843,3,2,3,50,0,0
76835,-120.481927710843,3,2,3,5,0,0
76914,-120.481927710843,3,2,3,50,0,0
78720,-120.481927710843,3,2,3,5,0,0
78799,-120.481927710843,3,2,3,50,0,0
82176,-120.481927710843,3,2,3,5,0,0
82254,-120.481927710843,3,2,3,50,0,0
82490,-120.481927710843,3,2,3,5,0,0
82568,-120.481927710843,3,2,3,50,0,0
83981,-120.481927710843,3,2,3,40,0,0
84139,-136.986301369862,3,2,3,40,0,0
85945,-136.986301369862,3,2,3,5,0,0
86024,-136.986301369862,3,2,3,40,0,0
88144,-136.986301369862,3,2,3,5,0,0
88223,-136.986301369862,3,2,3,40,0,0
90657,-136.986301369862,3,2,3,5,0,0
90736,-136.986301369862,3,2,3,40,0,0
99218,-136.986301369862,3,2,3,50,0,0
99532,-136.986301369862,3,2,3,60,0,0
99846,-136.986301369862,3,2,3,70,0,0
100160,-136.986301369862,3,2,3,80,0,0
100463,311.688311688312,4,2,3,45,1,0
100463,-136.986301369862,3,2,3,45,0,0
101102,314.13612565445,4,2,3,80,1,1
101102,-88.4955752212389,4,2,3,80,0,1
118693,-434.782608695652,4,2,3,50,0,0
119950,-158.730158730159,4,2,3,50,0,0
121128,-158.730158730159,4,2,3,5,0,0
121207,314.13612565445,3,2,3,70,1,0
121207,-97.0873786407767,4,2,3,70,0,0
121756,-97.0873786407767,4,2,3,5,0,0
121834,-97.0873786407767,4,2,3,70,0,0
123955,-97.0873786407767,4,2,3,5,0,0
124033,-97.0873786407767,4,2,3,70,0,0
125526,-97.0873786407767,4,2,3,5,0,0
125604,-97.0873786407767,4,2,3,70,0,0
128667,-97.0873786407767,4,2,3,5,0,0
128745,-97.0873786407767,4,2,3,70,0,0
132201,-136.986301369863,4,2,3,70,0,0
132437,-136.986301369863,4,2,3,70,0,0
132515,-97.0873786407767,4,2,3,70,0,0
132751,-97.0873786407767,4,2,3,5,0,0
132829,-97.0873786407767,4,2,3,70,0,0
133693,-97.0873786407767,4,2,3,5,0,0
133772,-97.0873786407767,4,2,3,70,0,0
136285,-136.986301369863,3,2,3,50,0,0
138405,-136.986301369863,3,2,3,5,0,0
138483,-136.986301369863,3,2,3,50,0,0
140290,-136.986301369863,3,2,3,5,0,0
140368,-136.986301369863,3,2,3,50,0,0
141860,-136.986301369863,3,2,3,5,0,0
141939,-136.986301369863,3,2,3,50,0,0
143824,-107.52688172043,3,2,3,60,0,0
145944,-107.52688172043,3,2,3,5,0,0
146023,-107.52688172043,3,2,3,60,0,0
147829,-107.52688172043,3,2,3,5,0,0
147908,-107.52688172043,3,2,3,60,0,0
149400,-107.52688172043,3,2,3,5,0,0
149478,-107.52688172043,3,2,3,60,0,0
151363,-120.481927710843,3,2,3,50,0,0
151599,-120.481927710843,3,2,3,5,0,0
151677,-120.481927710843,3,2,3,50,0,0
152541,-120.481927710843,3,2,3,5,0,0
152620,-120.481927710843,3,2,3,50,0,0
154426,-120.481927710843,3,2,3,5,0,0
154504,-120.481927710843,3,2,3,50,0,0
156311,-120.481927710843,3,2,3,5,0,0
156389,-120.481927710843,3,2,3,50,0,0
159138,-120.481927710843,3,2,3,5,0,0
159216,-120.481927710843,3,2,3,50,0,0
160080,-120.481927710843,3,2,3,5,0,0
160159,-120.481927710843,3,2,3,50,0,0
160709,-120.481927710843,3,2,3,5,0,0
160787,-120.481927710843,3,2,3,50,0,0
161651,-120.481927710843,3,2,3,5,0,0
161730,-120.481927710843,3,2,3,50,0,0
163850,-120.481927710843,3,2,3,5,0,0
163928,-120.481927710843,3,2,3,50,0,0
164792,-120.481927710843,3,2,3,5,0,0
164871,-120.481927710843,3,2,3,50,0,0
165421,-120.481927710843,3,2,3,5,0,0
165499,-120.481927710843,3,2,3,50,0,0
166442,-136.986301369862,3,2,3,40,0,0
167934,-136.986301369862,3,2,3,5,0,0
168012,-136.986301369862,3,2,3,30,0,0
168327,-136.986301369862,3,2,3,40,0,0
169112,-136.986301369862,3,2,3,5,0,0
169269,-136.986301369862,3,2,3,40,0,0
170054,-136.986301369862,3,2,3,5,0,0
170211,-136.986301369862,3,2,3,40,0,0
170761,-136.986301369862,3,2,3,5,0,0
170839,-136.986301369862,3,2,3,40,0,0
171782,-136.986301369862,3,2,3,30,0,0
172097,-136.986301369862,3,2,3,40,0,0
173038,-136.986301369862,3,2,3,5,0,0
173981,-136.986301369862,3,2,3,40,0,0
175552,-136.986301369862,3,2,3,30,0,0
175866,-136.986301369862,3,2,3,40,0,0
176651,-136.986301369862,3,2,3,5,0,0
176808,-136.986301369862,3,2,3,40,0,0
177123,-136.986301369862,3,2,3,30,0,0
177672,-136.986301369862,3,2,3,5,0,0
177750,-136.986301369862,3,2,3,40,0,0
181442,-136.986301369862,3,2,3,5,0,0
181520,-769.230769230769,3,2,3,40,0,0
182463,-136.986301369862,3,2,3,30,0,0
182777,-136.986301369862,3,2,3,45,0,0
183406,314.13612565445,4,2,3,80,1,1
183406,-88.4955752212389,4,2,3,80,0,1
203510,-136.986301369863,4,2,3,70,0,0
204766,-136.986301369863,4,2,3,60,0,0
205394,-136.986301369863,4,2,3,50,0,0
206022,-136.986301369863,4,2,3,45,0,0
206336,-136.986301369863,4,2,3,50,0,0
206651,-136.986301369863,4,2,3,60,0,0
206965,-136.986301369863,4,2,3,50,0,0
207279,-136.986301369863,4,2,3,70,0,0
208535,-120.481927710843,4,2,3,70,0,0
213169,-120.481927710843,4,2,3,5,0,0
213247,-120.481927710843,4,2,3,70,0,0
213563,314.13612565445,3,2,3,70,1,0
213563,-107.52688172043,4,2,3,70,0,0
217332,314.13612565445,4,2,3,80,1,1
217332,-88.4955752212389,4,2,3,80,0,1
237437,314.13612565445,3,2,3,40,1,0
237437,-136.986301369863,3,2,3,40,0,0
238299,-136.986301369863,3,2,3,5,0,0
238378,-136.986301369863,3,2,3,40,0,0
239006,-136.986301369863,3,2,3,30,0,0
239320,-136.986301369863,3,2,3,40,0,0
240106,-136.986301369863,3,2,3,5,0,0
240263,-136.986301369863,3,2,3,40,0,0
241048,-136.986301369863,3,2,3,5,0,0
241205,-136.986301369863,3,2,3,40,0,0
241755,-136.986301369863,3,2,3,5,0,0
241833,-136.986301369863,3,2,3,40,0,0
242776,-136.986301369863,3,2,3,30,0,0
243090,-136.986301369863,3,2,3,40,0,0
244033,-136.986301369863,3,2,3,5,0,0
244661,-136.986301369863,3,2,3,40,0,0
246545,-136.986301369863,3,2,3,30,0,0
246860,-136.986301369863,3,2,3,40,0,0
247645,-136.986301369863,3,2,3,5,0,0
247802,-136.986301369863,3,2,3,40,0,0
248116,-136.986301369863,3,2,3,30,0,0
248666,-136.986301369863,3,2,3,5,0,0
248744,-136.986301369863,3,2,3,40,0,0
253771,-769.230769230769,3,2,3,40,0,0
254320,-136.986301369863,3,2,3,5,0,0
254399,-136.986301369863,3,2,3,30,0,0
256284,-136.986301369863,3,2,3,5,0,0
257496,314.13612565445,3,2,3,45,1,0
258170,314.13612565445,4,2,3,80,1,1
258170,-88.4955752212389,4,2,3,80,0,1
277960,-88.4955752212389,4,2,3,80,0,0
278196,-88.4955752212389,4,2,3,5,0,0
278274,-81.3008130081301,4,2,3,80,0,1
295866,-88.4955752212389,4,2,3,70,0,0
296180,-434.782608695652,4,2,3,50,0,0
297122,-158.730158730159,4,2,3,50,0,0
298379,-97.0873786407767,4,2,3,70,0,1
313457,-88.4955752212389,4,2,3,70,0,1
318484,-120.481927710843,4,2,3,70,0,0
323510,-97.0873786407764,4,2,3,80,0,0
328536,-120.481927710843,4,2,3,70,0,0
335290,333.333333333333,4,2,3,40,1,0
335290,-232.558139534882,4,2,3,40,0,0
335456,307.692307692308,4,2,3,40,1,0
335456,-232.558139534884,4,2,3,40,0,0
335609,314.13612565445,4,2,3,40,1,0
339692,-232.558139534882,4,2,3,5,0,0

[Colours]
Combo1 : 120,120,120
Combo2 : 100,100,255
Combo3 : 128,128,192
Combo4 : 140,140,255
Combo5 : 83,83,166
Combo6 : 192,192,192

[HitObjects]
137,84,422,85,0,1:0:0:0:
140,92,500,1,0,1:0:0:0:
143,99,579,1,8,0:0:0:0:
175,113,657,1,8,3:0:0:0:
209,102,736,1,8,3:0:0:0:
221,67,815,1,8,3:0:0:0:
191,34,893,69,6,1:2:0:0:
183,82,971,1,0,1:0:0:0:
213,121,1050,1,8,0:0:0:0:
261,132,1128,1,0,1:0:0:0:
305,107,1207,5,2,1:2:0:0:
323,61,1285,1,0,1:0:0:0:
360,28,1364,1,8,0:0:0:0:
408,17,1442,1,0,1:0:0:0:
456,30,1521,1,2,1:2:0:0:
491,64,1599,1,0,1:0:0:0:
507,111,1678,1,8,0:0:0:0:
499,159,1756,1,0,1:0:0:0:
469,198,1835,69,6,1:2:0:0:
429,199,1914,1,0,1:0:0:0:
408,176,1993,1,8,0:0:0:0:
408,156,2071,1,0,1:0:0:0:
414,148,2150,5,6,1:2:0:0:
450,181,2228,1,0,1:0:0:0:
467,228,2307,1,8,0:0:0:0:
460,276,2385,1,0,1:0:0:0:
431,316,2464,1,2,1:2:0:0:
387,338,2542,1,0,1:0:0:0:
338,337,2621,1,8,0:0:0:0:
295,313,2699,1,0,1:0:0:0:
267,271,2778,69,2,1:2:0:0:
278,214,2856,1,0,1:0:0:0:
250,163,2935,1,12,0:0:0:0:
196,141,3013,1,0,1:0:0:0:
140,160,3092,5,2,1:2:0:0:
73,156,3170,1,0,1:0:0:0:
32,102,3249,1,8,0:0:0:0:
45,36,3327,1,0,1:0:0:0:
104,3,3406,69,6,1:2:0:0:
137,12,3484,1,0,1:0:0:0:
171,22,3563,1,8,0:0:0:0:
204,33,3641,1,0,1:0:0:0:
237,43,3720,2,0,P|260:33|283:24,1,49.697499582922,0|0,1:0|1:0,0:0:0:0:
346,129,3877,2,0,P|323:118|300:110,1,49.697499582922,8|0,0:0|1:0,0:0:0:0:
406,33,4034,5,2,1:2:0:0:
452,47,4112,1,0,1:0:0:0:
482,86,4191,1,8,0:0:0:0:
484,135,4269,1,0,1:0:0:0:
458,177,4349,2,0,P|440:194|427:215,3,49.697499582922,0|0|8|0,1:0|1:0|0:0|1:0,0:0:0:0:
497,347,4663,69,2,1:2:0:0:
465,308,4741,1,0,1:0:0:0:
420,289,4820,1,8,0:0:0:0:
371,291,4898,1,0,1:0:0:0:
328,316,4977,1,0,1:0:0:0:
288,344,5055,1,0,1:0:0:0:
239,346,5134,1,8,0:0:0:0:
197,321,5212,1,0,1:0:0:0:
175,277,5291,5,2,1:2:0:0:
166,244,5369,1,0,1:0:0:0:
154,232,5448,2,0,P|133:220|109:216,1,49.697499582922,12|0,0:0|1:0,0:0:0:0:
100,299,5605,2,0,P|76:305|56:320,1,49.697499582922,8|8,0:0|0:0,0:0:0:0:
239,231,5762,1,8,0:0:0:0:
252,237,5841,1,8,0:0:0:0:
266,242,5919,69,6,1:2:0:0:
313,206,5997,1,8,0:0:0:0:
321,146,6076,1,8,0:0:0:0:
287,97,6154,1,8,0:0:0:0:
228,82,6233,1,8,1:2:0:0:
178,114,6311,1,0,0:0:0:0:
153,168,6390,1,4,1:2:0:0:
95,183,6469,1,8,0:0:0:0:
39,170,6548,5,8,0:0:0:0:
12,127,6626,1,8,0:0:0:0:
9,83,6705,1,8,0:0:0:0:
26,43,6783,1,8,0:0:0:0:
57,23,6862,1,0,1:0:0:0:
86,15,6940,1,0,1:0:0:0:
117,22,7019,1,0,1:0:0:0:
134,37,7097,1,0,1:0:0:0:
143,51,7176,70,0,P|108:196|83:343,1,298.184997497532,6|0,1:2|0:0,0:0:0:0:
187,382,7804,5,8,0:0:0:0:
234,373,7882,1,8,3:0:0:0:
263,334,7961,1,0,1:0:0:0:
259,286,8039,1,0,1:0:0:0:
243,266,8118,69,8,3:0:0:0:
236,217,8196,1,8,3:0:0:0:
261,175,8275,1,8,3:0:0:0:
307,157,8353,1,8,3:0:0:0:
354,171,8432,5,4,1:2:0:0:
379,264,8589,1,2,0:0:0:0:
446,146,8747,1,2,0:0:0:0:
471,238,8904,1,2,0:0:0:0:
342,348,9061,69,2,0:0:0:0:
263,334,9218,1,2,0:0:0:0:
209,274,9375,1,2,0:0:0:0:
130,260,9532,1,2,0:0:0:0:
25,50,9689,5,6,1:2:0:0:
92,168,9846,1,2,0:0:0:0:
117,76,10002,1,2,0:0:0:0:
0,143,10161,1,2,0:0:0:0:
130,260,10317,69,2,0:0:0:0:
209,246,10474,1,2,0:0:0:0:
263,186,10631,1,2,0:0:0:0:
342,172,10788,1,2,0:0:0:0:
487,0,10945,5,6,1:2:0:0:
395,25,11102,1,2,0:0:0:0:
420,118,11260,1,2,0:0:0:0:
512,92,11417,1,2,0:0:0:0:
342,172,11574,69,2,0:0:0:0:
263,158,11731,1,2,0:0:0:0:
209,98,11888,1,2,0:0:0:0:
130,84,12045,1,2,0:0:0:0:
32,224,12201,6,0,P|43:262|53:301,1,80.0950011610451,6|2,1:2|0:0,0:0:0:0:
283,80,12516,2,0,P|273:118|263:157,1,80.0950011610451,2|2,0:0|0:0,0:0:0:0:
414,384,12830,69,10,1:3:0:0:
453,379,12908,1,8,1:3:0:0:
485,355,12987,1,0,1:0:0:0:
501,319,13065,1,0,1:0:0:0:
496,280,13144,2,0,P|435:261|379:241,1,120.142501741568,10|0,0:0|0:0,0:0:0:0:
366,233,13458,5,6,1:2:0:0:
279,276,13616,1,2,0:0:0:0:
200,359,13773,1,2,0:0:0:0:
113,316,13929,1,2,0:0:0:0:
171,112,14087,69,2,0:0:0:0:
192,257,14244,1,2,0:0:0:0:
177,100,14401,1,2,0:0:0:0:
198,245,14558,1,2,0:0:0:0:
510,126,14715,5,6,1:2:0:0:
423,83,14873,1,2,0:0:0:0:
344,0,15030,1,2,0:0:0:0:
257,43,15186,1,2,0:0:0:0:
314,227,15343,69,2,0:0:0:0:
335,82,15500,1,2,0:0:0:0:
320,239,15657,1,2,0:0:0:0:
341,94,15814,1,2,0:0:0:0:
489,264,15972,6,0,B|439:280|439:280|428:310|428:310|363:331,1,134.617504210905,6|0,1:2|0:0,0:0:0:0:
323,384,16286,2,0,B|289:350|289:350|301:300,1,89.7450028072701,0|2,1:0|0:0,0:0:0:0:
462,134,16600,69,0,1:0:0:0:
411,202,16757,1,2,0:0:0:0:
409,219,16914,1,2,1:2:0:0:
309,65,17071,1,2,0:0:0:0:
171,184,17228,6,0,P|190:248|204:314,1,134.617504210905,2|0,1:2|0:0,0:0:0:0:
243,384,17542,2,0,P|275:354|281:310,1,89.7450028072701,2|0,1:2|0:0,0:0:0:0:
71,238,17856,70,0,B|46:203|26:185|26:185|52:156|84:118,1,134.617504210905,2|0,1:2|0:0,0:0:0:0:
81,120,18171,2,0,P|124:110|166:94,1,89.7450028072701,2|0,1:2|0:0,0:0:0:0:
352,0,18485,6,0,P|318:29|308:72,1,89.7450028072701,6|0,1:2|0:0,0:0:0:0:
407,126,18799,2,0,P|440:96|450:53,1,89.7450028072701,2|0,1:2|0:0,0:0:0:0:
281,160,19113,2,0,P|324:169|353:203,1,89.7450028072701,2|0,1:2|0:0,0:0:0:0:
493,316,19427,2,0,B|459:297|455:260|455:260|442:295|409:307,1,134.617504210905,2|0,1:2|0:0,0:0:0:0:
326,287,19741,69,12,0:0:0:0:
326,287,20369,6,0,P|305:292|284:300,1,44.8725014036351,10|0,0:0|0:0,0:0:0:0:
210,351,20527,1,8,3:0:0:0:
200,342,20605,1,8,3:0:0:0:
193,330,20684,1,0,0:0:0:0:
189,317,20762,1,0,0:0:0:0:
189,303,20841,1,8,3:0:0:0:
191,289,20919,1,8,3:0:0:0:
196,281,20998,5,6,1:2:0:0:
219,237,21076,1,0,1:0:0:0:
212,188,21155,1,0,1:0:0:0:
179,152,21233,1,0,1:0:0:0:
132,141,21312,5,10,0:0:0:0:
97,88,21390,1,0,1:0:0:0:
113,28,21469,1,0,1:0:0:0:
168,0,21547,1,0,1:0:0:0:
227,20,21626,5,10,0:0:0:0:
259,33,21704,1,0,1:0:0:0:
291,46,21783,1,0,1:0:0:0:
324,59,21861,1,0,1:0:0:0:
356,72,21940,5,10,0:0:0:0:
380,67,22018,1,0,1:0:0:0:
404,62,22097,1,0,1:0:0:0:
429,56,22175,1,0,1:0:0:0:
452,50,22254,37,10,0:0:0:0:
500,98,22332,1,0,1:0:0:0:
499,166,22411,1,0,1:0:0:0:
449,212,22489,1,0,1:0:0:0:
382,208,22568,6,0,P|360:196|336:191,1,49.697499582922,10|0,0:0|1:0,0:0:0:0:
282,304,22726,2,0,P|302:290|319:272,1,49.697499582922,2|0,1:2|1:0,0:0:0:0:
248,172,22883,2,0,P|248:196|256:220,3,49.697499582922,10|0|0|0,0:0|1:0|1:0|1:0,0:0:0:0:
327,381,23197,5,10,0:0:0:0:
306,353,23275,1,0,1:0:0:0:
276,335,23354,1,0,1:0:0:0:
242,330,23432,1,0,1:0:0:0:
209,339,23511,5,10,0:0:0:0:
144,363,23589,1,0,1:0:0:0:
77,350,23668,1,0,1:0:0:0:
26,305,23746,1,0,1:0:0:0:
5,239,23825,1,8,0:0:0:0:
21,172,23903,1,0,1:0:0:0:
69,123,23982,1,0,1:0:0:0:
136,106,24060,1,0,1:0:0:0:
202,125,24139,38,0,P|195:149|189:173,3,49.697499582922,10|0|0|0,0:0|1:0|1:0|1:0,0:0:0:0:
285,64,24453,2,0,P|291:87|297:112,3,49.697499582922,10|0|0|0,0:0|1:0|1:0|1:0,0:0:0:0:
309,254,24767,5,6,0:0:0:0:
357,266,24845,1,0,1:0:0:0:
405,257,24924,1,0,1:0:0:0:
445,227,25002,1,0,1:0:0:0:
467,183,25081,1,4,0:0:0:0:
468,134,25159,1,0,1:0:0:0:
448,89,25238,1,0,1:0:0:0:
410,58,25316,1,0,1:0:0:0:
363,45,25396,5,4,0:0:0:0:
285,64,25474,1,8,0:0:0:0:
208,83,25553,1,8,0:0:0:0:
131,102,25631,1,8,0:0:0:0:
56,120,25710,6,0,P|50:95|43:71,1,49.697499582922,14|0,1:2|1:0,0:0:0:0:
176,212,25867,2,0,P|181:187|188:163,1,49.697499582922,2|0,1:2|1:0,0:0:0:0:
22,286,26024,37,14,1:2:0:0:
67,266,26102,1,0,1:0:0:0:
116,269,26181,1,0,1:0:0:0:
158,294,26259,1,0,1:0:0:0:
184,336,26339,5,10,0:0:0:0:
231,370,26416,1,0,1:0:0:0:
295,372,26495,1,0,1:0:0:0:
349,339,26573,1,0,1:0:0:0:
375,281,26652,5,10,0:0:0:0:
348,259,26730,1,0,1:0:0:0:
334,228,26809,1,0,1:0:0:0:
334,194,26887,1,0,1:0:0:0:
350,163,26966,5,10,0:0:0:0:
372,152,27044,1,0,1:0:0:0:
386,132,27123,1,0,1:0:0:0:
390,107,27201,1,0,1:0:0:0:
385,83,27281,37,10,0:0:0:0:
428,32,27359,1,0,1:0:0:0:
494,44,27438,1,0,1:0:0:0:
512,107,27516,1,0,1:0:0:0:
472,161,27595,6,0,P|454:178|445:201,1,49.697499582922,10|0,0:0|1:0,0:0:0:0:
512,311,27752,2,0,P|506:286|490:268,1,49.697499582922,2|0,1:2|1:0,0:0:0:0:
361,267,27909,2,0,P|384:274|408:269,3,49.697499582922,10|0|0|0,0:0|1:0|1:0|1:0,0:0:0:0:
304,94,28223,5,14,0:0:0:0:
270,102,28301,1,0,1:0:0:0:
236,98,28380,1,0,1:0:0:0:
206,81,28458,1,0,1:0:0:0:
184,54,28537,5,14,0:0:0:0:
240,81,28615,1,0,1:0:0:0:
257,142,28694,1,0,1:0:0:0:
224,195,28772,1,0,1:0:0:0:
162,205,28851,37,10,0:0:0:0:
116,188,28929,1,0,1:0:0:0:
72,208,29008,1,0,1:0:0:0:
53,253,29086,1,0,1:0:0:0:
70,298,29165,5,10,0:0:0:0:
102,285,29243,1,0,1:0:0:0:
137,286,29322,1,0,1:0:0:0:
167,302,29400,1,0,1:0:0:0:
187,332,29479,5,10,0:0:0:0:
209,341,29557,1,0,1:0:0:0:
234,342,29636,1,0,1:0:0:0:
257,333,29714,1,0,1:0:0:0:
276,316,29794,5,10,0:0:0:0:
281,247,29872,1,8,0:0:0:0:
329,197,29951,1,8,0:0:0:0:
397,201,30029,1,8,0:0:0:0:
439,245,30108,37,8,3:0:0:0:
414,244,30186,1,8,3:0:0:0:
394,230,30265,1,8,3:0:0:0:
386,207,30343,1,8,3:0:0:0:
391,183,30421,5,8,0:0:0:0:
376,125,30501,1,0,1:0:0:0:
326,91,30578,1,0,1:0:0:0:
263,98,30658,1,8,3:0:0:0:
227,145,30736,5,8,0:0:0:0:
192,179,30814,1,8,3:0:0:0:
142,182,30893,1,0,1:0:0:0:
99,157,30971,1,0,1:0:0:0:
91,113,31050,5,6,1:2:0:0:
126,147,31128,1,0,1:0:0:0:
128,196,31207,1,0,1:0:0:0:
107,240,31285,1,0,1:0:0:0:
63,270,31364,37,10,0:0:0:0:
125,289,31442,1,0,1:0:0:0:
186,308,31521,1,0,1:0:0:0:
248,327,31599,1,0,1:0:0:0:
314,340,31679,5,10,0:0:0:0:
345,325,31757,1,0,1:0:0:0:
363,296,31836,1,0,1:0:0:0:
364,262,31914,1,0,1:0:0:0:
346,233,31993,5,10,0:0:0:0:
326,219,32071,1,0,1:0:0:0:
318,196,32150,1,0,1:0:0:0:
323,172,32228,1,0,1:0:0:0:
344,156,32307,5,10,0:0:0:0:
278,141,32385,1,0,1:0:0:0:
248,81,32464,1,0,1:0:0:0:
277,20,32542,1,0,1:0:0:0:
342,4,32621,38,0,P|365:13|383:30,1,49.697499582922,10|0,0:0|1:0,0:0:0:0:
459,68,32778,2,0,P|468:90|469:115,1,49.697499582922,2|0,1:2|1:0,0:0:0:0:
499,195,32935,2,0,P|489:217|472:236,3,49.697499582922,10|0|0|0,0:0|1:0|1:0|1:0,0:0:0:0:
393,364,33249,5,10,0:0:0:0:
405,331,33327,1,0,1:0:0:0:
401,297,33406,1,0,1:0:0:0:
381,269,33484,1,0,1:0:0:0:
350,254,33563,5,14,0:0:0:0:
286,277,33641,1,0,1:0:0:0:
223,251,33720,1,0,1:0:0:0:
193,190,33798,1,0,1:0:0:0:
213,124,33878,1,8,0:0:0:0:
214,56,33956,1,0,1:0:0:0:
171,4,34035,1,0,1:0:0:0:
103,0,34113,1,0,1:0:0:0:
46,30,34191,6,0,P|50:55|67:73,3,49.697499582922,10|0|0|0,0:0|1:0|1:0|1:0,0:0:0:0:
84,148,34506,2,0,P|108:144|127:128,3,49.697499582922,10|0|0|0,0:0|1:0|1:0|1:0,0:0:0:0:
277,8,34820,37,14,0:0:0:0:
344,0,34898,1,0,1:0:0:0:
400,34,34977,1,0,1:0:0:0:
416,100,35055,1,0,1:0:0:0:
383,159,35133,1,14,0:0:0:0:
333,205,35213,1,0,1:0:0:0:
329,273,35290,1,0,1:0:0:0:
372,325,35370,1,0,1:0:0:0:
440,332,35448,6,0,P|462:314|468:288,1,49.697499582922,14|8,0:0|0:0,0:0:0:0:
324,93,35605,1,8,0:0:0:0:
245,106,35684,1,8,0:0:0:0:
167,118,35762,2,0,P|159:94|151:70,1,49.697499582922,10|8,0:0|3:0,0:0:0:0:
20,203,35919,2,0,P|27:179|35:155,1,49.697499582922,10|0,3:0|1:0,0:0:0:0:
164,249,36076,5,6,1:2:0:0:
210,265,36154,1,0,1:0:0:0:
257,253,36233,1,0,1:0:0:0:
289,216,36311,1,0,1:0:0:0:
295,168,36391,5,10,0:0:0:0:
283,106,36469,1,0,1:0:0:0:
313,50,36548,1,0,1:0:0:0:
372,26,36626,1,0,1:0:0:0:
432,46,36705,37,10,0:0:0:0:
423,80,36783,1,0,1:0:0:0:
415,114,36862,1,0,1:0:0:0:
406,147,36940,1,0,1:0:0:0:
398,181,37019,5,10,0:0:0:0:
406,205,37097,1,0,1:0:0:0:
413,228,37176,1,0,1:0:0:0:
421,252,37254,1,0,1:0:0:0:
431,278,37333,5,10,0:0:0:0:
396,336,37411,1,0,1:0:0:0:
332,360,37490,1,0,1:0:0:0:
268,336,37568,1,0,1:0:0:0:
234,278,37647,6,0,P|228:253|215:233,1,49.697499582922,10|0,0:0|1:0,0:0:0:0:
91,286,37804,2,0,P|114:293|139:292,1,49.697499582922,2|0,1:2|1:0,0:0:0:0:
162,159,37961,2,0,P|143:175|132:197,3,49.697499582922,10|0|0|0,0:0|1:0|1:0|1:0,0:0:0:0:
8,338,38275,37,14,0:0:0:0:
29,364,38353,1,0,1:0:0:0:
60,381,38432,1,0,1:0:0:0:
94,385,38510,1,0,1:0:0:0:
127,375,38590,5,14,0:0:0:0:
154,317,38668,1,0,1:0:0:0:
210,288,38747,1,0,1:0:0:0:
273,297,38825,1,0,1:0:0:0:
318,344,38904,5,10,0:0:0:0:
361,367,38982,1,0,1:0:0:0:
409,360,39061,1,0,1:0:0:0:
445,327,39139,1,0,1:0:0:0:
455,279,39218,5,10,0:0:0:0:
430,255,39296,1,0,1:0:0:0:
420,222,39375,1,0,1:0:0:0:
428,189,39453,1,0,1:0:0:0:
449,162,39532,37,10,0:0:0:0:
435,182,39610,1,0,1:0:0:0:
415,196,39689,1,0,1:0:0:0:
390,199,39767,1,0,1:0:0:0:
367,191,39846,5,10,3:0:0:0:
338,134,39924,1,8,3:0:0:0:
285,99,40003,1,4,0:0:0:0:
221,95,40081,1,8,3:0:0:0:
164,124,40160,6,0,P|171:147|177:171,1,49.697499582922,4|8,0:0|3:0,0:0:0:0:
252,219,40317,2,0,P|258:194|265:171,1,49.697499582922,8|8,3:0|3:0,0:0:0:0:
137,34,40474,5,10,1:2:0:0:
61,50,40552,1,8,0:0:0:0:
22,116,40631,1,8,0:0:0:0:
44,190,40709,1,8,0:0:0:0:
113,224,40788,1,10,0:0:0:0:
181,258,40866,1,8,0:0:0:0:
186,333,40945,1,8,0:0:0:0:
123,375,41023,1,8,0:0:0:0:
52,345,41102,38,0,P|45:305|36:266,1,80.0950011610451,6|0,1:2|0:0,0:0:0:0:
164,124,41417,1,2,0:0:0:0:
0,0,41574,2,0,B|20:88|20:88|53:104|86:72,1,160.19000232209,2|0,0:0|0:0,0:0:0:0:
308,255,42202,5,2,0:0:0:0:
308,255,42280,1,2,0:0:0:0:
308,255,42359,6,0,B|277:228|243:208|243:208|266:171|291:125,1,160.19000232209,6|0,1:2|0:0,0:0:0:0:
424,35,42830,2,0,B|455:62|489:82|489:82|466:119|441:165,1,160.19000232209,2|0,0:0|0:0,0:0:0:0:
493,345,43458,5,0,1:0:0:0:
486,334,43536,1,0,1:0:0:0:
479,323,43616,38,0,P|490:284|500:245,1,80.0950011610451,14|0,1:2|0:0,0:0:0:0:
380,384,43930,1,2,0:0:0:0:
267,248,44087,2,0,P|316:190|390:207,1,160.19000232209,2|0,0:0|0:0,0:0:0:0:
160,384,44714,5,0,1:0:0:0:
150,377,44794,1,0,1:0:0:0:
140,369,44872,6,0,P|147:329|156:290,1,80.0950011610451,6|0,1:2|0:0,0:0:0:0:
92,242,45108,2,0,P|84:281|75:320,1,80.0950011610451,2|0,0:0|0:0,0:0:0:0:
39,384,45343,1,2,0:0:0:0:
290,373,45500,5,0,1:0:0:0:
328,365,45578,1,0,1:0:0:0:
358,339,45657,1,8,0:0:0:0:
370,302,45735,1,8,0:0:0:0:
361,263,45815,1,8,3:0:0:0:
337,232,45893,1,8,3:0:0:0:
331,193,45972,1,0,1:0:0:0:
344,156,46050,1,0,1:0:0:0:
374,130,46129,38,0,P|413:120|452:112,1,80.0950011610451,6|0,1:2|0:0,0:0:0:0:
320,0,46443,1,2,0:0:0:0:
204,121,46600,2,0,P|227:197|246:275,1,160.19000232209,2|0,0:0|0:0,0:0:0:0:
47,131,47228,5,0,1:0:0:0:
36,125,47307,1,0,1:0:0:0:
25,119,47385,6,0,P|12:63|55:25,1,120.142501741568,6|0,1:2|0:0,0:0:0:0:
84,26,47699,1,8,3:0:0:0:
217,106,47856,2,0,P|177:114|138:123,1,80.0950011610451,2|0,0:0|0:0,0:0:0:0:
223,1,48171,2,0,B|268:4|268:4|303:42,1,80.0950011610451,8|0,3:0|0:0,0:0:0:0:
449,202,48642,6,0,P|462:143|479:85,1,120.142501741568,4|0,1:2|0:0,0:0:0:0:
490,13,48956,2,0,P|450:11|421:37,1,80.0950011610451,2|0,1:2|0:0,0:0:0:0:
303,108,49270,2,0,P|342:106|371:132,1,80.0950011610451,2|0,0:0|0:0,0:0:0:0:
443,289,49584,2,0,P|482:290|511:264,1,80.0950011610451,2|0,0:0|0:0,0:0:0:0:
310,194,49898,38,0,B|241:182|259:235|178:218,1,120.142501741568,2|0,0:0|0:0,0:0:0:0:
122,254,50212,2,0,B|104:215|104:215|132:177,1,80.0950011610451,10|0,0:0|0:0,0:0:0:0:
266,48,50527,2,0,B|287:86|287:86|266:124,1,80.0950011610451,2|0,1:2|0:0,0:0:0:0:
33,77,50841,2,0,P|71:33|129:36,1,120.142501741568,2|0,0:0|0:0,0:0:0:0:
152,56,51155,5,6,1:2:0:0:
213,186,51312,5,0,1:0:0:0:
213,186,51390,1,0,1:0:0:0:
213,186,51469,2,0,P|206:204|200:223,1,40.0475005805225,8|8,0:0|3:0,0:0:0:0:
100,294,51626,1,0,1:0:0:0:
100,294,51704,1,0,1:0:0:0:
100,294,51783,38,0,P|93:274|87:256,1,40.0475005805225,2|0,1:2|1:0,0:0:0:0:
230,336,51940,2,0,P|247:327|266:319,1,40.0475005805225,2|0,1:2|1:0,0:0:0:0:
507,165,52097,6,0,B|479:145|478:112|478:112|466:142|433:151,1,120.142501741568,6|0,1:2|0:0,0:0:0:0:
369,101,52411,1,8,0:0:0:0:
321,66,52489,1,8,0:0:0:0:
263,72,52568,1,8,0:0:0:0:
224,116,52646,1,8,0:0:0:0:
224,174,52724,1,8,0:0:0:0:
236,232,52804,1,8,0:0:0:0:
205,282,52881,1,8,0:0:0:0:
149,296,52961,1,8,0:0:0:0:
97,268,53038,1,8,0:0:0:0:
97,268,53510,5,2,0:0:0:0:
97,268,53667,2,0,P|127:274|157:283,1,62.2425009497452,2|0,0:0|0:0,0:0:0:0:
221,345,53982,38,0,P|178:353|123:372,1,89.7450028072701,2|0,1:2|0:0,0:0:0:0:
224,231,54296,2,0,P|268:231|301:260,1,89.7450028072701,2|0,1:2|0:0,0:0:0:0:
458,361,54610,1,2,1:2:0:0:
397,218,54767,1,2,0:0:0:0:
466,379,54924,6,0,P|480:313|495:247,1,134.617504210905,2|0,1:2|0:0,0:0:0:0:
512,175,55238,2,0,P|468:169|435:197,1,89.7450028072701,0|0,1:0|0:0,0:0:0:0:
326,362,55551,1,0,1:0:0:0:
275,244,55708,1,2,0:0:0:0:
275,244,55867,6,0,B|364:257|309:292|401:307,1,134.617504210905,2|0,1:2|0:0,0:0:0:0:
414,306,56181,1,2,1:2:0:0:
321,172,56338,1,2,0:0:0:0:
390,109,56495,1,2,1:2:0:0:
468,153,56652,1,2,0:0:0:0:
316,51,56809,6,0,P|281:77|237:87,1,89.7450028072701,2|0,1:2|0:0,0:0:0:0:
60,139,57123,2,0,P|103:149|139:175,1,89.7450028072701,0|0,1:0|0:0,0:0:0:0:
265,335,57437,2,0,B|289:315|291:275|291:275|306:311|342:318,1,134.617504210905,0|0,1:0|0:0,0:0:0:0:
403,368,57750,38,0,P|427:332|419:289,1,89.7450028072701,6|0,1:2|0:0,0:0:0:0:
205,277,58064,1,2,1:2:0:0:
252,208,58223,5,2,0:0:0:0:
287,357,58380,1,2,1:2:0:0:
138,328,58537,1,2,0:0:0:0:
95,180,58694,6,0,P|117:119|138:36,1,134.617504210905,0|0,1:0|0:0,0:0:0:0:
150,31,59008,2,0,P|112:8|61:26,1,89.7450028072701,0|0,1:0|0:0,0:0:0:0:
248,141,59322,2,0,B|334:127|297:190|380:175,1,134.617504210905,2|0,1:2|0:0,0:0:0:0:
387,173,59636,5,2,1:2:0:0:
455,70,59793,1,2,0:0:0:0:
468,51,59950,1,2,1:2:0:0:
509,224,60106,37,2,0:0:0:0:
330,308,60263,1,2,1:2:0:0:
468,353,60422,1,2,0:0:0:0:
387,173,60579,5,2,1:2:0:0:
429,264,60736,1,8,3:0:0:0:
424,276,60814,1,8,3:0:0:0:
419,288,60893,1,8,3:0:0:0:
385,377,61050,1,8,3:0:0:0:
250,271,61207,5,8,0:0:0:0:
313,214,61364,1,8,0:0:0:0:
230,360,61521,6,0,P|185:343|163:293,1,89.7450028072701,2|0,1:2|0:0,0:0:0:0:
309,129,61835,2,0,P|359:141|410:149,1,89.7450028072701,0|2,1:0|0:0,0:0:0:0:
251,20,62149,1,2,1:2:0:0:
211,200,62306,1,2,0:0:0:0:
32,52,62462,38,0,P|74:3|139:11,1,134.617504210905,2|0,1:2|0:0,0:0:0:0:
161,27,62778,2,0,P|145:69|132:112,1,89.7450028072701,0|0,1:0|0:0,0:0:0:0:
93,311,63092,1,0,1:0:0:0:
0,217,63249,1,2,0:0:0:0:
0,217,63406,6,0,P|65:203|131:190,1,134.617504210905,2|0,1:2|0:0,0:0:0:0:
153,186,63720,1,2,1:2:0:0:
209,367,63877,1,2,0:0:0:0:
294,241,64034,1,2,1:2:0:0:
185,274,64191,1,2,0:0:0:0:
387,384,64348,6,0,B|394:298|430:332|436:232,1,134.617504210905,0|0,1:0|0:0,0:0:0:0:
399,201,64661,2,0,P|406:245|418:288,1,89.7450028072701,2|2,1:2|0:0,0:0:0:0:
274,135,64975,1,2,1:2:0:0:
360,16,65134,1,2,0:0:0:0:
502,123,65291,6,0,B|421:141|475:185|382:204,1,134.617504210905,6|0,1:2|0:0,0:0:0:0:
377,203,65605,2,0,P|355:197|333:193,1,44.8725014036351,2|0,1:2|0:0,0:0:0:0:
184,139,65762,1,2,0:0:0:0:
238,302,65919,1,2,1:2:0:0:
132,246,66076,1,2,0:0:0:0:
29,375,66233,38,0,P|92:351|157:335,1,134.617504210905,0|0,1:0|0:0,0:0:0:0:
223,384,66547,2,0,P|245:346|238:302,1,89.7450028072701,0|0,1:0|0:0,0:0:0:0:
91,165,66861,2,0,P|85:100|137:62,1,134.617504210905,2|0,1:2|0:0,0:0:0:0:
160,59,67175,5,2,1:2:0:0:
222,152,67332,1,2,0:0:0:0:
230,164,67489,1,2,1:2:0:0:
336,100,67647,5,2,0:0:0:0:
253,281,67804,1,2,1:2:0:0:
389,238,67961,1,2,0:0:0:0:
454,360,68118,5,10,0:0:0:0:
354,319,68275,1,8,3:0:0:0:
253,281,68432,1,8,3:0:0:0:
136,147,68589,37,10,3:0:0:0:
134,133,68668,1,0,0:0:0:0:
132,119,68746,1,10,0:0:0:0:
32,384,68903,1,10,0:0:0:0:
224,196,69060,5,2,1:2:0:0:
309,162,69216,1,2,0:0:0:0:
211,17,69373,2,0,P|219:56|226:95,1,80.0950011610451,2|0,0:0|0:0,0:0:0:0:
379,99,69689,2,0,P|370:59|363:20,1,80.0950011610451,2|0,0:0|0:0,0:0:0:0:
234,214,70003,6,0,B|308:224|271:261|355:273,1,120.142501741568,2|0,1:2|0:0,0:0:0:0:
404,310,70317,2,0,P|421:274|411:236,1,80.0950011610451,2|0,0:0|0:0,0:0:0:0:
225,292,70631,2,0,P|215:330|232:365,1,80.0950011610451,2|0,0:0|0:0,0:0:0:0:
270,148,70945,6,0,P|220:181|162:193,1,120.142501741568,2|0,1:2|0:0,0:0:0:0:
86,206,71259,2,0,P|83:166|107:135,1,80.0950011610451,2|0,0:0|0:0,0:0:0:0:
200,0,71572,2,0,P|223:31|221:70,1,80.0950011610451,2|0,0:0|0:0,0:0:0:0:
112,260,71886,38,0,B|89:241|86:205|86:205|74:240|50:247,1,120.142501741568,2|0,1:2|0:0,0:0:0:0:
25,247,72202,2,0,P|14:284|32:318,1,80.0950011610451,2|0,0:0|0:0,0:0:0:0:
199,285,72516,2,0,P|210:247|192:213,1,80.0950011610451,2|0,0:0|0:0,0:0:0:0:
150,384,72830,6,0,P|206:364|266:355,1,120.142501741568,2|0,1:2|0:0,0:0:0:0:
288,359,73144,1,2,0:0:0:0:
385,280,73301,1,0,0:0:0:0:
385,280,73458,2,0,P|347:269|313:248,1,80.0950011610451,2|0,0:0|0:0,0:0:0:0:
426,51,73772,6,0,P|415:89|406:128,1,80.0950011610451,2|0,1:2|0:0,0:0:0:0:
280,22,74085,2,0,P|318:11|357:0,1,80.0950011610451,2|0,0:0|0:0,0:0:0:0:
323,161,74401,2,0,P|294:132|265:105,1,80.0950011610451,2|0,0:0|0:0,0:0:0:0:
110,9,74715,6,0,P|34:25|0:94,2,160.19000232209,2|2|2,1:2|0:0|0:0,0:0:0:0:
97,95,75657,38,0,P|87:134|80:173,1,80.0950011610451,2|8,1:2|3:0,0:0:0:0:
81,191,75893,1,8,3:0:0:0:
81,191,75971,1,10,0:0:0:0:
58,317,76127,1,0,1:0:0:0:
263,288,76284,5,6,0:0:0:0:
172,378,76441,1,8,0:0:0:0:
208,173,76600,6,0,B|274:157|254:213|326:201,1,120.142501741568,6|0,1:2|0:0,0:0:0:0:
389,241,76914,2,0,P|401:203|392:165,1,80.0950011610451,2|0,0:0|0:0,0:0:0:0:
292,19,77228,1,2,0:0:0:0:
232,84,77385,1,0,0:0:0:0:
86,10,77542,5,2,1:2:0:0:
178,24,77699,1,0,0:0:0:0:
91,178,77856,1,2,0:0:0:0:
55,103,78013,1,0,0:0:0:0:
197,178,78170,1,2,0:0:0:0:
185,205,78327,1,0,0:0:0:0:
44,291,78483,38,0,P|103:287|160:305,1,120.142501741568,2|0,1:2|0:0,0:0:0:0:
195,382,78797,2,0,P|228:361|242:324,1,80.0950011610451,2|0,0:0|0:0,0:0:0:0:
251,224,79113,1,2,0:0:0:0:
235,202,79270,1,0,0:0:0:0:
347,333,79427,5,2,1:2:0:0:
401,348,79584,1,0,0:0:0:0:
509,222,79741,1,2,0:0:0:0:
431,256,79898,1,0,0:0:0:0:
362,151,80055,2,0,P|368:111|372:71,1,80.0950011610451,2|0,0:0|0:0,0:0:0:0:
251,224,80369,5,2,1:2:0:0:
143,141,80526,1,2,0:0:0:0:
55,203,80683,1,2,0:0:0:0:
120,282,80839,1,2,0:0:0:0:
120,282,80996,2,0,P|110:320|101:359,1,80.0950011610451,2|0,0:0|0:0,0:0:0:0:
213,318,81312,5,2,1:2:0:0:
251,224,81469,1,2,0:0:0:0:
143,141,81626,1,2,0:0:0:0:
244,85,81783,1,2,0:0:0:0:
244,85,81940,2,0,B|317:73|291:130|370:115,1,120.142501741568,2|0,0:0|0:0,0:0:0:0:
457,69,82254,38,0,P|414:29|357:37,1,120.142501741568,2|0,1:2|0:0,0:0:0:0:
354,117,82568,2,0,P|367:154|374:193,1,80.0950011610451,2|0,0:0|0:0,0:0:0:0:
303,354,82882,1,2,0:0:0:0:
472,255,83039,1,0,0:0:0:0:
419,349,83195,1,6,0:0:0:0:
419,349,83982,5,2,0:0:0:0:
413,338,84060,1,2,0:0:0:0:
408,328,84139,1,2,0:0:0:0:
408,328,84453,6,0,P|417:294|426:260,1,70.4450019348298,2|0,0:0|0:0,0:0:0:0:
512,267,84767,2,0,P|502:300|493:334,1,70.4450019348298,2|0,0:0|0:0,0:0:0:0:
346,157,85081,6,0,P|316:138|281:138,1,70.4450019348298
256,236,85394,2,0,P|285:254|320:254,1,70.4450019348298,2|0,0:0|0:0,0:0:0:0:
184,143,85708,2,0,P|135:164|85:180,1,105.667502902245,2|0,0:0|0:0,0:0:0:0:
18,220,86024,38,0,B|55:214|81:184|81:184|73:226|101:255,2,140.89000386966,2|0|0,0:0|0:0|0:0,0:0:0:0:
172,298,86809,1,2,0:0:0:0:
82,177,86966,6,0,P|96:122|115:24,2,140.89000386966,2|0|0,0:0|0:0|0:0,0:0:0:0:
229,2,87907,6,0,P|266:38|317:52,1,105.667502902245,2|0,0:0|0:0,0:0:0:0:
381,100,88223,2,0,P|399:70|396:36,1,70.4450019348298,2|0,0:0|0:0,0:0:0:0:
264,125,88537,2,0,P|260:159|279:188,1,70.4450019348298,2|0,0:0|0:0,0:0:0:0:
427,203,88851,6,0,B|346:222|389:258|305:283,2,140.89000386966,2|0|0,0:0|0:0|0:0,0:0:0:0:
427,203,89793,38,0,P|419:237|412:271,1,70.4450019348298,2|0,0:0|0:0,0:0:0:0:
313,280,90106,2,0,P|320:245|327:211,1,70.4450019348298,2|0,0:0|0:0,0:0:0:0:
371,349,90422,2,0,P|327:319|275:312,1,105.667502902245,2|0,0:0|0:0,0:0:0:0:
213,380,90736,6,0,B|267:322|210:263|210:263|259:229|271:167|202:111|131:169|169:224,1,352.225009674149,2|0,0:0|0:0,0:0:0:0:
113,323,91678,6,0,P|78:331|46:344,1,70.4450019348298,2|0,0:0|0:0,0:0:0:0:
129,115,91992,2,0,P|163:117|190:139,1,70.4450019348298,2|0,0:0|0:0,0:0:0:0:
163,214,92305,2,0,P|128:211|101:189,1,70.4450019348298,2|0,0:0|0:0,0:0:0:0:
386,71,92619,6,0,P|394:36|405:3,1,70.4450019348298,2|0,0:0|0:0,0:0:0:0:
331,124,92935,2,0,P|356:148|379:174,1,70.4450019348298,2|0,0:0|0:0,0:0:0:0:
310,52,93249,2,0,P|276:61|241:68,1,70.4450019348298,2|0,0:0|0:0,0:0:0:0:
413,252,93563,38,0,P|466:210|459:143,2,140.89000386966,2|0|2,0:0|0:0|0:0,0:0:0:0:
258,136,94348,1,2,0:0:0:0:
304,247,94505,6,0,P|286:315|272:384,2,140.89000386966,2|0|0,0:0|0:0|0:0,0:0:0:0:
46,137,95448,6,0,P|36:94|28:63,1,70.4450019348298,2|0,0:0|0:0,0:0:0:0:
198,178,95762,2,0,P|232:175|257:151,1,70.4450019348298,2|0,0:0|0:0,0:0:0:0:
220,69,96076,2,0,P|185:71|160:95,1,70.4450019348298,2|0,0:0|0:0,0:0:0:0:
316,235,96390,6,0,P|349:245|381:259,1,70.4450019348298,2|0,0:0|0:0,0:0:0:0:
182,384,96704,2,0,P|158:358|155:324,1,70.4450019348298,2|0,0:0|0:0,0:0:0:0:
238,289,97017,2,0,P|261:314|264:348,1,70.4450019348298,2|0,0:0|0:0,0:0:0:0:
125,213,97333,38,0,B|109:176|73:171|73:171|143:132|211:198|167:230|228:300|311:247,1,352.225009674149,2|0,0:0|0:0,0:0:0:0:
312,124,98275,6,0,P|281:141|264:171,1,70.4450019348298,2|0,0:0|0:0,0:0:0:0:
401,254,98589,2,0,P|391:220|379:186,1,70.4450019348298,2|0,0:0|0:0,0:0:0:0:
469,147,98903,2,0,P|478:180|490:214,1,70.4450019348298,2|0,0:0|0:0,0:0:0:0:
384,352,99216,6,0,P|349:343|315:336,1,70.4450019348298,10|0,0:0|0:0,0:0:0:0:
128,256,99530,2,0,P|162:247|196:240,1,70.4450019348298,10|0,0:0|0:0,0:0:0:0:
448,128,99846,2,0,P|413:119|379:112,1,70.4450019348298,10|0,0:0|0:0,0:0:0:0:
96,0,100160,5,10,0:0:0:0:
96,0,100463,37,2,0:0:0:0:
84,8,100618,1,2,0:0:0:0:
93,20,100774,1,2,0:0:0:0:
103,11,100930,1,2,0:0:0:0:
20,137,101102,5,6,1:2:0:0:
71,175,101180,1,0,1:0:0:0:
136,178,101259,1,8,0:0:0:0:
191,145,101337,1,0,1:0:0:0:
219,87,101416,1,0,1:0:0:0:
246,29,101494,1,0,1:0:0:0:
303,0,101573,1,8,0:0:0:0:
366,9,101651,1,0,1:0:0:0:
411,55,101730,1,0,1:0:0:0:
418,119,101808,1,0,1:0:0:0:
386,174,101887,1,8,0:0:0:0:
327,199,101965,1,0,1:0:0:0:
267,171,102044,6,0,P|262:144|255:117,1,54.5225001663895,2|0,1:2|1:0,0:0:0:0:
328,68,102201,2,0,P|333:94|339:121,1,54.5225001663895,10|0,0:0|1:0,0:0:0:0:
396,325,102358,5,2,1:2:0:0:
332,326,102436,1,0,1:0:0:0:
276,295,102515,1,8,0:0:0:0:
243,239,102593,1,0,1:0:0:0:
244,174,102672,1,0,1:0:0:0:
252,109,102750,1,0,1:0:0:0:
226,50,102829,1,8,0:0:0:0:
172,14,102907,1,0,1:0:0:0:
108,10,102986,1,0,1:0:0:0:
51,41,103064,1,0,1:0:0:0:
19,97,103143,1,8,0:0:0:0:
20,162,103221,1,0,1:0:0:0:
58,215,103300,1,0,1:0:0:0:
122,229,103379,1,0,1:0:0:0:
181,201,103458,2,0,L|167:143,1,54.5225001663895,10|0,0:0|1:0,0:0:0:0:
50,229,103615,6,0,L|62:282,1,54.5225001663895,6|0,1:2|1:0,0:0:0:0:
223,380,103772,1,8,0:0:0:0:
288,376,103850,1,0,1:0:0:0:
339,338,103929,1,0,1:0:0:0:
361,277,104007,1,0,1:0:0:0:
346,214,104086,1,8,0:0:0:0:
312,159,104164,1,0,1:0:0:0:
320,96,104243,1,0,1:0:0:0:
365,50,104321,1,0,1:0:0:0:
429,43,104400,6,0,P|445:65|451:91,3,54.5225001663895,10|0|0|0,0:0|1:0|1:0|1:0,0:0:0:0:
512,127,104714,2,0,P|497:149|474:163,1,54.5225001663895,10|0,0:0|1:0,0:0:0:0:
387,130,104871,5,2,1:2:0:0:
331,97,104949,1,0,1:0:0:0:
266,98,105028,1,8,0:0:0:0:
213,135,105106,1,0,1:0:0:0:
187,194,105186,1,0,1:0:0:0:
139,237,105264,1,0,1:0:0:0:
75,241,105343,1,8,0:0:0:0:
22,205,105421,1,0,1:0:0:0:
2,144,105500,1,0,1:0:0:0:
24,84,105578,1,0,1:0:0:0:
79,50,105657,1,8,0:0:0:0:
143,57,105735,1,0,1:0:0:0:
185,107,105814,38,0,P|203:126|228:136,1,54.5225001663895,0|0,1:0|1:0,0:0:0:0:
223,207,105971,2,0,P|250:207|274:196,1,54.5225001663895,8|0,0:0|1:0,0:0:0:0:
467,95,106128,5,6,1:2:0:0:
414,107,106206,1,0,1:0:0:0:
379,149,106285,1,8,0:0:0:0:
375,203,106363,1,0,1:0:0:0:
406,247,106442,1,0,1:0:0:0:
423,298,106520,1,0,1:0:0:0:
398,347,106599,1,8,0:0:0:0:
344,357,106677,1,0,1:0:0:0:
302,320,106756,1,0,1:0:0:0:
256,288,106835,1,0,1:0:0:0:
201,291,106913,1,8,0:0:0:0:
158,325,106992,1,0,1:0:0:0:
125,368,107070,6,0,P|102:383|75:384,1,54.5225001663895,2|0,1:2|1:0,0:0:0:0:
73,299,107227,2,0,P|46:293|26:275,1,54.5225001663895,10|0,0:0|1:0,0:0:0:0:
0,99,107384,5,2,1:2:0:0:
49,76,107462,1,0,1:0:0:0:
103,82,107541,1,8,0:0:0:0:
143,117,107619,1,0,1:0:0:0:
170,164,107698,1,0,1:0:0:0:
201,208,107777,1,0,1:0:0:0:
248,235,107856,1,8,0:0:0:0:
301,243,107934,1,0,1:0:0:0:
352,224,108013,1,0,1:0:0:0:
385,181,108091,1,0,1:0:0:0:
397,127,108170,38,0,P|381:106|356:96,1,54.5225001663895,10|0,0:0|1:0,0:0:0:0:
238,144,108327,2,0,P|264:140|285:123,1,54.5225001663895,6|0,1:2|1:0,0:0:0:0:
301,1,108484,2,0,P|290:25|295:52,1,54.5225001663895,10|0,0:0|1:0,0:0:0:0:
485,209,108641,5,6,1:2:0:0:
501,270,108719,1,0,1:0:0:0:
473,328,108798,1,8,0:0:0:0:
414,353,108876,1,0,1:0:0:0:
353,333,108955,1,0,1:0:0:0:
320,278,109033,1,0,1:0:0:0:
331,215,109112,1,8,0:0:0:0:
341,152,109190,1,0,1:0:0:0:
315,93,109269,1,0,1:0:0:0:
260,58,109347,1,0,1:0:0:0:
195,60,109426,1,8,0:0:0:0:
142,96,109504,1,0,1:0:0:0:
118,155,109583,6,0,P|127:181|136:207,1,54.5225001663895,2|0,1:2|1:0,0:0:0:0:
246,179,109740,2,0,P|236:153|227:127,1,54.5225001663895,10|0,0:0|1:0,0:0:0:0:
71,293,109897,5,10,0:0:0:0:
129,245,109975,1,8,0:0:0:0:
204,241,110054,1,8,0:0:0:0:
267,281,110133,1,8,0:0:0:0:
296,350,110211,37,8,3:0:0:0:
350,382,110289,1,8,3:0:0:0:
403,368,110368,1,8,3:0:0:0:
424,343,110446,1,8,3:0:0:0:
430,321,110526,6,0,P|423:294|414:268,1,54.5225001663895,10|0,0:0|1:0,0:0:0:0:
495,189,110683,2,0,P|504:215|511:242,1,54.5225001663895,10|0,0:0|1:0,0:0:0:0:
260,126,110840,6,0,P|251:152|246:179,1,54.5225001663895,10|0,0:0|1:0,0:0:0:0:
331,230,110997,2,0,P|338:204|347:178,1,54.5225001663895,10|0,0:0|1:0,0:0:0:0:
512,37,111154,5,6,1:2:0:0:
452,12,111232,1,0,1:0:0:0:
392,34,111311,1,8,0:0:0:0:
363,91,111389,1,0,1:0:0:0:
378,153,111468,1,0,1:0:0:0:
432,187,111546,1,0,1:0:0:0:
483,226,111625,1,8,0:0:0:0:
502,289,111704,1,0,1:0:0:0:
479,349,111782,1,0,1:0:0:0:
424,384,111861,1,0,1:0:0:0:
361,380,111939,1,8,0:0:0:0:
311,337,112018,1,0,1:0:0:0:
297,275,112096,1,0,1:0:0:0:
327,218,112175,1,0,1:0:0:0:
390,196,112253,2,0,P|396:223|401:250,1,54.5225001663895,10|0,0:0|1:0,0:0:0:0:
268,134,112410,5,2,1:2:0:0:
207,150,112488,1,0,1:0:0:0:
182,206,112567,1,8,0:0:0:0:
204,265,112645,1,0,1:0:0:0:
195,328,112725,1,0,1:0:0:0:
141,360,112804,1,0,1:0:0:0:
82,337,112882,1,8,0:0:0:0:
63,277,112961,1,0,1:0:0:0:
99,225,113039,1,0,1:0:0:0:
147,183,113117,1,0,1:0:0:0:
151,119,113196,1,8,0:0:0:0:
109,71,113274,1,0,1:0:0:0:
43,73,113353,1,0,1:0:0:0:
0,122,113431,1,0,1:0:0:0:
10,187,113510,2,0,P|36:183|58:167,1,54.5225001663895,10|0,0:0|1:0,0:0:0:0:
200,53,113667,5,6,1:2:0:0:
259,29,113745,1,0,1:0:0:0:
321,46,113824,1,8,0:0:0:0:
358,98,113902,1,0,1:0:0:0:
356,162,113982,1,0,1:0:0:0:
323,217,114060,1,0,1:0:0:0:
332,280,114139,1,8,0:0:0:0:
380,323,114217,1,0,1:0:0:0:
444,325,114296,1,0,1:0:0:0:
495,286,114374,1,0,1:0:0:0:
510,222,114452,38,0,P|501:197|481:179,3,54.5225001663895,10|0|0|0,0:0|1:0|1:0|1:0,0:0:0:0:
508,87,114766,2,0,P|482:81|456:86,1,54.5225001663895,10|0,0:0|1:0,0:0:0:0:
405,8,114923,2,0,P|386:27|378:52,1,54.5225001663895,2|0,1:2|1:0,0:0:0:0:
356,162,115081,5,8,0:0:0:0:
305,217,115159,1,0,1:0:0:0:
231,228,115238,1,0,1:0:0:0:
167,190,115316,1,0,1:0:0:0:
141,120,115395,1,8,0:0:0:0:
165,49,115473,1,0,1:0:0:0:
230,9,115552,6,0,P|256:19|274:39,1,54.5225001663895,0|0,1:0|1:0,0:0:0:0:
294,106,115709,2,0,P|319:96|337:76,1,54.5225001663895,8|0,0:0|1:0,0:0:0:0:
216,104,115866,5,2,1:2:0:0:
178,112,115944,1,0,1:0:0:0:
141,120,116023,1,8,0:0:0:0:
104,128,116101,1,0,1:0:0:0:
66,135,116180,37,6,1:2:0:0:
42,195,116258,1,0,1:0:0:0:
62,256,116337,1,8,0:0:0:0:
117,291,116415,1,0,1:0:0:0:
180,284,116494,1,0,1:0:0:0:
225,237,116573,1,0,1:0:0:0:
253,179,116651,5,10,0:0:0:0:
319,144,116730,1,0,1:0:0:0:
392,158,116808,1,0,1:0:0:0:
441,215,116887,1,0,1:0:0:0:
443,289,116965,1,8,0:0:0:0:
397,349,117044,1,0,1:0:0:0:
325,366,117122,6,0,P|297:350|284:325,1,54.5225001663895,2|0,1:2|1:0,0:0:0:0:
212,305,117280,2,0,P|213:271|229:249,1,54.5225001663895,10|0,0:0|1:0,0:0:0:0:
507,137,117437,5,10,0:0:0:0:
447,162,117515,1,8,3:0:0:0:
383,151,117594,1,8,3:0:0:0:
335,108,117672,1,8,3:0:0:0:
317,46,117751,1,0,1:0:0:0:
259,15,117829,1,0,1:0:0:0:
194,24,117908,2,0,P|175:43|167:69,1,54.5225001663895,8|0,0:0|1:0,0:0:0:0:
66,205,118065,5,8,3:0:0:0:
89,274,118143,1,8,3:0:0:0:
156,302,118222,1,8,3:0:0:0:
222,268,118300,1,8,3:0:0:0:
238,195,118379,1,0,1:0:0:0:
227,142,118458,1,0,1:0:0:0:
250,104,118536,1,0,1:0:0:0:
281,93,118615,1,0,1:0:0:0:
302,102,118693,5,6,1:2:0:0:
363,175,119007,38,0,L|350:224,2,44.3899985098572,2|2|2,0:0|0:0|0:0,0:0:0:0:
278,316,119950,70,0,P|253:228|226:141,1,182.384994434052,6|0,1:2|0:0,0:0:0:0:
226,141,120578,1,2,1:2:0:0:
277,81,120735,1,0,1:0:0:0:
164,190,120892,2,0,P|120:175|76:164,1,91.1924972170258,2|0,1:2|0:0,0:0:0:0:
27,109,121207,6,0,P|-2:147|10:193,1,99.394999165844,6|0,1:2|0:0,0:0:0:0:
197,334,121520,2,0,B|226:309|227:267|227:267|239:305|283:317,1,149.092498748766,2|0,1:2|0:0,0:0:0:0:
337,370,121834,2,0,P|364:330|351:283,1,99.394999165844,2|8,0:0|0:0,0:0:0:0:
232,113,122149,1,2,1:2:0:0:
229,127,122227,1,0,1:0:0:0:
226,141,122306,1,0,1:0:0:0:
394,25,122463,69,10,0:0:0:0:
453,222,122620,1,0,0:0:0:0:
478,74,122777,5,10,0:0:0:0:
424,132,122934,1,8,0:0:0:0:
346,117,123091,1,2,1:2:0:0:
225,21,123248,69,0,1:0:0:0:
239,18,123326,1,0,0:0:0:0:
253,15,123405,2,0,P|242:63|231:112,1,99.394999165844,14|0,0:0|1:0,0:0:0:0:
80,285,123719,6,0,P|23:240|30:169,1,149.092498748766,14|0,0:0|0:0,0:0:0:0:
45,155,124033,1,10,0:0:0:0:
116,202,124191,1,0,1:0:0:0:
160,330,124348,69,10,0:0:0:0:
245,220,124505,1,0,1:0:0:0:
241,205,124583,1,0,1:0:0:0:
236,190,124662,1,14,0:0:0:0:
299,381,124819,1,10,0:0:0:0:
455,219,124976,6,0,B|408:234|408:234|405:243|405:243|364:256,1,99.394999165844,6|0,1:2|0:0,0:0:0:0:
381,32,125290,2,0,B|438:54|438:54|450:114|391:130,1,149.092498748766,2|0,1:2|0:0,0:0:0:0:
355,180,125604,2,0,P|325:142|335:94,1,99.394999165844,2|8,0:0|0:0,0:0:0:0:
454,229,125918,1,0,1:0:0:0:
452,243,125997,1,0,1:0:0:0:
450,257,126075,1,0,1:0:0:0:
299,381,126232,69,10,0:0:0:0:
370,303,126389,1,0,1:0:0:0:
368,289,126468,1,0,1:0:0:0:
366,275,126546,1,10,0:0:0:0:
207,185,126704,1,8,1:2:0:0:
316,96,126861,1,10,0:0:0:0:
192,0,127018,1,0,1:0:0:0:
190,14,127097,1,0,1:0:0:0:
188,28,127175,6,0,P|139:40|92:54,1,99.394999165844,6|0,1:2|1:0,0:0:0:0:
10,120,127410,1,0,1:0:0:0:
10,120,127489,2,0,P|58:132|105:146,1,99.394999165844,6|0,1:2|1:0,0:0:0:0:
207,185,127725,69,0,1:0:0:0:
224,181,127803,2,0,P|241:225|219:268,1,99.394999165844,6|0,1:2|1:0,0:0:0:0:
142,330,128039,1,0,1:0:0:0:
128,320,128117,2,0,P|110:275|132:232,1,99.394999165844,14|0,1:2|1:0,0:0:0:0:
201,111,128353,1,0,1:0:0:0:
225,102,128431,2,0,B|282:120|282:120|296:154|296:154|360:175,1,149.092498748766,14|0,0:0|0:0,0:0:0:0:
401,228,128745,6,0,B|438:190|438:190|417:141,1,99.394999165844,14|0,0:0|0:0,0:0:0:0:
311,250,129060,1,2,1:2:0:0:
315,263,129138,1,0,0:0:0:0:
320,277,129217,1,8,1:2:0:0:
192,384,129374,2,0,P|144:367|97:354,1,99.394999165844,2|8,0:0|0:0,0:0:0:0:
0,192,129688,1,0,1:0:0:0:
4,179,129766,1,0,1:0:0:0:
9,165,129845,1,0,1:0:0:0:
159,279,130002,69,10,0:0:0:0:
100,82,130159,1,0,1:0:0:0:
75,230,130316,5,10,0:0:0:0:
129,172,130473,1,8,0:0:0:0:
207,187,130630,1,8,0:0:0:0:
364,125,130787,69,0,1:0:0:0:
360,110,130866,1,0,1:0:0:0:
356,95,130944,2,0,P|369:47|382:0,1,99.394999165844,10|0,0:0|1:0,0:0:0:0:
456,176,131259,5,14,0:0:0:0:
340,236,131416,1,8,0:0:0:0:
453,289,131573,69,2,1:2:0:0:
475,331,131651,1,0,1:0:0:0:
455,374,131730,1,8,3:0:0:0:
408,384,131808,1,0,1:0:0:0:
372,352,131887,1,2,1:2:0:0:
340,315,131965,1,0,0:0:0:0:
293,300,132044,1,0,1:0:0:0:
246,314,132122,1,0,1:0:0:0:
213,350,132201,6,0,P|171:379|120:373,1,105.667502902245,10|0,3:0|0:0,0:0:0:0:
42,350,132515,70,0,B|66:320|99:290|99:290|72:266|49:238,1,149.092498748766,6|0,1:2|0:0,0:0:0:0:
41,229,132829,1,2,1:2:0:0:
134,212,132986,1,0,1:0:0:0:
208,102,133143,5,2,0:0:0:0:
321,137,133300,1,0,1:0:0:0:
443,295,133458,2,0,P|494:245|476:177,1,149.092498748766,10|0,0:0|0:0,0:0:0:0:
469,157,133772,70,0,P|425:179|378:195,1,99.394999165844,2|0,1:2|0:0,0:0:0:0:
292,32,134086,2,0,P|340:25|382:50,1,99.394999165844,2|0,1:2|0:0,0:0:0:0:
241,196,134400,1,2,0:0:0:0:
135,73,134557,6,0,P|127:96|120:120,1,49.697499582922,0|0,1:0|0:0,0:0:0:0:
45,255,134714,1,10,0:0:0:0:
38,121,134871,70,0,P|45:144|52:168,1,49.697499582922,0|0,1:0|1:0,0:0:0:0:
171,312,135028,1,10,0:0:0:0:
148,194,135185,6,0,P|140:217|133:241,1,49.697499582922,0|0,1:0|1:0,0:0:0:0:
0,384,135342,2,0,P|46:367|95:357,1,99.394999165844,6|0,2:0|0:0,0:0:0:0:
321,247,135656,1,14,0:0:0:0:
244,130,135814,1,8,3:0:0:0:
247,115,135892,1,8,3:0:0:0:
250,100,135971,1,0,1:0:0:0:
447,17,136128,69,2,0:0:0:0:
447,17,136285,21,6,1:2:0:0:
447,17,137227,5,2,1:2:0:0:
358,112,137698,5,0,1:0:0:0:
426,172,137855,1,8,0:0:0:0:
512,213,138012,5,2,0:0:0:0:
512,213,138169,2,0,P|463:235|413:267,1,105.667502902245,0|0,1:0|0:0,0:0:0:0:
353,299,138483,2,0,P|363:337|369:371,2,70.4450019348298,2|0|0,0:0|0:0|0:0,0:0:0:0:
336,201,138955,1,0,1:0:0:0:
358,112,139112,37,0,1:0:0:0:
226,20,139583,5,0,1:0:0:0:
264,104,139740,1,8,0:0:0:0:
245,199,139897,5,10,3:0:0:0:
245,199,140054,6,0,P|194:206|155:173,1,105.667502902245,2|0,1:2|0:0,0:0:0:0:
123,100,140368,2,0,P|138:66|148:32,2,70.4450019348298,2|0|0,0:0|0:0|0:0,0:0:0:0:
32,155,140839,1,0,1:0:0:0:
94,238,140997,37,0,1:0:0:0:
0,353,141468,5,0,1:0:0:0:
78,323,141625,2,0,P|131:337|194:356,1,105.667502902245,10|0,0:0|0:0,0:0:0:0:
201,360,141939,5,2,1:2:0:0:
173,257,142096,1,0,1:0:0:0:
357,197,142253,5,8,0:0:0:0:
308,384,142410,1,0,1:0:0:0:
242,111,142567,37,8,0:0:0:0:
352,299,142724,1,0,1:0:0:0:
435,44,142881,5,2,1:2:0:0:
344,107,143038,1,8,0:0:0:0:
172,36,143195,1,0,1:0:0:0:
174,25,143274,1,0,1:0:0:0:
176,14,143353,5,8,3:0:0:0:
73,77,143510,1,0,1:0:0:0:
143,169,143667,1,10,0:0:0:0:
48,321,143824,5,6,1:2:0:0:
149,276,143981,1,2,0:0:0:0:
63,156,144138,2,0,P|50:199|41:242,1,89.7450028072701,10|2,0:0|0:0,0:0:0:0:
214,354,144452,1,2,0:0:0:0:
238,216,144609,1,2,1:2:0:0:
303,297,144766,37,8,0:0:0:0:
149,276,144923,1,2,1:2:0:0:
323,154,145080,2,0,P|332:110|344:67,1,89.7450028072701,2|0,0:0|1:0,0:0:0:0:
173,114,145394,1,10,0:0:0:0:
267,50,145552,1,2,1:2:0:0:
163,201,145709,6,0,P|101:182|86:120,1,134.617504210905,2|0,1:2|0:0,0:0:0:0:
86,92,146023,2,0,P|129:104|172:113,1,89.7450028072701,10|0,0:0|0:0,0:0:0:0:
311,226,146337,1,2,0:0:0:0:
400,146,146494,1,2,1:2:0:0:
475,307,146651,5,8,0:0:0:0:
407,241,146808,1,0,1:0:0:0:
293,342,146965,2,0,P|336:329|379:320,1,89.7450028072701,2|0,0:0|1:0,0:0:0:0:
209,210,147279,1,10,0:0:0:0:
128,352,147436,1,2,1:2:0:0:
121,364,147515,1,0,1:0:0:0:
114,375,147593,6,0,P|101:308|84:243,1,134.617504210905,6|0,1:2|0:0,0:0:0:0:
65,171,147908,2,0,P|26:190|11:231,1,89.7450028072701,10|0,0:0|0:0,0:0:0:0:
185,290,148222,1,2,0:0:0:0:
148,147,148379,1,2,1:2:0:0:
290,222,148536,38,0,P|299:178|311:135,1,89.7450028072701,10|2,0:0|1:2,0:0:0:0:
416,0,148850,2,0,P|428:18|436:39,1,44.8725014036351,2|0,0:0|0:0,0:0:0:0:
512,96,149007,1,0,1:0:0:0:
501,104,149086,1,0,1:0:0:0:
494,115,149164,2,0,P|477:180|464:246,1,134.617504210905,14|0,1:2|0:0,0:0:0:0:
464,265,149478,5,2,1:2:0:0:
359,161,149635,1,0,1:0:0:0:
287,35,149792,5,10,0:0:0:0:
196,205,149949,1,0,1:0:0:0:
168,79,150106,5,10,0:0:0:0:
254,314,150264,1,0,1:0:0:0:
60,177,150421,37,10,3:0:0:0:
63,164,150499,1,10,3:0:0:0:
67,151,150578,1,8,0:0:0:0:
167,292,150735,2,0,P|133:320|89:320,1,89.7450028072701,10|0,3:0|0:0,0:0:0:0:
196,205,151049,2,0,P|239:204|273:233,1,89.7450028072701,10|0,0:0|0:0,0:0:0:0:
374,375,151363,6,0,B|445:359|406:325|476:310,1,120.142501741568,6|0,1:2|0:0,0:0:0:0:
495,314,151677,2,0,P|515:280|507:242,1,80.0950011610451,2|0,0:0|0:0,0:0:0:0:
372,226,151991,2,0,P|351:259|359:297,1,80.0950011610451,2|0,1:2|0:0,0:0:0:0:
458,116,152305,6,0,P|405:144|346:154,1,120.142501741568,2|0,1:2|0:0,0:0:0:0:
271,172,152620,2,0,P|264:133|288:102,1,80.0950011610451,2|0,0:0|0:0,0:0:0:0:
360,0,152934,2,0,P|371:38|379:77,1,80.0950011610451,2|0,1:2|0:0,0:0:0:0:
204,26,153248,5,2,1:2:0:0:
189,99,153405,1,0,0:0:0:0:
93,86,153562,1,2,1:2:0:0:
131,184,153719,1,10,1:2:0:0:
213,272,153876,2,0,P|173:280|134:289,1,80.0950011610451,2|10,0:0|1:2,0:0:0:0:
19,327,154190,38,0,B|45:322|64:288|64:288|63:328|92:345,1,120.142501741568,2|0,1:2|0:0,0:0:0:0:
105,352,154504,1,2,0:0:0:0:
305,288,154661,1,0,0:0:0:0:
305,288,154819,2,0,P|308:248|288:215,1,80.0950011610451,10|0,1:2|0:0,0:0:0:0:
189,99,155133,5,2,1:2:0:0:
227,15,155290,1,0,1:0:0:0:
311,54,155447,1,2,0:0:0:0:
272,137,155604,1,0,0:0:0:0:
272,137,155761,2,0,P|280:177|289:216,1,80.0950011610451,10|0,0:0|0:0,0:0:0:0:
440,296,156075,6,0,B|367:313|413:351|328:370,1,120.142501741568,2|0,1:2|0:0,0:0:0:0:
266,384,156389,2,0,P|262:344|285:313,1,80.0950011610451,2|0,0:0|0:0,0:0:0:0:
452,198,156703,2,0,P|420:220|381:216,1,80.0950011610451,10|0,1:2|0:0,0:0:0:0:
299,40,157017,5,2,1:2:0:0:
172,97,157175,1,2,0:0:0:0:
255,215,157332,2,0,P|263:175|272:136,1,80.0950011610451,10|0,0:0|0:0,0:0:0:0:
146,1,157646,2,0,P|107:8|82:39,1,80.0950011610451,8|0,0:0|0:0,0:0:0:0:
11,198,157960,37,2,0:0:0:0:
168,125,158117,1,10,3:0:0:0:
122,238,158274,1,10,2:0:0:0:
125,249,158353,1,8,2:0:0:0:
128,260,158431,1,8,2:0:0:0:
214,351,158588,1,10,0:0:0:0:
40,294,158745,1,8,0:0:0:0:
274,175,158902,6,0,B|347:185|308:225|383:234,1,120.142501741568,6|0,1:2|0:0,0:0:0:0:
437,275,159216,2,0,P|457:241|448:203,1,80.0950011610451,10|0,0:0|0:0,0:0:0:0:
265,250,159531,2,0,P|275:288|282:327,1,80.0950011610451,8|0,0:0|0:0,0:0:0:0:
372,143,159845,6,0,P|350:89|294:72,1,120.142501741568,0|0,1:0|0:0,0:0:0:0:
278,66,160159,2,0,P|239:76|200:83,1,80.0950011610451,2|0,0:0|0:0,0:0:0:0:
0,192,160473,2,0,B|33:188|49:158|49:158|51:194|76:213,1,120.142501741568,10|0,1:2|0:0,0:0:0:0:
85,219,160787,5,2,0:0:0:0:
165,178,160944,1,10,1:2:0:0:
195,294,161101,37,2,1:2:0:0:
255,169,161258,1,10,1:2:0:0:
349,353,161415,2,0,B|398:328|398:328|402:279|355:266,1,120.142501741568,10|0,0:0|0:0,0:0:0:0:
336,208,161730,6,0,P|305:233|298:271,1,80.0950011610451,2|0,1:2|0:0,0:0:0:0:
418,176,162044,1,10,0:0:0:0:
332,121,162201,1,0,0:0:0:0:
477,14,162358,2,0,P|482:33|486:52,1,40.0475005805225,2|0,0:0|0:0,0:0:0:0:
414,91,162515,2,0,P|408:71|404:52,1,40.0475005805225,8|0,0:0|0:0,0:0:0:0:
267,32,162672,5,0,1:0:0:0:
221,141,162829,1,10,1:2:0:0:
146,0,162986,2,0,P|129:36|115:73,1,80.0950011610451,10|0,0:0|0:0,0:0:0:0:
25,260,163300,2,0,P|0:229|7:190,1,80.0950011610451,2|0,1:2|0:0,0:0:0:0:
168,260,163614,6,0,B|143:333|143:333|179:360,1,120.142501741568,2|0,1:2|0:0,0:0:0:0:
251,384,163928,2,0,P|258:345|237:312,1,80.0950011610451,10|0,0:0|0:0,0:0:0:0:
99,236,164243,2,0,P|128:261|167:259,1,80.0950011610451,2|0,1:2|0:0,0:0:0:0:
308,102,164557,38,0,P|281:156|263:213,1,120.142501741568,2|0,1:2|0:0,0:0:0:0:
260,231,164871,1,10,0:0:0:0:
200,125,165028,1,2,0:0:0:0:
383,193,165185,2,0,P|429:159|435:101,1,120.142501741568,2|0,1:2|0:0,0:0:0:0:
395,37,165499,5,2,1:2:0:0:
395,37,166442,5,2,0:0:0:0:
395,37,167070,6,0,P|394:71|416:98,1,70.4450019348298,2|0,0:0|0:0,0:0:0:0:
503,68,167384,2,0,P|503:33|481:6,1,70.4450019348298,2|0,0:0|0:0,0:0:0:0:
318,101,167698,2,0,P|266:88|214:77,1,105.667502902245,2|0,0:0|0:0,0:0:0:0:
197,73,168012,1,2,0:0:0:0:
109,45,168169,1,2,0:0:0:0:
33,106,168326,38,0,B|-36:25|65:-39|158:7|146:113|34:212,1,352.225009674149,2|0,0:0|0:0,0:0:0:0:
164,294,169269,6,0,B|233:375|132:439|39:393|51:287|163:188,1,352.225009674149,2|0,0:0|0:0,0:0:0:0:
212,152,170211,5,2,0:0:0:0:
212,152,170525,6,0,P|267:166|316:188,1,105.667502902245,2|0,0:0|0:0,0:0:0:0:
344,252,170839,2,0,P|374:235|388:203,1,70.4450019348298,2|0,0:0|0:0,0:0:0:0:
382,23,171154,38,0,P|315:24|294:87,1,140.89000386966,2|0,0:0|0:0,0:0:0:0:
294,87,171625,1,2,0:0:0:0:
390,113,171782,1,2,1:2:0:0:
461,177,171939,1,2,1:2:0:0:
461,177,172096,6,0,B|431:202|418:256|418:256|387:182|343:140|269:160|248:234|290:283|337:263|337:263|336:300|367:313,1,422.670011608979,2|0,0:0|0:0,0:0:0:0:
345,341,173981,6,0,P|364:201|392:63,1,281.780007739319,2|2,0:0|0:0,0:0:0:0:
391,63,174923,2,0,P|358:72|326:87,1,70.4450019348298,2|0,0:0|0:0,0:0:0:0:
247,193,175237,2,0,P|255:158|259:123,1,70.4450019348298,2|0,0:0|0:0,0:0:0:0:
206,2,175552,2,0,P|230:26|259:46,1,70.4450019348298,2|0,0:0|0:0,0:0:0:0:
144,116,175866,6,0,B|45:119|-14:215|7:323|171:286|132:183,1,352.225009674149,2|0,0:0|0:0,0:0:0:0:
133,186,176808,38,0,B|213:203|176:241|257:259,1,140.89000386966,2|0,0:0|1:0,0:0:0:0:
250,257,177436,2,0,P|299:239|351:229,1,105.667502902245,2|0,1:2|0:0,0:0:0:0:
374,233,177750,6,0,P|460:187|433:93,1,211.335005804489,2|0,0:0|0:0,0:0:0:0:
433,93,178379,1,2,0:0:0:0:
324,65,178693,6,0,P|336:99|346:132,1,70.4450019348298,2|0,0:0|0:0,0:0:0:0:
235,56,179007,2,0,P|258:29|282:3,1,70.4450019348298,2|0,0:0|0:0,0:0:0:0:
261,138,179321,2,0,P|226:131|192:123,1,70.4450019348298,2|0,0:0|0:0,0:0:0:0:
32,26,179635,5,2,1:2:0:0:
256,192,179714,12,0,181442,1:0:0:0:
506,239,181520,6,0,P|498:271|490:318,1,75.2699995405884,2|0,0:0|0:0,0:0:0:0:
421,357,182777,37,2,0:0:0:0:
409,349,182934,1,2,0:0:0:0:
418,337,183091,1,2,0:0:0:0:
428,346,183248,1,2,0:0:0:0:
326,236,183405,5,6,1:2:0:0:
306,174,183484,1,0,1:0:0:0:
253,138,183562,1,8,0:0:0:0:
189,144,183641,1,0,1:0:0:0:
143,188,183719,1,0,1:0:0:0:
79,195,183797,1,0,1:0:0:0:
26,160,183876,1,8,0:0:0:0:
9,98,183954,1,0,1:0:0:0:
36,40,184033,1,0,1:0:0:0:
95,15,184111,1,0,1:0:0:0:
156,33,184190,1,8,0:0:0:0:
207,73,184268,1,0,1:0:0:0:
271,60,184347,6,0,P|279:34|287:8,1,54.5225001663895,2|0,1:2|1:0,0:0:0:0:
372,117,184504,2,0,P|365:90|360:63,1,54.5225001663895,10|0,0:0|1:0,0:0:0:0:
188,167,184661,5,2,1:2:0:0:
161,225,184741,1,0,1:0:0:0:
186,283,184818,1,8,0:0:0:0:
245,306,184898,1,0,1:0:0:0:
302,279,184975,1,0,1:0:0:0:
348,235,185055,1,0,1:0:0:0:
411,238,185132,1,8,0:0:0:0:
452,288,185212,1,0,1:0:0:0:
443,350,185289,1,0,1:0:0:0:
389,316,185368,1,0,1:0:0:0:
373,254,185447,1,8,0:0:0:0:
403,198,185525,1,0,1:0:0:0:
457,164,185603,1,0,1:0:0:0:
486,104,185682,1,0,1:0:0:0:
450,48,185761,2,0,P|423:53|402:70,1,54.5225001663895,10|0,0:0|1:0,0:0:0:0:
301,173,185918,5,6,1:2:0:0:
240,193,185996,1,0,1:0:0:0:
180,169,186075,1,8,0:0:0:0:
150,113,186153,1,0,1:0:0:0:
163,50,186232,1,0,1:0:0:0:
197,104,186310,1,0,1:0:0:0:
182,166,186389,1,8,0:0:0:0:
128,199,186467,1,0,1:0:0:0:
65,212,186546,1,0,1:0:0:0:
34,267,186625,1,0,1:0:0:0:
54,327,186703,6,0,P|81:328|106:314,3,54.5225001663895,10|0|0|0,0:0|1:0|1:0|1:0,0:0:0:0:
163,369,187017,2,0,P|182:350|190:323,1,54.5225001663895,10|0,0:0|1:0,0:0:0:0:
197,242,187174,37,2,1:2:0:0:
254,214,187254,1,0,1:0:0:0:
312,237,187331,1,8,0:0:0:0:
334,297,187411,1,0,1:0:0:0:
357,356,187488,1,0,1:0:0:0:
415,383,187567,1,0,1:0:0:0:
475,362,187645,1,8,0:0:0:0:
505,306,187724,1,0,1:0:0:0:
487,244,187802,1,0,1:0:0:0:
432,212,187881,1,0,1:0:0:0:
368,223,187959,1,8,0:0:0:0:
306,241,188039,1,0,1:0:0:0:
246,218,188118,1,0,1:0:0:0:
213,163,188196,1,0,1:0:0:0:
220,99,188275,1,8,0:0:0:0:
265,53,188353,1,0,1:0:0:0:
328,31,188432,5,6,1:2:0:0:
314,93,188510,1,0,1:0:0:0:
265,135,188589,1,8,0:0:0:0:
201,140,188666,1,0,1:0:0:0:
148,104,188745,1,0,1:0:0:0:
84,96,188823,1,0,1:0:0:0:
28,129,188902,1,8,0:0:0:0:
3,188,188980,1,0,1:0:0:0:
17,250,189059,1,0,1:0:0:0:
67,291,189137,1,0,1:0:0:0:
131,295,189216,1,8,0:0:0:0:
185,260,189296,1,0,1:0:0:0:
204,197,189373,6,0,P|217:172|238:157,1,54.5225001663895,2|0,1:2|1:0,0:0:0:0:
212,80,189530,2,0,P|237:71|263:75,1,54.5225001663895,10|0,0:0|1:0,0:0:0:0:
415,161,189687,5,2,1:2:0:0:
457,211,189767,1,0,1:0:0:0:
461,275,189844,1,8,0:0:0:0:
426,330,189924,1,0,1:0:0:0:
366,353,190001,1,0,1:0:0:0:
304,337,190081,1,0,1:0:0:0:
263,287,190158,1,8,0:0:0:0:
254,223,190237,1,0,1:0:0:0:
210,177,190316,1,0,1:0:0:0:
146,166,190394,1,0,1:0:0:0:
89,194,190473,1,10,0:0:0:0:
59,251,190551,1,0,1:0:0:0:
68,315,190630,38,0,P|95:314|120:303,1,54.5225001663895,2|0,1:2|1:0,0:0:0:0:
165,364,190787,2,0,P|183:344|194:319,1,54.5225001663895,10|0,0:0|1:0,0:0:0:0:
89,194,190944,5,6,1:2:0:0:
67,133,191022,1,0,1:0:0:0:
87,72,191101,1,8,0:0:0:0:
139,34,191179,1,0,1:0:0:0:
203,35,191258,1,0,1:0:0:0:
254,75,191336,1,0,1:0:0:0:
272,137,191415,1,8,0:0:0:0:
302,193,191495,1,0,1:0:0:0:
359,221,191572,1,0,1:0:0:0:
423,210,191652,1,0,1:0:0:0:
467,163,191729,1,8,0:0:0:0:
474,99,191809,1,0,1:0:0:0:
440,43,191886,6,0,P|415:54|400:76,1,54.5225001663895,2|0,1:2|1:0,0:0:0:0:
377,141,192043,2,0,P|352:129|337:107,1,54.5225001663895,10|0,0:0|1:0,0:0:0:0:
203,9,192200,5,10,1:2:0:0:
152,25,192280,1,0,1:0:0:0:
133,64,192357,1,0,1:0:0:0:
139,95,192437,1,0,1:0:0:0:
150,114,192515,37,8,3:0:0:0:
211,155,192593,1,8,3:0:0:0:
219,228,192672,1,8,3:0:0:0:
167,281,192750,1,8,3:0:0:0:
93,276,192829,6,0,P|63:266|27:254,1,54.5225001663895,10|0,1:2|1:0,0:0:0:0:
0,328,192986,2,0,P|23:334|57:346,1,54.5225001663895,10|0,0:0|1:0,0:0:0:0:
235,231,193143,6,0,P|262:225|288:218,1,54.5225001663895,10|0,1:2|1:0,0:0:0:0:
337,283,193300,2,0,P|311:290|285:297,1,54.5225001663895,10|0,1:2|1:0,0:0:0:0:
0,146,193457,5,6,1:2:0:0:
0,81,193535,1,0,1:0:0:0:
31,28,193614,1,8,0:0:0:0:
92,9,193692,1,0,1:0:0:0:
152,31,193771,1,0,1:0:0:0:
185,86,193851,1,0,1:0:0:0:
179,151,193928,1,8,0:0:0:0:
186,214,194008,1,0,1:0:0:0:
231,260,194085,1,0,1:0:0:0:
294,269,194164,1,0,1:0:0:0:
353,245,194242,1,8,0:0:0:0:
412,269,194321,1,0,1:0:0:0:
439,327,194399,6,0,P|419:345|393:354,1,54.5225001663895,0|0,1:0|1:0,0:0:0:0:
307,384,194556,2,0,P|279:383|255:371,1,54.5225001663895,10|0,0:0|1:0,0:0:0:0:
158,276,194713,5,2,1:2:0:0:
231,260,194793,1,0,1:0:0:0:
276,201,194870,1,8,0:0:0:0:
271,127,194950,1,0,1:0:0:0:
219,73,195029,1,0,1:0:0:0:
145,68,195107,1,0,1:0:0:0:
85,117,195185,5,8,0:0:0:0:
153,148,195263,1,0,1:0:0:0:
226,131,195342,1,0,1:0:0:0:
266,67,195420,1,0,1:0:0:0:
330,28,195500,1,8,0:0:0:0:
404,39,195577,1,0,1:0:0:0:
456,96,195657,1,0,1:0:0:0:
462,170,195734,1,0,1:0:0:0:
401,214,195813,2,0,P|375:203|355:186,1,54.5225001663895,10|0,0:0|1:0,0:0:0:0:
238,39,195970,5,6,1:2:0:0:
179,12,196048,1,0,1:0:0:0:
117,27,196127,1,8,0:0:0:0:
77,78,196207,1,0,1:0:0:0:
78,142,196284,1,0,1:0:0:0:
118,192,196364,1,0,1:0:0:0:
178,219,196441,1,8,0:0:0:0:
217,270,196521,1,0,1:0:0:0:
204,334,196598,1,0,1:0:0:0:
144,361,196678,1,0,1:0:0:0:
89,322,196756,6,0,P|99:296|122:275,3,54.5225001663895,10|0|0|0,0:0|1:0|1:0|1:0,0:0:0:0:
82,205,197070,2,0,P|107:194|134:194,1,54.5225001663895,10|0,0:0|1:0,0:0:0:0:
173,123,197227,2,0,P|198:133|216:152,1,54.5225001663895,2|0,1:2|1:0,0:0:0:0:
170,339,197384,37,8,0:0:0:0:
243,351,197462,1,0,1:0:0:0:
308,314,197541,1,0,1:0:0:0:
327,240,197619,1,0,1:0:0:0:
356,172,197699,1,8,0:0:0:0:
427,148,197776,1,0,1:0:0:0:
492,183,197855,6,0,P|508:209|511:237,1,54.5225001663895,0|0,1:0|1:0,0:0:0:0:
402,270,198012,2,0,P|406:243|421:220,1,54.5225001663895,8|0,0:0|1:0,0:0:0:0:
463,81,198169,5,2,1:2:0:0:
438,51,198247,1,0,1:0:0:0:
403,38,198326,1,8,0:0:0:0:
366,45,198406,1,0,1:0:0:0:
337,69,198483,5,6,1:2:0:0:
330,133,198563,1,0,1:0:0:0:
282,175,198640,1,8,0:0:0:0:
218,175,198720,1,0,1:0:0:0:
172,131,198797,1,0,1:0:0:0:
166,67,198877,1,0,1:0:0:0:
205,17,198954,37,10,0:0:0:0:
224,88,199034,1,0,1:0:0:0:
185,151,199111,1,0,1:0:0:0:
115,182,199190,1,0,1:0:0:0:
49,216,199268,1,8,0:0:0:0:
29,288,199347,1,0,1:0:0:0:
69,351,199425,6,0,P|108:339|121:318,3,54.5225001663895,2|0|10|0,1:2|1:0|0:0|1:0,0:0:0:0:
171,257,199740,5,0,1:0:0:0:
214,209,199818,1,0,1:0:0:0:
277,204,199897,1,10,0:0:0:0:
328,244,199975,1,0,1:0:0:0:
337,307,200054,1,0,1:0:0:0:
380,354,200133,1,0,1:0:0:0:
444,362,200211,1,10,0:0:0:0:
497,326,200289,1,0,1:0:0:0:
512,264,200368,1,0,1:0:0:0:
484,207,200446,1,0,1:0:0:0:
424,181,200525,1,10,0:0:0:0:
363,159,200604,1,0,1:0:0:0:
335,102,200683,1,0,1:0:0:0:
353,41,200761,1,0,1:0:0:0:
409,9,200840,1,10,0:0:0:0:
471,25,200918,1,0,1:0:0:0:
506,80,200997,5,6,1:2:0:0:
496,116,201075,1,0,1:0:0:0:
485,152,201154,1,0,1:0:0:0:
474,189,201232,1,0,1:0:0:0:
465,226,201310,37,10,0:0:0:0:
404,261,201390,1,8,0:0:0:0:
334,257,201467,1,8,0:0:0:0:
278,217,201547,1,8,0:0:0:0:
253,151,201625,5,2,1:2:0:0:
227,105,201703,1,0,1:0:0:0:
175,97,201782,1,0,1:0:0:0:
135,132,201860,1,0,1:0:0:0:
138,185,201939,5,10,0:0:0:0:
184,243,202017,1,8,0:0:0:0:
173,316,202096,1,8,0:0:0:0:
111,357,202174,1,8,0:0:0:0:
39,340,202253,37,6,1:2:0:0:
104,59,202410,1,8,3:0:0:0:
245,289,202567,69,8,3:0:0:0:
281,303,202646,1,8,3:0:0:0:
318,300,202724,1,8,3:0:0:0:
351,281,202803,1,8,3:0:0:0:
373,250,202881,5,10,3:0:0:0:
256,0,203038,2,0,P|249:26|241:52,1,54.5225001663895,8|8,3:0|3:0,0:0:0:0:
116,201,203195,1,0,1:0:0:0:
90,211,203275,1,0,1:0:0:0:
63,209,203352,1,0,1:0:0:0:
40,196,203432,1,0,1:0:0:0:
24,173,203510,70,0,P|30:139|37:104,1,70.4450019348298,14|0,0:0|0:0,0:0:0:0:
173,60,203823,2,0,P|165:94|159:129,1,70.4450019348298,2|0,0:0|0:0,0:0:0:0:
36,316,204137,5,2,0:0:0:0:
118,295,204295,1,2,0:0:0:0:
174,213,204452,1,2,0:0:0:0:
256,192,204610,1,2,0:0:0:0:
344,124,204766,69,2,0:0:0:0:
360,12,204923,1,2,0:0:0:0:
261,10,205080,1,2,0:0:0:0:
232,104,205237,1,2,0:0:0:0:
256,192,205394,5,2,0:0:0:0:
323,211,205551,1,2,0:0:0:0:
354,289,205708,1,2,0:0:0:0:
421,308,205865,1,2,0:0:0:0:
499,188,206022,69,2,0:0:0:0:
419,213,206179,1,2,0:0:0:0:
276,274,206336,5,2,0:0:0:0:
312,126,206495,1,2,0:0:0:0:
355,15,206651,69,2,0:0:0:0:
442,127,206808,1,2,0:0:0:0:
499,188,206965,5,2,0:0:0:0:
419,213,207122,1,2,0:0:0:0:
442,127,207279,69,2,0:0:0:0:
477,280,207436,1,2,0:0:0:0:
345,200,207593,5,2,0:0:0:0:
310,362,207750,1,2,0:0:0:0:
175,150,207907,69,2,0:0:0:0:
205,327,208064,1,2,0:0:0:0:
287,94,208221,5,2,0:0:0:0:
287,94,208535,70,0,B|290:27|363:-8|431:47|431:47|331:117|367:197|437:222|511:160|462:103,1,480.570006966271,6|0,1:2|0:0,0:0:0:0:
466,108,209635,1,0,0:0:0:0:
251,181,209792,6,0,B|142:210|83:85|143:21|143:21|194:17|215:67|201:106|201:106|226:73|262:68|303:108,1,480.570006966271,6|0,1:2|0:0,0:0:0:0:
286,93,210891,1,0,0:0:0:0:
435,284,211048,70,0,B|536:298|551:159|417:100|350:198|416:246|307:321|256:257|256:257|291:250|319:217,1,480.570006966271,6|0,1:2|0:0,0:0:0:0:
251,182,212148,1,0,1:0:0:0:
250,170,212226,1,0,1:0:0:0:
247,158,212305,6,0,B|200:135|152:165|124:237|124:237|92:322|-12:316|-56:235|6:154|81:218,1,440.522506385748,6|0,1:2|0:0,0:0:0:0:
61,205,213247,69,8,0:0:0:0:
68,177,213327,1,8,0:0:0:0:
75,150,213404,1,8,0:0:0:0:
81,123,213484,1,8,0:0:0:0:
86,95,213563,21,6,1:2:0:0:
27,22,213719,1,0,0:0:0:0:
165,146,213876,2,0,P|207:131|250:116,1,89.7450028072701,2|8,1:2|1:2,0:0:0:0:
343,310,214190,2,0,P|308:281|274:251,1,89.7450028072701,2|8,1:2|1:2,0:0:0:0:
383,67,214504,2,0,P|375:111|366:155,1,89.7450028072701,10|0,0:0|1:0,0:0:0:0:
365,179,214740,1,0,1:0:0:0:
365,179,214819,6,0,L|357:229,1,44.8725014036351,10|0,0:0|0:0,0:0:0:0:
205,371,214975,1,0,1:0:0:0:
178,354,215055,1,0,1:0:0:0:
162,328,215132,1,10,0:0:0:0:
159,297,215212,1,8,0:0:0:0:
171,268,215289,1,8,3:0:0:0:
408,384,215446,6,0,P|415:339|424:295,1,89.7450028072701,14|0,0:0|0:0,0:0:0:0:
465,41,215761,1,0,1:0:0:0:
465,41,216075,1,0,1:0:0:0:
427,134,216232,5,2,1:2:0:0:
414,138,216310,1,0,1:0:0:0:
397,133,216389,37,2,1:2:0:0:
389,113,216467,1,0,1:0:0:0:
371,99,216546,1,2,1:2:0:0:
350,96,216624,1,0,1:0:0:0:
329,105,216703,5,10,3:0:0:0:
316,134,216781,1,8,3:0:0:0:
291,151,216860,1,8,3:0:0:0:
260,153,216938,1,8,3:0:0:0:
232,140,217017,5,10,1:2:0:0:
181,125,217097,1,8,0:0:0:0:
136,151,217174,1,8,0:0:0:0:
121,201,217254,1,8,0:0:0:0:
147,247,217332,6,0,B|196:262|196:262|202:274|202:274|245:287,1,109.045000332779,6|10,1:2|0:0,0:0:0:0:
314,223,217645,1,0,1:0:0:0:
152,332,217803,2,0,B|103:347|103:347|97:359|97:359|54:372,1,109.045000332779,10|0,0:0|0:0,0:0:0:0:
0,192,218117,37,8,0:0:0:0:
5,165,218195,1,0,1:0:0:0:
11,138,218274,1,0,1:0:0:0:
17,112,218352,1,0,1:0:0:0:
23,85,218431,1,10,0:0:0:0:
213,11,218588,5,2,1:2:0:0:
233,16,218666,1,0,0:0:0:0:
260,33,218745,1,10,0:0:0:0:
283,69,218823,1,0,0:0:0:0:
273,123,218902,1,2,1:2:0:0:
289,185,218980,1,0,1:0:0:0:
355,222,219059,1,10,0:0:0:0:
441,213,219137,1,0,0:0:0:0:
488,126,219216,6,0,B|475:83|475:83|463:77|463:77|448:28,1,109.045000332779,2|8,1:2|0:0,0:0:0:0:
355,222,219530,2,0,P|363:249|372:274,1,54.5225001663895,0|0,1:0|0:0,0:0:0:0:
437,366,219687,1,10,0:0:0:0:
444,351,219766,1,2,0:0:0:0:
446,334,219844,6,0,P|380:345|330:357,1,109.045000332779,6|8,1:2|0:0,0:0:0:0:
201,225,220158,1,0,1:2:0:0:
215,233,220237,1,0,1:0:0:0:
229,241,220315,1,8,0:0:0:0:
354,146,220473,1,0,1:0:0:0:
219,49,220630,38,0,P|225:75|231:102,1,54.5225001663895,10|0,0:0|0:0,0:0:0:0:
328,242,220787,1,0,1:0:0:0:
324,257,220865,1,0,0:0:0:0:
320,273,220944,1,8,0:0:0:0:
192,384,221101,6,0,B|149:371|149:371|143:359|143:359|94:344,1,109.045000332779,2|8,1:2|0:0,0:0:0:0:
0,160,221415,1,0,1:0:0:0:
15,156,221493,1,0,0:0:0:0:
31,152,221572,1,8,0:0:0:0:
153,29,221729,1,0,1:0:0:0:
288,95,221886,1,8,0:0:0:0:
197,241,222043,1,0,1:0:0:0:
193,225,222122,1,0,0:0:0:0:
189,210,222200,1,8,0:0:0:0:
301,9,222357,6,0,B|354:26|354:26|360:38|360:38|403:51,1,109.045000332779,6|8,1:2|0:0,0:0:0:0:
490,184,222672,1,0,1:0:0:0:
486,199,222750,1,0,1:0:0:0:
483,215,222829,1,8,0:0:0:0:
388,363,222986,1,0,1:0:0:0:
339,188,223143,1,8,0:0:0:0:
188,63,223300,1,0,1:0:0:0:
193,79,223379,1,0,1:0:0:0:
198,95,223457,1,8,0:0:0:0:
35,266,223614,5,0,1:0:0:0:
0,151,223771,2,0,P|53:162|105:177,1,109.045000332779,10|0,0:0|1:0,0:0:0:0:
126,188,224007,1,0,1:0:0:0:
126,188,224085,2,0,P|153:180|180:175,1,54.5225001663895,10|0,0:0|0:0,0:0:0:0:
320,291,224242,38,0,B|271:304|271:304|265:316|265:316|220:328,1,109.045000332779,2|8,1:2|0:0,0:0:0:0:
208,331,224478,1,2,0:0:0:0:
208,331,224556,2,0,B|181:326|181:326|173:319|173:319|151:315,1,54.5225001663895
278,196,224713,1,10,0:0:0:0:
415,330,224870,5,6,1:2:0:0:
477,156,225028,1,8,0:0:0:0:
360,61,225185,1,0,1:0:0:0:
364,76,225263,1,0,1:0:0:0:
368,91,225342,1,8,0:0:0:0:
278,196,225499,5,0,1:0:0:0:
233,18,225656,1,8,0:0:0:0:
122,141,225813,2,0,P|148:133|174:126,1,54.5225001663895,6|0,1:2|1:0,0:0:0:0:
272,96,225970,1,0,0:0:0:0:
184,215,226127,5,10,0:0:0:0:
176,263,226205,1,8,3:0:0:0:
201,305,226284,1,8,3:0:0:0:
246,314,226362,1,10,0:0:0:0:
293,299,226441,1,8,3:0:0:0:
304,274,226519,1,8,3:0:0:0:
308,259,226599,37,10,0:0:0:0:
346,213,226677,1,8,0:0:0:0:
406,208,226756,1,6,0:0:0:0:
453,244,226834,1,0,1:0:0:0:
465,303,226913,1,0,1:0:0:0:
452,338,226991,1,0,1:0:0:0:
441,350,227070,5,10,0:0:0:0:
380,308,227148,1,8,0:0:0:0:
371,235,227227,1,8,0:0:0:0:
422,181,227305,1,8,0:0:0:0:
495,183,227384,5,6,1:2:0:0:
428,201,227462,1,0,1:0:0:0:
367,168,227541,1,8,0:0:0:0:
333,109,227619,1,0,1:0:0:0:
279,100,227698,1,0,1:0:0:0:
245,117,227776,1,0,1:0:0:0:
234,139,227855,5,10,0:0:0:0:
232,208,227933,1,0,1:0:0:0:
185,259,228012,1,0,1:0:0:0:
116,268,228090,1,0,1:0:0:0:
71,237,228169,1,8,0:0:0:0:
57,201,228247,1,0,1:0:0:0:
61,179,228326,37,2,1:2:0:0:
113,134,228404,1,0,1:0:0:0:
118,65,228483,1,8,0:0:0:0:
71,15,228561,1,0,1:0:0:0:
1,13,228641,5,6,1:2:0:0:
42,70,228719,1,0,1:0:0:0:
109,91,228798,1,8,0:0:0:0:
175,69,228876,1,0,1:0:0:0:
216,34,228954,1,0,1:0:0:0:
254,34,229033,1,0,1:0:0:0:
274,45,229111,5,10,0:0:0:0:
295,111,229189,1,0,1:0:0:0:
352,151,229268,1,0,1:0:0:0:
422,151,229346,1,0,1:0:0:0:
466,118,229425,1,8,0:0:0:0:
485,84,229504,1,0,1:0:0:0:
479,61,229583,5,2,1:2:0:0:
409,64,229661,1,0,1:0:0:0:
358,110,229740,1,8,0:0:0:0:
348,179,229818,1,0,1:0:0:0:
385,238,229897,37,6,1:2:0:0:
386,318,229975,1,0,1:0:0:0:
331,375,230054,1,8,0:0:0:0:
251,376,230132,1,0,1:0:0:0:
195,320,230211,1,0,1:0:0:0:
195,240,230289,1,0,1:0:0:0:
251,184,230368,1,10,0:0:0:0:
282,111,230446,1,0,1:0:0:0:
248,39,230525,1,0,1:0:0:0:
172,16,230603,1,0,1:0:0:0:
104,57,230682,1,8,0:0:0:0:
89,135,230760,1,0,1:0:0:0:
137,198,230839,5,2,1:2:0:0:
204,256,230917,1,0,1:0:0:0:
189,343,230996,1,8,0:0:0:0:
107,375,231074,1,0,1:0:0:0:
38,319,231153,6,0,P|56:286|82:273,1,54.5225001663895,6|0,1:2|1:0,0:0:0:0:
278,309,231310,5,10,0:0:0:0:
314,299,231388,1,0,1:0:0:0:
340,272,231467,1,2,1:2:0:0:
349,235,231545,1,0,1:0:0:0:
340,199,231625,1,14,0:0:0:0:
332,162,231703,1,0,1:0:0:0:
344,127,231782,1,2,1:2:0:0:
374,104,231860,1,0,1:0:0:0:
412,101,231939,37,10,0:0:0:0:
360,138,232017,1,0,1:0:0:0:
296,135,232096,1,6,1:2:0:0:
256,98,232174,1,0,1:0:0:0:
238,57,232253,1,10,0:0:0:0:
207,44,232331,1,0,1:0:0:0:
185,48,232410,6,0,P|164:67|152:91,1,54.5225001663895,6|0,1:2|1:0,0:0:0:0:
68,232,232567,1,8,0:0:0:0:
72,248,232645,1,0,1:0:0:0:
75,264,232724,1,2,1:2:0:0:
79,279,232802,1,0,1:0:0:0:
84,294,232881,5,14,0:0:0:0:
106,324,232959,1,0,1:0:0:0:
143,332,233038,1,2,1:2:0:0:
178,319,233116,1,0,1:0:0:0:
197,285,233195,1,8,0:0:0:0:
194,247,233273,1,0,1:0:0:0:
178,210,233352,5,6,1:2:0:0:
184,161,233430,1,0,1:0:0:0:
223,130,233509,1,8,0:0:0:0:
271,132,233587,1,0,1:0:0:0:
310,160,233666,1,2,1:2:0:0:
321,207,233744,1,0,1:0:0:0:
351,246,233824,5,12,0:0:0:0:
406,264,233901,1,0,1:0:0:0:
465,248,233981,1,2,1:2:0:0:
491,194,234059,1,0,1:0:0:0:
483,134,234138,1,10,0:0:0:0:
434,98,234216,1,0,1:0:0:0:
373,93,234295,5,6,1:2:0:0:
355,161,234373,1,8,3:0:0:0:
343,231,234452,1,8,3:0:0:0:
331,300,234530,1,8,3:0:0:0:
318,370,234609,5,10,3:0:0:0:
243,382,234687,1,8,3:0:0:0:
176,343,234766,1,8,0:0:0:0:
158,269,234844,1,8,0:0:0:0:
188,198,234923,6,0,B|237:186|237:186|243:172|243:172|289:160,1,109.045000332779,6|8,1:2|0:0,0:0:0:0:
483,37,235237,1,0,1:0:0:0:
480,53,235315,1,0,1:0:0:0:
477,70,235394,1,8,0:0:0:0:
346,278,235551,1,0,1:0:0:0:
343,262,235629,1,0,0:0:0:0:
340,245,235708,38,0,L|356:191,1,54.5225001663895,14|0,0:0|0:0,0:0:0:0:
392,99,235865,2,0,L|431:136,1,54.5225001663895,10|8,3:0|3:0,0:0:0:0:
488,210,236022,2,0,L|435:223,1,54.5225001663895,10|8,3:0|3:0,0:0:0:0:
212,357,236179,5,6,1:2:0:0:
59,196,236336,1,8,0:0:0:0:
66,159,236414,1,8,0:0:0:0:
73,122,236493,1,8,0:0:0:0:
80,84,236571,1,8,0:0:0:0:
87,47,236651,2,0,P|49:34|26:26,1,54.5225001663895,0|0,1:0|1:0,0:0:0:0:
178,240,236808,5,8,0:0:0:0:
232,247,236886,1,8,0:0:0:0:
277,219,236965,1,8,3:0:0:0:
294,168,237043,1,8,3:0:0:0:
273,117,237122,1,8,3:0:0:0:
290,77,237200,1,8,3:0:0:0:
318,60,237279,1,0,1:0:0:0:
337,60,237357,1,0,1:0:0:0:
349,69,237437,5,2,0:0:0:0:
484,199,238064,38,0,P|493:148|504:96,1,105.667502902245,2|0,0:0|0:0,0:0:0:0:
512,74,238378,2,0,P|489:47|455:40,1,70.4450019348298,2|0,0:0|0:0,0:0:0:0:
365,151,238692,2,0,P|398:144|421:117,1,70.4450019348298,2|0,0:0|0:0,0:0:0:0:
348,34,239006,1,2,0:0:0:0:
290,113,239163,1,2,0:0:0:0:
157,0,239320,6,0,B|219:49|186:128|146:102|97:183|180:231|180:231|185:186|215:154,1,352.225009674149,2|0,0:0|0:0,0:0:0:0:
321,369,240263,6,0,B|259:319|292:240|332:266|381:185|298:137|298:137|293:182|263:214,1,352.225009674149,2|0,0:0|0:0,0:0:0:0:
186,255,241205,5,2,0:0:0:0:
186,255,241519,38,0,P|151:262|80:284,1,105.667502902245,2|0,0:0|0:0,0:0:0:0:
51,346,241833,2,0,P|22:326|12:293,1,70.4450019348298,2|0,0:0|0:0,0:0:0:0:
137,115,242148,6,0,B|223:128|178:170|260:184,1,140.89000386966,2|0,0:0|0:0,0:0:0:0:
254,183,242619,1,2,0:0:0:0:
308,94,242776,1,2,0:0:0:0:
402,69,242933,1,2,0:0:0:0:
402,69,243090,6,0,B|505:88|507:187|443:226|443:226|439:137|389:121|342:140|330:197|382:220,1,422.670011608979,2|0,0:0|0:0,0:0:0:0:
370,213,244661,1,2,0:0:0:0:
370,213,244975,6,0,P|238:262|109:319,1,281.780007739319,2|2,0:0|0:0,0:0:0:0:
109,318,245917,2,0,P|114:283|122:248,1,70.4450019348298,2|0,0:0|0:0,0:0:0:0:
239,163,246231,2,0,P|206:175|172:186,1,70.4450019348298,2|0,0:0|0:0,0:0:0:0:
39,130,246545,2,0,P|66:151|92:176,1,70.4450019348298,2|0,1:2|1:2,0:0:0:0:
254,335,246860,38,0,B|276:397|375:345|334:274|264:258|264:258|353:216|324:136,1,352.225009674149,2|0,0:0|0:0,0:0:0:0:
326,141,247802,6,0,B|247:151|288:199|202:202,1,140.89000386966,2|0,0:0|1:0,0:0:0:0:
205,201,248430,2,0,P|147:217|86:243,1,105.667502902245,2|0,1:2|0:0,0:0:0:0:
29,307,248744,6,0,B|79:296|104:236|104:236|109:305|161:329,1,211.335005804489,2|0,0:0|0:0,0:0:0:0:
150,323,249373,1,2,0:0:0:0:
324,253,249687,6,0,P|336:220|325:187,1,70.4450019348298,2|0,0:0|0:0,0:0:0:0:
256,301,250001,2,0,P|278:327|311:335,1,70.4450019348298,2|0,0:0|0:0,0:0:0:0:
247,219,250315,2,0,P|212:224|189:250,1,70.4450019348298,2|0,0:0|0:0,0:0:0:0:
55,355,250629,37,2,0:0:0:0:
256,192,250708,12,0,253456,0:0:0:0:
165,216,253771,6,0,L|193:209,1,25.0899998468628,2|2,0:0|0:0,0:0:0:0:
256,192,254399,5,2,0:0:0:0:
256,192,254477,12,0,256284,0:0:0:0:
172,294,257496,5,2,0:0:0:0:
150,250,257653,1,2,0:0:0:0:
194,229,257810,1,2,0:0:0:0:
215,272,257967,1,2,0:0:0:0:
313,382,258170,5,6,1:2:0:0:
375,367,258248,1,0,1:0:0:0:
412,315,258327,1,8,0:0:0:0:
407,251,258405,1,0,1:0:0:0:
361,206,258484,1,0,1:0:0:0:
302,180,258562,1,0,1:0:0:0:
272,122,258641,1,8,0:0:0:0:
285,60,258719,1,0,1:0:0:0:
335,19,258798,1,0,1:0:0:0:
399,18,258876,1,0,1:0:0:0:
449,57,258955,2,0,P|438:100|415:114,1,54.5225001663895,8|0,0:0|1:0,0:0:0:0:
313,233,259112,38,0,L|302:179,1,54.5225001663895,2|0,1:2|1:0,0:0:0:0:
215,215,259269,2,0,L|226:269,1,54.5225001663895,10|0,0:0|1:0,0:0:0:0:
158,373,259426,5,2,1:2:0:0:
93,379,259504,1,0,1:0:0:0:
39,345,259583,1,8,0:0:0:0:
17,285,259661,1,0,1:0:0:0:
36,224,259740,1,0,1:0:0:0:
88,186,259818,1,0,1:0:0:0:
150,170,259897,1,8,0:0:0:0:
187,118,259976,1,0,1:0:0:0:
182,54,260054,1,0,1:0:0:0:
138,8,260133,1,0,1:0:0:0:
74,2,260211,1,8,0:0:0:0:
21,37,260290,1,0,1:0:0:0:
3,99,260368,1,0,1:0:0:0:
27,160,260447,1,0,1:0:0:0:
88,186,260526,2,0,P|110:204|124:226,1,54.5225001663895,10|0,0:0|1:0,0:0:0:0:
223,368,260683,5,6,1:2:0:0:
286,369,260761,1,0,1:0:0:0:
331,325,260840,1,8,0:0:0:0:
331,261,260918,1,0,1:0:0:0:
284,218,260997,1,0,1:0:0:0:
253,162,261075,1,0,1:0:0:0:
262,98,261154,1,8,0:0:0:0:
308,53,261232,1,0,1:0:0:0:
372,46,261311,1,0,1:0:0:0:
427,78,261389,1,0,1:0:0:0:
458,135,261468,38,0,P|445:160|423:175,3,54.5225001663895,10|0|0|0,0:0|1:0|1:0|1:0,0:0:0:0:
448,249,261782,2,0,P|421:254|395:247,1,54.5225001663895,10|0,0:0|1:0,0:0:0:0:
349,135,261939,5,2,1:2:0:0:
290,108,262017,1,0,1:0:0:0:
230,129,262096,1,8,0:0:0:0:
202,187,262174,1,0,1:0:0:0:
221,247,262253,1,0,1:0:0:0:
229,311,262332,1,0,1:0:0:0:
193,364,262411,1,8,0:0:0:0:
131,380,262489,1,0,1:0:0:0:
74,351,262567,2,0,P|59:328|60:301,1,54.5225001663895,0|0,1:0|1:0,0:0:0:0:
227,220,262724,5,8,0:0:0:0:
241,227,262803,1,0,1:0:0:0:
251,239,262882,2,0,P|251:265|236:288,1,54.5225001663895,0|0,1:0|1:0,0:0:0:0:
18,235,263039,5,8,0:0:0:0:
26,221,263117,1,0,1:0:0:0:
42,218,263196,5,6,1:2:0:0:
102,196,263274,1,0,1:0:0:0:
128,138,263353,1,8,0:0:0:0:
111,75,263432,1,0,1:0:0:0:
146,21,263510,1,0,1:0:0:0:
208,3,263589,1,0,1:0:0:0:
267,28,263667,1,8,0:0:0:0:
296,85,263746,1,0,1:0:0:0:
283,147,263824,1,0,1:0:0:0:
270,210,263902,1,0,1:0:0:0:
307,261,263981,1,8,0:0:0:0:
370,269,264059,1,0,1:0:0:0:
418,228,264138,38,0,P|412:201|396:180,1,54.5225001663895,2|0,1:2|1:0,0:0:0:0:
444,120,264295,2,0,P|420:105|394:101,1,54.5225001663895,10|0,0:0|1:0,0:0:0:0:
206,88,264453,5,2,1:2:0:0:
145,108,264531,1,0,1:0:0:0:
116,165,264610,1,8,0:0:0:0:
133,226,264688,1,0,1:0:0:0:
189,258,264767,1,0,1:0:0:0:
251,243,264845,1,0,1:0:0:0:
314,249,264923,1,8,0:0:0:0:
348,302,265002,1,0,1:0:0:0:
327,361,265080,1,0,1:0:0:0:
266,381,265159,1,0,1:0:0:0:
214,345,265238,6,0,P|192:331|165:330,1,54.5225001663895,10|0,0:0|1:0,0:0:0:0:
55,384,265395,2,0,P|78:371|92:348,1,54.5225001663895,2|0,1:2|1:0,0:0:0:0:
102,227,265552,2,0,P|100:253|113:277,1,54.5225001663895,10|0,0:0|1:0,0:0:0:0:
285,183,265709,5,6,1:2:0:0:
342,135,265787,1,0,1:0:0:0:
348,61,265866,1,8,0:0:0:0:
299,5,265944,1,0,1:0:0:0:
225,0,266023,1,0,1:0:0:0:
169,50,266101,1,0,1:0:0:0:
166,124,266180,1,8,0:0:0:0:
189,195,266259,1,0,1:0:0:0:
153,259,266338,1,0,1:0:0:0:
80,276,266416,1,0,1:0:0:0:
19,235,266495,1,8,0:0:0:0:
8,161,266573,1,0,1:0:0:0:
54,101,266651,38,0,P|77:116|89:140,1,54.5225001663895,2|0,1:2|1:0,0:0:0:0:
166,124,266808,2,0,P|171:150|162:175,1,54.5225001663895,10|0,0:0|1:0,0:0:0:0:
34,336,266965,5,8,0:0:0:0:
80,276,267043,1,8,0:0:0:0:
153,259,267122,1,8,0:0:0:0:
223,282,267200,1,8,0:0:0:0:
265,332,267279,5,8,3:0:0:0:
312,358,267358,1,8,3:0:0:0:
355,351,267437,1,8,3:0:0:0:
373,324,267515,1,8,3:0:0:0:
377,302,267594,5,10,0:0:0:0:
352,254,267672,1,0,1:0:0:0:
361,201,267751,1,10,0:0:0:0:
400,164,267829,1,0,1:0:0:0:
453,158,267908,37,10,0:0:0:0:
464,122,267986,1,0,1:0:0:0:
451,87,268065,1,10,0:0:0:0:
420,66,268143,1,0,1:0:0:0:
383,70,268223,5,6,1:2:0:0:
355,128,268301,1,0,1:0:0:0:
297,157,268380,1,8,0:0:0:0:
234,144,268458,1,0,1:0:0:0:
192,96,268536,1,0,1:0:0:0:
170,36,268614,1,0,1:0:0:0:
115,2,268693,1,8,0:0:0:0:
52,10,268771,1,0,1:0:0:0:
7,55,268850,1,0,1:0:0:0:
0,119,268928,1,0,1:0:0:0:
34,173,269007,1,8,0:0:0:0:
92,202,269086,1,0,1:0:0:0:
138,246,269164,1,0,1:0:0:0:
124,307,269243,1,0,1:0:0:0:
64,327,269321,2,0,P|37:312|25:283,1,54.5225001663895,10|0,0:0|1:0,0:0:0:0:
99,100,269478,5,2,1:2:0:0:
160,82,269556,1,0,1:0:0:0:
218,109,269635,1,8,0:0:0:0:
243,168,269713,1,0,1:0:0:0:
232,234,269793,1,0,1:0:0:0:
243,296,269871,1,0,1:0:0:0:
293,335,269950,1,8,0:0:0:0:
357,329,270028,1,0,1:0:0:0:
400,282,270107,1,0,1:0:0:0:
399,218,270185,1,0,1:0:0:0:
357,168,270264,1,8,0:0:0:0:
326,111,270342,1,0,1:0:0:0:
344,50,270421,1,0,1:0:0:0:
400,19,270499,1,0,1:0:0:0:
461,35,270578,2,0,P|466:62|458:88,1,54.5225001663895,10|0,0:0|1:0,0:0:0:0:
262,56,270735,5,2,1:2:0:0:
200,38,270813,1,0,1:0:0:0:
140,62,270892,1,8,0:0:0:0:
108,118,270970,1,0,1:0:0:0:
117,182,271050,1,0,1:0:0:0:
166,224,271128,1,0,1:0:0:0:
175,287,271207,1,8,0:0:0:0:
140,341,271285,1,0,1:0:0:0:
79,359,271364,1,0,1:0:0:0:
20,333,271442,1,0,1:0:0:0:
0,271,271520,6,0,P|19:248|48:237,3,54.5225001663895,10|0|0|0,0:0|1:0|1:0|1:0,0:0:0:0:
34,159,271834,2,0,P|63:156|91:168,1,54.5225001663895,10|0,0:0|1:0,0:0:0:0:
163,269,271991,5,6,1:2:0:0:
195,320,272070,1,0,1:0:0:0:
254,330,272149,1,8,0:0:0:0:
304,297,272227,1,0,1:0:0:0:
321,239,272306,1,0,1:0:0:0:
296,184,272384,1,0,1:0:0:0:
248,148,272462,1,8,0:0:0:0:
233,89,272541,1,0,1:0:0:0:
273,43,272620,6,0,P|303:40|333:64,1,54.5225001663895,6|0,1:2|1:0,0:0:0:0:
386,8,272777,2,0,P|406:25|416:50,1,54.5225001663895,8|0,0:0|1:0,0:0:0:0:
479,168,272934,37,2,1:2:0:0:
473,205,273012,1,0,1:0:0:0:
467,243,273091,1,8,0:0:0:0:
461,281,273169,1,0,1:0:0:0:
455,318,273248,5,6,1:2:0:0:
398,347,273326,1,0,1:0:0:0:
335,335,273405,1,8,0:0:0:0:
294,285,273483,1,0,1:0:0:0:
293,221,273563,1,0,1:0:0:0:
304,158,273641,1,0,1:0:0:0:
276,100,273720,1,10,0:0:0:0:
220,68,273798,1,0,1:0:0:0:
156,75,273877,1,0,1:0:0:0:
107,118,273955,1,0,1:0:0:0:
92,180,274034,1,8,0:0:0:0:
116,240,274112,1,0,1:0:0:0:
170,275,274190,6,0,P|196:266|212:244,1,54.5225001663895,2|0,1:2|1:0,0:0:0:0:
285,272,274348,2,0,P|296:247|293:221,1,54.5225001663895,10|0,0:0|1:0,0:0:0:0:
295,89,274505,5,6,1:2:0:0:
352,61,274583,1,0,1:0:0:0:
411,84,274662,1,10,0:0:0:0:
435,143,274740,1,0,1:0:0:0:
409,201,274819,1,0,1:0:0:0:
367,248,274897,1,0,1:0:0:0:
378,310,274976,38,0,P|396:330|421:341,3,54.5225001663895,8|0|0|0,0:0|1:0|1:0|1:0,0:0:0:0:
444,268,275290,2,0,P|471:269|496:259,3,54.5225001663895,8|0|0|0,0:0|1:0|1:0|1:0,0:0:0:0:
357,139,275604,5,8,0:0:0:0:
351,154,275683,1,0,1:0:0:0:
345,169,275761,5,14,1:2:0:0:
308,159,275839,1,0,1:0:0:0:
271,149,275918,1,0,1:0:0:0:
234,139,275996,1,0,1:0:0:0:
197,129,276075,6,0,P|191:102|186:75,3,54.5225001663895,2|0|8|0,1:2|1:0|0:0|1:0,0:0:0:0:
116,133,276389,2,0,P|95:151|74:168,3,54.5225001663895,2|0|0|0,1:2|1:0|1:0|1:0,0:0:0:0:
164,208,276704,2,0,P|189:216|215:225,3,54.5225001663895,10|0|0|0,1:2|1:0|1:0|1:0,0:0:0:0:
301,342,277018,37,14,0:0:0:0:
356,300,277096,1,0,0:0:0:0:
373,232,277175,1,8,0:0:0:0:
345,169,277253,1,8,0:0:0:0:
290,131,277332,1,8,3:0:0:0:
268,81,277410,1,8,3:0:0:0:
288,41,277489,1,8,3:0:0:0:
317,27,277567,1,8,3:0:0:0:
337,26,277646,6,0,P|363:36|382:55,1,54.5225001663895,10|8,0:0|3:0,0:0:0:0:
460,103,277803,2,0,P|434:112|415:131,1,54.5225001663895,0|0,1:0|1:0,0:0:0:0:
286,240,277960,6,0,P|208:213|128:196,1,163.567500499168,10|0,0:0|0:0,0:0:0:0:
58,192,278274,5,6,1:2:0:0:
35,126,278352,1,0,1:0:0:0:
65,63,278431,1,8,0:0:0:0:
130,40,278509,1,0,1:0:0:0:
193,69,278588,1,0,1:0:0:0:
218,134,278666,1,0,1:0:0:0:
251,194,278745,1,8,0:0:0:0:
317,218,278824,1,0,1:0:0:0:
382,193,278902,1,0,1:0:0:0:
415,132,278981,1,0,1:0:0:0:
399,64,279059,1,8,0:0:0:0:
343,23,279138,1,0,1:0:0:0:
272,26,279217,38,0,P|270:56|286:80,1,59.347500905571,2|0,1:2|1:0,0:0:0:0:
218,134,279374,2,0,P|237:155|265:162,1,59.347500905571,10|0,0:0|1:0,0:0:0:0:
453,196,279531,5,6,1:2:0:0:
382,193,279609,1,0,1:0:0:0:
324,232,279688,1,8,0:0:0:0:
300,298,279767,1,0,1:0:0:0:
259,355,279845,1,0,1:0:0:0:
192,373,279924,1,0,1:0:0:0:
128,345,280002,1,8,0:0:0:0:
95,283,280081,1,0,1:0:0:0:
109,215,280159,1,0,1:0:0:0:
163,167,280238,1,0,1:0:0:0:
199,108,280316,1,8,0:0:0:0:
183,40,280395,1,0,1:0:0:0:
123,5,280473,1,0,1:0:0:0:
56,23,280552,1,0,1:0:0:0:
23,84,280630,2,0,P|39:108|67:118,1,59.347500905571,10|0,0:0|1:0,0:0:0:0:
223,224,280787,5,6,1:2:0:0:
285,190,280865,1,0,1:0:0:0:
296,119,280944,1,8,0:0:0:0:
321,53,281023,1,0,1:0:0:0:
382,20,281102,1,0,1:0:0:0:
450,34,281180,1,0,1:0:0:0:
494,88,281259,1,8,0:0:0:0:
492,158,281337,1,0,1:0:0:0:
446,210,281416,1,0,1:0:0:0:
384,244,281494,1,0,1:0:0:0:
373,315,281573,38,0,P|387:340|412:355,3,59.347500905571,10|0|0|0,0:0|1:0|1:0|1:0,0:0:0:0:
448,283,281887,2,0,P|476:290|505:283,1,59.347500905571,10|0,0:0|1:0,0:0:0:0:
404,114,282044,5,6,1:2:0:0:
334,111,282122,1,0,1:0:0:0:
281,157,282201,1,8,0:0:0:0:
273,227,282279,1,0,1:0:0:0:
278,296,282359,1,0,1:0:0:0:
238,354,282437,1,0,1:0:0:0:
172,375,282515,1,8,0:0:0:0:
106,350,282594,1,0,1:0:0:0:
71,289,282672,2,0,P|85:263|108:246,1,59.347500905571,0|0,1:0|1:0,0:0:0:0:
285,176,282829,5,8,0:0:0:0:
294,190,282908,1,0,1:0:0:0:
290,207,282986,2,0,P|277:232|254:250,1,59.347500905571,0|0,1:0|1:0,0:0:0:0:
33,163,283143,5,8,0:0:0:0:
21,149,283222,1,0,1:0:0:0:
22,131,283300,5,6,1:2:0:0:
47,65,283378,1,0,1:0:0:0:
102,21,283457,1,8,0:0:0:0:
172,9,283535,1,0,1:0:0:0:
238,34,283614,1,0,1:0:0:0:
283,88,283692,1,0,1:0:0:0:
296,157,283771,1,8,0:0:0:0:
273,223,283849,1,0,1:0:0:0:
263,295,283929,1,0,1:0:0:0:
293,357,284007,1,0,1:0:0:0:
358,383,284086,1,8,0:0:0:0:
423,358,284164,1,0,1:0:0:0:
455,296,284243,38,0,P|449:267|431:244,1,59.347500905571,2|0,1:2|1:0,0:0:0:0:
482,184,284400,2,0,P|457:167|428:163,1,59.347500905571,10|0,0:0|1:0,0:0:0:0:
263,295,284557,5,6,1:2:0:0:
198,320,284635,1,0,1:0:0:0:
136,290,284714,1,8,0:0:0:0:
118,224,284792,1,0,1:0:0:0:
155,165,284872,1,0,1:0:0:0:
206,119,284950,1,0,1:0:0:0:
206,50,285029,1,8,0:0:0:0:
155,4,285107,1,0,1:0:0:0:
86,13,285186,1,0,1:0:0:0:
47,69,285264,1,0,1:0:0:0:
62,138,285342,1,10,0:0:0:0:
122,177,285421,1,0,1:0:0:0:
185,146,285499,6,0,P|212:133|242:131,1,59.347500905571,2|0,1:2|1:0,0:0:0:0:
241,215,285656,2,0,P|268:225|291:244,1,59.347500905571,10|0,0:0|1:0,0:0:0:0:
380,351,285813,5,6,1:2:0:0:
454,338,285891,1,0,1:0:0:0:
499,278,285970,1,8,0:0:0:0:
491,203,286048,1,0,1:0:0:0:
434,154,286127,1,0,1:0:0:0:
359,158,286205,1,0,1:0:0:0:
299,203,286284,1,8,0:0:0:0:
224,195,286363,1,0,1:0:0:0:
175,138,286441,1,0,1:0:0:0:
177,62,286520,1,0,1:0:0:0:
230,9,286598,1,8,0:0:0:0:
306,6,286677,1,0,1:0:0:0:
366,52,286756,38,0,P|360:81|339:102,1,59.347500905571,2|0,1:2|1:0,0:0:0:0:
286,159,286913,2,0,P|265:138|258:109,1,59.347500905571,10|0,0:0|1:0,0:0:0:0:
415,244,287070,5,10,3:0:0:0:
396,280,287148,1,8,3:0:0:0:
364,306,287227,1,0,1:0:0:0:
324,316,287305,1,0,1:0:0:0:
284,309,287384,5,8,3:0:0:0:
257,298,287462,1,8,3:0:0:0:
228,305,287541,1,0,1:0:0:0:
210,327,287619,1,0,1:0:0:0:
208,356,287698,5,10,0:0:0:0:
243,311,287776,1,0,1:0:0:0:
234,254,287855,1,10,0:0:0:0:
185,222,287934,1,0,1:0:0:0:
130,236,288013,37,10,0:0:0:0:
89,240,288091,1,0,1:0:0:0:
55,217,288170,1,10,0:0:0:0:
43,178,288248,1,0,1:0:0:0:
59,141,288327,5,6,1:2:0:0:
125,121,288405,1,0,1:0:0:0:
145,56,288484,1,8,0:0:0:0:
102,3,288562,1,0,1:0:0:0:
34,9,288641,5,0,1:0:0:0:
68,71,288719,1,0,1:0:0:0:
129,105,288798,1,8,0:0:0:0:
199,101,288876,1,0,1:0:0:0:
256,61,288955,1,0,1:0:0:0:
311,18,289033,1,0,1:0:0:0:
381,21,289112,1,8,0:0:0:0:
431,69,289190,1,0,1:0:0:0:
437,139,289269,6,0,P|420:162|393:172,1,59.347500905571,0|0,1:0|1:0,0:0:0:0:
407,247,289426,2,0,P|378:251|351:239,1,59.347500905571,10|0,0:0|1:0,0:0:0:0:
268,141,289583,5,6,1:2:0:0:
193,153,289661,1,0,1:0:0:0:
143,210,289740,1,8,0:0:0:0:
139,286,289818,1,0,1:0:0:0:
184,347,289897,1,0,1:0:0:0:
257,366,289975,1,0,1:0:0:0:
326,336,290054,37,8,0:0:0:0:
271,284,290132,1,0,1:0:0:0:
196,284,290211,1,0,1:0:0:0:
140,335,290289,1,0,1:0:0:0:
66,337,290369,1,8,0:0:0:0:
7,289,290448,1,0,1:0:0:0:
0,215,290526,1,0,1:0:0:0:
50,160,290604,1,0,1:0:0:0:
63,87,290683,2,0,P|57:58|39:35,1,59.347500905571,10|0,0:0|1:0,0:0:0:0:
164,188,290840,5,6,1:2:0:0:
224,153,290918,1,0,1:0:0:0:
293,165,290997,1,8,0:0:0:0:
338,218,291075,1,0,1:0:0:0:
335,289,291154,1,0,1:0:0:0:
372,348,291232,1,0,1:0:0:0:
441,367,291311,1,8,0:0:0:0:
503,334,291389,1,0,1:0:0:0:
509,259,291468,1,0,1:0:0:0:
468,200,291546,1,0,1:0:0:0:
412,155,291625,6,0,P|401:129|404:100,3,59.347500905571,10|0|0|0,0:0|1:0|1:0|1:0,0:0:0:0:
329,73,291939,2,0,P|339:45|362:27,1,59.347500905571,10|0,0:0|1:0,0:0:0:0:
451,36,292096,2,0,P|474:53|484:81,1,59.347500905571,6|0,1:2|1:0,0:0:0:0:
343,190,292253,37,8,0:0:0:0:
268,193,292331,1,0,1:0:0:0:
213,141,292410,1,0,1:0:0:0:
212,66,292488,1,0,1:0:0:0:
164,9,292567,1,8,0:0:0:0:
89,3,292646,1,0,1:0:0:0:
32,51,292724,6,0,P|36:80|56:101,1,59.347500905571,4|0,1:2|1:0,0:0:0:0:
134,113,292882,2,0,P|129:141|109:162,1,59.347500905571,8|0,0:0|1:0,0:0:0:0:
0,232,293039,5,2,1:2:0:0:
39,219,293117,1,0,1:0:0:0:
79,224,293196,1,8,0:0:0:0:
114,247,293274,1,0,1:0:0:0:
134,283,293353,5,6,1:2:0:0:
163,346,293431,1,0,1:0:0:0:
229,367,293510,1,8,0:0:0:0:
289,333,293588,1,0,1:0:0:0:
305,266,293667,1,0,1:0:0:0:
266,209,293745,1,0,1:0:0:0:
210,164,293824,37,10,0:0:0:0:
187,97,293902,1,0,1:0:0:0:
213,32,293981,1,0,1:0:0:0:
274,0,294059,1,0,1:0:0:0:
342,11,294138,1,8,0:0:0:0:
387,64,294216,1,0,1:0:0:0:
381,136,294295,5,2,1:2:0:0:
362,201,294373,1,0,1:0:0:0:
408,252,294452,1,10,0:0:0:0:
475,241,294530,1,0,1:0:0:0:
502,178,294610,5,8,3:0:0:0:
480,168,294688,1,8,3:0:0:0:
464,151,294767,1,8,3:0:0:0:
457,129,294845,1,8,3:0:0:0:
459,105,294924,1,8,3:0:0:0:
470,85,295002,1,8,3:0:0:0:
489,70,295080,5,8,0:0:0:0:
446,124,295158,1,8,0:0:0:0:
377,124,295237,1,8,0:0:0:0:
334,71,295316,1,8,0:0:0:0:
279,29,295394,1,8,0:0:0:0:
210,37,295473,1,8,0:0:0:0:
166,91,295552,37,0,1:0:0:0:
176,124,295630,1,0,1:0:0:0:
186,159,295709,1,0,1:0:0:0:
194,193,295787,1,0,1:0:0:0:
200,220,295866,5,6,1:2:0:0:
155,292,296180,6,0,P|135:302|116:314,2,44.3899985098572,2|2|2,0:0|0:0|0:0,0:0:0:0:
288,384,297122,6,0,P|308:295|334:207,1,182.384994434052,6|2,1:2|0:0,0:0:0:0:
496,99,297751,37,0,1:0:0:0:
484,71,297829,1,0,1:0:0:0:
458,55,297908,1,8,0:0:0:0:
429,56,297986,1,8,0:0:0:0:
407,77,298065,5,8,3:0:0:0:
379,112,298143,1,8,3:0:0:0:
336,122,298222,1,8,3:0:0:0:
296,101,298300,1,8,3:0:0:0:
279,60,298379,5,14,1:2:0:0:
318,88,298457,1,0,1:0:0:0:
328,135,298536,1,0,1:0:0:0:
302,177,298614,1,0,1:0:0:0:
256,190,298693,5,10,0:0:0:0:
193,181,298771,1,0,1:0:0:0:
144,219,298850,1,0,1:0:0:0:
136,282,298928,1,0,1:0:0:0:
176,331,299007,37,10,0:0:0:0:
202,309,299085,1,0,1:0:0:0:
236,301,299164,1,0,1:0:0:0:
269,308,299242,1,0,1:0:0:0:
296,330,299321,5,10,0:0:0:0:
314,346,299399,1,0,1:0:0:0:
338,346,299478,1,0,1:0:0:0:
359,333,299556,1,0,1:0:0:0:
370,311,299635,5,10,0:0:0:0:
329,258,299713,1,0,1:0:0:0:
340,191,299792,1,0,1:0:0:0:
396,154,299870,1,0,1:0:0:0:
462,170,299950,6,0,P|463:194|451:216,1,49.697499582922,10|0,0:0|1:0,0:0:0:0:
329,258,300107,2,0,P|349:244|373:244,1,49.697499582922,2|0,1:2|1:0,0:0:0:0:
476,318,300264,2,0,P|453:307|441:286,3,49.697499582922,10|0|0|0,0:0|1:0|1:0|1:0,0:0:0:0:
331,117,300578,37,10,0:0:0:0:
299,103,300656,1,0,1:0:0:0:
265,104,300735,1,0,1:0:0:0:
235,121,300813,1,0,1:0:0:0:
215,150,300893,5,10,0:0:0:0:
228,217,300971,1,0,1:0:0:0:
201,280,301050,1,0,1:0:0:0:
144,317,301128,1,0,1:0:0:0:
75,316,301207,1,8,0:0:0:0:
19,276,301285,1,0,1:0:0:0:
0,212,301364,1,0,1:0:0:0:
11,146,301442,1,0,1:0:0:0:
63,100,301520,6,0,P|58:75|54:51,3,49.697499582922,10|0|0|0,0:0|1:0|1:0|1:0,0:0:0:0:
133,170,301834,2,0,P|137:145|141:121,3,49.697499582922,10|0|0|0,0:0|1:0|1:0|1:0,0:0:0:0:
229,39,302149,5,6,0:0:0:0:
256,79,302227,1,0,1:0:0:0:
299,103,302306,1,0,1:0:0:0:
348,105,302384,1,0,1:0:0:0:
393,83,302463,5,4,0:0:0:0:
344,87,302541,1,0,1:0:0:0:
309,121,302620,1,0,1:0:0:0:
303,169,302698,1,0,1:0:0:0:
330,211,302777,37,12,0:0:0:0:
386,263,302855,1,8,0:0:0:0:
379,339,302934,1,8,0:0:0:0:
315,381,303012,1,8,0:0:0:0:
242,356,303091,6,0,P|242:331|253:309,1,49.697499582922,10|0,0:0|1:0,0:0:0:0:
201,260,303248,2,0,P|218:242|241:234,1,49.697499582922,2|0,1:2|1:0,0:0:0:0:
419,187,303405,5,14,1:2:0:0:
421,138,303483,1,0,1:0:0:0:
391,99,303562,1,0,1:0:0:0:
344,87,303640,1,0,1:0:0:0:
300,109,303720,5,10,0:0:0:0:
260,157,303798,1,0,1:0:0:0:
197,160,303877,1,0,1:0:0:0:
153,116,303955,1,0,1:0:0:0:
156,53,304034,37,10,0:0:0:0:
144,21,304112,1,0,1:0:0:0:
116,4,304191,1,0,1:0:0:0:
82,6,304269,1,0,1:0:0:0:
57,29,304348,5,10,0:0:0:0:
61,53,304426,1,0,1:0:0:0:
65,77,304505,1,0,1:0:0:0:
70,102,304583,1,0,1:0:0:0:
74,126,304662,5,10,0:0:0:0:
133,157,304740,1,0,1:0:0:0:
143,223,304819,1,0,1:0:0:0:
95,271,304897,1,0,1:0:0:0:
29,261,304976,6,0,P|27:236|38:214,1,49.697499582922,10|0,0:0|1:0,0:0:0:0:
119,334,305133,2,0,P|98:348|74:349,1,49.697499582922,2|0,1:2|1:0,0:0:0:0:
143,223,305290,2,0,P|165:233|178:253,3,49.697499582922,10|0|0|0,0:0|1:0|1:0|1:0,0:0:0:0:
235,371,305604,37,10,0:0:0:0:
268,376,305682,1,0,1:0:0:0:
300,363,305761,1,0,1:0:0:0:
319,334,305839,1,0,1:0:0:0:
320,300,305918,5,14,0:0:0:0:
297,242,305996,1,0,1:0:0:0:
327,187,306075,1,0,1:0:0:0:
389,175,306153,1,0,1:0:0:0:
437,215,306232,5,10,0:0:0:0:
390,203,306310,1,0,1:0:0:0:
363,163,306389,1,0,1:0:0:0:
370,114,306467,1,0,1:0:0:0:
407,83,306547,5,10,0:0:0:0:
413,50,306625,1,0,1:0:0:0:
398,20,306704,1,0,1:0:0:0:
366,6,306782,1,0,1:0:0:0:
333,14,306861,37,10,0:0:0:0:
326,38,306939,1,0,1:0:0:0:
308,55,307018,1,0,1:0:0:0:
285,62,307096,1,0,1:0:0:0:
261,57,307175,5,6,0:0:0:0:
209,30,307253,1,0,1:0:0:0:
155,49,307332,1,8,3:0:0:0:
131,102,307410,1,8,3:0:0:0:
153,155,307489,5,8,3:0:0:0:
157,180,307567,1,8,3:0:0:0:
146,202,307646,1,0,1:0:0:0:
124,213,307724,1,0,1:0:0:0:
100,211,307803,5,8,0:0:0:0:
130,159,307881,1,0,1:0:0:0:
189,153,307960,1,0,1:0:0:0:
235,189,308038,1,0,0:0:0:0:
250,246,308117,37,8,3:0:0:0:
220,297,308196,1,8,3:0:0:0:
234,354,308274,1,0,1:0:0:0:
291,372,308353,1,0,1:0:0:0:
343,349,308431,5,14,1:2:0:0:
328,302,308509,1,0,1:0:0:0:
289,274,308588,1,0,1:0:0:0:
240,275,308666,1,0,1:0:0:0:
201,305,308746,5,10,0:0:0:0:
145,333,308824,1,0,1:0:0:0:
85,313,308903,1,0,1:0:0:0:
57,256,308981,1,0,1:0:0:0:
77,197,309060,5,10,0:0:0:0:
100,171,309138,1,0,1:0:0:0:
102,137,309217,1,0,1:0:0:0:
83,109,309295,1,0,1:0:0:0:
54,90,309374,37,10,0:0:0:0:
45,68,309452,1,0,1:0:0:0:
50,44,309531,1,0,1:0:0:0:
67,27,309609,1,0,1:0:0:0:
92,23,309688,5,10,0:0:0:0:
160,35,309766,1,0,1:0:0:0:
228,48,309845,1,0,1:0:0:0:
297,60,309923,1,0,1:0:0:0:
365,73,310002,6,0,L|390:13,1,49.697499582922,10|0,0:0|1:0,0:0:0:0:
390,157,310159,2,0,L|325:165,1,49.697499582922,2|0,1:2|1:0,0:0:0:0:
448,90,310316,2,0,L|487:141,3,49.697499582922,10|0|0|0,0:0|1:0|1:0|1:0,0:0:0:0:
373,244,310630,5,10,0:0:0:0:
353,273,310708,1,0,1:0:0:0:
352,307,310787,1,0,1:0:0:0:
371,336,310865,1,0,1:0:0:0:
402,350,310945,37,10,0:0:0:0:
369,290,311023,1,0,1:0:0:0:
307,262,311102,1,0,1:0:0:0:
241,278,311180,1,0,1:0:0:0:
198,331,311259,1,8,0:0:0:0:
144,373,311337,1,0,1:0:0:0:
77,367,311416,1,0,1:0:0:0:
30,318,311494,1,0,1:0:0:0:
29,250,311573,6,0,P|47:233|71:224,3,49.697499582922,10|0|0|0,0:0|1:0|1:0|1:0,0:0:0:0:
133,173,311887,2,0,P|115:155|91:147,3,49.697499582922,10|0|0|0,0:0|1:0|1:0|1:0,0:0:0:0:
21,55,312201,5,14,0:0:0:0:
80,22,312279,1,0,1:0:0:0:
149,25,312358,1,0,1:0:0:0:
205,66,312436,1,0,1:0:0:0:
230,129,312515,5,12,0:0:0:0:
235,178,312593,1,0,1:0:0:0:
270,212,312672,1,0,1:0:0:0:
319,215,312750,1,0,1:0:0:0:
358,187,312829,37,4,0:0:0:0:
286,213,312907,1,8,0:0:0:0:
266,287,312986,1,8,0:0:0:0:
314,346,313064,1,8,0:0:0:0:
390,341,313143,6,0,P|404:320|404:296,1,49.697499582922,10|0,3:0|0:0,0:0:0:0:
480,274,313300,2,0,P|474:249|457:232,1,49.697499582922,10|8,3:0|3:0,0:0:0:0:
301,141,313457,5,14,1:2:0:0:
281,92,313535,1,0,1:0:0:0:
301,43,313614,1,0,1:0:0:0:
350,22,313692,1,0,1:0:0:0:
400,41,313772,5,10,0:0:0:0:
363,100,313850,1,0,1:0:0:0:
297,122,313929,1,0,1:0:0:0:
232,98,314007,1,0,1:0:0:0:
193,38,314086,37,10,0:0:0:0:
164,13,314164,1,0,1:0:0:0:
126,10,314243,1,0,1:0:0:0:
94,29,314321,1,0,1:0:0:0:
79,64,314400,5,10,0:0:0:0:
88,90,314478,1,0,1:0:0:0:
82,116,314557,1,0,1:0:0:0:
64,136,314635,1,0,1:0:0:0:
38,145,314714,5,10,0:0:0:0:
109,122,314792,1,0,1:0:0:0:
174,158,314871,1,0,1:0:0:0:
193,230,314949,1,0,1:0:0:0:
153,292,315028,6,0,P|127:283|111:262,1,54.5225001663895,10|0,0:0|1:0,0:0:0:0:
263,236,315185,2,0,P|267:262|257:287,1,54.5225001663895,2|0,1:2|1:0,0:0:0:0:
174,158,315342,2,0,P|194:140|221:137,3,54.5225001663895,10|0|0|0,0:0|1:0|1:0|1:0,0:0:0:0:
376,245,315656,37,10,0:0:0:0:
412,237,315734,1,0,1:0:0:0:
438,210,315813,1,0,1:0:0:0:
444,173,315891,1,0,1:0:0:0:
427,139,315971,5,14,0:0:0:0:
376,93,316049,1,0,1:0:0:0:
388,26,316128,1,0,1:0:0:0:
450,0,316206,1,0,1:0:0:0:
508,35,316285,5,10,0:0:0:0:
478,79,316363,1,0,1:0:0:0:
429,101,316442,1,0,1:0:0:0:
376,93,316520,1,0,1:0:0:0:
334,56,316599,5,10,0:0:0:0:
301,40,316677,1,0,1:0:0:0:
264,48,316756,1,0,1:0:0:0:
240,77,316834,1,0,1:0:0:0:
234,114,316913,37,10,0:0:0:0:
221,137,316991,1,0,1:0:0:0:
198,151,317070,1,0,1:0:0:0:
171,150,317148,1,0,1:0:0:0:
147,135,317228,5,2,1:2:0:0:
88,105,317306,1,0,1:0:0:0:
23,139,317384,1,12,0:0:0:0:
26,207,317463,1,0,0:0:0:0:
90,241,317541,6,0,P|95:214|102:188,1,54.5225001663895,12|0,0:0|0:0,0:0:0:0:
12,324,317698,2,0,P|6:297|-1:271,1,54.5225001663895,0|8,0:0|3:0,0:0:0:0:
188,363,317856,5,14,0:0:0:0:
262,384,317934,1,8,0:0:0:0:
329,352,318012,1,8,0:0:0:0:
356,283,318091,1,10,0:0:0:0:
326,215,318169,1,8,0:0:0:0:
280,157,318248,1,8,0:0:0:0:
294,84,318327,1,8,0:0:0:0:
366,56,318405,1,8,0:0:0:0:
431,97,318484,38,0,P|471:105|513:117,1,80.0950011610451,6|0,1:2|0:0,0:0:0:0:
326,215,318798,1,2,0:0:0:0:
202,24,318955,2,0,P|183:101|166:180,1,160.19000232209,2|0,0:0|0:0,0:0:0:0:
57,339,319583,5,2,0:0:0:0:
57,339,319662,1,2,0:0:0:0:
57,339,319740,2,0,B|124:323|124:323|135:295|135:295|214:276,1,160.19000232209,6|0,1:2|0:0,0:0:0:0:
381,220,320211,2,0,B|314:204|314:204|303:176|303:176|224:157,1,160.19000232209,2|0,0:0|0:0,0:0:0:0:
412,16,320840,5,0,1:0:0:0:
423,11,320918,1,0,1:0:0:0:
434,6,320997,2,0,P|424:44|415:83,1,80.0950011610451,14|0,1:2|0:0,0:0:0:0:
298,222,321311,1,0,1:0:0:0:
285,110,321468,2,2,B|362:122|312:160|395:173,1,120.142501741568,2|0,1:2|0:0,0:2:0:0:
401,174,321782,1,2,1:2:0:0:
470,239,321939,1,2,1:2:0:0:
440,352,322096,1,2,1:2:0:0:
298,222,322253,6,0,P|222:248|148:279,1,160.19000232209,6|0,1:2|0:0,0:0:0:0:
35,131,322881,37,8,3:0:0:0:
32,119,322960,1,8,3:0:0:0:
30,111,323039,5,8,3:0:0:0:
41,72,323117,1,8,3:0:0:0:
80,51,323196,1,8,0:0:0:0:
126,63,323274,1,8,0:0:0:0:
155,106,323353,1,8,0:0:0:0:
205,130,323431,1,8,0:0:0:0:
252,94,323510,5,6,1:2:0:0:
198,115,323588,1,0,1:0:0:0:
174,168,323667,1,0,1:0:0:0:
196,221,323745,1,0,1:0:0:0:
250,243,323824,6,0,P|273:235|297:228,1,49.697499582922,12|0,1:2|0:0,0:0:0:0:
358,318,323981,2,0,P|334:325|310:332,1,49.697499582922,2|0,1:2|1:0,0:0:0:0:
399,195,324138,5,0,1:0:0:0:
403,170,324217,1,0,1:0:0:0:
407,145,324295,38,0,P|399:121|392:97,1,49.697499582922,2|0,1:2|1:0,0:0:0:0:
504,52,324452,2,0,P|487:70|470:88,1,49.697499582922,10|0,0:0|1:0,0:0:0:0:
373,17,324609,2,0,P|397:22|421:28,1,49.697499582922,0|0,1:0|1:0,0:0:0:0:
290,140,324766,5,6,1:2:0:0:
232,154,324844,1,0,1:0:0:0:
174,168,324923,1,0,1:0:0:0:
116,182,325001,1,0,1:0:0:0:
58,196,325080,6,0,P|65:219|72:243,1,49.697499582922,12|0,1:2|0:0,0:0:0:0:
161,306,325238,2,0,P|168:282|175:258,1,49.697499582922,2|0,1:2|1:0,0:0:0:0:
245,81,325395,5,0,1:0:0:0:
239,57,325473,1,0,1:0:0:0:
231,31,325552,38,0,P|207:26|183:31,1,49.697499582922,2|0,1:2|1:0,0:0:0:0:
136,139,325709,2,0,P|152:120|160:97,1,49.697499582922,10|0,0:0|1:0,0:0:0:0:
91,3,325866,2,0,P|98:26|114:45,1,49.697499582922,2|0,1:2|1:0,0:0:0:0:
314,37,326023,6,0,P|338:31|362:36,1,49.697499582922,6|0,1:2|1:0,0:0:0:0:
409,145,326180,2,0,P|392:126|384:103,1,49.697499582922,2|0,1:2|1:0,0:0:0:0:
454,9,326337,2,0,P|446:32|430:51,1,49.697499582922,10|0,0:0|1:0,0:0:0:0:
299,154,326494,5,2,1:2:0:0:
289,201,326572,1,0,1:0:0:0:
309,246,326651,1,0,1:0:0:0:
352,269,326729,1,0,1:0:0:0:
401,262,326809,5,2,1:2:0:0:
354,226,326887,1,0,1:0:0:0:
296,230,326966,1,10,0:0:0:0:
256,271,327044,1,0,1:0:0:0:
234,326,327122,1,0,1:0:0:0:
182,353,327201,1,0,1:0:0:0:
125,339,327280,37,6,1:2:0:0:
116,280,327358,1,0,1:0:0:0:
106,221,327437,1,0,1:0:0:0:
96,162,327515,1,0,1:0:0:0:
86,103,327594,5,12,0:0:0:0:
112,41,327672,1,0,1:0:0:0:
173,10,327751,1,0,1:0:0:0:
239,25,327829,1,0,1:0:0:0:
279,81,327908,5,8,0:0:0:0:
277,90,327986,1,8,0:0:0:0:
275,99,328065,1,0,1:0:0:0:
273,108,328143,1,0,1:0:0:0:
271,117,328222,5,8,0:0:0:0:
311,173,328301,1,8,0:0:0:0:
377,188,328379,1,8,0:0:0:0:
437,157,328458,1,8,0:0:0:0:
463,95,328536,38,0,P|423:86|385:76,1,80.0950011610451,6|0,1:2|0:0,0:0:0:0:
495,197,328850,1,2,0:0:0:0:
383,264,329007,2,0,B|320:280|320:280|305:313|305:313|243:330,1,160.19000232209,2|0,0:0|0:0,0:0:0:0:
127,383,329478,2,0,L|38:367,2,80.0950011610451,2|2|2,0:0|0:0|0:0,0:0:0:0:
200,165,330107,5,8,0:0:0:0:
49,369,330421,5,8,3:0:0:0:
152,232,330735,5,0,1:0:0:0:
100,297,331049,38,0,L|149:310,1,40.0475005805225,10|0,0:0|0:0,0:0:0:0:
224,384,331206,1,0,1:0:0:0:
234,378,331285,1,0,1:0:0:0:
244,373,331363,2,0,L|254:334,1,40.0475005805225,10|8,0:0|0:0,0:0:0:0:
339,325,331520,2,0,L|328:286,1,40.0475005805225,0|0,1:0|1:0,0:0:0:0:
250,218,331677,5,8,3:0:0:0:
238,172,331755,1,8,3:0:0:0:
262,132,331834,1,0,1:0:0:0:
307,119,331912,1,0,1:0:0:0:
348,141,331992,1,8,3:0:0:0:
392,157,332070,1,8,3:0:0:0:
436,140,332149,6,0,P|441:123|438:92,1,40.0475005805225,2|0,1:2|1:0,0:0:0:0:
268,0,332306,5,6,1:2:0:0:
268,0,332620,37,10,1:2:0:0:
257,38,332698,1,8,0:0:0:0:
230,66,332777,1,10,0:0:0:0:
192,77,332855,1,8,0:0:0:0:
153,69,332934,5,10,1:2:0:0:
94,64,333012,1,8,0:0:0:0:
49,101,333091,1,10,0:0:0:0:
45,160,333169,1,8,0:0:0:0:
83,204,333248,5,10,1:2:0:0:
144,236,333326,1,8,0:0:0:0:
156,304,333405,1,10,0:0:0:0:
109,355,333483,1,8,0:0:0:0:
40,347,333562,5,6,1:2:0:0:
35,354,335290,6,0,L|60:346,1,20.7475003165817,2|0,0:0|0:0,0:0:0:0:
103,289,335456,6,0,L|126:293,1,20.7475003165817,2|0,0:0|0:0,0:0:0:0:
183,337,335609,5,2,0:0:0:0:
256,192,335687,12,0,339692,0:0:0:0:
