osu file format v14

[General]
AudioFilename: audio.ogg
AudioLeadIn: 0
PreviewTime: 257227
Countdown: 0
SampleSet: Soft
StackLeniency: 0.3
Mode: 0
LetterboxInBreaks: 0
EpilepsyWarning: 1
WidescreenStoryboard: 1

[Editor]
Bookmarks: 8441,21006,53991,69069,84148,101111,121215,136293,151372,166450,183413,203517,217339,237444,258176,278280,298385,318490,323516
DistanceSpacing: 0.8
BeatDivisor: 4
GridSize: 16
TimelineZoom: 2.3

[Metadata]
Title:Epitaph
TitleUnicode:Epitaph
Artist:TEARS OF TRAGEDY
ArtistUnicode:TEARS OF TRAGEDY
Creator:Sh3rg_
Version:Learning to Thrive Through Loss, Tragedy, and Heartache
Source:
Tags:Ryzen-dono werhakon Sh4rq_ haruka toru hayato maki hiro power melodic japanese rock j-rock jrock symphonic metal GLORYHAMMER joestarrr69 Melize
BeatmapID:3837137
BeatmapSetID:1863460

[Difficulty]
HPDrainRate:6
CircleSize:4.2
OverallDifficulty:9.5
ApproachRate:9.7
SliderMultiplier:1.8
SliderTickRate:1

[Events]
//Background and Video events
0,0,"BG.jpg",0,0
//Break Periods
2,205595,208041
//Storyboard Layer 0 (Background)
//Storyboard Layer 1 (Fail)
//Storyboard Layer 2 (Pass)
//Storyboard Layer 3 (Foreground)
//Storyboard Layer 4 (Overlay)
//Storyboard Sound Samples

[TimingPoints]
893,314.13612565445,4,2,3,70,1,0
1521,-90.9090909090909,4,2,3,70,0,0
2149,-83.3333333333333,4,2,3,70,0,0
2777,-76.9230769230769,4,2,3,70,0,0
4662,-133.333333333333,4,2,3,70,0,0
5290,-100,4,2,3,70,0,0
7175,-66.6666666666667,4,2,3,70,0,0
13379,-66.6666666666667,4,2,3,5,0,0
13458,-66.6666666666667,4,2,3,70,0,0
15971,-100,4,2,3,70,0,0
39845,-133.333333333333,4,2,3,70,0,0
40002,-100,4,2,3,70,0,0
40395,-100,4,2,3,5,0,0
40474,-100,4,2,3,70,0,0
41102,-133.333333333333,4,2,3,70,0,0
51154,314.13612565445,3,2,3,70,1,0
51782,-100,4,2,3,70,0,0
52331,-100,4,2,3,5,0,0
52410,-100,4,2,3,70,0,0
69059,-200,3,2,3,70,0,0
69295,-200,3,2,3,5,0,0
69373,-83.3333333333333,3,2,3,70,0,0
69609,-83.3333333333333,3,2,3,5,0,0
69687,-83.3333333333333,3,2,3,70,0,0
69923,-83.3333333333333,3,2,3,5,0,0
70001,-200,3,2,3,70,0,0
70237,-200,3,2,3,5,0,0
70316,-83.3333333333333,3,2,3,70,0,0
70551,-83.3333333333333,3,2,3,5,0,0
70630,-83.3333333333333,3,2,3,70,0,0
70865,-83.3333333333333,3,2,3,5,0,0
70944,-200,3,2,3,70,0,0
71179,-200,3,2,3,5,0,0
71258,-83.3333333333333,3,2,3,70,0,0
71494,-83.3333333333333,3,2,3,5,0,0
71572,-83.3333333333333,3,2,3,70,0,0
71808,-83.3333333333333,3,2,3,5,0,0
71886,-200,3,2,3,70,0,0
72122,-200,3,2,3,5,0,0
72200,-83.3333333333333,3,2,3,70,0,0
72436,-83.3333333333333,3,2,3,5,0,0
72515,-83.3333333333333,3,2,3,70,0,0
72750,-83.3333333333333,3,2,3,5,0,0
72829,-200,3,2,3,70,0,0
73064,-200,3,2,3,5,0,0
73143,-83.3333333333333,3,2,3,70,0,0
73378,-83.3333333333333,3,2,3,5,0,0
73457,-83.3333333333333,3,2,3,70,0,0
73693,-83.3333333333333,3,2,3,5,0,0
73771,-200,3,2,3,70,0,0
74007,-200,3,2,3,5,0,0
74085,-83.3333333333333,3,2,3,70,0,0
74321,-83.3333333333333,3,2,3,5,0,0
74399,-83.3333333333333,3,2,3,70,0,0
74635,-83.3333333333333,3,2,3,5,0,0
74713,-200,3,2,3,70,0,0
74949,-200,3,2,3,5,0,0
75028,-83.3333333333333,3,2,3,70,0,0
75263,-83.3333333333333,3,2,3,5,0,0
75342,-83.3333333333333,3,2,3,70,0,0
75577,-83.3333333333333,3,2,3,5,0,0
75656,-200,3,2,3,70,0,0
76598,-100,3,2,3,70,0,0
82253,-200,3,2,3,70,0,0
82488,-200,3,2,3,5,0,0
82567,-100,3,2,3,70,0,0
82802,-100,3,2,3,5,0,0
82881,-100,3,2,3,70,0,0
83981,-100,3,2,3,40,0,0
84138,-133.333333333333,3,2,3,40,0,0
85865,-133.333333333333,3,2,3,5,0,0
86022,-133.333333333333,3,2,3,40,0,0
86808,-133.333333333333,3,2,3,5,0,0
86965,-133.333333333333,3,2,3,40,0,0
87750,-133.333333333333,3,2,3,5,0,0
87907,-133.333333333333,3,2,3,40,0,0
88693,-133.333333333333,3,2,3,5,0,0
88850,-133.333333333333,3,2,3,40,0,0
89635,-133.333333333333,3,2,3,5,0,0
89792,-133.333333333333,3,2,3,40,0,0
90577,-133.333333333333,3,2,3,5,0,0
90734,-133.333333333333,3,2,3,40,0,0
91520,-133.333333333333,3,2,3,5,0,0
91677,-133.333333333333,3,2,3,40,0,0
92462,-133.333333333333,3,2,3,5,0,0
92619,-133.333333333333,3,2,3,40,0,0
93405,-133.333333333333,3,2,3,5,0,0
93562,-133.333333333333,3,2,3,40,0,0
94347,-133.333333333333,3,2,3,5,0,0
94504,-133.333333333333,3,2,3,40,0,0
94661,-133.333333333333,3,2,3,5,0,0
94818,-133.333333333333,3,2,3,40,0,0
96232,-133.333333333333,3,2,3,5,0,0
96389,-133.333333333333,3,2,3,40,0,0
97174,-133.333333333333,3,2,3,5,0,0
97331,-133.333333333333,3,2,3,40,0,0
98117,-133.333333333333,3,2,3,5,0,0
98274,-133.333333333333,3,2,3,40,0,0
99530,-133.333333333333,3,2,3,45,0,0
99845,-133.333333333333,3,2,3,50,0,0
100159,-133.333333333333,3,2,3,60,0,0
101102,314.13612565445,4,2,3,80,1,1
101102,-86.9565217391304,4,2,3,80,0,1
109897,-86.9565217391304,4,2,3,80,0,0
111154,-86.9565217391304,4,2,3,80,0,1
118693,-142.857142857143,4,2,3,80,0,1
121207,314.13612565445,3,2,3,70,1,0
121207,-76.9230769230769,3,2,3,70,0,0
122699,-76.9230769230769,3,2,3,5,0,0
122777,-76.9230769230769,3,2,3,70,0,0
123405,-71.4285714285714,3,2,3,70,0,0
124976,-76.9230769230769,3,2,3,70,0,0
132751,-76.9230769230769,3,2,3,5,0,0
132830,-76.9230769230769,3,2,3,70,0,0
136285,-100,3,2,3,50,0,0
143824,-100,3,2,3,70,0,0
151364,-133.333333333333,3,2,3,50,0,0
152306,-133.333333333333,3,2,3,50,0,0
152542,-133.333333333333,3,2,3,5,0,0
152620,-133.333333333333,3,2,3,50,0,0
152856,-133.333333333333,3,2,3,5,0,0
152934,-133.333333333333,3,2,3,50,0,0
153170,-133.333333333333,3,2,3,5,0,0
153248,-133.333333333333,3,2,3,50,0,0
153484,-133.333333333333,3,2,3,5,0,0
153563,-133.333333333333,3,2,3,50,0,0
154426,-133.333333333333,3,2,3,5,0,0
154505,-133.333333333333,3,2,3,50,0,0
154741,-133.333333333333,3,2,3,5,0,0
154819,-133.333333333333,3,2,3,50,0,0
155055,-133.333333333333,3,2,3,5,0,0
155133,-133.333333333333,3,2,3,50,0,0
155683,-133.333333333333,3,2,3,5,0,0
155761,-133.333333333333,3,2,3,50,0,0
155997,-133.333333333333,3,2,3,5,0,0
156076,-133.333333333333,3,2,3,50,0,0
156625,-133.333333333333,3,2,3,5,0,0
156704,-133.333333333333,3,2,3,50,0,0
156939,-133.333333333333,3,2,3,5,0,0
157018,-133.333333333333,3,2,3,50,0,0
157568,-133.333333333333,3,2,3,5,0,0
157646,-133.333333333333,3,2,3,50,0,0
157882,-133.333333333333,3,2,3,5,0,0
157960,-133.333333333333,3,2,3,50,0,0
159138,-133.333333333333,3,2,3,5,0,0
159217,-133.333333333333,3,2,3,50,0,0
160395,-133.333333333333,3,2,3,5,0,0
160474,-133.333333333333,3,2,3,50,0,0
160709,-133.333333333333,3,2,3,5,0,0
160788,-133.333333333333,3,2,3,50,0,0
161652,-133.333333333333,3,2,3,5,0,0
161730,-133.333333333333,3,2,3,50,0,0
161966,-133.333333333333,3,2,3,5,0,0
162044,-133.333333333333,3,2,3,50,0,0
163222,-133.333333333333,3,2,3,5,0,0
163301,-133.333333333333,3,2,3,50,0,0
163536,-133.333333333333,3,2,3,5,0,0
163615,-133.333333333333,3,2,3,50,0,0
164165,-133.333333333333,3,2,3,5,0,0
164243,-133.333333333333,3,2,3,50,0,0
164479,-133.333333333333,3,2,3,5,0,0
164557,-133.333333333333,3,2,3,50,0,0
166442,-285.714285714284,3,2,3,40,0,0
168013,-285.714285714284,3,2,3,30,0,0
168327,-285.714285714284,3,2,3,40,0,0
170055,-285.714285714284,3,2,3,5,0,0
170212,-285.714285714284,3,2,3,40,0,0
171782,-285.714285714284,3,2,3,30,0,0
172097,-285.714285714284,3,2,3,40,0,0
173824,-285.714285714284,3,2,3,5,0,0
173981,-285.714285714284,3,2,3,40,0,0
174767,-285.714285714284,3,2,3,5,0,0
174924,-285.714285714284,3,2,3,40,0,0
175552,-285.714285714284,3,2,3,30,0,0
175866,-285.714285714284,3,2,3,40,0,0
177044,-285.714285714284,3,2,3,5,0,0
177123,-285.714285714284,3,2,3,30,0,0
177751,-285.714285714284,3,2,3,40,0,0
179636,-285.714285714284,3,2,3,40,0,0
179950,-285.714285714284,3,2,3,30,0,0
183406,314.13612565445,4,2,3,80,1,1
183406,-80,4,2,3,80,0,1
192201,-80,4,2,3,80,0,0
193458,-80,4,2,3,80,0,1
203510,-100,4,2,3,70,0,0
208536,-133.333333333333,4,2,3,70,0,0
209636,-133.333333333333,4,2,3,5,0,0
209793,-133.333333333333,4,2,3,70,0,0
210892,-133.333333333333,4,2,3,5,0,0
211049,-133.333333333333,4,2,3,70,0,0
212934,-133.333333333333,4,2,3,5,0,0
213091,-133.333333333333,4,2,3,70,0,0
213563,314.13612565445,3,2,3,70,1,0
213563,-90.9090909090909,4,2,3,70,0,0
217332,314.13612565445,4,2,3,70,1,0
217332,-90.9090909090909,4,2,3,70,0,0
227384,-90.9090909090909,4,2,3,70,0,1
237437,314.13612565445,3,2,3,40,1,0
237437,-285.714285714286,3,2,3,40,0,0
239006,-285.714285714286,3,2,3,30,0,0
239320,-285.714285714286,3,2,3,40,0,0
241048,-285.714285714286,3,2,3,5,0,0
241205,-285.714285714286,3,2,3,40,0,0
242776,-285.714285714286,3,2,3,30,0,0
243090,-285.714285714286,3,2,3,40,0,0
244818,-285.714285714286,3,2,3,5,0,0
244975,-285.714285714286,3,2,3,40,0,0
246545,-285.714285714286,3,2,3,30,0,0
246860,-285.714285714286,3,2,3,40,0,0
247959,-285.714285714286,3,2,3,5,0,0
248116,-285.714285714286,3,2,3,30,0,0
248744,-285.714285714286,3,2,3,40,0,0
250472,-285.714285714286,3,2,3,5,0,0
250629,-666.666666666667,3,2,3,40,0,0
254242,-666.666666666667,3,2,3,5,0,0
254399,-666.666666666667,3,2,3,30,0,0
256285,-666.666666666667,3,2,3,5,0,0
258170,314.13612565445,4,2,3,80,1,1
258173,-80,4,2,3,80,0,1
266965,-80,4,2,3,80,0,0
268222,-80,4,2,3,80,0,1
275761,-80,4,2,3,80,0,0
278274,-76.9230769230769,4,2,3,80,0,1
287070,-76.9230769230769,4,2,3,80,0,0
288327,-76.9230769230769,4,2,3,80,0,1
295866,-142.857142857143,4,2,3,70,0,0
296965,-142.857142857143,4,2,3,5,0,0
297122,-142.857142857143,4,2,3,70,0,0
298379,-100,4,2,3,70,0,0
318484,-133.333333333333,4,2,3,70,0,0
323510,-90.9090909090909,4,2,3,80,0,1
328536,-166.666666666667,4,2,3,70,0,0
329790,-166.666666666667,4,2,3,70,0,0
331046,-100,4,2,3,70,0,0
335287,-100,4,2,3,40,0,0
335290,333.333333333333,4,2,3,40,1,0
335456,307.692307692308,4,2,3,40,1,0
335609,314.13612565445,4,2,3,40,1,0
339692,-100,4,2,3,20,0,0

[Colours]
Combo1 : 75,84,29
Combo2 : 147,141,148
Combo3 : 97,95,101

[HitObjects]
91,146,421,5,0,1:0:0:0:
89,140,500,1,0,1:0:0:0:
87,134,578,5,8,0:0:0:0:
98,102,657,1,8,3:0:0:0:
127,84,735,1,8,3:0:0:0:
161,90,814,1,8,3:0:0:0:
211,127,893,5,6,1:2:0:0:
245,99,971,1,0,1:0:0:0:
289,92,1050,1,8,0:0:0:0:
330,109,1128,1,0,1:0:0:0:
356,145,1207,1,2,1:2:0:0:
360,189,1285,1,0,1:0:0:0:
341,229,1364,1,8,0:0:0:0:
304,254,1442,1,0,1:0:0:0:
259,255,1521,5,2,1:2:0:0:
272,208,1599,1,0,1:0:0:0:
306,172,1678,1,8,0:0:0:0:
353,157,1756,1,0,1:0:0:0:
401,165,1835,1,6,1:2:0:0:
440,195,1913,1,0,1:0:0:0:
460,240,1992,1,8,0:0:0:0:
457,289,2070,1,0,1:0:0:0:
431,330,2149,5,6,1:2:0:0:
397,289,2227,1,0,1:0:0:0:
347,271,2306,1,8,0:0:0:0:
295,281,2384,1,0,1:0:0:0:
254,316,2463,1,2,1:2:0:0:
214,351,2542,1,0,1:0:0:0:
162,361,2620,1,8,0:0:0:0:
111,343,2699,1,0,1:0:0:0:
78,302,2777,5,2,1:2:0:0:
135,295,2855,1,0,1:0:0:0:
179,258,2934,1,12,0:0:0:0:
191,201,3012,1,0,1:0:0:0:
170,147,3091,1,2,1:2:0:0:
123,115,3169,1,0,1:0:0:0:
65,116,3248,1,8,0:0:0:0:
18,150,3326,1,0,1:0:0:0:
0,205,3405,5,6,1:2:0:0:
17,202,3484,1,0,1:0:0:0:
34,199,3563,1,8,0:0:0:0:
51,196,3641,1,0,1:0:0:0:
68,193,3720,1,0,1:0:0:0:
85,190,3798,1,0,1:0:0:0:
102,187,3877,1,8,0:0:0:0:
119,184,3955,1,0,1:0:0:0:
146,146,4034,5,2,1:2:0:0:
163,150,4113,1,0,1:0:0:0:
180,153,4192,1,8,0:0:0:0:
197,156,4270,1,0,1:0:0:0:
214,159,4349,1,0,1:0:0:0:
231,162,4427,1,0,1:0:0:0:
248,165,4506,1,8,0:0:0:0:
265,168,4584,1,0,1:0:0:0:
295,203,4662,5,2,1:2:0:0:
279,173,4740,1,0,1:0:0:0:
278,139,4819,1,8,0:0:0:0:
291,109,4897,1,0,1:0:0:0:
317,87,4976,1,0,1:0:0:0:
349,79,5054,1,0,1:0:0:0:
382,85,5133,1,8,0:0:0:0:
409,105,5211,1,0,1:0:0:0:
424,135,5290,5,2,1:2:0:0:
384,153,5368,1,0,1:0:0:0:
339,148,5447,1,12,0:0:0:0:
305,121,5525,1,0,1:0:0:0:
289,79,5605,1,8,0:0:0:0:
274,37,5684,1,8,0:0:0:0:
239,9,5762,1,8,0:0:0:0:
195,4,5841,1,8,0:0:0:0:
155,23,5919,5,6,1:2:0:0:
161,76,5997,1,8,0:0:0:0:
167,129,6076,1,8,0:0:0:0:
173,182,6154,1,8,0:0:0:0:
179,235,6233,2,0,L|183:286,1,45,8|0,1:2|0:0,0:0:0:0:
21,169,6390,5,4,1:2:0:0:
59,119,6468,1,8,0:0:0:0:
115,104,6547,1,8,0:0:0:0:
166,120,6625,1,8,0:0:0:0:
198,157,6704,1,8,0:0:0:0:
244,163,6783,1,8,0:0:0:0:
270,152,6861,5,0,1:0:0:0:
265,174,6940,1,0,1:0:0:0:
266,196,7018,1,0,1:0:0:0:
276,216,7097,1,0,1:0:0:0:
289,232,7175,6,0,B|215:220|215:220|248:325|248:325|348:284|348:284|347:274|347:274|464:225,1,405.000015449525,6|0,1:2|0:0,0:0:0:0:
458,354,7803,5,8,0:0:0:0:
417,317,7882,1,8,3:0:0:0:
404,270,7961,1,0,1:0:0:0:
417,234,8039,1,0,1:0:0:0:
431,220,8118,5,8,3:0:0:0:
357,223,8196,1,8,3:0:0:0:
286,197,8275,1,8,3:0:0:0:
221,160,8353,1,8,3:0:0:0:
169,106,8432,5,4,1:2:0:0:
174,89,8589,1,2,0:0:0:0:
225,236,8746,5,2,0:0:0:0:
231,261,8903,1,2,0:0:0:0:
331,139,9060,5,2,0:0:0:0:
345,82,9217,1,2,0:0:0:0:
423,233,9374,5,2,0:0:0:0:
456,334,9531,1,2,0:0:0:0:
495,28,9688,5,6,1:2:0:0:
484,25,9845,1,2,0:0:0:0:
327,168,10002,5,2,0:0:0:0:
348,161,10160,1,2,0:0:0:0:
241,30,10317,5,2,0:0:0:0:
182,19,10474,1,2,0:0:0:0:
104,220,10631,5,2,0:0:0:0:
202,185,10788,1,2,0:0:0:0:
3,3,10945,5,6,1:2:0:0:
0,15,11102,1,2,0:0:0:0:
137,142,11259,5,2,0:0:0:0:
129,114,11416,1,2,0:0:0:0:
20,200,11573,5,2,0:0:0:0:
6,260,11730,1,2,0:0:0:0:
184,362,11887,5,2,0:0:0:0:
165,260,12044,1,2,0:0:0:0:
383,125,12201,5,6,1:2:0:0:
344,294,12358,1,2,0:0:0:0:
175,256,12516,1,2,0:0:0:0:
213,86,12673,1,2,0:0:0:0:
359,302,12830,5,10,1:3:0:0:
306,314,12909,1,8,1:3:0:0:
253,326,12987,1,0,1:0:0:0:
200,339,13066,1,0,1:0:0:0:
175,256,13144,6,0,L|211:35,1,202.500007724762,10|0,0:0|0:0,0:0:0:0:
432,196,13458,5,6,1:2:0:0:
421,203,13615,1,2,0:0:0:0:
387,346,13772,5,2,0:0:0:0:
371,321,13929,1,2,0:0:0:0:
228,287,14086,5,2,0:0:0:0:
281,250,14243,1,2,0:0:0:0:
264,59,14400,5,2,0:0:0:0:
321,152,14557,1,2,0:0:0:0:
4,210,14714,5,6,1:2:0:0:
15,217,14871,1,2,0:0:0:0:
49,360,15028,5,2,0:0:0:0:
65,335,15185,1,2,0:0:0:0:
208,301,15342,5,2,0:0:0:0:
155,264,15499,1,2,0:0:0:0:
172,73,15656,5,2,0:0:0:0:
115,166,15813,1,2,0:0:0:0:
400,82,15971,6,0,L|302:61,1,90,6|0,1:2|0:0,0:0:0:0:
250,12,16285,1,0,1:0:0:0:
409,170,16442,2,0,L|311:149,1,90,2|0,0:0|1:0,0:0:0:0:
241,113,16756,1,2,0:0:0:0:
348,253,16913,1,2,1:2:0:0:
413,70,17071,1,2,0:0:0:0:
219,203,17228,6,0,P|167:195|122:198,1,90,2|0,1:2|0:0,0:0:0:0:
84,341,17542,2,0,P|118:301|155:274,1,90,2|0,1:2|0:0,0:0:0:0:
334,267,17856,2,0,P|334:313|344:356,1,90,2|0,1:2|0:0,0:0:0:0:
111,209,18170,2,0,P|122:159|121:119,1,90,2|0,1:2|0:0,0:0:0:0:
48,40,18484,6,0,P|96:70|177:12,1,135,6|0,1:2|0:0,0:0:0:0:
255,9,18798,1,2,1:2:0:0:
249,35,18877,1,0,0:0:0:0:
243,61,18955,1,0,0:0:0:0:
237,87,19034,1,0,0:0:0:0:
266,129,19112,1,2,1:2:0:0:
272,103,19191,1,0,0:0:0:0:
278,77,19269,1,0,0:0:0:0:
284,51,19348,1,0,0:0:0:0:
255,9,19427,6,0,B|286:-2|286:-2|392:27,1,135,2|0,1:2|0:0,0:0:0:0:
508,138,19741,1,12,0:0:0:0:
384,24,20369,5,10,0:0:0:0:
429,121,20526,1,8,3:0:0:0:
427,132,20605,2,0,P|392:160|301:151,1,135,8|8,3:0|3:0,0:0:0:0:
301,144,20919,1,8,3:0:0:0:
297,129,20997,5,6,1:2:0:0:
340,118,21076,1,0,1:0:0:0:
378,140,21154,1,0,1:0:0:0:
391,183,21233,1,0,1:0:0:0:
369,222,21311,5,10,0:0:0:0:
347,227,21390,1,0,1:0:0:0:
325,232,21468,1,0,1:0:0:0:
303,237,21547,1,0,1:0:0:0:
281,242,21625,5,10,0:0:0:0:
313,279,21704,1,0,1:0:0:0:
303,327,21783,1,0,1:0:0:0:
263,356,21861,1,0,1:0:0:0:
215,340,21940,5,10,0:0:0:0:
263,333,22018,1,0,1:0:0:0:
312,326,22097,1,0,1:0:0:0:
360,319,22175,1,0,1:0:0:0:
409,312,22254,6,0,L|395:366,3,45,10|0|0|0,0:0|1:0|1:0|1:0,0:0:0:0:
497,256,22568,2,0,L|441:242,1,45,10|0,0:0|1:0,0:0:0:0:
374,150,22725,2,0,L|318:164,1,45,2|0,1:2|1:0,0:0:0:0:
200,261,22882,5,10,0:0:0:0:
159,278,22960,1,0,1:0:0:0:
116,268,23039,1,0,1:0:0:0:
87,234,23117,1,0,1:0:0:0:
84,190,23196,1,10,0:0:0:0:
107,152,23274,1,0,1:0:0:0:
148,136,23353,1,0,1:0:0:0:
191,147,23431,1,0,1:0:0:0:
219,181,23510,5,10,0:0:0:0:
201,184,23589,1,0,1:0:0:0:
183,187,23667,1,0,1:0:0:0:
165,190,23746,1,0,1:0:0:0:
147,193,23824,1,8,0:0:0:0:
129,196,23903,1,0,1:0:0:0:
111,199,23982,1,0,1:0:0:0:
93,202,24060,1,0,1:0:0:0:
75,205,24139,5,10,0:0:0:0:
87,162,24217,1,0,1:0:0:0:
99,118,24296,1,0,1:0:0:0:
112,75,24374,1,0,1:0:0:0:
126,32,24453,5,10,0:0:0:0:
108,34,24531,1,0,1:0:0:0:
90,36,24610,1,0,1:0:0:0:
72,38,24688,1,0,1:0:0:0:
53,40,24767,5,10,0:0:0:0:
88,12,24845,1,0,1:0:0:0:
132,4,24924,1,0,1:0:0:0:
174,16,25002,1,0,1:0:0:0:
207,46,25081,1,8,0:0:0:0:
240,76,25160,1,0,1:0:0:0:
282,88,25238,1,0,1:0:0:0:
326,80,25317,1,0,1:0:0:0:
362,53,25395,6,0,L|355:5,3,45,12|0|0|0,0:0|1:0|1:0|1:0,0:0:0:0:
477,49,25709,2,0,L|468:100,1,45,14|0,1:2|1:0,0:0:0:0:
395,210,25866,2,0,L|386:159,1,45,2|0,1:2|1:0,0:0:0:0:
471,324,26023,5,14,1:2:0:0:
438,354,26101,1,0,1:0:0:0:
395,364,26180,1,0,1:0:0:0:
353,350,26258,1,0,1:0:0:0:
324,316,26337,5,10,0:0:0:0:
350,259,26416,1,0,1:0:0:0:
329,199,26495,1,0,1:0:0:0:
272,172,26573,1,0,1:0:0:0:
214,198,26652,5,10,0:0:0:0:
211,215,26730,1,0,1:0:0:0:
208,232,26809,1,0,1:0:0:0:
206,249,26887,1,0,1:0:0:0:
202,268,26966,5,10,0:0:0:0:
160,300,27044,1,0,1:0:0:0:
107,297,27123,1,0,1:0:0:0:
70,260,27201,1,0,1:0:0:0:
67,207,27280,6,0,L|132:199,3,45,10|0|0|0,0:0|1:0|1:0|1:0,0:0:0:0:
129,98,27594,2,0,L|185:108,1,45,10|0,0:0|1:0,0:0:0:0:
272,172,27751,2,0,L|227:179,1,45,2|0,1:2|1:0,0:0:0:0:
303,43,27908,5,10,0:0:0:0:
345,29,27986,1,0,1:0:0:0:
388,41,28065,1,0,1:0:0:0:
417,74,28143,1,0,1:0:0:0:
424,118,28222,5,14,0:0:0:0:
406,158,28300,1,0,1:0:0:0:
368,182,28379,1,0,1:0:0:0:
324,182,28457,1,0,1:0:0:0:
287,158,28536,5,14,0:0:0:0:
333,131,28614,1,0,1:0:0:0:
386,133,28693,1,0,1:0:0:0:
431,162,28771,1,0,1:0:0:0:
453,211,28850,5,10,0:0:0:0:
451,233,28929,1,0,1:0:0:0:
448,255,29008,1,0,1:0:0:0:
446,277,29086,1,0,1:0:0:0:
443,299,29165,2,0,L|386:316,3,45,10|0|0|0,0:0|1:0|1:0|1:0,0:0:0:0:
342,384,29479,2,0,L|285:367,3,45,10|0|0|0,0:0|1:0|1:0|1:0,0:0:0:0:
226,191,29793,5,10,0:0:0:0:
175,148,29871,1,8,0:0:0:0:
109,150,29950,1,8,0:0:0:0:
61,195,30028,1,8,0:0:0:0:
56,261,30107,5,8,3:0:0:0:
60,278,30186,1,8,3:0:0:0:
64,295,30264,1,8,3:0:0:0:
68,312,30343,1,8,3:0:0:0:
72,329,30421,5,8,0:0:0:0:
136,350,30500,1,0,1:0:0:0:
196,322,30578,1,0,1:0:0:0:
201,308,30657,1,8,3:0:0:0:
206,297,30735,5,8,0:0:0:0:
266,269,30813,1,8,3:0:0:0:
330,290,30892,1,0,1:0:0:0:
331,303,30971,1,0,1:0:0:0:
331,318,31050,5,6,1:2:0:0:
286,315,31128,1,0,1:0:0:0:
250,289,31207,1,0,1:0:0:0:
233,248,31285,1,0,1:0:0:0:
241,204,31364,5,10,0:0:0:0:
258,200,31442,1,0,1:0:0:0:
275,195,31521,1,0,1:0:0:0:
292,190,31599,1,0,1:0:0:0:
309,185,31678,5,10,0:0:0:0:
266,159,31756,1,0,1:0:0:0:
250,111,31835,1,0,1:0:0:0:
275,69,31913,1,0,1:0:0:0:
323,57,31992,5,10,0:0:0:0:
300,55,32071,1,0,1:0:0:0:
277,53,32149,1,0,1:0:0:0:
254,50,32228,1,0,1:0:0:0:
228,47,32306,6,0,L|165:40,3,45,10|0|0|0,0:0|1:0|1:0|1:0,0:0:0:0:
87,6,32620,2,0,L|103:52,1,45,10|0,0:0|1:0,0:0:0:0:
161,174,32777,2,0,L|176:132,1,45,2|0,1:2|1:0,0:0:0:0:
50,288,32934,5,10,0:0:0:0:
73,325,33012,1,0,1:0:0:0:
113,344,33091,1,0,1:0:0:0:
157,339,33169,1,0,1:0:0:0:
191,311,33249,1,10,0:0:0:0:
225,283,33328,1,0,1:0:0:0:
269,278,33406,1,0,1:0:0:0:
309,297,33485,1,0,1:0:0:0:
333,335,33563,5,14,0:0:0:0:
334,326,33641,1,0,1:0:0:0:
335,317,33720,1,0,1:0:0:0:
336,308,33798,1,0,1:0:0:0:
337,299,33877,1,8,0:0:0:0:
338,290,33955,1,0,1:0:0:0:
340,281,34034,1,0,1:0:0:0:
341,272,34112,1,0,1:0:0:0:
343,263,34191,5,10,0:0:0:0:
398,280,34269,1,0,1:0:0:0:
448,250,34348,1,0,1:0:0:0:
465,193,34427,1,0,1:0:0:0:
443,139,34505,5,10,0:0:0:0:
400,150,34583,1,0,1:0:0:0:
360,132,34662,1,0,1:0:0:0:
341,92,34740,1,0,1:0:0:0:
352,50,34819,5,14,0:0:0:0:
378,74,34897,1,0,1:0:0:0:
390,108,34976,1,0,1:0:0:0:
386,143,35054,1,0,1:0:0:0:
367,173,35133,1,14,0:0:0:0:
336,192,35211,1,0,1:0:0:0:
301,195,35290,1,0,1:0:0:0:
267,182,35368,1,0,1:0:0:0:
244,155,35447,6,0,L|235:97,1,45,14|0,0:0|0:0,0:0:0:0:
152,27,35605,1,8,0:0:0:0:
136,101,35683,1,8,0:0:0:0:
120,176,35762,2,0,L|107:237,1,45,10|8,0:0|3:0,0:0:0:0:
221,290,35919,2,0,L|208:229,1,45,10|0,3:0|1:0,0:0:0:0:
69,359,36076,5,6,1:2:0:0:
113,365,36154,1,0,1:0:0:0:
157,371,36233,1,0,1:0:0:0:
201,377,36311,1,0,1:0:0:0:
245,382,36390,5,10,0:0:0:0:
217,327,36468,1,0,1:0:0:0:
241,270,36547,1,0,1:0:0:0:
299,251,36625,1,0,1:0:0:0:
351,282,36704,5,10,0:0:0:0:
310,298,36782,1,0,1:0:0:0:
266,290,36861,1,0,1:0:0:0:
233,260,36939,1,0,1:0:0:0:
221,217,37018,5,10,0:0:0:0:
225,199,37097,1,0,1:0:0:0:
229,181,37175,1,0,1:0:0:0:
233,163,37254,1,0,1:0:0:0:
237,143,37332,6,0,L|249:93,3,45,10|0|0|0,0:0|1:0|1:0|1:0,0:0:0:0:
180,7,37646,2,0,L|192:66,1,45,10|0,0:0|1:0,0:0:0:0:
308,159,37803,2,0,L|320:100,1,45,2|0,1:2|1:0,0:0:0:0:
17,190,37961,5,10,0:0:0:0:
50,218,38039,1,0,1:0:0:0:
94,225,38118,1,0,1:0:0:0:
135,206,38196,1,0,1:0:0:0:
159,169,38275,1,14,0:0:0:0:
159,125,38353,1,0,1:0:0:0:
135,87,38432,1,0,1:0:0:0:
95,68,38510,1,0,1:0:0:0:
51,74,38589,5,14,0:0:0:0:
70,119,38667,1,0,1:0:0:0:
114,142,38746,1,0,1:0:0:0:
162,133,38824,1,0,1:0:0:0:
194,95,38903,5,10,0:0:0:0:
182,60,38982,1,0,1:0:0:0:
196,27,39060,1,0,1:0:0:0:
231,18,39139,1,0,1:0:0:0:
264,30,39217,5,10,0:0:0:0:
256,51,39295,1,0,1:0:0:0:
258,73,39374,1,0,1:0:0:0:
269,93,39452,1,0,1:0:0:0:
286,107,39531,1,10,0:0:0:0:
308,112,39609,1,0,1:0:0:0:
330,109,39688,1,0,1:0:0:0:
349,97,39766,1,0,1:0:0:0:
359,76,39845,6,0,L|353:39,1,33.7500012874604,10|8,3:0|1:3,0:0:0:0:
252,237,40002,2,0,L|187:247,1,45,12|0,0:0|0:0,0:0:0:0:
377,175,40160,2,0,B|437:184|437:184|452:200|452:200|506:210,1,135,12|0,0:0|0:0,0:0:0:0:
375,336,40474,5,2,1:2:0:0:
358,343,40552,1,0,1:0:0:0:
329,343,40631,1,8,0:0:0:0:
300,325,40709,1,8,0:0:0:0:
281,286,40788,1,10,0:0:0:0:
249,247,40866,1,8,0:0:0:0:
195,235,40945,1,0,1:0:0:0:
135,252,41023,1,0,1:0:0:0:
101,322,41102,6,0,B|177:353|226:268|182:216|131:200|131:200|75:183|39:91|148:29|214:99|202:144,1,472.500018024445,6|2,1:2|0:0,0:0:0:0:
196,141,42280,1,2,0:0:0:0:
184,146,42358,6,0,B|209:89|270:67|338:103|338:103|318:149|319:205|369:228|369:228|381:122|467:121,1,472.500018024445,6|0,1:2|1:0,0:0:0:0:
474,128,43536,1,0,1:0:0:0:
478,138,43615,6,0,B|513:199|513:199|372:252|372:252|391:136|391:136|398:128|398:128|418:5,1,472.500018024445,14|0,1:2|1:0,0:0:0:0:
426,4,44793,1,0,1:0:0:0:
437,10,44872,6,0,B|386:57|336:43|354:8|295:-3|249:24,1,202.500007724762,6|2,1:2|0:0,0:0:0:0:
221,90,45500,2,0,L|212:138,1,33.7500012874604,0|0,1:0|1:0,0:0:0:0:
140,270,45657,5,8,0:0:0:0:
159,224,45735,1,8,0:0:0:0:
156,189,45814,1,8,3:0:0:0:
146,162,45892,1,8,3:0:0:0:
131,149,45971,1,0,1:0:0:0:
121,142,46050,1,0,1:0:0:0:
117,139,46128,6,0,B|172:198|235:179|235:179|202:226|250:282|250:282|316:258|315:205|315:205|369:254|454:205,1,472.500018024445,6|0,1:2|1:0,0:0:0:0:
438,209,47306,1,0,1:0:0:0:
441,200,47385,2,0,L|428:122,1,67.5000025749208,6|0,1:2|0:0,0:0:0:0:
371,42,47699,6,0,L|367:62,1,16.8750006437302,8|0,3:0|0:0,0:0:0:0:
365,28,48170,2,0,L|361:48,1,16.8750006437302,8|0,3:0|0:0,0:0:0:0:
512,0,48641,1,4,1:2:0:0:
273,119,48955,6,0,B|232:124|222:162|222:162|232:124|197:96,3,135.000005149842,2|2|2|2,1:2|0:0|0:0|0:0,0:0:0:0:
288,188,50212,2,0,L|290:211,1,16.8750006437302,10|0,0:0|0:0,0:0:0:0:
360,289,50526,2,0,L|211:308,1,135.000005149842,2|2,1:2|0:0,0:0:0:0:
115,358,51154,5,6,1:2:0:0:
140,326,51232,1,0,0:0:0:0:
150,287,51311,1,0,1:0:0:0:
145,246,51389,1,0,1:0:0:0:
125,210,51468,1,8,0:0:0:0:
97,194,51546,1,8,3:0:0:0:
76,192,51625,1,0,1:0:0:0:
63,195,51703,1,0,1:0:0:0:
54,202,51782,6,0,P|48:234|62:263,1,45,2|0,1:2|1:0,0:0:0:0:
208,108,51939,2,0,P|214:76|200:47,1,45,2|0,1:2|1:0,0:0:0:0:
12,60,52096,2,0,P|60:88|151:85,1,135,6|0,1:2|0:0,0:0:0:0:
272,17,52410,5,8,0:0:0:0:
338,11,52489,1,8,0:0:0:0:
398,41,52567,1,8,0:0:0:0:
433,97,52646,1,8,0:0:0:0:
434,164,52724,1,8,0:0:0:0:
400,221,52803,1,8,0:0:0:0:
342,253,52881,1,8,0:0:0:0:
275,250,52960,1,8,0:0:0:0:
220,212,53038,1,10,0:0:0:0:
220,212,53982,5,2,1:2:0:0:
186,142,54139,1,0,0:0:0:0:
102,142,54296,1,2,1:2:0:0:
47,219,54453,1,0,0:0:0:0:
95,313,54610,1,2,1:2:0:0:
194,126,54767,1,2,0:0:0:0:
14,18,54924,2,0,P|9:74|102:153,2,180,2|0|0,1:2|1:0|1:0,0:0:0:0:
93,58,55709,1,2,0:0:0:0:
221,24,55866,6,0,L|206:121,1,90,2|0,1:2|0:0,0:0:0:0:
274,174,56180,1,2,1:2:0:0:
194,102,56338,1,2,0:0:0:0:
355,55,56495,1,2,1:2:0:0:
274,195,56652,1,2,0:0:0:0:
337,139,56809,2,0,B|361:175|349:216|349:216|366:232|366:232|356:265|383:319,2,180,2|0|0,1:2|1:0|1:0,0:0:0:0:
274,195,57594,1,0,0:0:0:0:
284,372,57751,6,0,P|292:311|288:261,1,90,6|0,1:2|0:0,0:0:0:0:
211,256,58065,1,2,1:2:0:0:
369,317,58222,1,2,0:0:0:0:
183,351,58379,1,2,1:2:0:0:
117,292,58536,1,2,0:0:0:0:
139,207,58694,2,0,P|85:241|36:159,1,180,0|0,1:0|1:0,0:0:0:0:
270,14,59322,2,0,P|254:71|259:136,1,90,2|0,1:2|0:0,0:0:0:0:
419,177,59636,5,2,1:2:0:0:
368,128,59793,1,2,0:0:0:0:
284,136,59950,1,2,1:2:0:0:
245,228,60107,1,2,0:0:0:0:
335,304,60264,1,2,1:2:0:0:
358,143,60421,1,2,0:0:0:0:
232,242,60578,6,0,L|130:253,1,90,2|8,1:2|3:0,0:0:0:0:
127,242,60814,1,8,3:0:0:0:
115,228,60892,1,8,3:0:0:0:
195,116,61050,1,8,3:0:0:0:
287,154,61207,1,8,0:0:0:0:
186,384,61364,1,8,0:0:0:0:
93,150,61521,6,0,L|142:158,1,45,2|0,1:2|0:0,0:0:0:0:
232,242,61678,2,0,L|281:234,1,45
401,131,61835,1,0,1:0:0:0:
367,14,61992,1,2,0:0:0:0:
385,142,62149,1,2,1:2:0:0:
245,228,62306,1,2,0:0:0:0:
174,100,62463,2,0,P|193:33|255:100,2,180,2|0|0,1:2|1:0|1:0,0:0:0:0:
254,90,63249,1,2,0:0:0:0:
97,162,63406,6,0,P|94:219|83:256,1,90,2|0,1:2|0:0,0:0:0:0:
26,303,63720,1,2,1:2:0:0:
99,254,63877,1,2,0:0:0:0:
193,275,64034,1,2,1:2:0:0:
43,312,64191,1,2,0:0:0:0:
192,195,64348,2,0,B|249:199|274:241|247:247|287:290|341:274,1,180,0|2,1:0|1:2,0:0:0:0:
323,199,64819,1,2,0:0:0:0:
303,334,64976,1,2,1:2:0:0:
351,267,65133,1,2,0:0:0:0:
487,230,65290,6,0,P|441:225|391:195,1,90,6|0,1:2|0:0,0:0:0:0:
385,102,65605,1,2,1:2:0:0:
272,176,65762,1,2,0:0:0:0:
396,90,65919,1,2,1:2:0:0:
505,137,66076,1,2,0:0:0:0:
292,105,66233,2,0,P|209:90|92:111,1,180,0|0,1:0|1:0,0:0:0:0:
117,304,66861,2,0,P|158:266|170:192,1,90,2|0,1:2|0:0,0:0:0:0:
96,166,67175,5,2,1:2:0:0:
156,225,67332,1,2,0:0:0:0:
247,223,67489,1,2,1:2:0:0:
302,118,67646,1,2,0:0:0:0:
329,278,67803,1,2,1:2:0:0:
192,135,67961,1,2,0:0:0:0:
406,62,68118,5,10,0:0:0:0:
362,199,68275,1,8,3:0:0:0:
254,25,68432,1,8,3:0:0:0:
418,139,68589,1,10,3:0:0:0:
340,0,68746,1,10,0:0:0:0:
236,210,68903,1,10,0:0:0:0:
465,299,69060,6,0,L|387:287,1,67.5,2|0,1:2|0:0,0:0:0:0:
328,342,69374,6,0,L|153:364,1,161.999995056153,2|0,0:0|0:0,0:0:0:0:
337,333,69688,2,0,L|162:355,1,161.999995056153,2|0,0:0|0:0,0:0:0:0:
92,316,70002,6,0,P|113:290|119:250,1,67.5,2|0,1:2|0:0,0:0:0:0:
81,188,70317,6,0,P|74:125|142:43,1,161.999995056153,2|0,0:0|0:0,0:0:0:0:
94,192,70631,2,0,P|87:129|155:47,1,161.999995056153,2|0,0:0|0:0,0:0:0:0:
272,35,70945,6,0,L|260:110,1,67.5,2|0,1:2|0:0,0:0:0:0:
204,181,71259,6,0,L|380:151,1,161.999995056153,2|0,0:0|0:0,0:0:0:0:
213,191,71573,2,0,L|389:161,1,161.999995056153,2|0,0:0|0:0,0:0:0:0:
467,94,71887,6,0,P|456:125|474:169,1,67.5,2|0,1:2|0:0,0:0:0:0:
411,233,72201,6,0,P|431:291|356:258,1,161.999995056153,2|0,0:0|0:0,0:0:0:0:
411,224,72516,2,0,P|431:282|356:249,1,161.999995056153,2|0,0:0|0:0,0:0:0:0:
276,252,72830,6,0,B|241:256|241:256|237:258|237:258|201:261,1,67.5,2|0,1:2|0:0,0:0:0:0:
111,362,73144,6,0,B|127:282|127:282|134:275|134:275|150:194,1,161.999995056153,2|0,0:0|0:0,0:0:0:0:
101,355,73458,2,0,B|117:275|117:275|124:268|124:268|140:187,1,161.999995056153,2|0,0:0|0:0,0:0:0:0:
189,135,73772,6,0,P|160:114|119:122,1,67.5,2|0,1:2|0:0,0:0:0:0:
26,225,74086,6,0,P|58:163|35:70,1,161.999995056153,2|0,0:0|0:0,0:0:0:0:
17,220,74400,2,0,P|49:158|26:65,1,161.999995056153,2|0,0:0|0:0,0:0:0:0:
114,47,74714,6,0,L|198:34,1,67.5,2|0,1:2|0:0,0:0:0:0:
336,143,75029,6,0,L|156:120,1,161.999995056153,2|0,0:0|0:0,0:0:0:0:
349,155,75343,2,0,L|169:132,1,161.999995056153,2|0,0:0|0:0,0:0:0:0:
137,198,75657,5,2,1:2:0:0:
251,52,75814,1,8,3:0:0:0:
272,46,75892,1,8,3:0:0:0:
293,40,75971,5,10,0:0:0:0:
362,134,76128,1,0,1:0:0:0:
214,256,76285,5,6,0:0:0:0:
265,135,76442,1,8,0:0:0:0:
388,348,76599,6,0,L|281:337,1,90,6|0,1:2|0:0,0:0:0:0:
226,250,76913,1,2,0:0:0:0:
79,380,77071,1,0,0:0:0:0:
214,256,77228,1,2,0:0:0:0:
51,300,77385,1,0,0:0:0:0:
202,266,77542,1,2,1:2:0:0:
86,233,77699,1,0,0:0:0:0:
191,277,77856,1,2,0:0:0:0:
152,202,78013,1,0,0:0:0:0:
177,295,78170,2,0,P|126:302|86:268,1,90,2|0,0:0|0:0,0:0:0:0:
296,114,78484,6,0,P|287:158|282:215,1,90,2|0,1:2|0:0,0:0:0:0:
379,248,78798,1,2,0:0:0:0:
465,222,78955,1,0,0:0:0:0:
370,257,79112,1,2,0:0:0:0:
419,163,79269,1,0,0:0:0:0:
362,270,79427,1,2,1:2:0:0:
349,134,79584,1,0,0:0:0:0:
353,285,79741,1,2,0:0:0:0:
269,140,79898,1,0,0:0:0:0:
345,301,80055,1,2,0:0:0:0:
192,190,80212,1,0,0:0:0:0:
447,60,80369,5,2,1:2:0:0:
314,203,80526,1,2,0:0:0:0:
212,9,80683,1,2,0:0:0:0:
349,134,80840,1,2,0:0:0:0:
191,290,80997,2,0,P|205:217|208:172,1,90,2|0,0:0|0:0,0:0:0:0:
132,125,81311,5,2,1:2:0:0:
294,89,81468,1,2,0:0:0:0:
122,117,81625,1,2,0:0:0:0:
67,293,81783,1,2,0:0:0:0:
197,176,81940,2,0,P|204:105|200:56,1,90,2|0,0:0|0:0,0:0:0:0:
57,309,82254,6,0,B|90:315|90:315|129:312,1,67.5,2|0,1:2|0:0,0:0:0:0:
216,251,82568,6,0,P|276:246|293:310,1,135,2|0,0:0|0:0,0:0:0:0:
251,372,82881,5,2,0:0:0:0:
131,231,83038,1,0,0:0:0:0:
366,55,83195,1,6,0:0:0:0:
366,55,83981,1,2,0:0:0:0:
352,64,84059,1,2,0:0:0:0:
364,74,84138,6,0,P|349:127|290:9,1,337.500012874604,2|0,0:0|0:0,0:0:0:0:
290,19,85002,1,0,0:0:0:0:
297,32,85080,2,0,B|267:177|267:177|273:192|273:192|241:367,1,337.500012874604,2|0,0:0|0:0,0:0:0:0:
136,239,86023,2,0,B|210:184|297:232|270:251|363:324|455:231,1,337.500012874604,2|2,0:0|0:0,0:0:0:0:
358,186,86965,2,0,P|298:266|466:320,1,337.500012874604,2|0,0:0|0:0,0:0:0:0:
447,238,87907,2,0,B|363:324|270:251|297:232|210:184|137:237,1,337.500012874604,2|0,0:0|0:0,0:0:0:0:
43,187,88850,2,0,B|138:153|143:52|143:52|83:-6|-11:6,1,337.500012874604,2|0,0:0|0:0,0:0:0:0:
57,88,89792,2,0,B|110:128|163:113|163:113|186:56|261:42|261:42|227:97|274:143,1,337.500012874604,2|0,0:0|0:0,0:0:0:0:
390,141,90735,2,0,B|388:85|447:61|447:61|478:93|487:176|454:234|393:266,1,337.500012874604,2|0,0:0|0:0,0:0:0:0:
318,240,91677,6,0,B|260:170|148:201|112:295|112:295|169:275|210:302,1,337.500012874604,2|0,0:0|0:0,0:0:0:0:
281,368,92619,2,0,B|261:296|306:230|306:230|266:202|266:202|298:143|273:62,1,337.500012874604,2|0,0:0|0:0,0:0:0:0:
152,87,93562,2,0,B|200:134|200:134|403:148|403:148|471:102,1,337.500012874604,2|2,0:0|0:0,0:0:0:0:
392,0,94504,2,0,P|390:37|379:79,1,67.5000025749208,2|0,0:0|0:0,0:0:0:0:
314,131,94818,5,0,0:0:0:0:
265,70,94975,1,0,0:0:0:0:
314,131,95133,1,0,0:0:0:0:
265,70,95290,1,0,0:0:0:0:
235,194,95447,6,0,B|162:191|139:117|139:117|62:141|40:233|97:283,1,337.500012874604,2|0,0:0|0:0,0:0:0:0:
203,297,96389,2,0,B|269:263|330:303|302:345|393:373|453:325|453:325|408:333|366:297,1,337.500012874604,2|0,0:0|0:0,0:0:0:0:
433,239,97331,2,0,B|466:199|432:162|432:162|345:182|265:128|265:128|221:157|238:207,1,337.500012874604,2|0,0:0|0:0,0:0:0:0:
395,68,98274,6,0,P|391:54|393:78,2,135.000005149842,2|2|2,0:0|0:0|0:0,0:0:0:0:
52,114,99216,5,10,0:0:0:0:
113,304,99530,5,10,0:0:0:0:
302,243,99844,5,10,0:0:0:0:
241,54,100159,5,10,0:0:0:0:
241,54,101101,5,6,1:2:0:0:
287,73,101180,1,0,1:0:0:0:
312,118,101259,1,8,0:0:0:0:
306,169,101337,1,0,1:0:0:0:
271,206,101416,1,0,1:0:0:0:
221,216,101494,1,0,1:0:0:0:
176,195,101573,1,8,0:0:0:0:
129,173,101651,1,0,1:0:0:0:
79,183,101730,1,0,1:0:0:0:
45,219,101808,1,0,1:0:0:0:
38,270,101887,1,8,0:0:0:0:
63,315,101965,1,0,1:0:0:0:
108,338,102044,1,2,1:2:0:0:
148,326,102122,1,0,1:0:0:0:
167,302,102201,1,10,0:0:0:0:
172,280,102280,1,0,1:0:0:0:
166,269,102358,5,2,1:2:0:0:
194,323,102436,1,0,1:0:0:0:
245,358,102515,1,8,0:0:0:0:
306,364,102593,1,0,1:0:0:0:
363,341,102672,1,0,1:0:0:0:
403,294,102750,1,0,1:0:0:0:
415,234,102829,1,8,0:0:0:0:
398,175,102907,1,0,1:0:0:0:
356,131,102986,1,0,1:0:0:0:
297,112,103064,1,0,1:0:0:0:
237,123,103143,1,8,0:0:0:0:
202,159,103222,1,0,1:0:0:0:
193,196,103300,1,0,1:0:0:0:
200,217,103379,1,0,1:0:0:0:
206,224,103458,2,0,P|236:234|271:201,1,51.7500009870529,10|0,0:0|1:0,0:0:0:0:
293,34,103615,5,6,1:2:0:0:
259,2,103693,1,0,1:0:0:0:
213,0,103772,1,8,0:0:0:0:
173,20,103850,1,0,1:0:0:0:
154,60,103929,1,0,1:0:0:0:
158,106,104007,1,0,1:0:0:0:
136,148,104086,1,8,0:0:0:0:
95,169,104164,1,0,1:0:0:0:
48,162,104243,1,0,1:0:0:0:
18,127,104321,1,0,1:0:0:0:
21,80,104400,2,0,P|45:54|79:49,3,51.7500009870529,10|0|0|0,0:0|1:0|1:0|1:0,0:0:0:0:
151,152,104714,2,0,P|178:171|209:169,1,51.7500009870529,10|0,0:0|1:0,0:0:0:0:
319,51,104871,5,2,1:2:0:0:
356,34,104949,1,0,1:0:0:0:
397,40,105028,1,8,0:0:0:0:
429,65,105106,1,0,1:0:0:0:
444,103,105185,1,0,1:0:0:0:
437,143,105263,1,0,1:0:0:0:
411,175,105342,1,8,0:0:0:0:
372,188,105420,1,0,1:0:0:0:
331,185,105499,1,0,1:0:0:0:
293,200,105578,1,0,1:0:0:0:
265,230,105656,1,8,0:0:0:0:
254,270,105735,1,0,1:0:0:0:
260,310,105813,1,0,1:0:0:0:
284,344,105892,1,0,1:0:0:0:
320,364,105970,1,8,0:0:0:0:
361,366,106049,1,0,1:0:0:0:
398,350,106128,5,6,1:2:0:0:
401,324,106206,1,0,1:0:0:0:
397,299,106285,1,8,0:0:0:0:
386,275,106363,1,0,1:0:0:0:
369,256,106442,1,0,1:0:0:0:
348,242,106520,1,0,1:0:0:0:
323,234,106599,1,8,0:0:0:0:
297,234,106677,1,0,1:0:0:0:
273,241,106756,1,0,1:0:0:0:
250,254,106834,1,0,1:0:0:0:
233,273,106913,1,8,0:0:0:0:
221,296,106991,1,0,1:0:0:0:
216,321,107070,2,0,L|271:328,1,51.7500009870529,2|0,1:2|1:0,0:0:0:0:
347,153,107227,2,0,L|295:159,1,51.7500009870529,10|0,0:0|1:0,0:0:0:0:
403,278,107384,5,2,1:2:0:0:
441,265,107462,1,0,1:0:0:0:
468,234,107541,1,8,0:0:0:0:
474,194,107619,1,0,1:0:0:0:
457,156,107698,1,0,1:0:0:0:
423,134,107776,1,0,1:0:0:0:
382,133,107855,1,8,0:0:0:0:
347,153,107933,1,0,1:0:0:0:
306,153,108012,1,0,1:0:0:0:
272,130,108091,1,0,1:0:0:0:
256,93,108170,2,0,L|273:36,1,51.7500009870529,10|0,0:0|1:0,0:0:0:0:
374,10,108327,2,0,L|356:76,1,51.7500009870529,6|0,1:2|1:0,0:0:0:0:
203,152,108484,2,0,L|221:218,1,51.7500009870529,10|0,0:0|1:0,0:0:0:0:
252,311,108641,5,6,1:2:0:0:
205,343,108719,1,0,1:0:0:0:
149,350,108798,1,8,0:0:0:0:
96,330,108876,1,0,1:0:0:0:
58,289,108955,1,0,1:0:0:0:
43,235,109033,1,0,1:0:0:0:
55,180,109112,1,8,0:0:0:0:
90,136,109190,1,0,1:0:0:0:
142,113,109269,1,0,1:0:0:0:
198,117,109347,1,0,1:0:0:0:
246,146,109426,2,0,L|241:203,1,51.7500009870529,8|0,0:0|1:0,0:0:0:0:
252,311,109583,2,0,L|205:278,1,51.7500009870529,2|0,1:2|1:0,0:0:0:0:
117,235,109740,2,0,L|168:210,1,51.7500009870529,10|0,0:0|1:0,0:0:0:0:
315,55,109897,5,6,0:0:0:0:
387,48,109976,1,8,0:0:0:0:
445,89,110054,1,8,0:0:0:0:
469,157,110133,1,8,0:0:0:0:
434,220,110211,1,8,0:0:0:0:
404,268,110290,1,8,0:0:0:0:
404,310,110369,1,0,1:0:0:0:
422,334,110447,1,0,1:0:0:0:
434,342,110526,5,6,0:0:0:0:
414,272,110604,1,8,0:0:0:0:
347,242,110683,1,10,0:0:0:0:
279,265,110761,1,8,0:0:0:0:
245,329,110840,1,10,0:0:0:0:
198,361,110918,1,8,3:0:0:0:
150,363,110997,1,10,3:0:0:0:
113,352,111075,1,8,3:0:0:0:
107,338,111154,5,6,1:2:0:0:
157,332,111232,1,0,1:0:0:0:
194,297,111311,1,8,0:0:0:0:
204,247,111389,1,0,1:0:0:0:
182,202,111468,1,0,1:0:0:0:
137,178,111546,1,0,1:0:0:0:
87,186,111625,1,8,0:0:0:0:
42,161,111703,1,0,1:0:0:0:
19,115,111782,1,0,1:0:0:0:
26,64,111860,1,0,1:0:0:0:
60,26,111939,1,8,0:0:0:0:
109,14,112017,1,0,1:0:0:0:
157,31,112096,1,0,1:0:0:0:
182,65,112175,1,0,1:0:0:0:
181,91,112253,1,10,0:0:0:0:
174,103,112332,1,0,1:0:0:0:
164,107,112410,5,2,1:2:0:0:
197,48,112489,1,0,1:0:0:0:
255,15,112567,1,8,0:0:0:0:
322,19,112646,1,0,1:0:0:0:
376,59,112725,1,0,1:0:0:0:
399,122,112803,1,0,1:0:0:0:
385,188,112882,1,8,0:0:0:0:
338,236,112960,1,0,1:0:0:0:
273,251,113039,1,0,1:0:0:0:
209,227,113117,1,0,1:0:0:0:
144,247,113196,1,8,0:0:0:0:
116,300,113274,1,0,1:0:0:0:
121,343,113353,1,0,1:0:0:0:
132,359,113431,1,0,1:0:0:0:
141,362,113510,2,0,P|175:345|187:309,1,51.7500009870529,10|0,0:0|1:0,0:0:0:0:
263,91,113667,5,6,1:2:0:0:
307,66,113745,1,0,1:0:0:0:
358,72,113824,1,8,0:0:0:0:
391,111,113903,1,0,1:0:0:0:
391,162,113981,1,0,1:0:0:0:
357,201,114060,1,0,1:0:0:0:
305,205,114138,1,8,0:0:0:0:
262,175,114217,1,0,1:0:0:0:
210,173,114295,1,0,1:0:0:0:
170,206,114374,1,0,1:0:0:0:
161,256,114452,1,10,0:0:0:0:
184,300,114531,1,0,1:0:0:0:
222,312,114609,1,0,1:0:0:0:
246,307,114688,1,0,1:0:0:0:
258,298,114766,2,0,L|250:237,1,51.7500009870529,10|0,0:0|1:0,0:0:0:0:
159,51,114923,5,2,1:2:0:0:
93,35,115002,1,0,1:0:0:0:
35,71,115081,1,8,0:0:0:0:
25,137,115159,1,0,1:0:0:0:
65,191,115238,1,0,1:0:0:0:
131,196,115316,1,0,1:0:0:0:
182,151,115395,1,8,0:0:0:0:
248,154,115473,1,0,1:0:0:0:
285,210,115552,5,0,1:0:0:0:
220,226,115630,1,0,1:0:0:0:
164,186,115709,1,8,0:0:0:0:
156,119,115787,1,0,1:0:0:0:
201,68,115866,1,2,1:2:0:0:
267,59,115944,1,0,1:0:0:0:
325,92,116023,1,8,0:0:0:0:
390,81,116101,1,0,1:0:0:0:
423,22,116180,5,6,1:2:0:0:
384,6,116258,1,0,1:0:0:0:
343,8,116337,1,8,0:0:0:0:
307,28,116415,1,0,1:0:0:0:
282,61,116494,1,0,1:0:0:0:
274,101,116572,1,0,1:0:0:0:
283,141,116651,5,10,0:0:0:0:
333,151,116729,1,0,1:0:0:0:
368,188,116808,1,0,1:0:0:0:
376,238,116886,1,0,1:0:0:0:
354,284,116965,1,8,0:0:0:0:
309,308,117043,1,0,1:0:0:0:
258,303,117122,2,0,L|207:279,1,51.7500009870529,2|0,1:2|1:0,0:0:0:0:
174,165,117280,2,0,L|127:187,1,51.7500009870529,10|0,0:0|1:0,0:0:0:0:
19,319,117437,5,10,0:0:0:0:
66,350,117515,1,8,3:0:0:0:
123,350,117594,1,8,3:0:0:0:
169,318,117672,5,8,3:0:0:0:
122,287,117750,1,0,1:0:0:0:
65,287,117829,1,0,1:0:0:0:
19,319,117907,5,8,0:0:0:0:
66,350,117986,1,0,1:0:0:0:
123,350,118065,1,8,3:0:0:0:
169,318,118143,1,8,3:0:0:0:
191,265,118222,2,0,P|187:234|196:195,1,51.7500009870529,8|8,3:0|3:0,0:0:0:0:
128,157,118379,2,0,P|152:138|191:126,1,51.7500009870529,0|0,1:0|1:0,0:0:0:0:
187,45,118536,2,0,P|215:57|245:84,1,51.7500009870529,0|0,1:0|1:0,0:0:0:0:
345,230,118693,6,0,B|285:176|314:86|396:70|450:119|450:119|389:214|456:319,1,440.999986541748,6|0,1:2|0:0,0:0:0:0:
494,358,119950,2,0,B|470:318|470:318|318:307,1,188.999994232178,6|0,1:2|0:0,0:0:0:0:
252,366,120578,5,2,1:2:0:0:
184,235,120735,1,0,1:0:0:0:
184,235,120814,1,0,1:0:0:0:
184,235,120892,1,2,1:2:0:0:
303,131,121049,1,0,0:0:0:0:
268,219,121207,6,0,L|140:204,1,116.999994644165,6|0,1:2|0:0,0:0:0:0:
93,118,121521,1,2,1:2:0:0:
139,297,121678,1,8,0:0:0:0:
389,225,121835,2,0,L|261:210,1,116.999994644165,2|8,0:0|0:0,0:0:0:0:
82,128,122149,6,0,L|148:116,1,58.4999973220826,2|0,1:2|1:0,0:0:0:0:
222,44,122306,1,0,1:0:0:0:
71,219,122463,2,0,B|23:209|23:209|-2:75,1,175.499991966248,10|0,0:0|0:0,0:0:0:0:
74,44,122777,1,10,0:0:0:0:
0,255,122934,1,8,0:0:0:0:
231,130,123091,5,2,1:2:0:0:
77,134,123248,1,0,1:0:0:0:
250,123,123405,2,0,P|321:108|401:64,1,125.999996154785,14|0,0:0|1:0,0:0:0:0:
508,262,123720,2,0,P|437:247|357:203,1,125.999996154785,14|0,0:0|1:0,0:0:0:0:
347,154,124034,5,10,0:0:0:0:
363,302,124191,1,0,1:0:0:0:
486,131,124348,1,10,0:0:0:0:
257,217,124505,1,0,1:0:0:0:
257,217,124583,1,0,1:0:0:0:
257,217,124662,1,14,0:0:0:0:
491,117,124819,1,10,0:0:0:0:
260,53,124976,6,0,B|252:33|230:32|230:32|144:37,1,116.999994644165,6|0,1:2|0:0,0:0:0:0:
106,113,125290,1,2,1:2:0:0:
325,10,125447,1,8,0:0:0:0:
153,193,125604,2,0,L|33:178,1,116.999994644165,2|8,0:0|0:0,0:0:0:0:
0,103,125919,5,0,1:0:0:0:
0,103,125997,1,0,1:0:0:0:
0,103,126076,1,0,1:0:0:0:
64,261,126233,2,0,L|180:275,1,116.999994644165,10|0,0:0|1:0,0:0:0:0:
190,270,126468,1,0,1:0:0:0:
200,265,126547,1,10,0:0:0:0:
108,369,126704,1,8,1:2:0:0:
36,178,126861,5,10,0:0:0:0:
253,73,127018,1,0,1:0:0:0:
251,84,127097,1,0,1:0:0:0:
249,95,127175,5,6,1:2:0:0:
90,38,127332,2,0,L|20:47,1,58.4999973220826,0|0,1:0|1:0,0:0:0:0:
364,86,127489,5,6,1:2:0:0:
166,187,127646,2,0,L|96:196,1,58.4999973220826,0|0,1:0|1:0,0:0:0:0:
311,23,127803,6,0,L|451:12,1,116.999994644165,6|0,1:2|1:0,0:0:0:0:
440,20,128039,1,0,1:0:0:0:
450,29,128117,1,14,1:2:0:0:
427,63,128196,1,0,0:0:0:0:
428,104,128275,1,0,1:0:0:0:
446,140,128353,1,0,1:0:0:0:
480,162,128432,2,0,P|428:146|367:193,1,116.999994644165,14|0,0:0|1:0,0:0:0:0:
318,274,128746,5,14,0:0:0:0:
226,324,128903,1,0,0:0:0:0:
187,305,128981,1,0,0:0:0:0:
179,278,129060,1,2,1:2:0:0:
356,370,129217,1,8,1:2:0:0:
125,218,129374,2,0,B|179:193|179:193|240:216,1,116.999994644165,2|8,0:0|0:0,0:0:0:0:
295,148,129688,5,0,1:0:0:0:
295,148,129767,1,0,1:0:0:0:
295,148,129845,1,0,1:0:0:0:
425,360,130002,2,0,L|453:217,1,116.999994644165,10|0,0:0|1:0,0:0:0:0:
442,234,130238,1,0,1:0:0:0:
436,223,130316,1,10,0:0:0:0:
510,364,130474,1,8,0:0:0:0:
241,228,130631,6,0,L|88:214,1,116.999994644165,8|0,0:0|1:0,0:0:0:0:
109,223,130866,1,0,1:0:0:0:
95,237,130945,1,10,0:0:0:0:
183,119,131102,1,0,1:0:0:0:
6,225,131259,1,14,0:0:0:0:
185,335,131416,1,8,0:0:0:0:
70,78,131573,5,2,1:2:0:0:
102,44,131652,1,0,1:0:0:0:
147,33,131730,2,0,P|165:30|208:50,1,58.4999973220826,8|0,3:0|1:0,0:0:0:0:
277,137,131887,1,2,1:2:0:0:
411,84,132044,1,0,1:0:0:0:
395,40,132123,1,0,1:0:0:0:
354,19,132201,2,0,P|346:49|345:86,1,58.4999973220826,10|0,3:0|0:0,0:0:0:0:
295,148,132358,2,0,P|303:178|302:205,1,58.4999973220826
397,383,132515,6,0,P|411:283|441:202,1,175.499991966248,6|0,1:2|0:0,0:0:0:0:
506,186,132830,1,2,1:2:0:0:
331,274,132987,1,0,1:0:0:0:
486,331,133144,1,2,0:0:0:0:
341,255,133301,1,0,1:0:0:0:
212,384,133458,6,0,P|251:321|251:237,1,116.999994644165,10|0,0:0|0:0,0:0:0:0:
109,106,133772,2,0,P|144:171|216:213,1,116.999994644165,2|0,1:2|0:0,0:0:0:0:
279,100,134086,2,0,P|240:85|219:87,1,58.4999973220826,2|0,1:2|0:0,0:0:0:0:
143,321,134243,2,0,P|175:294|184:275,1,58.4999973220826
16,139,134400,5,2,0:0:0:0:
244,183,134557,2,0,P|209:179|171:190,1,58.4999973220826,0|0,1:0|0:0,0:0:0:0:
95,250,134714,1,10,0:0:0:0:
141,50,134871,5,0,1:0:0:0:
194,25,134950,1,0,1:0:0:0:
249,41,135028,2,0,P|264:47|291:87,1,58.4999973220826,10|0,0:0|0:0,0:0:0:0:
344,192,135186,1,0,1:0:0:0:
397,217,135265,1,0,1:0:0:0:
452,200,135343,5,6,2:0:0:0:
318,359,135500,1,0,0:0:0:0:
409,87,135657,1,14,0:0:0:0:
498,319,135814,1,8,3:0:0:0:
440,313,135892,1,8,3:0:0:0:
381,307,135971,1,0,1:0:0:0:
307,362,136128,1,2,0:0:0:0:
180,168,136285,6,0,P|227:146|261:117,1,90,6|0,1:2|0:0,0:0:0:0:
254,34,136599,1,0,0:0:0:0:
184,12,136756,1,0,0:0:0:0:
116,53,136913,1,0,0:0:0:0:
89,158,137070,1,0,0:0:0:0:
262,41,137227,6,0,B|309:70|356:53|356:53|379:13|443:20,1,180,2|0,1:2|0:0,0:0:0:0:
442,27,137699,1,0,1:0:0:0:
456,165,137856,2,0,P|418:120|446:71,1,90,8|2,0:0|0:0,0:0:0:0:
494,237,138170,6,0,P|437:233|367:266,1,135,0|0,1:0|0:0,0:0:0:0:
333,337,138484,2,0,P|347:274|333:221,1,90
311,158,138798,1,0,0:0:0:0:
255,297,138955,1,0,1:0:0:0:
237,206,139112,6,0,B|178:193|163:241|163:241|188:290|155:339,1,180,0|0,1:0|0:0,0:0:0:0:
99,373,139583,1,0,1:0:0:0:
3,257,139741,1,8,0:0:0:0:
97,284,139898,1,10,3:0:0:0:
177,136,140055,5,2,1:2:0:0:
81,168,140212,1,0,0:0:0:0:
10,88,140369,1,2,0:0:0:0:
152,0,140526,2,0,P|132:44|122:101,1,90
183,146,140840,1,0,1:0:0:0:
387,4,140997,6,0,P|338:8|211:81,1,180,0|0,1:0|0:0,0:0:0:0:
190,156,141468,1,0,1:0:0:0:
312,210,141625,2,0,P|316:157|337:106,1,90,10|0,0:0|0:0,0:0:0:0:
402,83,141939,5,2,1:2:0:0:
229,81,142097,1,0,1:0:0:0:
411,193,142254,1,8,0:0:0:0:
370,351,142411,1,0,1:0:0:0:
370,351,142489,1,0,1:0:0:0:
370,351,142568,1,8,0:0:0:0:
430,192,142725,1,0,1:0:0:0:
236,325,142882,5,2,1:2:0:0:
460,309,143039,1,8,0:0:0:0:
328,122,143196,1,0,1:0:0:0:
328,122,143275,1,0,1:0:0:0:
328,122,143353,5,8,3:0:0:0:
312,210,143510,1,0,1:0:0:0:
248,64,143667,1,10,0:0:0:0:
466,0,143824,5,6,1:2:0:0:
397,169,143981,1,2,0:0:0:0:
252,55,144138,2,0,P|192:44|142:70,1,90,10|2,0:0|0:0,0:0:0:0:
76,149,144453,1,2,0:0:0:0:
246,255,144610,2,0,P|225:197|178:167,1,90,2|8,1:2|0:0,0:0:0:0:
76,149,144925,1,2,1:2:0:0:
70,349,145081,2,0,P|109:302|112:246,1,90,2|0,0:0|1:0,0:0:0:0:
76,149,145396,1,10,0:0:0:0:
189,332,145552,1,2,1:2:0:0:
421,159,145709,6,0,L|328:148,1,90,2|0,1:2|0:0,0:0:0:0:
419,252,146023,2,0,L|528:226,1,90,10|0,0:0|0:0,0:0:0:0:
318,136,146337,1,2,0:0:0:0:
308,290,146494,2,0,L|403:348,1,90,2|8,1:2|0:0,0:0:0:0:
318,136,146808,1,0,1:0:0:0:
202,237,146966,2,0,L|228:346,1,90,2|0,0:0|1:0,0:0:0:0:
318,136,147280,1,10,0:0:0:0:
153,81,147437,1,2,1:2:0:0:
144,115,147515,1,0,1:0:0:0:
136,150,147594,5,6,1:2:0:0:
243,51,147751,1,0,0:0:0:0:
98,3,147908,2,0,P|58:55|66:104,1,90,10|0,0:0|0:0,0:0:0:0:
125,158,148222,1,2,0:0:0:0:
273,213,148379,2,0,P|247:152|201:134,1,90,2|10,1:2|0:0,0:0:0:0:
125,158,148693,1,2,1:2:0:0:
5,259,148850,2,0,P|70:267|108:236,1,90,2|0,0:0|1:0,0:0:0:0:
121,174,149086,1,0,1:0:0:0:
125,158,149165,2,0,P|92:152|43:192,1,90,14|0,1:2|0:0,0:0:0:0:
105,339,149479,5,2,1:2:0:0:
30,189,149636,1,0,1:0:0:0:
260,32,149793,1,10,0:0:0:0:
197,193,149950,1,0,1:0:0:0:
143,15,150107,1,10,0:0:0:0:
191,207,150264,1,0,1:0:0:0:
348,116,150421,5,10,3:0:0:0:
348,116,150500,1,10,3:0:0:0:
348,116,150578,1,8,0:0:0:0:
176,88,150735,1,10,3:0:0:0:
256,259,150892,1,0,0:0:0:0:
185,76,151049,2,0,L|84:67,1,90,10|0,0:0|0:0,0:0:0:0:
0,174,151364,6,0,B|21:136|54:131|54:131|22:109|21:68,2,135.000005149842,6|2|2,1:2|0:0|1:2,0:0:0:0:
104,237,152306,6,0,B|125:220|122:190|122:190|101:208|104:237,1,101.250003862381,2|0,1:2|0:0,0:0:0:0:
175,279,152620,2,0,B|179:305|206:318|206:318|201:290|175:279,1,101.250003862381,2|0,0:0|0:0,0:0:0:0:
106,320,152934,2,0,B|80:310|56:327|56:327|82:337|106:320,1,101.250003862381,2|0,1:2|0:0,0:0:0:0:
194,192,153248,6,0,P|241:168|286:206,1,101.250003862381,2|0,1:2|0:0,0:0:0:0:
303,259,153563,1,2,1:2:0:0:
345,109,153720,1,10,1:2:0:0:
378,270,153877,1,2,0:0:0:0:
326,123,154034,1,10,1:2:0:0:
487,19,154191,6,0,L|369:29,1,101.250003862381,2|0,1:2|0:0,0:0:0:0:
359,19,154505,2,0,L|241:29,1,101.250003862381,2|0,0:0|0:0,0:0:0:0:
231,19,154819,2,0,L|113:29,1,101.250003862381,10|0,1:2|0:0,0:0:0:0:
52,7,155133,5,2,1:2:0:0:
106,179,155290,1,0,1:0:0:0:
52,351,155447,2,0,P|109:336|172:327,1,101.250003862381,2|0,0:0|0:0,0:0:0:0:
177,356,155761,2,0,P|234:371|297:380,1,101.250003862381,10|0,0:0|0:0,0:0:0:0:
350,327,156076,5,2,1:2:0:0:
318,212,156233,1,0,0:0:0:0:
473,133,156390,2,0,B|460:95|425:91|425:91|445:105|448:115,1,101.250003862381,2|0,0:0|0:0,0:0:0:0:
336,39,156704,2,0,B|375:46|396:18|396:18|374:28|364:26,1,101.250003862381,10|0,1:2|0:0,0:0:0:0:
253,8,157018,5,2,1:2:0:0:
336,172,157175,1,2,0:0:0:0:
182,342,157332,2,0,P|195:286|199:233,1,101.250003862381,10|0,0:0|0:0,0:0:0:0:
216,238,157646,2,0,P|203:188|199:129,1,101.250003862381,8|0,0:0|0:0,0:0:0:0:
124,83,157960,5,2,0:0:0:0:
289,117,158117,1,10,3:0:0:0:
150,182,158275,1,10,2:0:0:0:
188,211,158353,1,8,2:0:0:0:
229,240,158432,1,8,2:0:0:0:
207,123,158589,1,10,0:0:0:0:
99,303,158746,1,8,0:0:0:0:
16,105,158903,6,0,L|144:87,1,101.250003862381,6|0,1:2|0:0,0:0:0:0:
174,27,159217,1,10,0:0:0:0:
281,43,159374,1,0,0:0:0:0:
391,147,159531,1,8,0:0:0:0:
294,193,159688,1,0,0:0:0:0:
401,60,159845,5,0,1:0:0:0:
383,159,160002,1,0,0:0:0:0:
479,244,160159,2,0,P|438:232|368:248,1,101.250003862381,2|0,0:0|0:0,0:0:0:0:
361,264,160474,2,0,P|340:226|279:188,1,101.250003862381,10|0,1:2|0:0,0:0:0:0:
210,215,160788,5,2,0:0:0:0:
319,112,160945,1,10,1:2:0:0:
274,274,161102,1,2,1:2:0:0:
193,23,161259,1,10,1:2:0:0:
110,232,161416,2,0,L|217:213,1,101.250003862381,10|0,0:0|0:0,0:0:0:0:
274,274,161730,2,0,L|381:293,1,101.250003862381,2|0,1:2|0:0,0:0:0:0:
441,354,162044,5,10,0:0:0:0:
341,196,162201,1,0,0:0:0:0:
216,356,162358,1,2,0:0:0:0:
274,274,162515,1,8,0:0:0:0:
111,169,162672,5,0,1:0:0:0:
161,312,162830,1,10,1:2:0:0:
276,91,162987,2,0,P|231:76|171:91,1,101.250003862381,10|0,0:0|0:0,0:0:0:0:
111,169,163301,2,0,P|63:184|14:173,1,101.250003862381,2|0,1:2|0:0,0:0:0:0:
162,76,163615,5,2,1:2:0:0:
216,229,163772,1,0,0:0:0:0:
276,91,163929,2,0,P|325:80|372:95,1,101.250003862381,10|0,0:0|0:0,0:0:0:0:
404,192,164243,2,0,P|451:208|499:197,1,101.250003862381,2|0,1:2|0:0,0:0:0:0:
500,41,164557,6,0,L|489:130,1,67.5000025749208,2|0,1:2|0:0,0:0:0:0:
353,262,164871,1,10,0:0:0:0:
283,83,165028,1,2,0:0:0:0:
94,138,165186,2,0,B|113:149|115:170|115:170|161:191|220:168,1,135.000005149842,2|2,1:2|1:2,0:0:0:0:
204,67,166442,6,0,P|233:51|203:168,1,314.999990386963,2|2,0:0|0:0,0:0:0:0:
120,127,168327,2,0,B|105:84|43:90|43:90|20:113|14:170|42:230|129:247|129:247|109:244|87:258,1,346.49998942566,2|0,0:0|0:0,0:0:0:0:
129,322,170212,2,0,B|194:348|253:314|253:314|276:272|276:272|344:237|411:279,1,314.999990386963,2|2,0:0|1:2,0:0:0:0:
426,293,171939,1,0,1:2:0:0:
336,361,172097,2,0,B|320:245|320:245|331:225|331:225|318:129|318:129|328:114|328:114|313:19,1,346.49998942566,2|0,0:0|0:0,0:0:0:0:
417,72,173981,6,0,P|379:97|305:27,1,157.499995193482,2|0,0:0|0:0,0:0:0:0:
180,38,174924,2,0,P|207:37|241:54,2,62.9999980773926,2|2|2,0:0|0:0|0:0,0:0:0:0:
158,164,175866,2,0,B|192:147|193:110|193:110|226:139|230:193|211:241|190:256,1,220.499993270874,2|0,0:0|0:0,0:0:0:0:
94,242,177123,5,0,1:0:0:0:
96,264,177280,1,0,1:0:0:0:
98,287,177437,1,2,1:2:0:0:
101,309,177594,1,0,1:0:0:0:
38,354,177751,6,0,B|113:288|201:322|176:351|255:393|330:331,1,314.999990386963,2|2,0:0|0:0,0:0:0:0:
256,281,179636,6,0,L|250:242,1,31.4999990386963,2|0,1:2|0:0,0:0:0:0:
178,175,179950,2,0,L|214:189,3,31.4999990386963,0|0|0|0,1:0|0:0|1:0|0:0,0:0:0:0:
329,149,180578,2,0,L|284:200,3,62.9999980773926,0|0|0|0,1:0|1:0|1:0|1:0,0:0:0:0:
229,122,181835,5,0,1:0:0:0:
234,102,181992,1,0,1:0:0:0:
267,71,182149,1,0,1:0:0:0:
320,64,182306,1,0,1:0:0:0:
394,116,182463,1,0,1:0:0:0:
394,116,183406,5,6,1:2:0:0:
359,156,183484,1,0,1:0:0:0:
308,172,183563,1,8,0:0:0:0:
257,156,183641,1,0,1:0:0:0:
223,115,183720,1,0,1:0:0:0:
175,94,183798,1,0,1:0:0:0:
125,111,183877,1,8,0:0:0:0:
100,157,183955,1,0,1:0:0:0:
113,208,184034,1,0,1:0:0:0:
157,237,184112,1,0,1:0:0:0:
186,281,184190,1,8,0:0:0:0:
175,332,184269,1,0,1:0:0:0:
129,358,184347,1,2,1:2:0:0:
86,351,184426,1,0,1:0:0:0:
62,328,184505,1,10,0:0:0:0:
55,308,184584,1,0,1:0:0:0:
58,297,184662,5,2,1:2:0:0:
108,247,184741,1,0,1:0:0:0:
177,245,184819,1,8,0:0:0:0:
236,283,184898,1,0,1:0:0:0:
302,262,184976,1,0,1:0:0:0:
327,196,185055,1,0,1:0:0:0:
296,133,185133,1,8,0:0:0:0:
305,63,185212,1,0,1:0:0:0:
363,25,185290,1,0,1:0:0:0:
433,33,185369,1,0,1:0:0:0:
473,89,185447,1,8,0:0:0:0:
462,146,185526,1,0,1:0:0:0:
433,175,185604,1,0,1:0:0:0:
401,176,185683,1,0,1:0:0:0:
386,167,185762,2,0,P|368:133|372:107,1,56.25,10|0,0:0|1:0,0:0:0:0:
466,293,185919,5,6,1:2:0:0:
424,318,185997,1,0,1:0:0:0:
376,323,186076,1,8,0:0:0:0:
330,309,186154,1,0,1:0:0:0:
294,277,186233,1,0,1:0:0:0:
271,235,186311,1,0,1:0:0:0:
270,186,186389,1,8,0:0:0:0:
250,142,186468,1,0,1:0:0:0:
215,109,186546,1,0,1:0:0:0:
170,93,186625,1,0,1:0:0:0:
122,95,186704,2,0,L|110:157,3,56.25,10|0|0|0,0:0|1:0|1:0|1:0,0:0:0:0:
189,236,187018,2,0,L|178:168,1,56.25,10|0,0:0|1:0,0:0:0:0:
80,311,187175,5,2,1:2:0:0:
124,340,187253,1,0,1:0:0:0:
177,347,187332,1,8,0:0:0:0:
227,329,187410,1,0,1:0:0:0:
264,290,187489,1,0,1:0:0:0:
279,239,187567,1,0,1:0:0:0:
270,186,187646,1,8,0:0:0:0:
276,133,187724,1,0,1:0:0:0:
308,90,187803,1,0,1:0:0:0:
358,71,187881,1,0,1:0:0:0:
410,80,187960,1,8,0:0:0:0:
451,115,188038,1,0,1:0:0:0:
467,166,188117,1,0,1:0:0:0:
458,209,188196,1,0,1:0:0:0:
436,233,188275,1,8,0:0:0:0:
415,238,188353,1,0,1:0:0:0:
402,232,188432,5,6,1:2:0:0:
385,192,188510,1,0,1:0:0:0:
353,164,188589,1,8,0:0:0:0:
311,154,188667,1,0,1:0:0:0:
270,164,188746,1,0,1:0:0:0:
237,192,188824,1,0,1:0:0:0:
221,232,188903,1,8,0:0:0:0:
205,272,188982,1,0,1:0:0:0:
172,300,189060,1,0,1:0:0:0:
131,310,189139,1,0,1:0:0:0:
89,300,189217,1,8,0:0:0:0:
57,272,189296,1,0,1:0:0:0:
41,233,189374,2,0,L|61:174,1,56.25,2|0,1:2|1:0,0:0:0:0:
105,53,189531,2,0,L|123:110,1,56.25,10|0,0:0|1:0,0:0:0:0:
211,283,189688,5,2,1:2:0:0:
260,302,189766,1,0,1:0:0:0:
312,290,189845,1,8,0:0:0:0:
347,250,189923,1,0,1:0:0:0:
352,197,190002,1,0,1:0:0:0:
326,151,190080,1,0,1:0:0:0:
278,128,190159,1,8,0:0:0:0:
256,80,190237,1,0,1:0:0:0:
271,29,190316,1,0,1:0:0:0:
315,2,190394,1,0,1:0:0:0:
368,10,190473,1,10,0:0:0:0:
407,48,190552,1,0,1:0:0:0:
411,102,190631,2,0,L|344:119,1,56.25,2|0,1:2|1:0,0:0:0:0:
259,217,190788,2,0,L|191:197,1,56.25,10|0,0:0|1:0,0:0:0:0:
37,100,190945,5,6,1:2:0:0:
72,53,191023,1,0,1:0:0:0:
127,31,191102,1,8,0:0:0:0:
185,40,191180,1,0,1:0:0:0:
230,77,191259,1,0,1:0:0:0:
251,132,191337,1,0,1:0:0:0:
240,190,191416,1,8,0:0:0:0:
202,235,191494,1,0,1:0:0:0:
196,293,191573,1,0,1:0:0:0:
221,346,191652,1,0,1:0:0:0:
271,378,191730,1,8,0:0:0:0:
329,380,191809,1,0,1:0:0:0:
380,352,191887,2,0,L|385:292,3,56.25,2|0|10|0,1:2|1:0|0:0|1:0,0:0:0:0:
473,180,192201,5,10,0:0:0:0:
423,137,192280,1,8,3:0:0:0:
358,132,192358,1,8,3:0:0:0:
302,166,192437,1,8,3:0:0:0:
238,179,192515,2,0,P|209:176|174:150,1,56.25,8|0,0:0|1:0,0:0:0:0:
121,35,192673,1,8,0:0:0:0:
161,21,192751,1,0,1:0:0:0:
202,33,192830,2,0,P|225:51|232:91,1,56.25,2|0,1:2|1:0,0:0:0:0:
107,224,192987,5,10,0:0:0:0:
76,193,193065,1,8,0:0:0:0:
74,152,193144,1,2,1:2:0:0:
101,119,193222,1,0,1:2:0:0:
143,113,193301,1,2,1:2:0:0:
178,136,193379,1,0,1:2:0:0:
187,178,193458,5,6,1:2:0:0:
135,192,193536,1,0,1:0:0:0:
86,174,193615,1,8,0:0:0:0:
56,130,193693,1,0,1:0:0:0:
57,77,193772,1,0,1:0:0:0:
90,35,193850,1,0,1:0:0:0:
141,19,193929,1,8,0:0:0:0:
191,37,194007,1,0,1:0:0:0:
223,81,194086,1,0,1:0:0:0:
256,122,194164,1,0,1:0:0:0:
307,137,194243,1,8,0:0:0:0:
357,121,194322,1,0,1:0:0:0:
389,78,194400,2,0,L|379:21,1,56.25,0|0,1:0|1:0,0:0:0:0:
500,149,194557,2,0,L|487:206,1,56.25,10|0,0:0|1:0,0:0:0:0:
383,344,194714,5,2,1:2:0:0:
319,367,194793,1,0,1:0:0:0:
254,353,194871,1,8,0:0:0:0:
212,299,194950,1,0,1:0:0:0:
202,233,195029,1,0,1:0:0:0:
231,172,195107,1,0,1:0:0:0:
214,107,195186,1,8,0:0:0:0:
158,69,195264,1,0,1:0:0:0:
90,71,195343,1,0,1:0:0:0:
43,118,195421,1,0,1:0:0:0:
37,185,195500,1,8,0:0:0:0:
65,233,195578,1,0,1:0:0:0:
101,250,195657,1,0,1:0:0:0:
123,246,195735,1,0,1:0:0:0:
132,237,195814,2,0,P|147:199|138:173,1,56.25,10|0,0:0|1:0,0:0:0:0:
30,329,195971,5,6,1:2:0:0:
64,355,196049,1,0,1:0:0:0:
105,368,196128,1,8,0:0:0:0:
148,368,196206,1,0,1:0:0:0:
188,353,196285,1,0,1:0:0:0:
222,326,196363,1,0,1:0:0:0:
258,301,196442,1,8,0:0:0:0:
296,282,196520,1,0,1:0:0:0:
339,278,196599,1,0,1:0:0:0:
381,287,196677,1,0,1:0:0:0:
418,310,196756,2,0,L|432:367,3,56.25,10|0|0|0,0:0|1:0|1:0|1:0,0:0:0:0:
496,228,197070,2,0,L|511:168,1,56.25,10|0,0:0|1:0,0:0:0:0:
387,28,197227,5,2,1:2:0:0:
323,1,197305,1,0,1:0:0:0:
255,16,197384,1,8,0:0:0:0:
209,67,197462,1,0,1:0:0:0:
201,136,197541,1,0,1:0:0:0:
233,197,197619,1,0,1:0:0:0:
295,227,197698,1,8,0:0:0:0:
364,217,197776,1,0,1:0:0:0:
411,165,197856,5,0,1:0:0:0:
363,114,197934,1,0,1:0:0:0:
295,100,198013,1,8,0:0:0:0:
232,128,198091,1,0,1:0:0:0:
197,188,198170,1,2,1:2:0:0:
201,256,198248,1,0,1:0:0:0:
246,309,198327,1,8,0:0:0:0:
313,328,198405,1,0,1:0:0:0:
373,295,198484,5,6,1:2:0:0:
331,263,198562,1,0,1:0:0:0:
278,263,198641,1,8,0:0:0:0:
235,294,198720,1,0,1:0:0:0:
193,326,198798,1,0,1:0:0:0:
140,326,198877,1,0,1:0:0:0:
98,294,198955,5,10,0:0:0:0:
131,246,199033,1,0,1:0:0:0:
188,236,199112,1,0,1:0:0:0:
235,270,199190,1,0,1:0:0:0:
245,327,199269,1,8,0:0:0:0:
211,374,199347,1,0,1:0:0:0:
154,383,199426,5,2,1:2:0:0:
140,326,199505,1,0,1:0:0:0:
126,267,199584,1,10,0:0:0:0:
113,209,199662,1,0,1:0:0:0:
99,150,199741,5,0,1:0:0:0:
132,176,199819,1,0,1:0:0:0:
174,182,199898,1,10,0:0:0:0:
213,164,199976,1,0,1:0:0:0:
238,130,200055,1,0,1:0:0:0:
241,87,200133,1,0,1:0:0:0:
222,49,200212,6,0,L|162:41,3,56.25,10|0|0|0,0:0|1:0|1:0|1:0,0:0:0:0:
304,179,200526,2,0,P|339:191|365:188,1,56.25,10|0,0:0|1:0,0:0:0:0:
374,66,200683,2,0,P|345:90|334:112,1,56.25,0|0,1:0|1:0,0:0:0:0:
436,183,200840,2,0,P|429:146|413:125,1,56.25,10|0,0:0|1:0,0:0:0:0:
325,309,200997,5,6,1:2:0:0:
280,317,201076,1,0,1:0:0:0:
235,327,201154,1,0,1:0:0:0:
191,336,201233,1,0,1:0:0:0:
146,346,201311,5,10,0:0:0:0:
172,268,201390,1,8,0:0:0:0:
204,192,201468,1,8,0:0:0:0:
234,116,201547,1,8,0:0:0:0:
267,40,201625,5,2,1:2:0:0:
222,49,201704,1,0,1:0:0:0:
178,59,201782,1,0,1:0:0:0:
134,68,201861,1,0,1:0:0:0:
89,78,201939,5,10,0:0:0:0:
145,138,202018,1,8,0:0:0:0:
204,192,202096,1,8,0:0:0:0:
264,251,202175,1,8,0:0:0:0:
325,309,202253,5,6,1:2:0:0:
425,93,202411,1,8,3:0:0:0:
267,40,202568,1,0,1:0:0:0:
263,52,202646,1,8,3:0:0:0:
321,155,202803,1,0,1:0:0:0:
326,166,202882,1,10,3:0:0:0:
431,192,203040,1,0,1:0:0:0:
443,198,203118,2,0,L|510:189,1,56.25,8|0,3:0|1:0,0:0:0:0:
495,50,203275,1,0,1:0:0:0:
474,55,203353,1,0,1:0:0:0:
452,59,203432,1,0,1:0:0:0:
425,93,203510,5,14,0:0:0:0:
256,192,203589,12,2,205395,0:0:0:0:
166,91,208536,6,0,B|134:83|108:97|108:97|181:23|294:75|310:233|191:296|92:232,1,472.500018024445,6|0,1:2|0:0,0:0:0:0:
169,167,209793,2,0,B|220:134|288:169|288:169|234:218|250:307|308:322|308:322|334:242|405:250|405:250|385:258|376:275,1,472.500018024445,6|0,1:2|0:0,0:0:0:0:
438,322,211049,2,0,B|403:330|403:330|397:339|397:339|352:352|352:352|388:197|388:197|394:193|394:193|419:88|419:88|364:96|364:96|354:108|354:108|304:115,1,472.500018024445,6|0,1:2|1:0,0:0:0:0:
306,107,212227,1,0,1:0:0:0:
312,98,212306,6,0,B|358:122|365:144|365:144|270:103|165:116,1,270.000010299683,6|0,1:2|0:0,0:0:0:0:
157,131,213091,1,2,0:0:0:0:
65,40,213248,1,8,0:0:0:0:
54,96,213327,1,8,0:0:0:0:
43,152,213405,1,8,0:0:0:0:
33,208,213484,1,8,0:0:0:0:
48,240,213563,6,0,L|122:233,1,49.5000015106202,6|0,1:2|0:0,0:0:0:0:
179,223,213720,1,0,0:0:0:0:
230,102,213877,2,0,L|199:169,1,49.5000015106202,2|0,1:2|0:0,0:0:0:0:
179,223,214034,1,8,1:2:0:0:
258,327,214192,2,0,L|214:266,1,49.5000015106202,2|0,1:2|0:0,0:0:0:0:
179,223,214348,1,8,1:2:0:0:
418,88,214505,5,10,0:0:0:0:
345,200,214662,1,0,1:0:0:0:
310,207,214741,1,0,1:0:0:0:
276,214,214819,1,10,0:0:0:0:
345,59,214976,1,0,1:0:0:0:
380,66,215055,1,0,1:0:0:0:
413,75,215133,2,0,L|425:137,1,49.5000015106202,10|8,0:0|0:0,0:0:0:0:
505,200,215290,2,0,L|495:248,1,49.5000015106202,8|0,3:0|0:0,0:0:0:0:
406,333,215447,5,14,0:0:0:0:
344,368,215604,1,0,0:0:0:0:
276,214,215761,1,0,1:0:0:0:
344,245,215919,1,0,0:0:0:0:
202,353,216076,1,0,1:0:0:0:
122,377,216233,2,0,P|97:369|67:344,1,49.5000015106202,10|8,1:2|0:0,0:0:0:0:
8,200,216390,5,10,1:2:0:0:
10,151,216468,1,8,0:0:0:0:
40,113,216547,1,10,0:0:0:0:
87,100,216625,1,8,0:0:0:0:
132,118,216704,1,10,1:2:0:0:
158,159,216782,1,8,0:0:0:0:
202,182,216861,1,8,0:0:0:0:
251,180,216939,1,8,0:0:0:0:
292,153,217018,5,10,1:2:0:0:
230,124,217097,1,8,0:0:0:0:
165,143,217175,1,8,0:0:0:0:
129,201,217254,1,8,0:0:0:0:
140,268,217332,6,0,L|251:279,1,99.0000030212403,6|10,1:2|0:0,0:0:0:0:
354,212,217646,2,0,L|303:223,1,49.5000015106202,0|0,1:0|1:0,0:0:0:0:
427,343,217803,2,0,P|442:242|475:161,1,148.50000453186,10|0,0:0|0:0,0:0:0:0:
475,188,218117,1,8,0:0:0:0:
391,69,218274,1,0,1:0:0:0:
391,69,218352,1,0,1:0:0:0:
391,69,218431,2,0,L|323:79,1,49.5000015106202,10|0,0:0|0:0,0:0:0:0:
154,46,218588,5,2,1:2:0:0:
171,34,218667,1,0,0:0:0:0:
201,31,218745,1,10,0:0:0:0:
240,50,218823,1,0,0:0:0:0:
257,95,218902,1,2,1:2:0:0:
230,142,218980,1,0,1:0:0:0:
169,163,219059,1,10,0:0:0:0:
130,224,219137,1,0,0:0:0:0:
149,301,219216,5,2,1:2:0:0:
343,203,219373,1,8,0:0:0:0:
343,203,219452,1,0,0:0:0:0:
343,203,219530,1,0,1:0:0:0:
56,114,219687,1,10,0:0:0:0:
25,165,219766,1,2,0:0:0:0:
49,218,219845,6,0,P|97:244|174:136,1,198.000006042481,6|0,1:2|1:2,0:0:0:0:
171,143,220237,1,0,1:0:0:0:
161,137,220316,1,8,0:0:0:0:
243,298,220473,1,0,1:0:0:0:
321,108,220630,1,10,0:0:0:0:
334,105,220708,1,0,0:0:0:0:
346,104,220787,2,0,P|339:177|349:229,1,99.0000030212403,0|8,1:0|0:0,0:0:0:0:
427,284,221101,5,2,1:2:0:0:
256,187,221258,1,8,0:0:0:0:
256,187,221336,1,0,0:0:0:0:
256,187,221415,1,0,1:0:0:0:
457,93,221572,1,8,0:0:0:0:
431,294,221729,1,0,1:0:0:0:
346,104,221886,1,8,0:0:0:0:
307,352,222044,1,0,1:0:0:0:
444,209,222201,1,8,0:0:0:0:
196,303,222358,6,0,B|149:328|149:328|48:320|48:320|11:287,1,198.000006042481,6|0,1:2|1:0,0:0:0:0:
14,274,222750,1,0,1:0:0:0:
11,260,222829,1,8,0:0:0:0:
140,143,222985,1,0,1:0:0:0:
90,338,223142,1,8,0:0:0:0:
0,132,223300,1,0,1:0:0:0:
0,132,223378,1,0,1:0:0:0:
0,132,223457,1,8,0:0:0:0:
209,29,223614,5,0,1:0:0:0:
92,225,223771,2,0,L|141:218,1,49.5000015106202,10|0,0:0|0:0,0:0:0:0:
259,126,223928,1,0,1:0:0:0:
259,126,224006,1,0,1:0:0:0:
259,126,224084,1,10,0:0:0:0:
304,273,224242,6,0,B|327:287|327:287|407:273,1,99.0000030212403,2|8,1:2|0:0,0:0:0:0:
400,112,224478,2,0,B|376:124|376:124|348:201,1,99.0000030212403,2|0,0:0|0:0,0:0:0:0:
491,275,224714,2,0,B|491:253|491:253|449:203,1,49.5000015106202,10|0,0:0|0:0,0:0:0:0:
357,358,224871,5,6,1:2:0:0:
440,171,225028,1,8,0:0:0:0:
291,268,225185,1,0,1:0:0:0:
291,268,225263,1,0,1:0:0:0:
291,268,225342,1,8,0:0:0:0:
452,361,225499,1,0,1:0:0:0:
277,244,225656,1,8,0:0:0:0:
141,353,225813,1,6,1:2:0:0:
154,350,225892,2,0,P|193:320|186:263,1,99.0000030212403,0|0,1:0|0:0,0:0:0:0:
110,217,226127,5,10,0:0:0:0:
97,184,226206,1,8,3:0:0:0:
85,151,226284,1,8,3:0:0:0:
93,147,226363,5,10,0:0:0:0:
106,114,226441,1,8,3:0:0:0:
118,81,226520,1,8,3:0:0:0:
108,64,226599,5,10,0:0:0:0:
142,70,226677,1,8,0:0:0:0:
175,79,226756,2,0,L|232:94,1,49.5000015106202,6|0,0:0|1:0,0:0:0:0:
262,25,226913,2,0,L|319:10,1,49.5000015106202,0|0,1:0|1:0,0:0:0:0:
427,35,227070,5,10,0:0:0:0:
412,87,227148,1,8,0:0:0:0:
397,139,227227,1,8,0:0:0:0:
382,191,227305,1,8,0:0:0:0:
368,244,227384,5,6,1:2:0:0:
329,214,227462,1,0,1:0:0:0:
318,167,227542,1,8,0:0:0:0:
341,124,227620,1,0,1:0:0:0:
386,107,227699,1,0,1:0:0:0:
432,122,227777,1,0,1:0:0:0:
457,164,227856,5,10,0:0:0:0:
418,193,227934,1,0,1:0:0:0:
369,194,228013,1,0,1:0:0:0:
329,166,228091,1,0,1:0:0:0:
289,138,228169,1,8,0:0:0:0:
240,138,228248,1,0,1:0:0:0:
202,168,228326,5,2,1:2:0:0:
198,187,228405,1,0,1:0:0:0:
194,206,228484,1,8,0:0:0:0:
190,225,228563,1,0,1:0:0:0:
186,246,228641,5,6,1:2:0:0:
226,219,228719,1,0,1:0:0:0:
274,227,228798,1,8,0:0:0:0:
303,266,228876,1,0,1:0:0:0:
298,314,228955,1,0,1:0:0:0:
261,345,229033,1,0,1:0:0:0:
213,343,229112,5,10,0:0:0:0:
235,301,229190,1,0,1:0:0:0:
282,288,229269,1,0,1:0:0:0:
322,314,229348,1,0,1:0:0:0:
363,340,229426,1,8,0:0:0:0:
409,327,229505,1,0,1:0:0:0:
432,285,229583,5,2,1:2:0:0:
428,265,229661,1,0,1:0:0:0:
424,245,229740,1,8,0:0:0:0:
420,225,229818,1,0,1:0:0:0:
415,206,229897,5,6,1:2:0:0:
465,188,229975,1,0,1:0:0:0:
493,142,230054,1,8,0:0:0:0:
488,89,230133,1,0,1:0:0:0:
450,51,230211,1,0,1:0:0:0:
397,45,230290,1,0,1:0:0:0:
351,72,230368,5,10,0:0:0:0:
354,126,230447,1,0,1:0:0:0:
328,173,230525,1,0,1:0:0:0:
280,197,230604,1,0,1:0:0:0:
227,192,230682,1,8,0:0:0:0:
185,159,230761,1,0,1:0:0:0:
167,108,230839,5,2,1:2:0:0:
235,110,230918,1,0,1:0:0:0:
282,158,230996,1,8,0:0:0:0:
283,226,231075,1,0,1:0:0:0:
237,275,231153,6,0,L|175:263,3,49.5000015106202,6|0|10|0,1:2|1:0|0:0|1:0,0:0:0:0:
115,333,231468,2,0,L|65:340,1,49.5000015106202,2|0,1:2|1:0,0:0:0:0:
15,220,231625,1,14,0:0:0:0:
20,195,231703,1,0,1:0:0:0:
25,171,231782,1,2,1:2:0:0:
31,146,231860,1,0,1:0:0:0:
37,121,231939,5,10,0:0:0:0:
75,170,232017,1,0,1:0:0:0:
137,179,232096,1,6,1:2:0:0:
187,142,232174,1,0,1:0:0:0:
197,80,232253,1,10,0:0:0:0:
160,29,232332,1,0,1:0:0:0:
98,19,232410,5,6,1:2:0:0:
127,58,232489,1,0,1:0:0:0:
173,71,232567,1,8,0:0:0:0:
219,54,232646,1,0,1:0:0:0:
247,14,232724,1,2,1:2:0:0:
294,1,232803,1,0,1:0:0:0:
339,18,232881,5,14,0:0:0:0:
300,54,232960,1,0,1:0:0:0:
290,107,233038,1,2,1:2:0:0:
313,155,233117,1,0,1:0:0:0:
360,180,233195,1,8,0:0:0:0:
413,172,233274,1,0,1:0:0:0:
451,135,233352,5,6,1:2:0:0:
402,104,233431,1,0,1:0:0:0:
344,109,233510,1,8,0:0:0:0:
299,147,233588,1,0,1:0:0:0:
286,204,233667,1,2,1:2:0:0:
309,257,233745,1,0,1:0:0:0:
359,287,233824,5,12,0:0:0:0:
327,228,233902,1,0,1:0:0:0:
263,209,233981,1,2,1:2:0:0:
205,243,234059,1,0,1:0:0:0:
173,302,234138,1,10,0:0:0:0:
109,321,234216,1,0,1:0:0:0:
51,287,234295,5,6,1:2:0:0:
101,226,234373,1,8,3:0:0:0:
180,219,234452,1,8,3:0:0:0:
239,270,234530,1,8,3:0:0:0:
244,349,234609,2,0,L|188:373,3,49.5000015106202,10|8|8|8,3:0|3:0|0:0|0:0,0:0:0:0:
103,330,234923,5,6,1:2:0:0:
256,200,235080,1,8,0:0:0:0:
55,111,235237,1,0,1:0:0:0:
55,111,235315,1,0,1:0:0:0:
55,111,235394,1,8,0:0:0:0:
111,243,235551,1,0,1:0:0:0:
200,14,235708,5,14,0:0:0:0:
258,207,235865,5,10,3:0:0:0:
211,216,235943,1,8,3:0:0:0:
171,189,236022,1,10,3:0:0:0:
163,141,236100,1,8,3:0:0:0:
190,101,236179,2,0,L|256:96,1,49.5000015106202,6|0,1:2|0:0,0:0:0:0:
380,197,236336,5,8,0:0:0:0:
400,258,236415,1,8,0:0:0:0:
373,317,236494,1,8,0:0:0:0:
316,346,236572,1,8,0:0:0:0:
255,332,236651,2,0,L|251:277,1,49.5000015106202,0|0,1:0|1:0,0:0:0:0:
288,116,236808,5,8,0:0:0:0:
337,66,236886,1,8,0:0:0:0:
401,57,236965,1,8,3:0:0:0:
449,80,237044,1,8,3:0:0:0:
477,117,237122,1,8,3:0:0:0:
481,158,237201,1,8,3:0:0:0:
471,185,237279,1,0,1:0:0:0:
458,194,237358,1,0,1:0:0:0:
444,193,237437,6,0,P|420:166|397:295,1,314.999990386963,2|2,0:0|0:0,0:0:0:0:
379,226,239321,2,0,B|268:139|219:384|161:141|53:233,1,346.49998942566,2|0,0:0|0:0,0:0:0:0:
40,325,241206,2,0,B|102:379|162:325|162:325|79:243|135:157,1,314.999990386963,2|2,0:0|0:0,0:0:0:0:
226,139,243091,2,0,B|157:144|101:173|101:173|61:142|66:93|66:93|124:142|191:109,1,346.49998942566,2|0,0:0|0:0,0:0:0:0:
246,53,244976,6,0,B|311:51|341:111|341:111|344:65|385:42|385:42|412:95|480:93,1,314.999990386963,2|2,0:0|1:2,0:0:0:0:
489,84,246704,1,0,1:2:0:0:
415,188,246861,2,0,P|454:202|372:266,1,220.499993270874,2|0,0:0|0:0,0:0:0:0:
293,237,248117,5,0,1:0:0:0:
265,242,248274,1,0,1:0:0:0:
237,247,248431,1,2,1:2:0:0:
209,252,248588,1,0,1:0:0:0:
140,340,248745,6,0,B|146:321|173:304|173:304|98:333|33:265|79:189|79:189|141:199|172:165,1,346.49998942566,2|0,0:0|0:0,0:0:0:0:
111,108,250630,6,0,B|183:24|272:83|240:115|328:157|388:93,1,310.499990524292,2|2,0:0|0:0,0:0:0:0:
389,73,254400,1,2,0:0:0:0:
256,192,254478,12,0,256285,0:0:0:0:
365,77,258170,5,6,1:2:0:0:
419,87,258248,1,0,1:0:0:0:
463,121,258327,1,8,0:0:0:0:
487,172,258405,1,0,1:0:0:0:
487,227,258484,1,0,1:0:0:0:
461,277,258562,1,0,1:0:0:0:
416,309,258641,1,8,0:0:0:0:
360,318,258719,1,0,1:0:0:0:
307,302,258798,1,0,1:0:0:0:
267,263,258876,1,0,1:0:0:0:
249,210,258955,1,8,0:0:0:0:
214,167,259033,1,0,1:0:0:0:
158,153,259112,1,2,1:2:0:0:
113,172,259190,1,0,1:0:0:0:
91,205,259269,1,10,0:0:0:0:
96,232,259348,1,0,1:0:0:0:
105,244,259426,5,2,1:2:0:0:
174,219,259505,1,0,1:0:0:0:
210,155,259583,1,8,0:0:0:0:
197,83,259662,1,0,1:0:0:0:
141,36,259740,1,0,1:0:0:0:
68,36,259819,1,0,1:0:0:0:
12,83,259897,1,8,0:0:0:0:
0,155,259976,1,0,1:0:0:0:
36,219,260054,1,0,1:0:0:0:
105,244,260133,1,0,1:0:0:0:
174,219,260211,1,8,0:0:0:0:
236,231,260290,1,0,1:0:0:0:
264,270,260368,1,0,1:0:0:0:
263,306,260447,1,0,1:0:0:0:
249,325,260526,2,0,P|217:335|188:330,1,56.25,10|0,0:0|1:0,0:0:0:0:
212,89,260683,5,6,1:2:0:0:
244,51,260761,1,0,1:0:0:0:
291,33,260840,1,8,0:0:0:0:
341,39,260918,1,0,1:0:0:0:
382,68,260997,1,0,1:0:0:0:
404,113,261075,1,0,1:0:0:0:
403,163,261154,1,8,0:0:0:0:
379,207,261232,1,0,1:0:0:0:
336,233,261311,1,0,1:0:0:0:
287,237,261389,1,0,1:0:0:0:
241,217,261468,2,0,L|230:146,3,56.25,10|0|0|0,0:0|1:0|1:0|1:0,0:0:0:0:
340,58,261782,2,0,L|329:129,1,56.25,10|0,0:0|1:0,0:0:0:0:
186,323,261939,5,2,1:2:0:0:
134,342,262017,1,0,1:0:0:0:
80,328,262096,1,8,0:0:0:0:
43,286,262174,1,0,1:0:0:0:
37,231,262253,1,0,1:0:0:0:
63,182,262331,1,0,1:0:0:0:
113,157,262410,1,8,0:0:0:0:
168,164,262488,1,0,1:0:0:0:
219,144,262567,1,0,1:0:0:0:
242,94,262646,1,0,1:0:0:0:
224,42,262724,1,8,0:0:0:0:
175,17,262803,1,0,1:0:0:0:
122,32,262881,1,0,1:0:0:0:
94,67,262960,1,0,1:0:0:0:
89,100,263039,1,8,0:0:0:0:
96,121,263117,1,0,1:0:0:0:
106,129,263196,5,6,1:2:0:0:
140,101,263274,1,0,1:0:0:0:
184,96,263353,1,8,0:0:0:0:
223,117,263431,1,0,1:0:0:0:
244,156,263510,1,0,1:0:0:0:
240,200,263588,1,0,1:0:0:0:
213,235,263667,1,8,0:0:0:0:
203,278,263745,1,0,1:0:0:0:
219,320,263824,1,0,1:0:0:0:
255,346,263902,1,0,1:0:0:0:
299,349,263981,1,8,0:0:0:0:
338,326,264059,1,0,1:0:0:0:
358,287,264138,2,0,L|300:272,1,56.25,2|0,1:2|1:0,0:0:0:0:
168,164,264295,2,0,L|113:178,1,56.25,10|0,0:0|1:0,0:0:0:0:
69,333,264452,5,2,1:2:0:0:
117,359,264530,1,0,1:0:0:0:
173,358,264609,1,8,0:0:0:0:
220,329,264687,1,0,1:0:0:0:
246,280,264766,1,0,1:0:0:0:
244,225,264844,1,0,1:0:0:0:
260,171,264923,1,8,0:0:0:0:
301,133,265002,1,0,1:0:0:0:
355,120,265080,1,0,1:0:0:0:
408,135,265159,1,0,1:0:0:0:
448,174,265238,2,0,L|433:236,1,56.25,10|0,0:0|1:0,0:0:0:0:
415,319,265395,2,0,L|353:336,1,56.25,2|0,1:2|1:0,0:0:0:0:
271,356,265552,2,0,L|225:311,1,56.25,10|0,0:0|1:0,0:0:0:0:
82,182,265709,5,6,1:2:0:0:
119,134,265787,1,0,1:0:0:0:
178,117,265866,1,8,0:0:0:0:
235,139,265944,1,0,1:0:0:0:
268,190,266023,1,0,1:0:0:0:
319,223,266101,1,0,1:0:0:0:
380,221,266180,1,8,0:0:0:0:
430,186,266258,1,0,1:0:0:0:
453,130,266337,1,0,1:0:0:0:
440,70,266415,1,0,1:0:0:0:
396,28,266494,1,8,0:0:0:0:
336,16,266572,1,0,1:0:0:0:
280,41,266651,2,0,L|289:100,1,56.25,2|0,1:2|1:0,0:0:0:0:
375,153,266808,2,0,L|366:212,1,56.25,10|0,0:0|1:0,0:0:0:0:
264,310,266965,5,8,0:0:0:0:
198,343,267044,1,0,1:0:0:0:
127,326,267122,1,8,0:0:0:0:
93,260,267201,1,8,0:0:0:0:
112,189,267279,1,8,3:0:0:0:
144,135,267358,1,0,1:0:0:0:
128,91,267437,1,8,3:0:0:0:
110,79,267515,1,8,3:0:0:0:
91,79,267594,5,10,0:0:0:0:
52,140,267672,1,8,3:0:0:0:
64,212,267751,1,2,1:2:0:0:
126,248,267829,1,0,1:0:0:0:
197,229,267908,2,0,L|210:157,1,56.25,10|8,3:0|0:0,0:0:0:0:
279,33,268065,2,0,L|292:105,1,56.25,10|8,3:0|0:0,0:0:0:0:
399,299,268222,5,6,1:2:0:0:
358,335,268300,1,0,1:0:0:0:
303,333,268379,1,8,0:0:0:0:
264,294,268457,1,0,1:0:0:0:
264,239,268536,1,0,1:0:0:0:
301,199,268614,1,0,1:0:0:0:
304,144,268693,1,8,0:0:0:0:
276,95,268772,1,0,1:0:0:0:
227,70,268850,1,0,1:0:0:0:
171,75,268929,1,0,1:0:0:0:
128,109,269007,1,8,0:0:0:0:
109,162,269086,1,0,1:0:0:0:
122,216,269164,1,0,1:0:0:0:
154,248,269243,1,0,1:0:0:0:
185,259,269321,1,10,0:0:0:0:
207,256,269400,1,0,1:0:0:0:
216,249,269478,5,2,1:2:0:0:
187,181,269557,1,0,1:0:0:0:
115,170,269635,1,8,0:0:0:0:
58,217,269714,1,0,1:0:0:0:
62,290,269793,1,0,1:0:0:0:
117,336,269871,1,0,1:0:0:0:
189,322,269950,1,8,0:0:0:0:
225,259,270028,1,0,1:0:0:0:
288,221,270107,1,0,1:0:0:0:
360,229,270185,1,0,1:0:0:0:
406,286,270264,1,8,0:0:0:0:
407,343,270342,1,0,1:0:0:0:
374,382,270421,1,0,1:0:0:0:
348,383,270499,1,0,1:0:0:0:
330,373,270578,2,0,P|322:338|337:310,1,56.25,10|0,0:0|1:0,0:0:0:0:
460,215,270735,5,2,1:2:0:0:
479,169,270813,1,0,1:0:0:0:
471,119,270892,1,8,0:0:0:0:
438,82,270970,1,0,1:0:0:0:
390,68,271049,1,0,1:0:0:0:
342,82,271127,1,0,1:0:0:0:
309,120,271206,1,8,0:0:0:0:
266,145,271284,1,0,1:0:0:0:
217,137,271363,1,0,1:0:0:0:
183,101,271441,1,0,1:0:0:0:
179,51,271520,2,0,L|200:0,3,56.25,10|0|0|0,0:0|1:0|1:0|1:0,0:0:0:0:
293,117,271834,2,0,L|313:168,1,56.25,10|0,0:0|1:0,0:0:0:0:
461,317,271991,5,6,1:2:0:0:
403,362,272070,1,0,1:0:0:0:
329,364,272149,1,8,0:0:0:0:
264,329,272227,1,0,1:0:0:0:
234,261,272306,1,0,1:0:0:0:
204,193,272384,1,0,1:0:0:0:
139,158,272463,1,8,0:0:0:0:
65,160,272541,1,0,1:0:0:0:
7,205,272620,5,6,1:2:0:0:
65,250,272698,1,0,1:0:0:0:
139,252,272777,1,8,0:0:0:0:
204,217,272855,1,0,1:0:0:0:
234,149,272934,1,2,1:2:0:0:
264,81,273012,1,0,1:0:0:0:
329,46,273091,1,8,0:0:0:0:
403,48,273170,1,0,1:0:0:0:
461,93,273248,5,6,1:2:0:0:
433,133,273327,1,0,1:0:0:0:
392,162,273405,1,8,0:0:0:0:
342,169,273484,1,0,1:0:0:0:
295,154,273562,1,0,1:0:0:0:
259,119,273641,1,0,1:0:0:0:
241,71,273719,5,10,0:0:0:0:
296,75,273798,1,0,1:0:0:0:
341,107,273876,1,0,1:0:0:0:
362,159,273955,1,0,1:0:0:0:
352,214,274033,1,8,0:0:0:0:
316,255,274112,1,0,1:0:0:0:
262,271,274190,2,0,L|204:246,1,56.25,2|0,1:2|1:0,0:0:0:0:
152,153,274348,2,0,L|93:178,1,56.25,10|0,0:0|1:0,0:0:0:0:
20,338,274505,5,6,1:2:0:0:
72,356,274583,1,0,1:0:0:0:
124,338,274662,1,10,0:0:0:0:
153,291,274740,1,0,1:0:0:0:
146,236,274819,1,0,1:0:0:0:
106,198,274897,1,0,1:0:0:0:
51,193,274976,5,8,0:0:0:0:
76,242,275054,1,0,1:0:0:0:
126,266,275133,1,0,1:0:0:0:
180,255,275211,1,0,1:0:0:0:
217,213,275290,2,0,P|256:193|290:208,1,56.25,8|0,0:0|1:0,0:0:0:0:
306,117,275447,2,0,P|343:140|347:177,1,56.25,0|0,1:0|1:0,0:0:0:0:
434,145,275604,2,0,P|432:188|402:210,1,56.25,8|0,0:0|1:0,0:0:0:0:
464,328,275761,5,14,1:2:0:0:
436,347,275839,1,0,1:0:0:0:
403,352,275918,1,0,1:0:0:0:
371,344,275996,1,0,1:0:0:0:
345,322,276075,1,2,1:2:0:0:
330,292,276153,1,0,1:0:0:0:
330,259,276232,5,8,0:0:0:0:
302,239,276310,1,0,1:0:0:0:
269,234,276389,1,2,1:2:0:0:
237,242,276467,1,0,1:0:0:0:
211,264,276546,1,0,1:0:0:0:
196,294,276624,1,0,1:0:0:0:
196,327,276703,5,10,1:2:0:0:
172,351,276782,1,0,1:0:0:0:
138,354,276861,1,0,1:0:0:0:
108,339,276939,1,0,1:0:0:0:
93,308,277018,2,0,L|114:240,1,56.25,14|0,0:0|0:0,0:0:0:0:
205,110,277175,5,8,0:0:0:0:
160,60,277253,1,8,0:0:0:0:
104,56,277332,1,8,3:0:0:0:
58,76,277410,1,8,3:0:0:0:
38,109,277489,2,0,P|50:151|71:167,1,56.25,8|8,3:0|3:0,0:0:0:0:
187,188,277646,6,0,L|245:171,1,56.25,10|8,0:0|3:0,0:0:0:0:
272,54,277803,2,0,L|326:70,1,56.25,0|0,1:0|1:0,0:0:0:0:
335,189,277960,1,10,0:0:0:0:
335,189,278039,1,8,0:0:0:0:
335,189,278117,2,0,L|314:241,1,56.25
467,177,278274,5,6,1:2:0:0:
492,228,278352,1,0,1:0:0:0:
492,286,278431,1,8,0:0:0:0:
465,338,278509,1,0,1:0:0:0:
418,371,278588,1,0,1:0:0:0:
361,380,278666,1,0,1:0:0:0:
306,361,278745,1,8,0:0:0:0:
265,319,278823,1,0,1:0:0:0:
248,264,278902,1,0,1:0:0:0:
217,216,278980,1,0,1:0:0:0:
163,196,279059,1,8,0:0:0:0:
109,214,279137,1,0,1:0:0:0:
77,262,279216,1,2,1:2:0:0:
75,309,279295,1,0,1:0:0:0:
94,338,279374,1,10,0:0:0:0:
113,350,279452,1,0,1:0:0:0:
123,351,279531,5,6,1:2:0:0:
161,286,279609,1,0,1:0:0:0:
142,211,279688,1,8,0:0:0:0:
72,182,279766,1,0,1:0:0:0:
44,110,279845,1,0,1:0:0:0:
75,41,279923,1,0,1:0:0:0:
150,27,280002,1,8,0:0:0:0:
211,70,280080,1,0,1:0:0:0:
220,145,280159,1,0,1:0:0:0:
273,199,280238,1,0,1:0:0:0:
348,196,280316,1,8,0:0:0:0:
402,156,280395,1,0,1:0:0:0:
415,107,280473,1,0,1:0:0:0:
407,68,280551,1,0,1:0:0:0:
389,47,280630,2,0,P|358:43|320:72,1,58.4999973220826,10|0,0:0|1:0,0:0:0:0:
271,216,280787,5,6,1:2:0:0:
277,267,280865,1,0,1:0:0:0:
308,309,280944,1,8,0:0:0:0:
356,330,281022,1,0,1:0:0:0:
408,325,281101,1,0,1:0:0:0:
451,295,281179,1,0,1:0:0:0:
473,249,281258,1,8,0:0:0:0:
470,197,281336,1,0,1:0:0:0:
442,153,281415,1,0,1:0:0:0:
396,128,281493,1,0,1:0:0:0:
344,130,281573,2,0,L|333:191,3,58.4999973220826,10|0|0|0,0:0|1:0|1:0|1:0,0:0:0:0:
269,278,281887,2,0,L|213:308,1,58.4999973220826,10|0,0:0|1:0,0:0:0:0:
73,369,282044,5,6,1:2:0:0:
31,329,282122,1,0,1:0:0:0:
20,273,282201,1,8,0:0:0:0:
45,221,282279,1,0,1:0:0:0:
96,194,282358,1,0,1:0:0:0:
153,202,282436,1,0,1:0:0:0:
209,192,282515,1,8,0:0:0:0:
250,151,282594,1,0,1:0:0:0:
261,95,282672,1,0,1:0:0:0:
237,42,282751,1,0,1:0:0:0:
187,13,282829,1,8,0:0:0:0:
130,16,282908,1,0,1:0:0:0:
85,52,282986,1,0,1:0:0:0:
67,95,283065,1,0,1:0:0:0:
70,129,283143,1,8,0:0:0:0:
83,148,283222,1,0,1:0:0:0:
93,153,283300,5,6,1:2:0:0:
142,133,283379,1,0,1:0:0:0:
162,84,283457,1,8,0:0:0:0:
142,35,283536,1,0,1:0:0:0:
93,15,283615,1,0,1:0:0:0:
44,35,283693,1,0,1:0:0:0:
24,84,283772,1,8,0:0:0:0:
44,133,283850,1,0,1:0:0:0:
93,153,283929,1,0,1:0:0:0:
142,133,284007,1,0,1:0:0:0:
194,141,284086,1,8,0:0:0:0:
222,185,284164,1,0,1:0:0:0:
215,237,284243,2,0,P|190:267|146:272,1,58.4999973220826,2|0,1:2|1:0,0:0:0:0:
153,369,284400,2,0,P|114:362|88:326,1,58.4999973220826,10|0,0:0|1:0,0:0:0:0:
0,236,284557,5,6,1:2:0:0:
14,179,284635,1,0,1:0:0:0:
58,143,284714,1,8,0:0:0:0:
115,137,284792,1,0,1:0:0:0:
166,166,284871,1,0,1:0:0:0:
212,199,284949,1,0,1:0:0:0:
270,196,285028,1,8,0:0:0:0:
313,159,285106,1,0,1:0:0:0:
324,103,285185,1,0,1:0:0:0:
355,54,285263,1,0,1:0:0:0:
407,27,285342,1,10,0:0:0:0:
463,39,285420,1,0,1:0:0:0:
502,82,285499,2,0,L|488:144,1,58.4999973220826,2|0,1:2|1:0,0:0:0:0:
387,186,285656,2,0,L|400:248,1,58.4999973220826,10|0,0:0|1:0,0:0:0:0:
492,345,285813,5,6,1:2:0:0:
435,374,285891,1,0,1:0:0:0:
372,368,285970,1,8,0:0:0:0:
322,328,286048,1,0,1:0:0:0:
302,268,286127,1,0,1:0:0:0:
311,204,286206,1,0,1:0:0:0:
290,142,286285,1,8,0:0:0:0:
236,107,286363,1,0,1:0:0:0:
172,116,286442,1,0,1:0:0:0:
126,161,286520,1,0,1:0:0:0:
116,225,286599,1,8,0:0:0:0:
149,279,286677,1,0,1:0:0:0:
208,303,286756,1,2,1:2:0:0:
256,294,286834,1,0,1:0:0:0:
279,274,286913,1,10,0:0:0:0:
284,261,286991,1,0,1:0:0:0:
281,253,287070,5,10,3:0:0:0:
232,204,287148,1,8,3:0:0:0:
164,191,287227,1,0,1:0:0:0:
100,219,287305,1,0,1:0:0:0:
64,277,287384,1,8,3:0:0:0:
67,331,287463,1,8,3:0:0:0:
90,368,287541,1,0,1:0:0:0:
118,380,287620,1,0,1:0:0:0:
135,375,287698,6,0,P|152:346|152:310,1,58.4999973220826,10|8,0:0|3:0,0:0:0:0:
6,134,287855,2,0,P|14:166|39:191,1,58.4999973220826,10|8,0:0|0:0,0:0:0:0:
263,332,288012,2,0,P|254:299|229:274,1,58.4999973220826,2|0,1:2|1:0,0:0:0:0:
1,252,288169,2,0,P|30:269|66:269,1,58.4999973220826,2|0,1:2|1:0,0:0:0:0:
211,74,288327,5,6,1:2:0:0:
254,36,288405,1,0,1:0:0:0:
311,34,288484,1,8,0:0:0:0:
357,69,288562,1,0,1:0:0:0:
370,125,288641,1,0,1:0:0:0:
346,177,288719,1,0,1:0:0:0:
294,201,288798,1,8,0:0:0:0:
265,250,288876,1,0,1:0:0:0:
275,307,288955,1,0,1:0:0:0:
318,345,289033,1,0,1:0:0:0:
375,347,289112,1,8,0:0:0:0:
421,313,289190,1,0,1:0:0:0:
435,258,289269,2,0,P|411:232|376:235,1,58.4999973220826,0|0,1:0|1:0,0:0:0:0:
267,326,289426,2,0,P|242:352|207:349,1,58.4999973220826,10|0,0:0|1:0,0:0:0:0:
32,239,289583,5,6,1:2:0:0:
11,170,289661,1,0,1:0:0:0:
37,105,289740,1,8,0:0:0:0:
95,68,289818,1,0,1:0:0:0:
165,72,289897,1,0,1:0:0:0:
217,119,289975,1,0,1:0:0:0:
233,186,290054,1,8,0:0:0:0:
281,236,290132,1,0,1:0:0:0:
350,246,290211,1,0,1:0:0:0:
411,213,290289,1,0,1:0:0:0:
438,149,290368,1,8,0:0:0:0:
421,81,290446,1,0,1:0:0:0:
367,38,290525,1,0,1:0:0:0:
302,37,290604,1,0,1:0:0:0:
260,61,290683,1,10,0:0:0:0:
243,88,290761,1,0,1:0:0:0:
240,108,290840,5,6,1:2:0:0:
291,126,290918,1,0,1:0:0:0:
334,97,290997,1,8,0:0:0:0:
340,45,291075,1,0,1:0:0:0:
303,8,291154,1,0,1:0:0:0:
251,14,291232,1,0,1:0:0:0:
223,58,291311,1,8,0:0:0:0:
240,108,291389,1,0,1:0:0:0:
230,159,291467,1,0,1:0:0:0:
195,196,291546,1,0,1:0:0:0:
145,209,291625,2,0,L|135:135,3,58.4999973220826,10|0|0|0,0:0|1:0|1:0|1:0,0:0:0:0:
67,55,291939,2,0,L|57:129,1,58.4999973220826,10|0,0:0|1:0,0:0:0:0:
30,298,292096,5,6,1:2:0:0:
73,362,292175,1,0,1:0:0:0:
147,377,292253,1,8,0:0:0:0:
210,335,292332,1,0,1:0:0:0:
225,260,292410,1,0,1:0:0:0:
183,196,292489,1,0,1:0:0:0:
198,121,292567,1,8,0:0:0:0:
261,79,292646,1,0,1:0:0:0:
335,94,292724,5,4,1:2:0:0:
313,167,292803,1,0,1:0:0:0:
238,184,292882,1,8,0:0:0:0:
187,128,292960,1,0,1:0:0:0:
209,55,293039,1,2,1:2:0:0:
283,38,293117,1,0,1:0:0:0:
335,94,293196,1,8,0:0:0:0:
410,96,293274,1,0,1:0:0:0:
464,42,293353,5,6,1:2:0:0:
389,11,293431,1,0,1:0:0:0:
313,42,293510,1,8,0:0:0:0:
281,118,293588,1,0,1:0:0:0:
313,193,293667,1,0,1:0:0:0:
389,225,293745,1,0,1:0:0:0:
465,194,293824,5,10,0:0:0:0:
408,135,293902,1,0,1:0:0:0:
325,129,293981,1,0,1:0:0:0:
257,175,294060,1,0,1:0:0:0:
189,221,294139,1,8,0:0:0:0:
106,215,294218,1,0,1:0:0:0:
49,156,294295,2,0,L|66:89,1,58.4999973220826,2|0,1:2|1:0,0:0:0:0:
136,0,294452,2,0,L|153:67,1,58.4999973220826,10|0,0:0|1:0,0:0:0:0:
189,221,294609,5,4,1:2:0:0:
259,250,294688,1,0,1:0:0:0:
329,221,294766,1,8,3:0:0:0:
358,150,294845,1,8,3:0:0:0:
329,80,294923,1,8,3:0:0:0:
259,51,295002,1,8,3:0:0:0:
189,80,295080,2,0,L|176:145,1,58.4999973220826,4|0,0:0|0:0,0:0:0:0:
44,228,295238,5,8,0:0:0:0:
74,297,295316,1,8,0:0:0:0:
142,330,295395,1,8,0:0:0:0:
216,318,295473,1,8,0:0:0:0:
265,259,295552,1,0,1:0:0:0:
322,223,295630,1,0,1:0:0:0:
378,224,295709,1,0,1:0:0:0:
413,243,295787,1,0,1:0:0:0:
424,266,295866,6,0,B|411:308|348:324|281:293|260:212|306:146|358:145|363:180|450:182|491:77|396:20,1,440.999986541748,6|0,1:2|0:0,0:0:0:0:
237,62,297122,2,0,P|289:16|302:111,1,188.999994232178,6|0,1:2|0:0,0:0:0:0:
251,155,297751,5,0,1:0:0:0:
215,177,297829,1,0,1:0:0:0:
168,170,297908,1,8,0:0:0:0:
125,141,297986,1,8,0:0:0:0:
62,140,298065,1,8,0:0:0:0:
15,191,298143,1,8,0:0:0:0:
16,267,298222,1,0,1:0:0:0:
82,321,298300,1,0,1:0:0:0:
166,296,298379,5,14,1:2:0:0:
143,257,298457,1,0,1:0:0:0:
104,237,298536,1,0,1:0:0:0:
60,241,298614,1,0,1:0:0:0:
25,268,298693,5,10,0:0:0:0:
21,291,298772,1,0,1:0:0:0:
17,313,298850,1,0,1:0:0:0:
13,335,298929,1,0,1:0:0:0:
9,357,299007,5,10,0:0:0:0:
65,339,299086,1,0,1:0:0:0:
120,321,299164,1,0,1:0:0:0:
176,303,299243,1,0,1:0:0:0:
230,283,299321,5,10,0:0:0:0:
274,305,299400,1,0,1:0:0:0:
317,327,299478,1,0,1:0:0:0:
361,349,299557,1,0,1:0:0:0:
403,373,299635,6,0,L|394:320,3,45,10|0|0|0,0:0|1:0|1:0|1:0,0:0:0:0:
455,262,299950,2,0,L|462:205,1,45,10|0,0:0|1:0,0:0:0:0:
359,130,300107,2,0,L|366:187,1,45,2|0,1:2|1:0,0:0:0:0:
445,69,300264,5,10,0:0:0:0:
416,35,300342,1,0,1:0:0:0:
374,21,300421,1,0,1:0:0:0:
330,28,300499,1,0,1:0:0:0:
296,56,300578,1,10,0:0:0:0:
262,85,300657,1,0,1:0:0:0:
219,93,300735,1,0,1:0:0:0:
176,79,300814,1,0,1:0:0:0:
148,45,300892,5,10,0:0:0:0:
181,32,300970,1,0,1:0:0:0:
216,35,301049,1,0,1:0:0:0:
247,54,301127,1,0,1:0:0:0:
266,84,301206,1,8,0:0:0:0:
269,120,301284,1,0,1:0:0:0:
257,153,301363,1,0,1:0:0:0:
230,177,301441,1,0,1:0:0:0:
196,188,301520,5,10,0:0:0:0:
161,140,301599,1,0,1:0:0:0:
103,128,301677,1,0,1:0:0:0:
53,159,301756,1,0,1:0:0:0:
43,216,301834,5,10,0:0:0:0:
85,206,301912,1,0,1:0:0:0:
120,232,301991,1,0,1:0:0:0:
125,275,302069,1,0,1:0:0:0:
95,307,302148,5,10,0:0:0:0:
112,280,302227,1,0,1:0:0:0:
136,261,302306,1,0,1:0:0:0:
165,250,302384,1,0,1:0:0:0:
197,249,302463,1,8,0:0:0:0:
227,257,302541,1,0,1:0:0:0:
253,275,302620,1,0,1:0:0:0:
271,300,302698,1,0,1:0:0:0:
281,330,302777,6,0,L|273:378,3,45,12|0|0|0,0:0|1:0|1:0|1:0,0:0:0:0:
356,292,303091,2,0,L|349:244,1,45,10|0,0:0|1:0,0:0:0:0:
272,182,303248,2,0,L|279:134,1,45,2|0,1:2|1:0,0:0:0:0:
444,36,303405,5,14,1:2:0:0:
441,79,303483,1,0,1:0:0:0:
409,110,303562,1,0,1:0:0:0:
365,111,303640,1,0,1:0:0:0:
332,81,303719,5,10,0:0:0:0:
301,137,303798,1,0,1:0:0:0:
241,157,303876,1,0,1:0:0:0:
180,138,303955,1,0,1:0:0:0:
152,81,304033,5,10,0:0:0:0:
154,63,304112,1,0,1:0:0:0:
157,45,304190,1,0,1:0:0:0:
161,27,304269,1,0,1:0:0:0:
164,11,304348,5,10,0:0:0:0:
120,4,304426,1,0,1:0:0:0:
81,25,304505,1,0,1:0:0:0:
62,65,304583,1,0,1:0:0:0:
71,108,304662,6,0,L|83:160,3,45,10|0|0|0,0:0|1:0|1:0|1:0,0:0:0:0:
135,216,304976,2,0,L|123:267,1,45,10|0,0:0|1:0,0:0:0:0:
43,342,305133,2,0,L|31:290,1,45,2|0,1:2|1:0,0:0:0:0:
211,170,305290,5,10,0:0:0:0:
246,143,305368,1,0,1:0:0:0:
289,146,305447,1,0,1:0:0:0:
321,177,305525,1,0,1:0:0:0:
324,221,305604,5,10,0:0:0:0:
359,247,305682,1,0,1:0:0:0:
402,244,305761,1,0,1:0:0:0:
434,213,305839,1,0,1:0:0:0:
437,169,305918,5,14,0:0:0:0:
408,191,305997,1,0,1:0:0:0:
400,225,306075,1,0,1:0:0:0:
412,259,306154,1,0,1:0:0:0:
440,280,306232,5,10,0:0:0:0:
449,279,306311,1,0,1:0:0:0:
457,278,306389,1,0,1:0:0:0:
466,277,306468,1,0,1:0:0:0:
473,275,306546,5,10,0:0:0:0:
461,304,306624,1,0,1:0:0:0:
437,323,306703,1,0,1:0:0:0:
407,329,306781,1,0,1:0:0:0:
377,318,306861,1,10,0:0:0:0:
347,307,306940,1,0,1:0:0:0:
317,313,307018,1,0,1:0:0:0:
293,332,307097,1,0,1:0:0:0:
282,362,307175,6,0,L|332:356,1,45,6|0,0:0|1:0,0:0:0:0:
278,171,307332,1,8,3:0:0:0:
242,144,307410,1,8,3:0:0:0:
199,150,307489,1,8,3:0:0:0:
172,185,307567,1,8,3:0:0:0:
177,229,307646,1,0,1:0:0:0:
212,256,307724,1,0,1:0:0:0:
255,251,307803,6,0,L|262:201,1,45,8|0,0:0|1:0,0:0:0:0:
383,86,307960,1,0,1:0:0:0:
383,86,308039,1,0,0:0:0:0:
383,86,308117,5,8,3:0:0:0:
351,54,308195,1,8,3:0:0:0:
307,48,308274,1,0,1:0:0:0:
268,68,308352,1,0,1:0:0:0:
249,108,308431,5,14,1:2:0:0:
203,145,308510,1,0,1:0:0:0:
150,155,308588,1,0,1:0:0:0:
102,129,308667,1,0,1:0:0:0:
67,81,308745,5,10,0:0:0:0:
68,103,308824,1,0,1:0:0:0:
70,125,308902,1,0,1:0:0:0:
72,147,308981,1,0,1:0:0:0:
73,169,309060,5,10,0:0:0:0:
108,143,309138,1,0,1:0:0:0:
150,155,309217,1,0,1:0:0:0:
168,194,309295,1,0,1:0:0:0:
149,233,309374,5,10,0:0:0:0:
198,229,309452,1,0,1:0:0:0:
247,224,309531,1,0,1:0:0:0:
296,220,309609,1,0,1:0:0:0:
346,215,309688,6,0,L|360:260,3,45,10|0|0|0,0:0|1:0|1:0|1:0,0:0:0:0:
279,356,310002,2,0,L|292:311,1,45,10|0,0:0|1:0,0:0:0:0:
430,207,310159,2,0,L|416:162,1,45,2|0,1:2|1:0,0:0:0:0:
406,15,310316,5,10,0:0:0:0:
363,1,310394,1,0,1:0:0:0:
320,11,310473,1,0,1:0:0:0:
288,42,310551,1,0,1:0:0:0:
275,85,310630,1,10,0:0:0:0:
287,128,310708,1,0,1:0:0:0:
318,159,310787,1,0,1:0:0:0:
361,170,310865,1,0,1:0:0:0:
403,154,310944,5,10,0:0:0:0:
375,130,311022,1,0,1:0:0:0:
340,124,311101,1,0,1:0:0:0:
307,135,311179,1,0,1:0:0:0:
283,161,311259,1,8,0:0:0:0:
259,187,311338,1,0,1:0:0:0:
225,198,311416,1,0,1:0:0:0:
190,191,311495,1,0,1:0:0:0:
163,169,311573,6,0,L|159:106,3,45,10|0|0|0,0:0|1:0|1:0|1:0,0:0:0:0:
209,21,311887,2,0,L|206:65,3,45,10|0|0|0,0:0|1:0|1:0|1:0,0:0:0:0:
93,44,312201,5,14,0:0:0:0:
51,60,312279,1,0,1:0:0:0:
25,96,312358,1,0,1:0:0:0:
21,141,312436,1,0,1:0:0:0:
41,180,312515,1,12,0:0:0:0:
79,204,312594,1,0,1:0:0:0:
120,220,312672,1,0,1:0:0:0:
146,256,312751,1,0,1:0:0:0:
150,301,312829,5,8,0:0:0:0:
167,286,312908,1,8,0:0:0:0:
188,279,312986,1,8,3:0:0:0:
210,279,313065,1,8,3:0:0:0:
231,288,313143,2,0,P|252:301|282:301,1,45,14|0,0:0|0:0,0:0:0:0:
349,365,313300,2,0,P|375:344|384:318,1,45,10|8,3:0|3:0,0:0:0:0:
456,216,313457,5,14,1:2:0:0:
439,173,313536,1,0,1:0:0:0:
422,130,313615,1,0,1:0:0:0:
405,88,313693,1,0,1:0:0:0:
387,46,313772,5,10,0:0:0:0:
440,53,313850,1,0,1:0:0:0:
469,98,313929,1,0,1:0:0:0:
453,149,314007,1,0,1:0:0:0:
405,174,314086,5,10,0:0:0:0:
375,153,314164,1,0,1:0:0:0:
338,152,314243,1,0,1:0:0:0:
311,176,314321,1,0,1:0:0:0:
310,212,314400,5,10,0:0:0:0:
269,231,314478,1,0,1:0:0:0:
225,219,314557,1,0,1:0:0:0:
197,183,314635,1,0,1:0:0:0:
199,137,314714,6,0,L|266:124,3,45,10|0|0|0,0:0|1:0|1:0|1:0,0:0:0:0:
306,50,315028,2,0,L|250:40,1,45,10|0,0:0|1:0,0:0:0:0:
171,0,315185,2,0,L|115:10,1,45,2|0,1:2|1:0,0:0:0:0:
6,14,315342,5,10,0:0:0:0:
13,58,315420,1,0,1:0:0:0:
21,102,315499,1,0,1:0:0:0:
28,147,315577,1,0,1:0:0:0:
36,191,315656,1,10,0:0:0:0:
44,235,315734,1,0,1:0:0:0:
51,280,315813,1,0,1:0:0:0:
59,324,315891,1,0,1:0:0:0:
67,368,315970,5,14,0:0:0:0:
93,326,316049,1,0,1:0:0:0:
140,309,316128,1,0,1:0:0:0:
186,325,316206,1,0,1:0:0:0:
210,368,316285,5,10,0:0:0:0:
215,346,316363,1,0,1:0:0:0:
220,323,316442,1,0,1:0:0:0:
225,301,316520,1,0,1:0:0:0:
230,277,316599,5,10,0:0:0:0:
256,312,316677,1,0,1:0:0:0:
298,327,316756,1,0,1:0:0:0:
341,316,316834,1,0,1:0:0:0:
371,283,316913,1,10,0:0:0:0:
377,239,316991,1,0,1:0:0:0:
358,199,317070,1,0,1:0:0:0:
320,176,317148,1,0,1:0:0:0:
276,178,317227,6,0,L|285:227,1,45,2|0,1:2|1:0,0:0:0:0:
423,368,317384,2,0,L|431:319,1,45,12|0,0:0|0:0,0:0:0:0:
462,111,317541,6,0,P|424:70|330:75,1,135,12|8,0:0|3:0,0:0:0:0:
258,60,317855,5,14,0:0:0:0:
246,73,317933,1,0,0:0:0:0:
222,90,318012,1,8,3:0:0:0:
188,91,318090,1,8,3:0:0:0:
151,69,318169,1,10,0:0:0:0:
102,53,318247,1,8,0:0:0:0:
51,72,318326,1,0,1:0:0:0:
10,119,318404,1,0,1:0:0:0:
20,196,318484,6,0,B|90:178|106:135|106:135|90:178|121:232|121:232|59:256|52:323|52:323|144:283|214:342,1,472.500018024445,6|2,1:2|0:0,0:0:0:0:
195,333,319662,1,2,0:0:0:0:
198,349,319740,6,0,B|206:286|273:266|273:266|294:327|356:350|356:350|422:315|427:256|427:256|491:273|501:350,1,472.500018024445,6|0,1:2|1:0,0:0:0:0:
495,342,320918,1,0,1:0:0:0:
486,355,320997,6,0,P|380:311|381:301,1,135.000005149842,14|0,1:2|1:0,0:0:0:0:
430,236,321468,2,2,P|456:192|386:164,1,135.000005149842,2|2,1:2|1:2,0:2:0:0:
328,197,321939,1,2,1:2:0:0:
295,74,322096,1,2,1:2:0:0:
448,99,322253,6,0,P|402:79|344:211,1,236.250009012223,6|0,1:2|0:0,0:0:0:0:
421,228,322882,2,0,L|477:221,3,33.7500012874604,8|8|8|8,3:0|3:0|3:0|3:0,0:0:0:0:
316,278,323196,1,8,0:0:0:0:
262,270,323274,1,8,0:0:0:0:
208,262,323353,1,8,0:0:0:0:
154,255,323431,1,8,0:0:0:0:
100,248,323510,5,6,1:2:0:0:
93,246,323588,1,0,1:0:0:0:
86,244,323667,1,0,1:0:0:0:
79,242,323745,1,0,1:0:0:0:
73,238,323824,6,0,L|58:171,1,49.5000015106202,12|0,1:2|0:0,0:0:0:0:
41,65,323981,1,2,1:2:0:0:
118,44,324060,1,0,1:0:0:0:
189,76,324138,1,0,1:0:0:0:
227,145,324217,1,0,1:0:0:0:
303,162,324295,6,0,P|338:158|356:142,1,49.5000015106202,2|0,1:2|1:0,0:0:0:0:
316,24,324452,2,0,P|301:56|306:79,1,49.5000015106202,10|0,0:0|1:0,0:0:0:0:
433,102,324609,2,0,P|412:73|389:66,1,49.5000015106202,0|0,1:0|1:0,0:0:0:0:
465,230,324766,5,6,1:2:0:0:
466,239,324845,1,0,1:0:0:0:
467,248,324923,1,0,1:0:0:0:
468,257,325002,1,0,1:0:0:0:
468,267,325080,2,0,L|439:202,1,49.5000015106202,12|0,1:2|0:0,0:0:0:0:
337,239,325238,5,2,1:2:0:0:
312,308,325316,1,0,1:0:0:0:
247,346,325395,1,0,1:0:0:0:
179,317,325473,1,0,1:0:0:0:
159,245,325552,2,0,L|178:179,1,49.5000015106202,2|0,1:2|1:0,0:0:0:0:
212,17,325709,2,0,L|231:83,1,49.5000015106202,10|0,0:0|1:0,0:0:0:0:
254,268,325866,2,0,L|235:202,1,49.5000015106202,2|0,1:2|1:0,0:0:0:0:
123,49,326023,6,0,L|104:115,1,49.5000015106202,6|0,1:2|1:0,0:0:0:0:
12,135,326180,2,0,L|59:184,1,49.5000015106202,2|0,1:2|1:0,0:0:0:0:
30,274,326337,2,0,L|96:257,1,49.5000015106202,10|0,0:0|1:0,0:0:0:0:
184,337,326494,1,2,1:2:0:0:
208,331,326573,1,0,1:0:0:0:
232,326,326651,1,0,1:0:0:0:
256,320,326730,1,0,1:0:0:0:
277,315,326808,5,2,1:2:0:0:
245,240,326887,1,0,1:0:0:0:
277,164,326965,1,10,0:0:0:0:
351,133,327044,1,0,1:0:0:0:
427,164,327122,1,0,1:0:0:0:
458,240,327201,1,0,1:0:0:0:
427,315,327279,2,0,L|364:323,1,49.5000015106202,6|0,1:2|1:0,0:0:0:0:
266,146,327437,2,0,L|202:137,1,49.5000015106202,0|0,1:0|1:0,0:0:0:0:
58,318,327594,5,12,0:0:0:0:
132,296,327672,1,0,1:0:0:0:
177,231,327751,1,0,1:0:0:0:
179,152,327829,1,0,1:0:0:0:
135,86,327908,5,8,0:0:0:0:
112,80,327986,1,8,0:0:0:0:
87,76,328065,1,0,1:0:0:0:
62,73,328143,1,0,0:0:0:0:
37,71,328222,5,8,0:0:0:0:
104,57,328300,1,8,0:0:0:0:
172,45,328379,1,8,0:0:0:0:
239,33,328457,1,8,0:0:0:0:
307,21,328536,6,0,B|257:91|323:170|407:129|407:129|483:182|473:274|404:313,1,431.999986816407,6|2,1:2|0:0,0:0:0:0:
296,245,330107,2,0,L|315:249,1,13.4999995880127,8|8,0:0|3:0,0:0:0:0:
171,195,330421,2,0,L|183:180,1,13.4999995880127,8|8,3:0|3:0,0:0:0:0:
65,278,330735,1,0,1:0:0:0:
242,137,331049,5,10,0:0:0:0:
200,338,331206,1,0,1:0:0:0:
200,338,331285,1,0,1:0:0:0:
200,338,331363,5,10,0:0:0:0:
239,358,331441,1,8,0:0:0:0:
283,358,331520,1,0,1:0:0:0:
322,336,331598,1,0,1:0:0:0:
346,298,331677,2,0,L|340:243,3,45,8|8|0|0,3:0|3:0|1:0|1:0,0:0:0:0:
423,211,331991,2,0,L|429:155,1,45,8|8,3:0|3:0,0:0:0:0:
482,77,332149,1,2,1:2:0:0:
420,65,332227,1,0,1:0:0:0:
357,53,332306,5,6,1:2:0:0:
345,41,332621,5,10,1:2:0:0:
288,6,332699,1,8,0:0:0:0:
223,16,332778,1,10,0:0:0:0:
179,65,332856,1,8,0:0:0:0:
178,131,332935,1,10,1:2:0:0:
219,183,333013,1,8,0:0:0:0:
284,195,333092,1,10,0:0:0:0:
341,160,333170,1,8,0:0:0:0:
406,170,333249,1,10,1:2:0:0:
458,224,333327,1,8,0:0:0:0:
450,300,333406,1,10,0:0:0:0:
394,351,333484,1,8,0:0:0:0:
317,343,333562,1,6,1:2:0:0:
191,176,335290,6,0,L|182:222,2,30,2|2|2,0:0|0:0|0:0,0:0:0:0:
117,239,335456,1,2,0:0:0:0:
127,273,335532,1,2,0:0:0:0:
157,277,335609,5,2,3:0:0:0:
256,192,335687,12,0,339692,0:0:0:0:
