osu file format v14

[General]
AudioFilename: audio.mp3
AudioLeadIn: 0
PreviewTime: 693155
Countdown: 0
SampleSet: Soft
StackLeniency: 0.2
Mode: 0
LetterboxInBreaks: 0
WidescreenStoryboard: 0

[Editor]
Bookmarks: 218361,227835,316261,396786,434050,478707,620834,645596,676072,693215,708453,723691
DistanceSpacing: 1
BeatDivisor: 4
GridSize: 16
TimelineZoom: 2.1

[Metadata]
Title:Curse Bride
TitleUnicode:Curse Bride
Artist:TEARS OF TRAGEDY
ArtistUnicode:TEARS OF TRAGEDY
Creator:Hey lululu
Version:We swear, We will be with you until you grow old together.
Source:
Tags:STATICE HARUKA TORU YOHEI HAYATO HIDEYUKI Symphonic Melodic Power Metal Japanese rock lu^3
BeatmapID:2391463
BeatmapSetID:1145409

[Difficulty]
HPDrainRate:5
CircleSize:4.5
OverallDifficulty:9
ApproachRate:9.7
SliderMultiplier:1.8
SliderTickRate:1

[Events]
//Background and Video events
0,0,"BG.jpg",0,0
//Break Periods
2,322768,328411
2,422241,433546
2,478907,493158
//Storyboard Layer 0 (Background)
//Storyboard Layer 1 (Fail)
//Storyboard Layer 2 (Pass)
//Storyboard Layer 3 (Foreground)
//Storyboard Layer 4 (Overlay)
//Storyboard Sound Samples

[TimingPoints]
97879,447.761194029851,4,2,1,40,1,0
122953,487.80487804878,4,2,1,40,1,0
124904,659.340659340659,4,2,1,50,1,0
127541,652.173913043478,4,2,1,60,1,0
127541,-25,4,2,1,60,0,0
127622,-25,4,2,1,5,0,0
140584,540.540540540541,4,2,1,50,1,0
140584,-200,4,2,1,50,0,0
143827,530.973451327434,4,2,1,50,1,0
145950,535.714285714286,4,2,1,50,1,0
145950,-200,4,2,1,50,0,0
152378,-200,4,2,1,40,0,0
165235,508.474576271186,4,2,1,40,1,0
166251,576.923076923077,4,2,1,40,1,0
166251,-200,4,2,1,40,0,0
167394,535.714285714286,4,2,1,40,1,0
167394,-200,4,2,1,40,0,0
184536,-333.333333333333,4,2,1,40,0,0
185608,-200,4,2,1,50,0,0
186144,-200,4,2,1,60,0,0
186679,-200,4,2,1,50,0,0
189894,-200,4,2,1,40,0,0
193088,395.126769838657,4,2,1,60,1,0
198224,-100,4,2,2,60,0,0
198619,387.096774193548,4,2,2,60,1,0
199005,400,4,2,1,60,1,0
199405,394.736842105263,4,2,2,70,1,0
204339,-66.6666666666667,4,2,2,70,0,0
205720,-83.3333333333333,4,3,2,70,0,0
215194,-83.3333333333333,4,2,2,70,0,0
216378,-71.4285714285714,4,2,2,70,0,0
216773,-66.6666666666667,4,2,2,70,0,0
218352,-66.6666666666667,4,2,2,70,0,0
227826,-100,4,2,1,70,0,0
230786,-100,4,2,2,70,0,0
231181,-100,4,2,1,70,0,0
232957,-100,4,2,2,70,0,0
233155,-100,4,2,1,70,0,0
233352,-100,4,2,2,70,0,0
234141,-83.3333333333333,4,2,2,70,0,0
237694,-200,4,2,1,70,0,0
237990,-200,4,2,2,5,0,0
238089,-200,4,2,2,40,0,0
239668,-200,4,2,1,50,0,0
240473,394.736842105263,4,2,1,50,1,0
240473,-200,4,2,1,50,0,0
262568,394.736842105263,4,2,1,50,1,0
264541,-100,4,2,2,60,0,0
265725,-66.6666666666667,4,2,2,70,0,0
316252,-100,4,2,2,70,0,0
322568,400,4,2,1,60,1,0
328906,394.736842105263,4,2,1,50,1,0
328906,-200,4,2,1,50,0,0
365002,394.736842105263,4,2,2,60,1,0
365199,394.736842105263,4,2,2,60,1,0
365199,-200,4,2,2,60,0,0
370725,-66.6666666666667,4,2,2,60,0,0
371514,-66.6666666666667,4,2,2,70,0,0
422041,300,5,2,2,70,1,0
435525,-200,5,2,2,60,0,0
446041,-200,5,2,1,50,0,0
450316,-200,5,2,2,5,0,0
450521,279.06976744186,5,2,2,70,1,0
450521,-83.3333333333333,5,2,2,70,0,0
493653,279.06976744186,4,2,2,70,1,0
493653,-83.3333333333333,5,2,2,70,0,0
514025,279.06976744186,5,2,2,70,1,0
514025,-83.3333333333333,5,2,2,70,0,0
520742,300,3,2,2,70,1,0
520967,-100,3,2,2,5,0,0
521042,-100,3,2,2,70,0,0
521267,-100,3,2,2,5,0,0
521342,-100,3,2,2,70,0,0
521567,-100,3,2,2,5,0,0
521642,300,4,2,2,70,1,0
521642,-83.3333333333333,4,2,2,70,0,0
554042,-100,4,3,2,70,0,0
554642,-83.3333333333333,4,3,2,70,0,0
555242,-71.4285714285714,4,3,2,70,0,0
556442,333.333333333333,5,1,2,60,1,0
557108,375,5,1,2,60,1,0
557483,400,5,1,2,60,1,0
557883,571.428571428571,5,1,2,60,1,0
558454,333.333333333333,5,1,2,60,1,0
558787,560.747663551402,5,1,2,60,1,0
559067,521.739130434783,5,1,2,60,1,0
559327,530.973451327434,5,1,2,60,1,0
559857,238.095238095238,4,2,3,70,1,0
563666,-66.6666666666667,4,2,3,70,0,0
564142,-76.9230769230769,4,2,3,70,0,0
564618,-90.9090909090909,4,2,3,70,0,0
565095,-111.111111111111,4,2,3,70,0,0
565571,-100,4,2,3,70,0,0
571285,-66.6666666666667,4,2,3,70,0,0
571761,-76.9230769230769,4,2,3,70,0,0
572237,-90.9090909090909,4,2,3,70,0,0
572714,-111.111111111111,4,2,3,70,0,0
573190,-100,4,2,3,70,0,0
575095,-83.3333333333333,4,2,3,70,0,0
590333,-100,4,2,2,70,0,0
591285,-100,4,2,3,70,0,0
591345,-100,4,2,2,70,0,0
592237,-100,4,2,3,70,0,0
592297,-100,4,2,2,70,0,0
593428,-100,4,2,3,70,0,0
593488,-100,4,2,2,70,0,0
593904,-100,4,2,3,70,0,0
593964,-100,4,2,2,70,0,0
595095,-100,4,2,3,70,0,0
595155,-100,4,2,2,70,0,0
596047,-100,4,2,3,70,0,0
596107,-100,4,2,2,70,0,0
596523,-100,4,2,3,70,0,0
596583,-100,4,2,2,70,0,0
596999,-100,4,2,3,70,0,0
597059,-100,4,2,2,70,0,0
597476,-100,4,2,3,70,0,0
597536,-100,4,2,2,70,0,0
597952,-100,4,3,2,70,0,0
598904,-100,4,2,3,70,0,0
598964,-100,4,2,2,70,0,0
599380,-100,4,2,3,70,0,0
599440,-100,4,2,2,70,0,0
599857,-100,4,2,3,70,0,0
599917,-100,4,2,2,70,0,0
600809,-100,4,2,3,70,0,0
600869,-100,4,2,2,70,0,0
601285,-100,4,2,3,70,0,0
601345,-100,4,2,2,70,0,0
601761,-100,4,2,2,70,0,0
605571,-100,4,2,3,70,0,0
605631,-100,4,2,2,70,0,0
606999,-100,4,2,3,70,0,0
607059,-100,4,2,2,70,0,0
607476,-100,4,2,3,70,0,0
607536,-100,4,2,2,70,0,0
608666,-100,4,2,3,70,0,0
608726,-100,4,2,2,70,0,0
609142,-100,4,2,3,70,0,0
609202,-100,4,2,2,70,0,0
610333,-100,4,2,3,70,0,0
610393,-100,4,2,2,70,0,0
611285,-100,4,2,3,70,0,0
611345,-100,4,2,2,70,0,0
612237,-100,4,2,3,70,0,0
612297,-100,4,2,2,70,0,0
612714,-100,4,2,3,70,0,0
612774,-100,4,2,2,70,0,0
613190,-100,4,2,3,70,0,0
613250,-100,4,2,2,70,0,0
614142,-100,4,2,3,70,0,0
614202,-100,4,2,2,70,0,0
614618,-100,4,2,3,70,0,0
614678,-100,4,2,2,70,0,0
615095,-100,4,2,3,70,0,0
615155,-100,4,2,2,70,0,0
616047,-100,4,2,3,70,0,0
616107,-100,4,2,2,70,0,0
616523,-100,4,2,3,70,0,0
616583,-100,4,2,2,70,0,0
616999,-100,4,2,3,70,0,0
617059,-100,4,2,2,70,0,0
617952,-100,4,2,3,70,0,0
618012,-100,4,2,2,70,0,0
618904,-100,4,2,3,70,0,0
618964,-100,4,2,2,70,0,0
619857,-100,4,2,3,70,0,0
619917,-100,4,2,2,70,0,0
620809,-100,4,2,3,70,0,0
622714,-100,4,3,3,70,0,0
624618,-100,4,2,3,70,0,0
626523,-100,4,3,3,70,0,0
628428,-100,4,2,3,70,0,0
633428,-100,4,2,2,70,0,0
653190,-83.3333333333333,4,2,2,70,0,0
653666,-83.3333333333333,4,2,3,70,0,0
653725,-83.3333333333333,4,2,2,70,0,0
655095,-83.3333333333333,4,2,3,70,0,0
655154,-83.3333333333333,4,2,2,70,0,0
655571,-83.3333333333333,4,2,3,70,0,0
655630,-83.3333333333333,4,2,2,70,0,0
656047,-83.3333333333333,4,2,3,70,0,0
656106,-83.3333333333333,4,2,2,70,0,0
656523,-83.3333333333333,4,2,3,70,0,0
656582,-83.3333333333333,4,2,2,70,0,0
656999,-83.3333333333333,4,2,3,70,0,0
657058,-83.3333333333333,4,2,2,70,0,0
657476,-83.3333333333333,4,2,3,70,0,0
657535,-83.3333333333333,4,2,2,70,0,0
657952,-83.3333333333333,4,2,3,70,0,0
658011,-83.3333333333333,4,2,2,70,0,0
658428,-83.3333333333333,4,2,3,70,0,0
658487,-83.3333333333333,4,2,2,70,0,0
658904,-83.3333333333333,4,2,3,70,0,0
658963,-83.3333333333333,4,2,2,70,0,0
659380,-83.3333333333333,4,2,3,70,0,0
659439,-83.3333333333333,4,2,2,70,0,0
663666,-83.3333333333333,4,2,3,70,0,0
663725,-83.3333333333333,4,2,2,70,0,0
664142,-83.3333333333333,4,2,3,70,0,0
664201,-83.3333333333333,4,2,2,70,0,0
667476,-83.3333333333333,4,2,3,70,0,0
667535,-83.3333333333333,4,2,2,70,0,0
667952,-83.3333333333333,4,2,3,70,0,0
668011,-83.3333333333333,4,2,2,70,0,0
668428,-83.3333333333333,4,2,3,70,0,0
668487,-83.3333333333333,4,2,2,70,0,0
668904,-83.3333333333333,4,2,3,70,0,0
668963,-83.3333333333333,4,2,2,70,0,0
669380,-83.3333333333333,4,2,3,70,0,0
669439,-83.3333333333333,4,2,2,70,0,0
669857,-83.3333333333333,4,2,3,70,0,0
669916,-83.3333333333333,4,2,2,70,0,0
671285,-83.3333333333333,4,2,3,70,0,0
671344,-83.3333333333333,4,2,2,70,0,0
671761,-83.3333333333333,4,2,3,70,0,0
671820,-83.3333333333333,4,2,2,70,0,0
676047,-100,4,2,3,70,0,0
677952,-100,4,3,3,70,0,0
679856,-100,4,2,3,70,0,0
681761,-100,4,3,3,70,0,0
683666,-100,4,2,3,70,0,0
687714,-100,4,2,2,70,0,0
693190,-83.3333333333333,4,2,2,80,0,1
707952,-333.333333333333,4,2,2,80,0,0
708428,-83.3333333333333,4,2,2,80,0,1
723666,-83.3333333333333,4,3,2,80,0,1
731285,-83.3333333333333,4,3,3,80,0,1
736999,-83.3333333333333,4,3,2,80,0,1
738904,-100,4,2,2,70,0,0
742714,-66.6666666666667,4,2,2,70,0,0
743190,-76.9230769230769,4,2,2,70,0,0
743666,-90.9090909090909,4,2,2,70,0,0
744142,-111.111111111111,4,2,2,70,0,0
744618,-400,4,2,2,70,0,0
746761,-100,4,2,1,68,0,0
746999,-105.263157894737,4,2,1,66,0,0
747237,-111.111111111111,4,2,1,64,0,0
747475,-117.647058823529,4,2,1,62,0,0
747713,-125,4,2,1,60,0,0
747952,-133.333333333333,4,2,1,58,0,0
748190,-142.857142857143,4,2,1,56,0,0
748428,-153.846153846154,4,2,1,54,0,0
748666,-166.666666666667,4,2,1,52,0,0
748904,-181.818181818182,4,2,1,50,0,0
749142,-200,4,2,1,48,0,0
749380,-222.222222222222,4,2,1,46,0,0
749618,-250,4,2,1,44,0,0
749856,-285.714285714286,4,2,1,42,0,0
750094,-333.333333333333,4,2,1,40,0,0
750333,-333.333333333333,4,2,2,60,0,0
753190,-333.333333333333,4,2,2,50,0,0
754142,-333.333333333333,4,2,2,40,0,0
755095,-333.333333333333,4,2,2,30,0,0
756047,-333.333333333333,4,2,2,20,0,0
756999,-333.333333333333,4,2,2,10,0,0
757952,-333.333333333333,4,2,1,5,0,0

[Colours]
Combo1 : 221,81,81
Combo2 : 192,192,192
Combo3 : 255,216,176
Combo4 : 128,128,128

[HitObjects]
256,192,193088,5,4,3:2:0:0:
306,341,193384,5,2,0:0:0:0:
243,289,193483,1,2,0:0:0:0:
306,341,194174,5,2,0:0:0:0:
243,289,194273,1,2,0:0:0:0:
404,249,194569,5,2,0:0:0:0:
330,255,194668,1,2,0:0:0:0:
405,127,194964,5,2,0:0:0:0:
361,177,195063,1,2,0:0:0:0:
321,45,195359,5,2,0:0:0:0:
324,104,195458,1,2,0:0:0:0:
202,45,195755,5,2,0:0:0:0:
240,80,195853,1,2,0:0:0:0:
114,126,196150,5,2,0:0:0:0:
160,124,196249,1,2,0:0:0:0:
118,238,196545,5,2,0:0:0:0:
145,207,196644,1,2,0:0:0:0:
224,353,196940,5,2,0:0:0:0:
215,281,197039,1,4,3:2:0:0:
30,145,197829,5,4,3:2:0:0:
30,145,198224,1,2,0:0:0:0:
248,159,198619,6,0,L|235:121,5,30,2|0|0|0|0|0,0:0|0:0|0:0|0:0|0:0|0:0,0:0:0:0:
174,176,199006,5,0,3:2:0:0:
170,191,199071,1,0,3:2:0:0:
167,208,199138,1,0,3:2:0:0:
161,225,199205,1,0,3:2:0:0:
158,242,199271,1,0,3:2:0:0:
153,260,199338,1,0,3:2:0:0:
177,286,199405,6,0,L|294:271,1,90,4|0,3:2|3:2,0:0:0:0:
342,315,199701,1,0,3:2:0:0:
342,315,199799,1,10,3:2:0:0:
504,206,199997,1,0,3:2:0:0:
456,352,200194,1,2,3:2:0:0:
456,352,200293,2,0,L|441:235,1,90,0|0,3:2|3:2,0:0:0:0:
360,200,200589,2,0,L|287:190,1,45,10|0,3:2|0:0,0:0:0:0:
460,105,200786,2,0,L|533:95,1,45,0|0,3:2|0:0,0:0:0:0:
387,6,200983,5,2,3:2:0:0:
427,203,201181,1,0,3:2:0:0:
383,213,201280,1,0,3:2:0:0:
339,223,201378,1,10,3:2:0:0:
295,233,201477,1,0,3:2:0:0:
82,346,201674,1,0,3:2:0:0:
126,356,201773,5,2,3:2:0:0:
178,283,201970,1,0,3:2:0:0:
70,234,202168,2,0,L|44:155,1,45,10|0,3:2|0:0,0:0:0:0:
184,124,202365,2,0,L|210:45,1,45,4|0,3:2|0:0,0:0:0:0:
104,0,202562,5,4,3:2:0:0:
0,78,202760,1,0,3:2:0:0:
0,78,202858,1,0,3:2:0:0:
0,78,202957,2,0,L|63:87,1,45,10|0,3:2|0:0,0:0:0:0:
145,196,203155,2,0,L|208:205,1,45,0|0,3:2|0:0,0:0:0:0:
120,334,203352,5,2,3:2:0:0:
109,290,203451,1,0,3:2:0:0:
277,143,203648,1,0,3:2:0:0:
288,187,203747,1,10,3:2:0:0:
413,289,203944,1,0,3:2:0:0:
413,289,204043,1,0,3:2:0:0:
413,289,204141,2,0,L|399:240,1,45,0|0,3:2|0:0,0:0:0:0:
501,107,204339,6,0,P|469:113|426:149,1,67.5000025749208,12|0,3:2|0:0,0:0:0:0:
277,143,204536,1,0,3:2:0:0:
277,143,204635,1,0,0:0:0:0:
277,143,204733,2,0,P|274:175|298:226,1,67.5000025749208,8|0,3:2|0:0,0:0:0:0:
395,354,204931,5,0,3:2:0:0:
362,377,205030,1,0,3:0:0:0:
336,345,205128,5,12,3:2:0:0:
377,354,205227,1,0,3:0:0:0:
366,314,205326,5,0,3:2:0:0:
343,280,205424,1,0,3:2:0:0:
373,254,205523,5,0,3:2:0:0:
366,295,205622,1,0,3:2:0:0:
324,329,205720,5,4,0:2:0:0:
312,336,205819,1,0,0:0:0:0:
301,344,205918,1,0,0:0:0:0:
290,351,206016,1,0,0:0:0:0:
279,359,206115,5,2,0:2:0:0:
239,350,206214,1,0,0:0:0:0:
199,342,206312,1,0,0:0:0:0:
160,334,206411,1,0,0:0:0:0:
120,326,206510,6,0,L|134:387,1,53.9999983520508,10|0,0:2|0:0,0:0:0:0:
188,254,206707,2,0,L|201:314,1,53.9999983520508,0|0,0:0|0:0,0:0:0:0:
21,251,206905,2,0,L|34:311,1,53.9999983520508,2|0,0:2|0:0,0:0:0:0:
88,178,207102,2,0,L|101:238,1,53.9999983520508,0|0,0:0|0:0,0:0:0:0:
278,264,207299,5,2,0:2:0:0:
299,230,207398,1,0,0:0:0:0:
293,191,207497,1,0,0:0:0:0:
264,164,207595,1,0,0:0:0:0:
225,162,207694,1,2,0:2:0:0:
186,160,207793,1,0,0:0:0:0:
157,133,207891,1,0,0:0:0:0:
151,94,207990,1,0,0:0:0:0:
172,60,208089,5,10,0:2:0:0:
225,69,208187,1,0,0:0:0:0:
278,78,208286,1,0,0:0:0:0:
331,87,208385,1,0,0:0:0:0:
384,96,208483,5,2,0:2:0:0:
362,111,208582,1,0,0:0:0:0:
339,126,208681,1,0,0:0:0:0:
317,141,208780,1,0,0:0:0:0:
294,156,208878,5,4,0:2:0:0:
298,169,208977,1,0,0:0:0:0:
302,182,209076,1,0,0:0:0:0:
306,195,209174,1,0,0:0:0:0:
310,208,209273,5,2,0:2:0:0:
301,247,209372,1,0,0:0:0:0:
293,287,209470,1,0,0:0:0:0:
285,326,209569,1,0,0:0:0:0:
277,365,209668,6,0,L|344:350,1,53.9999983520508,10|0,0:2|0:0,0:0:0:0:
385,276,209865,2,0,L|452:261,1,53.9999983520508,0|0,0:0|0:0,0:0:0:0:
209,273,210062,2,0,L|276:258,1,53.9999983520508,2|0,0:2|0:0,0:0:0:0:
317,184,210260,2,0,L|384:169,1,53.9999983520508,0|0,0:0|0:0,0:0:0:0:
512,152,210457,5,2,0:2:0:0:
472,158,210556,1,0,0:0:0:0:
436,141,210655,1,0,0:0:0:0:
415,107,210753,1,0,0:0:0:0:
418,67,210852,1,2,0:2:0:0:
399,31,210951,1,0,0:0:0:0:
363,14,211049,1,0,0:0:0:0:
323,17,211148,1,0,0:0:0:0:
293,42,211247,5,10,0:2:0:0:
240,52,211345,1,0,0:0:0:0:
187,62,211444,1,0,0:0:0:0:
134,73,211543,1,0,0:0:0:0:
81,83,211641,5,4,0:2:0:0:
105,93,211740,1,0,0:0:0:0:
130,104,211839,1,0,0:0:0:0:
155,114,211937,1,0,0:0:0:0:
180,125,212036,5,4,0:2:0:0:
184,112,212135,1,0,0:0:0:0:
188,99,212233,1,0,0:0:0:0:
192,86,212332,1,0,0:0:0:0:
196,73,212431,5,2,0:2:0:0:
203,112,212530,1,0,0:0:0:0:
211,152,212628,1,0,0:0:0:0:
218,192,212727,1,0,0:0:0:0:
226,232,212826,6,0,L|157:211,1,53.9999983520508,10|0,0:2|0:0,0:0:0:0:
74,264,213023,2,0,L|5:243,1,53.9999983520508,0|0,0:0|0:0,0:0:0:0:
210,344,213220,2,0,L|158:328,1,53.9999983520508,2|0,0:2|0:0,0:0:0:0:
85,153,213418,2,0,L|33:137,1,53.9999983520508,0|0,0:0|0:0,0:0:0:0:
156,21,213615,5,2,0:2:0:0:
191,3,213714,1,0,0:0:0:0:
230,11,213812,1,0,0:0:0:0:
257,40,213911,1,0,0:0:0:0:
261,79,214010,1,2,0:2:0:0:
245,115,214108,1,0,0:0:0:0:
255,153,214207,1,0,0:0:0:0:
285,179,214306,1,0,0:0:0:0:
324,180,214405,5,10,0:2:0:0:
363,171,214503,1,0,0:0:0:0:
403,163,214602,1,0,0:0:0:0:
442,154,214701,1,0,0:0:0:0:
482,146,214799,5,10,0:2:0:0:
468,198,214898,1,8,0:2:0:0:
454,250,214997,1,0,0:0:0:0:
440,302,215095,1,0,0:0:0:0:
426,354,215194,5,0,3:2:0:0:
426,354,215391,1,0,3:2:0:0:
225,287,215589,2,0,B|191:274|191:274|108:295,1,107.999996704102,4|0,3:2|3:2,0:0:0:0:
33,315,215885,1,0,3:2:0:0:
33,315,215983,1,0,3:2:0:0:
254,115,216181,1,0,3:2:0:0:
263,134,216280,1,0,3:2:0:0:
273,156,216378,2,0,B|316:139|316:139|422:166,1,125.999996154785,4|0,3:2|3:0,0:0:0:0:
481,185,216674,1,0,3:0:0:0:
481,185,216773,6,0,L|506:105,1,67.5000025749208,0|0,3:2|0:0,0:0:0:0:
364,245,216970,2,0,L|343:309,1,67.5000025749208,8|0,3:2|0:0,0:0:0:0:
464,380,217168,1,0,3:2:0:0:
464,380,217266,1,0,0:0:0:0:
464,380,217365,2,0,B|473:341|473:341|439:307,1,67.5000025749208,8|0,3:2|0:0,0:0:0:0:
315,383,217562,5,0,3:2:0:0:
214,306,217760,1,8,3:2:0:0:
214,306,217858,1,0,3:2:0:0:
214,306,217957,5,0,3:2:0:0:
217,289,218056,1,0,3:2:0:0:
221,273,218155,1,0,3:2:0:0:
225,256,218253,1,0,3:2:0:0:
228,238,218352,6,0,P|190:288|82:263,1,135.000005149842,4|10,3:2|3:2,0:0:0:0:
21,128,218648,1,0,0:0:0:0:
13,146,218747,2,0,P|51:196|159:171,1,135.000005149842,0|10,3:2|3:2,0:0:0:0:
184,136,219043,1,0,0:0:0:0:
184,136,219141,6,0,P|165:105|162:53,1,67.5000025749208,0|0,3:2|0:0,0:0:0:0:
327,211,219339,2,0,P|309:241|305:294,1,67.5000025749208,10|0,3:2|3:2,0:0:0:0:
432,126,219536,2,0,L|526:107,1,67.5000025749208,0|0,3:2|3:2,0:0:0:0:
325,62,219733,2,0,L|258:75,1,67.5000025749208,10|0,3:2|0:0,0:0:0:0:
425,0,219931,6,0,B|408:48|408:48|418:82|418:82|395:153,1,135.000005149842,0|10,3:2|3:2,0:0:0:0:
493,302,220227,1,0,0:0:0:0:
506,286,220326,2,0,P|498:233|411:208,1,135.000005149842,0|10,3:2|3:2,0:0:0:0:
340,265,220622,1,0,0:0:0:0:
340,265,220720,1,0,3:2:0:0:
200,358,220918,5,10,3:2:0:0:
202,337,221016,2,0,L|212:262,1,67.5000025749208,0|0,3:2|3:2,0:0:0:0:
82,120,221214,1,0,3:2:0:0:
80,141,221312,2,0,L|70:216,1,67.5000025749208,10|0,3:2|0:0,0:0:0:0:
295,249,221510,6,0,B|274:201|274:201|240:190|240:190|202:110,1,135.000005149842,4|10,3:2|3:2,0:0:0:0:
324,48,221806,1,0,0:0:0:0:
319,67,221905,2,0,L|291:145,1,67.5000025749208,0|0,3:2|3:2,0:0:0:0:
156,24,222102,1,10,3:2:0:0:
33,145,222299,6,0,P|58:150|100:199,1,67.5000025749208,0|0,3:2|0:0,0:0:0:0:
120,384,222497,2,0,P|135:354|135:320,1,67.5000025749208,10|0,3:2|3:2,0:0:0:0:
211,120,222694,2,0,P|209:145|168:194,1,67.5000025749208,0|0,3:2|3:2,0:0:0:0:
0,252,222891,2,0,P|31:262|64:257,1,67.5000025749208,10|0,3:2|0:0,0:0:0:0:
91,84,223089,5,0,3:2:0:0:
95,100,223187,1,0,0:0:0:0:
99,116,223286,1,10,3:2:0:0:
103,133,223385,1,0,0:0:0:0:
107,149,223483,1,0,3:2:0:0:
111,165,223582,1,0,3:2:0:0:
115,182,223681,1,10,3:2:0:0:
119,198,223780,1,0,0:0:0:0:
123,215,223878,6,0,B|210:210|156:271|284:263,1,135.000005149842,0|10,3:2|3:2,0:0:0:0:
378,321,224174,1,0,3:2:0:0:
369,302,224273,2,0,B|282:297|336:358|208:350,1,135.000005149842,0|10,3:2|3:2,0:0:0:0:
345,210,224668,6,0,L|503:249,1,135.000005149842,4|10,3:2|3:2,0:0:0:0:
379,0,224964,1,0,0:0:0:0:
366,15,225062,2,0,B|333:56|333:56|361:135,1,135.000005149842,0|10,3:2|3:2,0:0:0:0:
512,87,225358,1,0,0:0:0:0:
491,84,225457,6,0,L|404:72,1,67.5000025749208,0|0,3:2|0:0,0:0:0:0:
345,210,225655,2,0,L|258:198,1,67.5000025749208,10|0,3:2|3:2,0:0:0:0:
487,94,225852,2,0,L|400:82,1,67.5000025749208,0|0,3:2|3:2,0:0:0:0:
341,220,226049,2,0,L|254:208,1,67.5000025749208,10|0,3:2|0:0,0:0:0:0:
113,51,226247,5,0,3:2:0:0:
113,51,226345,1,0,3:2:0:0:
113,51,226444,2,0,B|134:65|134:65|118:130,1,67.5000025749208,12|0,3:1|0:0,0:0:0:0:
11,261,226641,1,0,3:2:0:0:
11,261,226740,1,0,3:2:0:0:
11,261,226839,2,0,B|-10:247|-10:247|6:182,1,67.5000025749208,12|0,3:1|0:0,0:0:0:0:
139,229,227036,6,0,L|164:307,1,67.5000025749208,0|0,3:2|3:2,0:0:0:0:
215,44,227233,2,0,L|240:122,1,67.5000025749208,12|0,3:1|0:0,0:0:0:0:
351,195,227431,5,0,3:2:0:0:
373,198,227497,1,0,3:2:0:0:
395,202,227562,1,0,3:2:0:0:
417,206,227628,1,0,3:2:0:0:
439,210,227694,1,0,3:2:0:0:
461,214,227760,1,0,3:2:0:0:
484,217,227826,5,0,3:2:0:0:
363,379,228023,1,2,0:0:0:0:
363,379,228122,1,0,0:0:0:0:
384,346,228220,1,2,0:0:0:0:
384,346,228319,1,0,0:0:0:0:
368,313,228418,1,2,0:0:0:0:
368,313,228516,1,0,0:0:0:0:
389,280,228615,1,2,0:0:0:0:
389,280,228714,1,0,0:0:0:0:
372,248,228812,1,2,0:0:0:0:
372,248,228911,1,0,0:0:0:0:
393,215,229010,1,2,0:0:0:0:
393,215,229108,1,0,0:0:0:0:
371,186,229207,1,2,0:0:0:0:
371,186,229306,1,0,0:0:0:0:
392,153,229405,1,2,0:0:0:0:
392,153,229503,1,0,0:0:0:0:
370,124,229602,1,2,0:0:0:0:
370,124,229701,1,0,0:0:0:0:
391,91,229799,1,2,0:0:0:0:
391,91,229898,1,0,0:0:0:0:
372,60,229997,1,2,0:0:0:0:
372,60,230095,1,0,0:0:0:0:
393,27,230194,1,2,0:0:0:0:
393,27,230293,1,0,0:0:0:0:
354,15,230391,5,2,0:0:0:0:
359,36,230490,1,0,0:0:0:0:
365,58,230589,1,2,0:0:0:0:
370,80,230687,1,0,0:0:0:0:
376,102,230786,5,2,3:2:0:0:
21,44,230983,1,2,3:2:0:0:
128,38,231181,1,0,0:0:0:0:
128,38,231280,1,0,0:0:0:0:
144,71,231378,1,2,0:0:0:0:
144,71,231477,1,0,0:0:0:0:
123,104,231576,1,2,0:0:0:0:
123,104,231674,1,0,0:0:0:0:
140,136,231773,1,2,0:0:0:0:
140,136,231872,1,0,0:0:0:0:
119,169,231970,1,2,0:0:0:0:
119,169,232069,1,0,0:0:0:0:
141,198,232168,1,2,0:0:0:0:
141,198,232266,1,0,0:0:0:0:
120,231,232365,1,2,0:0:0:0:
120,231,232464,1,0,0:0:0:0:
142,260,232562,1,2,0:0:0:0:
142,260,232661,1,0,0:0:0:0:
121,293,232760,1,2,0:0:0:0:
121,293,232858,1,0,0:0:0:0:
140,324,232957,1,4,0:3:0:0:
140,324,233056,1,0,0:0:0:0:
119,357,233155,1,2,0:0:0:0:
119,357,233253,1,0,0:0:0:0:
80,373,233352,5,0,3:2:0:0:
89,375,233418,1,0,3:2:0:0:
98,377,233483,1,0,3:2:0:0:
107,380,233549,1,0,3:2:0:0:
115,382,233615,1,0,3:2:0:0:
124,384,233681,1,0,3:2:0:0:
151,372,233747,5,0,3:2:0:0:
174,366,233812,1,0,3:2:0:0:
195,361,233878,1,0,3:2:0:0:
218,353,233944,1,0,1:1:0:0:
242,348,234010,1,0,1:1:0:0:
265,343,234076,1,0,1:1:0:0:
302,365,234141,5,6,3:2:0:0:
399,296,234273,2,0,P|431:305|468:332,1,71.9999978027344,0|0,3:2|3:2,0:0:0:0:
507,229,234536,1,2,1:2:0:0:
410,160,234668,2,0,P|378:169|341:196,1,71.9999978027344,0|0,1:2|1:2,0:0:0:0:
204,220,234931,5,6,3:2:0:0:
252,140,235062,1,0,3:2:0:0:
288,261,235194,1,0,3:2:0:0:
149,145,235326,5,2,3:2:0:0:
101,65,235457,1,0,3:2:0:0:
65,186,235589,1,0,3:2:0:0:
12,86,235720,6,0,L|99:67,1,71.9999978027344,6|0,3:2|3:2,0:0:0:0:
189,45,235983,1,0,3:2:0:0:
316,188,236115,2,0,L|403:169,1,71.9999978027344,2|0,3:2|3:2,0:0:0:0:
493,147,236378,1,0,3:2:0:0:
430,77,236510,5,2,1:2:0:0:
407,167,236641,1,0,1:2:0:0:
471,234,236773,1,0,1:2:0:0:
342,227,236905,5,2,1:2:0:0:
406,294,237036,1,0,1:2:0:0:
383,384,237168,1,0,1:2:0:0:
512,367,237299,5,6,3:2:0:0:
256,196,237694,6,0,L|265:116,1,67.5,2|0,0:3|0:0,0:0:0:0:
275,58,238089,6,0,P|242:45|222:29,1,45,0|0,0:0|0:0,0:0:0:0:
182,112,238483,2,0,P|149:125|129:141,1,45,0|0,0:0|0:0,0:0:0:0:
60,66,238878,2,0,L|40:10,3,45,0|0|0|0,0:0|0:0|0:0|0:0,0:0:0:0:
19,151,239668,5,2,0:0:0:0:
0,229,239865,1,2,0:0:0:0:
127,218,240062,1,2,0:0:0:0:
179,333,240260,1,2,0:0:0:0:
256,192,240473,6,0,L|361:174,3,90,0|2|0|2,1:0|0:0|1:0|0:0,0:0:0:0:
388,107,242051,2,0,P|373:168|408:230,1,135,2|0,1:2|0:0,0:0:0:0:
494,342,242841,2,0,P|539:313|503:251,1,135,2|0,1:2|0:0,0:0:0:0:
394,300,243630,6,0,B|348:294|348:294|300:321,3,90,2|2|0|2,1:2|0:0|1:2|0:0,0:0:0:0:
232,244,245209,2,0,B|193:265|193:265|147:259,3,90,0|2|0|2,1:2|0:0|1:2|0:0,0:0:0:0:
169,172,246788,6,0,L|62:154,1,90,2|2,1:2|0:0,0:0:0:0:
3,48,247578,2,0,L|91:62,1,90,0|2,1:2|0:0,0:0:0:0:
208,0,248367,2,0,B|181:84|239:57|223:131,1,135,2|0,1:2|0:0,0:0:0:0:
162,256,249157,2,0,B|189:172|131:199|147:125,1,135,2|0,1:2|0:0,0:0:0:0:
245,75,249946,6,0,P|288:96|337:87,3,90,0|2|0|2,1:2|0:0|1:2|0:0,0:0:0:0:
110,15,251525,2,0,P|67:36|18:27,3,90,2|2|0|2,1:2|0:0|1:2|0:0,0:0:0:0:
20,206,253104,6,0,P|59:161|148:141,1,135,2|0,1:2|0:0,0:0:0:0:
190,203,253894,2,0,L|240:216,1,45,2|0,1:2|0:0,0:0:0:0:
292,285,254288,2,0,L|335:273,1,45,2|0,0:0|0:0,0:0:0:0:
497,311,254683,6,0,P|440:269|437:191,1,135,0|0,1:2|0:0,0:0:0:0:
512,124,255473,2,0,P|508:146|490:169,1,45,2|0,1:2|0:0,0:0:0:0:
390,127,255867,2,0,P|394:105|412:82,1,45,2|0,0:0|0:0,0:0:0:0:
501,0,256262,6,0,L|400:18,1,90,0|2,1:2|0:0,0:0:0:0:
322,69,257051,2,0,L|221:87,1,90,0|2,1:2|0:0,0:0:0:0:
173,13,257841,2,0,P|218:60|132:78,1,180,0|0,1:2|1:2,0:0:0:0:
42,15,258828,1,0,0:0:0:0:
67,96,259025,1,2,0:0:0:0:
92,177,259223,1,0,0:0:0:0:
74,257,259420,6,0,B|105:224|105:224|161:235,3,90,0|2|0|2,1:2|0:0|1:2|0:0,0:0:0:0:
209,288,260999,2,0,B|178:321|178:321|122:310,3,90,2|2|0|2,1:2|0:0|1:2|0:0,0:0:0:0:
256,88,262568,5,4,3:2:0:0:
349,66,262765,1,0,0:0:0:0:
256,98,262962,5,0,0:0:0:0:
172,78,263160,1,0,0:0:0:0:
256,107,263357,5,0,0:0:0:0:
331,90,263554,1,0,0:0:0:0:
256,116,263752,5,0,0:0:0:0:
188,100,263949,1,0,0:0:0:0:
256,208,264146,5,0,0:0:0:0:
256,208,264344,1,0,0:0:0:0:
256,288,264541,1,4,0:3:0:0:
256,288,264739,1,0,0:0:0:0:
449,368,264936,5,0,3:2:0:0:
428,367,265002,1,0,3:2:0:0:
408,359,265068,1,0,3:2:0:0:
393,345,265133,1,0,3:2:0:0:
383,327,265199,1,0,3:2:0:0:
380,306,265265,1,0,3:2:0:0:
384,286,265331,1,0,1:2:0:0:
395,268,265396,1,0,1:2:0:0:
412,255,265462,1,0,1:2:0:0:
432,249,265528,1,0,1:2:0:0:
452,250,265594,1,0,1:2:0:0:
472,258,265660,1,0,1:2:0:0:
487,272,265725,6,0,B|433:274|433:274|412:291|412:291|318:297,1,135.000005149842,4|10,3:2|3:2,0:0:0:0:
318,198,266021,1,0,0:0:0:0:
302,184,266120,2,0,B|278:161|278:161|291:116,1,67.5000025749208,0|0,3:2|3:2,0:0:0:0:
236,328,266318,2,0,B|212:351|212:351|225:396,1,67.5000025749208,10|0,3:2|0:0,0:0:0:0:
56,310,266515,6,0,P|130:268|107:206,1,135.000005149842,0|10,3:2|3:2,0:0:0:0:
86,123,266811,1,0,3:2:0:0:
70,136,266910,2,0,P|-4:94|19:32,1,135.000005149842,0|10,3:2|3:2,0:0:0:0:
234,100,267304,6,0,P|264:34|342:30,1,135.000005149842,0|10,3:2|3:2,0:0:0:0:
415,145,267600,1,0,0:0:0:0:
432,154,267699,2,0,L|496:135,1,67.5000025749208,0|0,3:2|3:2,0:0:0:0:
506,8,267896,2,0,L|417:34,1,67.5000025749208,10|0,3:2|0:0,0:0:0:0:
334,130,268094,6,0,B|322:184|322:184|334:213|334:213|321:274,1,135.000005149842,0|10,3:2|3:2,0:0:0:0:
337,370,268390,1,0,0:0:0:0:
360,367,268489,2,0,P|313:313|225:310,1,135.000005149842,0|8,3:2|3:2,0:0:0:0:
102,374,268883,6,0,P|32:362|14:266,1,135.000005149842,4|10,3:2|3:2,0:0:0:0:
10,187,269179,1,0,0:0:0:0:
25,199,269278,2,0,P|95:187|113:91,1,135.000005149842,0|10,3:2|3:2,0:0:0:0:
213,24,269673,6,0,B|163:35|163:35|131:20|131:20|79:32,1,135.000005149842,0|10,3:2|3:2,0:0:0:0:
299,88,269969,2,0,B|349:99|349:99|380:84|380:84|432:96,1,135.000005149842,0|0,3:2|3:2,0:0:0:0:
252,184,270265,2,0,L|237:270,1,67.5000025749208,10|0,3:2|0:0,0:0:0:0:
352,384,270462,6,0,P|329:359|265:339,1,67.5000025749208,0|0,3:2|0:0,0:0:0:0:
108,318,270660,2,0,P|137:302|160:277,1,67.5000025749208,10|0,3:2|0:0,0:0:0:0:
217,117,270857,2,0,L|247:290,1,135.000005149842,0|10,3:2|3:2,0:0:0:0:
343,221,271153,1,0,0:0:0:0:
343,221,271252,6,0,P|396:228|417:245,1,67.5000025749208,0|0,3:2|0:0,0:0:0:0:
217,117,271449,2,0,P|164:124|143:141,1,67.5000025749208,10|0,3:2|0:0,0:0:0:0:
353,46,271646,2,0,L|328:138,1,67.5000025749208,0|0,3:2|3:2,0:0:0:0:
226,268,271844,2,0,L|208:202,1,67.5000025749208,10|0,3:2|0:0,0:0:0:0:
96,51,272041,6,0,L|67:190,1,135.000005149842,4|10,3:2|3:2,0:0:0:0:
27,339,272337,1,0,0:0:0:0:
30,319,272436,2,0,P|18:282|-31:246,1,67.5000025749208,0|0,3:2|3:2,0:0:0:0:
177,144,272633,2,0,P|189:181|238:217,1,67.5000025749208,10|0,3:2|0:0,0:0:0:0:
296,382,272831,6,0,P|236:369|214:280,1,135.000005149842,0|10,3:2|3:2,0:0:0:0:
287,197,273127,1,0,3:2:0:0:
306,193,273225,2,0,P|324:251|258:315,1,135.000005149842,0|10,3:2|3:2,0:0:0:0:
138,263,273620,6,0,L|119:198,1,67.5000025749208,0|0,3:2|0:0,0:0:0:0:
223,149,273818,2,0,L|203:83,1,67.5000025749208,10|0,3:2|0:0,0:0:0:0:
24,177,274015,2,0,L|4:111,1,67.5000025749208,0|0,3:2|3:2,0:0:0:0:
108,65,274212,2,0,L|88:0,1,67.5000025749208,10|0,3:2|0:0,0:0:0:0:
214,250,274410,6,0,B|226:197|226:197|251:178|251:178|267:110,1,135.000005149842,0|10,3:2|3:2,0:0:0:0:
207,0,274706,1,0,0:0:0:0:
207,0,274804,2,0,B|203:36|203:36|233:75,1,67.5000025749208,0|0,3:2|3:2,0:0:0:0:
338,150,275002,2,0,B|342:114|342:114|312:75,1,67.5000025749208,10|0,3:2|0:0,0:0:0:0:
512,0,275199,6,0,P|431:23|432:93,1,135.000005149842,4|10,3:2|3:2,0:0:0:0:
433,173,275495,1,0,0:0:0:0:
447,159,275594,2,0,L|514:143,1,67.5000025749208,0|0,3:2|3:2,0:0:0:0:
352,234,275791,2,0,L|285:218,1,67.5000025749208,10|0,3:2|0:0,0:0:0:0:
486,296,275989,6,0,P|386:331|385:363,1,135.000005149842,0|10,3:2|3:2,0:0:0:0:
352,234,276285,2,0,B|359:161|402:195|407:103,1,135.000005149842,0|0,3:2|3:2,0:0:0:0:
316,50,276581,2,0,P|312:84|339:129,1,67.5000025749208,10|0,3:2|0:0,0:0:0:0:
237,196,276778,6,0,L|148:215,1,67.5000025749208,0|0,3:2|0:0,0:0:0:0:
76,297,276975,2,0,L|9:282,1,67.5000025749208,10|0,3:2|0:0,0:0:0:0:
89,77,277173,2,0,B|112:105|112:105|110:151,1,67.5000025749208,0|0,3:2|3:2,0:0:0:0:
23,194,277370,1,10,3:2:0:0:
256,368,277568,5,4,3:1:0:0:
430,315,277765,2,0,P|415:281|419:236,1,67.5000025749208,10|0,3:2|0:0,0:0:0:0:
505,165,277962,1,0,3:2:0:0:
438,165,278061,1,0,3:2:0:0:
387,124,278160,1,10,3:2:0:0:
373,60,278258,1,0,3:2:0:0:
404,2,278357,6,0,B|426:85|426:85|382:144,1,135.000005149842,4|10,3:2|3:2,0:0:0:0:
270,165,278653,1,0,0:0:0:0:
262,145,278752,2,0,P|228:130|197:127,1,67.5000025749208,0|0,3:2|3:2,0:0:0:0:
351,268,278949,2,0,P|385:253|416:250,1,67.5000025749208,10|0,3:2|0:0,0:0:0:0:
218,384,279146,6,0,B|190:310|190:310|213:276|247:283,1,135.000005149842,0|10,3:2|3:2,0:0:0:0:
112,127,279443,2,0,B|140:201|140:201|117:235|83:228,1,135.000005149842,0|0,0:0|3:2,0:0:0:0:
13,304,279739,2,0,B|-11:279|-11:279|-7:229,1,67.5000025749208,10|0,3:2|0:0,0:0:0:0:
71,30,279936,6,0,P|227:47|190:140,1,270.000010299683,0|0,3:2|3:2,0:0:0:0:
112,127,280429,1,0,3:2:0:0:
121,109,280528,2,0,L|264:80,1,135.000005149842,10|0,3:2|3:2,0:0:0:0:
448,9,280923,5,10,3:2:0:0:
424,70,281021,1,0,3:2:0:0:
466,121,281120,1,0,3:2:0:0:
512,169,281219,1,0,3:2:0:0:
489,233,281318,1,10,3:2:0:0:
308,277,281515,5,4,3:2:0:0:
241,285,281614,1,0,0:0:0:0:
174,294,281712,1,10,3:2:0:0:
107,303,281811,1,0,0:0:0:0:
40,311,281910,2,0,L|125:334,1,67.5000025749208,0|0,3:2|3:2,0:0:0:0:
278,379,282107,2,0,L|212:361,1,67.5000025749208,10|0,3:2|0:0,0:0:0:0:
252,165,282304,6,0,B|265:217|265:217|294:228|294:228|311:288,1,135.000005149842,0|10,3:2|3:2,0:0:0:0:
340,142,282600,2,0,B|353:90|353:90|382:79|382:79|399:19,1,135.000005149842,0|0,3:2|3:2,0:0:0:0:
259,22,282896,2,0,L|180:-1,1,67.5000025749208,10|0,3:2|0:0,0:0:0:0:
0,67,283094,6,0,P|19:145|98:149,1,135.000005149842,0|10,3:2|3:2,0:0:0:0:
157,104,283390,1,0,0:0:0:0:
157,104,283489,1,0,3:2:0:0:
170,148,283587,1,0,3:2:0:0:
144,187,283686,1,10,3:2:0:0:
157,231,283785,1,0,0:0:0:0:
138,314,283883,6,0,P|183:247|258:272,1,135.000005149842,0|10,3:2|3:2,0:0:0:0:
286,331,284179,1,0,3:2:0:0:
274,362,284278,1,0,3:2:0:0:
248,382,284377,1,0,3:2:0:0:
208,313,284475,2,0,L|233:238,1,67.5000025749208,10|0,3:2|0:0,0:0:0:0:
391,226,284673,6,0,B|342:151|335:223|259:113,1,135.000005149842,4|10,3:2|3:2,0:0:0:0:
299,2,284969,2,0,B|212:25|278:54|150:92,1,135.000005149842,0|0,0:0|3:2,0:0:0:0:
18,32,285265,2,0,P|47:53|59:101,1,67.5000025749208,10|0,3:2|0:0,0:0:0:0:
9,167,285462,5,0,3:2:0:0:
208,313,285660,1,10,3:2:0:0:
274,299,285758,1,0,0:0:0:0:
340,285,285857,1,0,3:2:0:0:
406,271,285956,1,0,3:2:0:0:
472,258,286054,1,10,3:2:0:0:
469,383,286252,6,0,B|445:366|445:366|460:303,1,67.5000025749208,0|0,3:2|0:0,0:0:0:0:
418,118,286449,2,0,B|442:135|442:135|427:198,1,67.5000025749208,10|0,3:2|0:0,0:0:0:0:
313,202,286646,1,0,3:2:0:0:
313,202,286745,1,0,3:2:0:0:
313,202,286844,2,0,L|215:179,1,67.5000025749208,10|0,3:2|0:0,0:0:0:0:
112,243,287041,6,0,B|135:217|135:217|90:117,1,135.000005149842,0|10,3:2|3:2,0:0:0:0:
53,0,287337,2,0,B|30:26|30:26|75:126,1,135.000005149842,0|0,3:2|3:2,0:0:0:0:
185,86,287633,2,0,L|260:59,1,67.5000025749208,10|0,3:2|0:0,0:0:0:0:
387,10,287831,6,0,L|359:100,1,67.5000025749208,4|0,3:2|0:0,0:0:0:0:
504,181,288028,2,0,L|476:271,1,67.5000025749208,10|0,3:2|0:0,0:0:0:0:
453,77,288225,1,0,3:2:0:0:
453,77,288324,1,0,3:2:0:0:
453,77,288423,2,0,L|425:167,1,67.5000025749208,10|0,3:2|0:0,0:0:0:0:
311,135,288620,6,0,L|339:225,1,67.5000025749208,0|0,3:2|0:0,0:0:0:0:
194,306,288818,2,0,L|222:396,1,67.5000025749208,10|0,3:2|3:2,0:0:0:0:
245,202,289015,1,0,3:2:0:0:
245,202,289114,1,0,3:2:0:0:
245,202,289212,2,0,L|273:292,1,67.5000025749208,10|0,3:2|0:0,0:0:0:0:
21,239,289410,6,0,B|55:246|55:246|97:203,1,67.5000025749208,0|0,3:2|0:0,0:0:0:0:
9,101,289607,2,0,L|37:191,1,67.5000025749208,10|0,3:2|0:0,0:0:0:0:
147,264,289804,1,0,3:2:0:0:
156,238,289903,2,0,L|135:173,1,67.5000025749208,8|0,3:2|0:0,0:0:0:0:
227,0,290100,1,0,3:2:0:0:
218,26,290199,2,0,L|238:90,1,67.5000025749208,4|0,3:1|0:0,0:0:0:0:
421,213,290396,1,0,3:2:0:0:
434,189,290495,1,0,3:2:0:0:
483,250,290594,5,0,3:2:0:0:
449,242,290693,1,0,3:2:0:0:
416,235,290791,1,0,3:2:0:0:
383,228,290890,1,0,3:2:0:0:
350,221,290989,6,0,L|329:139,1,67.5000025749208,4|0,3:2|0:0,0:0:0:0:
430,67,291186,2,0,L|408:-15,1,67.5000025749208,10|0,3:2|0:0,0:0:0:0:
249,0,291383,1,0,3:2:0:0:
256,32,291482,1,0,3:2:0:0:
246,64,291581,1,10,3:2:0:0:
222,86,291679,1,0,0:0:0:0:
189,93,291778,6,0,B|175:70|175:70|182:26,1,67.5000025749208,0|0,3:2|0:0,0:0:0:0:
76,167,291975,2,0,B|90:190|90:190|83:234,1,67.5000025749208,10|0,3:2|0:0,0:0:0:0:
4,343,292173,1,0,3:2:0:0:
30,348,292271,1,0,3:2:0:0:
56,352,292370,2,0,L|129:345,1,67.5000025749208,10|0,3:2|0:0,0:0:0:0:
267,384,292568,6,0,B|255:364|255:364|268:301,1,67.5000025749208,0|0,3:2|0:0,0:0:0:0:
283,179,292765,2,0,B|295:199|295:199|282:262,1,67.5000025749208,10|0,3:2|0:0,0:0:0:0:
122,171,292962,1,0,3:2:0:0:
129,197,293061,1,0,3:2:0:0:
136,223,293160,2,0,L|214:206,1,67.5000025749208,10|0,3:2|0:0,0:0:0:0:
327,0,293357,6,0,B|284:38|284:38|314:123,1,135.000005149842,0|10,3:2|3:2,0:0:0:0:
464,81,293653,2,0,B|507:119|507:119|477:204,1,135.000005149842,0|0,3:2|3:2,0:0:0:0:
348,256,293949,2,0,L|371:173,1,67.5000025749208,10|0,3:2|0:0,0:0:0:0:
458,361,294146,6,0,P|439:327|392:305,1,67.5000025749208,4|0,3:2|0:0,0:0:0:0:
235,224,294344,2,0,P|218:293|144:300,1,135.000005149842,10|0,3:2|3:2,0:0:0:0:
6,219,294640,1,0,3:2:0:0:
1,199,294739,2,0,B|70:183|70:183|130:239,1,135.000005149842,10|0,3:2|3:2,0:0:0:0:
242,114,295035,1,0,0:0:0:0:
247,134,295133,6,0,B|178:150|178:150|118:94,1,135.000005149842,10|0,3:2|3:2,0:0:0:0:
62,35,295429,1,0,3:2:0:0:
81,29,295528,2,0,L|159:11,1,67.5000025749208,10|0,3:2|0:0,0:0:0:0:
312,64,295725,6,0,B|292:41|292:41|307:-20,1,67.5000025749208,0|0,3:2|0:0,0:0:0:0:
476,99,295923,2,0,B|496:122|496:122|481:183,1,67.5000025749208,10|0,3:2|0:0,0:0:0:0:
327,58,296120,2,0,B|307:35|307:35|322:-26,1,67.5000025749208,0|0,3:2|0:0,0:0:0:0:
491,93,296318,2,0,B|511:116|511:116|496:177,1,67.5000025749208,10|0,3:2|0:0,0:0:0:0:
350,311,296515,6,0,L|262:282,1,67.5000025749208,0|0,3:2|0:0,0:0:0:0:
196,118,296712,2,0,L|261:140,1,67.5000025749208,10|0,3:2|3:2,0:0:0:0:
173,284,296910,2,0,L|194:219,1,67.5000025749208,0|0,3:2|3:2,0:0:0:0:
365,136,297107,2,0,L|344:201,1,67.5000025749208,10|0,3:2|0:0,0:0:0:0:
128,192,297304,6,0,B|111:143|111:143|76:127|76:127|53:68,1,135.000005149842,4|10,3:2|3:2,0:0:0:0:
180,0,297600,1,0,0:0:0:0:
178,21,297699,2,0,B|174:50|174:50|120:84,1,67.5000025749208,0|0,3:2|3:2,0:0:0:0:
5,245,297896,2,0,B|9:216|9:216|63:182,1,67.5000025749208,10|0,3:2|0:0,0:0:0:0:
202,145,298094,6,0,B|254:157|254:157|270:186|270:186|348:204,1,135.000005149842,0|10,3:2|3:2,0:0:0:0:
442,177,298390,2,0,B|415:95|415:95|360:108,1,135.000005149842,0|0,3:2|3:2,0:0:0:0:
311,275,298686,2,0,B|324:316|324:316|352:309,1,67.5000025749208,10|0,3:2|0:0,0:0:0:0:
483,384,298883,6,0,L|499:312,1,67.5000025749208,0|0,3:2|0:0,0:0:0:0:
512,165,299081,2,0,B|420:190|489:219|395:259,1,135.000005149842,10|0,3:2|3:2,0:0:0:0:
306,181,299377,1,0,3:2:0:0:
310,161,299475,2,0,L|323:85,1,67.5000025749208,10|0,3:2|0:0,0:0:0:0:
185,1,299673,6,0,P|193:27|257:56,1,67.5000025749208,0|0,3:2|0:0,0:0:0:0:
78,117,299870,1,10,3:2:0:0:
89,133,299969,2,0,P|113:145|178:120,1,67.5000025749208,0|0,0:0|3:2,0:0:0:0:
154,267,300166,1,0,3:2:0:0:
173,270,300265,2,0,P|199:262|228:198,1,67.5000025749208,10|0,3:2|0:0,0:0:0:0:
254,123,300462,6,0,P|242:211|390:228,1,270.000010299683,4|0,3:2|3:2,0:0:0:0:
512,242,300956,1,0,3:2:0:0:
512,242,301054,2,0,P|524:330|376:347,1,270.000010299683,10|10,3:2|3:2,0:0:0:0:
201,320,301548,1,0,3:2:0:0:
215,306,301646,2,0,P|263:310|282:388,1,135.000005149842,0|10,3:2|3:2,0:0:0:0:
84,347,302041,6,0,B|65:313|65:313|79:264,1,67.5000025749208,0|0,3:2|0:0,0:0:0:0:
198,123,302239,2,0,B|217:157|217:157|203:206,1,67.5000025749208,10|0,3:2|0:0,0:0:0:0:
84,181,302436,1,0,3:2:0:0:
75,178,302502,1,0,3:2:0:0:
66,176,302568,1,0,3:2:0:0:
57,174,302633,1,10,3:2:0:0:
49,172,302699,1,0,3:0:0:0:
40,170,302765,1,0,3:0:0:0:
31,167,302831,5,2,3:2:0:0:
198,123,303127,1,2,3:2:0:0:
364,78,303423,1,2,3:2:0:0:
424,250,303620,6,0,B|395:238|395:238|389:184,1,67.5000025749208,4|0,3:2|0:0,0:0:0:0:
503,269,303818,2,0,L|351:331,1,135.000005149842,10|0,3:2|3:2,0:0:0:0:
272,368,304114,1,0,3:2:0:0:
272,347,304212,2,0,L|276:249,1,67.5000025749208,10|0,3:2|0:0,0:0:0:0:
62,159,304410,6,0,P|98:229|182:232,1,135.000005149842,0|10,3:2|3:2,0:0:0:0:
99,51,304706,2,0,P|40:103|59:185,1,135.000005149842,0|0,3:2|3:2,0:0:0:0:
178,53,305002,2,0,P|154:31|80:50,1,67.5000025749208,10|0,3:2|0:0,0:0:0:0:
441,30,305199,6,0,P|285:47|322:140,1,270.000010299683,0|0,3:2|3:2,0:0:0:0:
400,127,305693,1,0,3:2:0:0:
391,109,305791,2,0,L|248:80,1,135.000005149842,10|0,3:2|3:2,0:0:0:0:
322,253,306186,6,0,B|313:226|313:226|339:173,1,67.5000025749208,10|0,3:2|3:2,0:0:0:0:
512,315,306383,2,0,B|521:288|521:288|495:235,1,67.5000025749208,0|0,3:2|3:2,0:0:0:0:
399,318,306581,2,0,L|384:404,1,67.5000025749208,10|0,3:2|0:0,0:0:0:0:
140,313,306778,6,0,B|222:291|187:343|277:325,1,135.000005149842,4|10,3:2|3:2,0:0:0:0:
463,256,307074,1,0,0:0:0:0:
451,239,307173,2,0,B|369:217|404:269|314:251,1,135.000005149842,0|10,3:2|3:2,0:0:0:0:
241,116,307469,1,0,0:0:0:0:
255,130,307568,6,0,P|224:200|138:190,1,135.000005149842,0|10,3:2|3:2,0:0:0:0:
57,107,307864,2,0,P|88:37|174:47,1,135.000005149842,0|0,3:2|3:2,0:0:0:0:
63,188,308160,2,0,P|28:189|-2:172,1,67.5000025749208,10|0,3:2|0:0,0:0:0:0:
153,117,308357,6,0,B|170:165|170:165|200:178|200:178|223:263,1,135.000005149842,0|10,3:2|3:2,0:0:0:0:
183,348,308653,1,0,0:0:0:0:
164,340,308752,2,0,B|140:329|140:329|119:276,1,67.5000025749208,0|0,3:2|3:2,0:0:0:0:
254,114,308949,2,0,B|277:124|277:124|298:177,1,67.5000025749208,10|0,3:2|0:0,0:0:0:0:
373,346,309146,6,0,L|409:266,1,67.5000025749208,0|0,3:2|0:0,0:0:0:0:
504,195,309344,2,0,B|434:211|434:211|386:135,1,135.000005149842,10|0,3:2|3:2,0:0:0:0:
453,26,309640,1,0,3:2:0:0:
472,20,309739,2,0,P|503:46|512:90,1,67.5000025749208,10|0,3:2|0:0,0:0:0:0:
324,197,309936,6,0,P|258:102|385:102,1,270.000010299683,4|0,3:2|3:2,0:0:0:0:
223,329,310429,1,0,3:2:0:0:
241,338,310528,2,0,P|306:243|179:243,1,270.000010299683,10|10,3:2|3:2,0:0:0:0:
69,335,311021,1,0,3:2:0:0:
88,342,311120,2,0,L|223:328,1,135.000005149842,0|10,3:2|3:2,0:0:0:0:
402,376,311515,6,0,B|389:359|389:359|414:290,1,67.5000025749208,0|0,3:2|0:0,0:0:0:0:
386,212,311712,2,0,B|399:195|399:195|374:126,1,67.5000025749208,10|0,3:2|0:0,0:0:0:0:
454,14,311910,1,0,3:2:0:0:
444,31,312008,1,0,3:2:0:0:
434,48,312107,2,0,L|347:66,1,67.5000025749208,10|0,3:2|0:0,0:0:0:0:
269,113,312304,6,0,B|245:74|245:74|140:48,1,135.000005149842,0|10,3:2|3:2,0:0:0:0:
0,135,312600,2,0,B|24:174|24:174|129:200,1,135.000005149842,0|0,3:2|3:2,0:0:0:0:
211,235,312896,2,0,B|197:165,1,67.5000025749208,10|0,3:2|0:0,0:0:0:0:
344,13,313094,6,0,B|320:39|320:39|327:86,1,67.5000025749208,4|0,3:2|0:0,0:0:0:0:
511,51,313291,2,0,B|520:85|520:85|494:124,1,67.5000025749208,10|0,3:2|0:0,0:0:0:0:
395,178,313489,1,0,3:2:0:0:
395,178,313587,1,0,3:2:0:0:
395,178,313686,2,0,L|415:103,1,67.5000025749208,10|0,3:2|0:0,0:0:0:0:
274,173,313883,6,0,B|297:199|297:199|290:246,1,67.5000025749208,0|0,3:2|0:0,0:0:0:0:
107,211,314081,2,0,B|97:245|97:245|123:284,1,67.5000025749208,10|0,3:2|3:2,0:0:0:0:
228,338,314278,1,0,3:2:0:0:
228,338,314377,1,0,3:2:0:0:
228,338,314475,2,0,L|208:263,1,67.5000025749208,10|0,3:2|0:0,0:0:0:0:
158,106,314673,5,0,3:2:0:0:
158,106,314771,1,0,3:2:0:0:
158,106,314870,2,0,B|79:147|145:161|59:211,1,135.000005149842,10|0,3:2|3:2,0:0:0:0:
292,192,315166,2,0,B|288:280|333:230|333:330,1,135.000005149842,12|0,3:2|3:2,0:0:0:0:
385,86,315462,2,0,B|460:133|439:69|525:119,1,135.000005149842,4|0,3:1|3:2,0:0:0:0:
481,349,315758,1,0,3:2:0:0:
481,349,315857,5,0,1:2:0:0:
483,332,315923,1,0,1:2:0:0:
487,315,315989,1,0,1:2:0:0:
490,299,316054,1,0,1:2:0:0:
494,283,316120,1,0,1:2:0:0:
497,267,316186,1,0,1:2:0:0:
500,251,316252,5,4,3:2:0:0:
407,118,316515,1,0,3:2:0:0:
348,179,316646,1,0,3:2:0:0:
372,260,316778,1,0,3:2:0:0:
453,280,316910,1,0,3:2:0:0:
430,201,317041,6,0,L|354:222,2,60,2|0|0,1:2|3:2|3:2,0:0:0:0:
226,145,317436,2,0,L|283:129,2,60,2|0|0,1:2|3:2|3:2,0:0:0:0:
121,209,317831,5,4,3:1:0:0:
121,209,318094,1,0,3:2:0:0:
61,204,318225,1,0,3:2:0:0:
15,166,318357,1,0,3:2:0:0:
0,108,318489,1,0,3:2:0:0:
23,52,318620,1,0,3:2:0:0:
74,20,318752,1,0,3:2:0:0:
133,24,318883,1,0,3:2:0:0:
179,63,319015,1,0,3:2:0:0:
194,121,319146,1,0,3:2:0:0:
171,177,319278,1,0,3:2:0:0:
99,114,319410,5,4,3:1:0:0:
99,114,319673,1,0,3:2:0:0:
158,105,319804,1,0,3:2:0:0:
217,95,319936,1,0,3:2:0:0:
276,86,320068,1,0,3:2:0:0:
334,73,320199,6,0,P|319:104|323:155,1,60,4|0,3:3|3:2,0:0:0:0:
414,202,320462,1,4,3:3:0:0:
395,125,320594,1,0,3:2:0:0:
424,48,320725,2,0,P|451:68|472:115,1,60,4|0,3:3|3:2,0:0:0:0:
414,202,320989,5,4,3:3:0:0:
463,344,321285,1,0,3:2:0:0:
431,376,321383,2,0,L|369:362,2,60,0|0|0,3:2|3:2|3:2,0:0:0:0:
512,264,321778,5,8,3:2:0:0:
488,267,321844,1,8,3:2:0:0:
464,271,321910,1,0,3:2:0:0:
440,274,321975,1,0,3:2:0:0:
417,278,322041,1,0,3:2:0:0:
393,282,322107,1,0,3:2:0:0:
369,285,322173,1,0,3:2:0:0:
345,289,322239,1,0,3:2:0:0:
322,293,322304,1,0,3:2:0:0:
298,296,322370,1,0,3:2:0:0:
274,300,322436,1,0,3:2:0:0:
251,304,322502,1,0,3:2:0:0:
227,307,322568,5,4,3:1:0:0:
128,39,328906,6,0,P|139:56|142:97,1,45,0|0,1:2|0:0,0:0:0:0:
72,189,329300,2,0,P|78:135|150:110,1,135,0|0,1:2|1:2,0:0:0:0:
217,166,330090,1,0,1:2:0:0:
217,166,330287,1,0,1:2:0:0:
292,114,330484,6,0,L|354:103,1,45,0|0,1:2|0:0,0:0:0:0:
431,159,330879,2,0,P|396:164|367:225,2,90,0|0|0,1:2|1:2|1:2,0:0:0:0:
502,223,332063,6,0,L|518:278,1,45,0|0,1:2|0:0,0:0:0:0:
442,361,332458,2,0,B|357:353|408:315|317:304,1,135,0|0,1:2|1:2,0:0:0:0:
237,359,333248,1,0,1:2:0:0:
237,359,333445,1,0,1:2:0:0:
155,292,333642,6,0,P|173:261|178:239,1,45,0|0,1:2|0:0,0:0:0:0:
168,136,334037,2,0,P|188:174|229:192,2,90,0|0|0,1:2|1:2|1:2,0:0:0:0:
247,115,335221,6,0,P|273:99|289:81,1,45,0|0,1:2|0:0,0:0:0:0:
207,28,335616,2,0,P|119:49|35:-7,1,180,2|0,1:2|1:2,0:0:0:0:
10,238,336800,6,0,P|-23:202|87:172,1,225,2|0,1:2|1:2,0:0:0:0:
100,244,337984,1,0,1:2:0:0:
100,244,338182,1,0,1:2:0:0:
42,338,338379,6,0,P|62:324|92:316,1,45,0|0,1:2|0:0,0:0:0:0:
178,365,338774,2,0,P|207:341|304:328,1,135,0|0,1:2|0:0,0:0:0:0:
394,345,339563,2,0,L|375:302,1,45,0|0,1:2|0:0,0:0:0:0:
469,194,339958,6,0,P|439:225|327:159,1,180,2|0,1:2|0:0,0:0:0:0:
236,151,340945,2,0,P|218:165|181:170,2,45,0|0|0,1:2|1:2|1:2,0:0:0:0:
323,32,341537,6,0,P|292:62|289:80,1,45,0|0,1:2|0:0,0:0:0:0:
292,212,341932,2,0,P|270:116|224:36,1,180,0|0,1:2|1:2,0:0:0:0:
188,105,343116,6,0,P|257:141|291:30,1,225,2|0,1:2|1:2,0:0:0:0:
406,7,344300,2,0,L|463:21,1,45,0|0,1:2|1:2,0:0:0:0:
501,102,344695,6,0,P|472:117|458:137,1,45,0|0,1:2|0:0,0:0:0:0:
459,241,345090,2,0,P|453:169|344:158,1,180,0|0,1:2|1:2,0:0:0:0:
271,69,346373,6,0,L|260:230,1,157.5,2|0,1:2|0:0,0:0:0:0:
173,172,347261,2,0,L|159:145,1,22.5,0|0,1:2|0:0,0:0:0:0:
126,258,347458,2,0,L|112:231,1,22.5,0|0,1:2|0:0,0:0:0:0:
89,345,347656,2,0,L|75:318,1,22.5,0|0,1:2|0:0,0:0:0:0:
27,221,347853,6,0,L|10:284,1,45,0|0,1:2|0:0,0:0:0:0:
2,363,348248,2,0,L|144:321,1,135,0|0,1:2|0:0,0:0:0:0:
225,312,349037,2,0,L|208:375,1,45,0|0,1:2|0:0,0:0:0:0:
360,251,349432,6,0,P|261:242|243:159,1,180,0|0,1:2|0:0,0:0:0:0:
297,104,350419,2,0,P|318:125|331:144,2,45,0|0|0,1:2|1:2|1:2,0:0:0:0:
242,19,351011,6,0,P|217:58|204:69,1,45,0|0,1:2|0:0,0:0:0:0:
75,47,351406,2,0,P|132:71|136:141,1,135,0|0,1:2|0:0,0:0:0:0:
42,218,352195,2,0,L|29:166,1,45,0|0,1:0|0:0,0:0:0:0:
5,340,352590,6,0,B|67:319|67:319|86:323|86:323|192:287,1,180,0|0,1:0|1:2,0:0:0:0:
271,265,353577,1,0,1:2:0:0:
271,265,353774,1,0,1:2:0:0:
357,314,353971,1,0,1:2:0:0:
393,220,354169,6,0,P|385:200|389:171,1,45,0|0,1:2|0:0,0:0:0:0:
512,128,354563,2,0,P|467:122|447:31,1,135,0|0,1:2|0:0,0:0:0:0:
461,25,355353,2,0,L|437:80,1,45,0|0,1:2|0:0,0:0:0:0:
322,116,355748,6,0,P|288:74|165:59,1,180,0|0,1:2|0:0,0:0:0:0:
142,130,356734,2,0,P|153:160|157:187,1,45,0|0,1:2|1:2,0:0:0:0:
103,240,357129,1,0,1:2:0:0:
31,298,357327,6,0,P|13:270|13:251,1,45,0|0,1:2|0:0,0:0:0:0:
103,240,357721,2,0,L|252:261,1,135,0|0,1:2|0:0,0:0:0:0:
329,335,358511,2,0,L|381:317,1,45,0|0,1:0|0:0,0:0:0:0:
458,252,358906,5,6,3:3:0:0:
256,192,359004,12,0,360484,0:0:0:0:
256,192,360583,12,0,362063,0:0:0:0:
256,192,362162,12,0,364827,0:0:0:0:
256,32,365002,5,0,3:2:0:0:
256,32,365100,1,0,3:2:0:0:
256,32,365199,6,0,P|212:72|87:65,1,180,4|2,3:2|0:0,0:0:0:0:
91,60,367567,1,2,0:0:0:0:
3,225,368356,6,0,B|65:215|65:215|108:240|108:240|183:230,1,180,4|2,3:2|0:0,0:0:0:0:
339,332,369935,5,0,3:2:0:0:
338,346,370001,1,0,3:2:0:0:
333,360,370067,1,0,3:2:0:0:
324,372,370133,1,0,3:2:0:0:
311,379,370199,1,0,3:2:0:0:
296,381,370264,1,0,3:2:0:0:
281,379,370330,1,0,3:2:0:0:
269,371,370396,1,0,3:2:0:0:
260,359,370462,1,0,3:2:0:0:
255,345,370527,1,0,3:2:0:0:
256,330,370593,1,0,3:2:0:0:
262,316,370659,1,0,3:2:0:0:
272,305,370725,6,0,B|322:316|322:316|341:341|341:341|400:353,1,135.000005149842,8|0,3:2|0:0,0:0:0:0:
255,221,371021,2,0,B|205:232|205:232|186:257|186:257|127:269,1,135.000005149842,8|0,3:2|0:0,0:0:0:0:
303,131,371317,2,0,L|382:152,1,67.5000025749208,8|0,3:2|0:0,0:0:0:0:
222,5,371514,6,0,P|251:26|244:82,1,67.5000025749208,4|0,3:2|0:0,0:0:0:0:
56,100,371712,2,0,B|148:83|99:141|216:115,1,135.000005149842,10|0,3:2|3:2,0:0:0:0:
85,234,372008,1,0,3:2:0:0:
85,234,372106,2,0,P|73:198|83:172,1,67.5000025749208,10|0,3:2|0:0,0:0:0:0:
185,120,372304,5,0,3:2:0:0:
430,83,372501,2,0,B|425:51|425:51|380:19,1,67.5000025749208,10|0,3:2|0:0,0:0:0:0:
473,182,372699,2,0,B|501:167|501:167|518:114,1,67.5000025749208,0|0,3:2|3:2,0:0:0:0:
391,258,372896,2,0,B|413:280|413:280|469:280,1,67.5000025749208,10|0,3:2|0:0,0:0:0:0:
334,147,373093,6,0,B|257:159|309:206|205:220,1,135.000005149842,0|10,3:2|3:2,0:0:0:0:
79,233,373389,1,0,0:0:0:0:
90,249,373488,2,0,B|167:261|115:308|219:322,1,135.000005149842,0|10,3:2|3:2,0:0:0:0:
351,369,373784,1,0,0:0:0:0:
329,381,373883,6,0,B|296:351|296:351|318:253,1,135.000005149842,0|10,3:2|3:2,0:0:0:0:
194,107,374179,1,0,0:0:0:0:
211,98,374277,2,0,B|244:128|244:128|222:226,1,135.000005149842,0|10,3:2|3:2,0:0:0:0:
382,321,374672,6,0,B|435:311|435:311|456:322|456:322|519:310,1,135.000005149842,4|10,3:2|3:2,0:0:0:0:
378,230,374968,2,0,B|325:240|325:240|304:229|304:229|241:241,1,135.000005149842,0|0,0:0|3:2,0:0:0:0:
429,121,375264,2,0,B|511:149|511:149|456:179,1,135.000005149842,10|0,3:2|3:2,0:0:0:0:
247,239,375659,6,0,B|227:210|227:210|250:145,1,67.5000025749208,10|0,3:2|0:0,0:0:0:0:
179,0,375856,2,0,B|199:29|199:29|176:94,1,67.5000025749208,0|0,3:2|3:2,0:0:0:0:
70,149,376054,2,0,L|4:163,1,67.5000025749208,10|0,3:2|0:0,0:0:0:0:
290,24,376251,6,0,L|260:109,1,67.5000025749208,0|0,3:2|0:0,0:0:0:0:
149,210,376449,2,0,L|171:146,1,67.5000025749208,10|0,3:2|0:0,0:0:0:0:
469,89,376646,1,0,3:2:0:0:
469,89,376745,1,0,3:2:0:0:
469,89,376843,2,0,L|493:165,1,67.5000025749208,10|0,3:2|0:0,0:0:0:0:
462,357,377041,6,0,P|437:352|395:303,1,67.5000025749208,0|0,3:2|0:0,0:0:0:0:
375,118,377238,2,0,P|360:148|360:182,1,67.5000025749208,10|0,3:2|0:0,0:0:0:0:
284,382,377435,2,0,P|286:357|327:308,1,67.5000025749208,0|0,3:2|3:2,0:0:0:0:
495,250,377633,2,0,P|464:240|431:245,1,67.5000025749208,10|0,3:2|0:0,0:0:0:0:
299,239,377830,6,0,L|209:203,1,67.5000025749208,4|0,3:2|0:0,0:0:0:0:
78,147,378027,1,10,3:2:0:0:
96,154,378126,2,0,L|158:179,1,67.5000025749208,0|0,0:0|3:2,0:0:0:0:
375,118,378324,1,0,3:2:0:0:
357,111,378422,2,0,L|294:85,1,67.5000025749208,10|0,3:2|0:0,0:0:0:0:
189,0,378620,6,0,L|221:145,1,135.000005149842,0|10,3:2|3:2,0:0:0:0:
92,256,378916,2,0,P|175:259|194:326,1,135.000005149842,0|0,0:0|3:2,0:0:0:0:
335,354,379212,2,0,P|304:345|281:316,1,67.5000025749208,10|0,3:2|0:0,0:0:0:0:
452,179,379409,6,0,B|381:165|381:165|314:207,1,135.000005149842,0|10,3:2|3:2,0:0:0:0:
401,254,379705,1,0,0:0:0:0:
401,254,379804,1,0,3:2:0:0:
414,299,379902,1,0,3:2:0:0:
426,344,380001,2,0,L|439:274,1,67.5000025749208,10|0,3:2|0:0,0:0:0:0:
320,138,380199,6,0,B|308:164|308:164|332:207,1,67.5000025749208,0|0,3:2|0:0,0:0:0:0:
251,339,380396,2,0,B|263:313|263:313|239:270,1,67.5000025749208,10|0,3:2|0:0,0:0:0:0:
103,207,380593,1,0,3:2:0:0:
103,207,380692,1,0,3:2:0:0:
103,207,380791,2,0,L|7:231,1,67.5000025749208,10|0,3:2|0:0,0:0:0:0:
8,135,380988,5,4,3:2:0:0:
192,133,381185,1,0,3:2:0:0:
161,93,381284,1,0,3:2:0:0:
165,44,381383,1,0,3:2:0:0:
201,10,381481,1,0,3:2:0:0:
251,8,381580,1,4,3:2:0:0:
431,204,381777,5,0,3:2:0:0:
461,243,381876,1,0,3:2:0:0:
457,292,381975,1,0,3:2:0:0:
421,326,382074,1,0,3:2:0:0:
371,328,382172,1,4,3:2:0:0:
214,221,382370,1,0,3:2:0:0:
214,221,382468,1,0,3:2:0:0:
214,221,382567,5,0,3:2:0:0:
111,384,382764,1,0,1:2:0:0:
106,361,382863,1,0,1:2:0:0:
102,339,382962,1,0,1:2:0:0:
98,317,383060,1,0,1:2:0:0:
94,295,383159,1,0,1:2:0:0:
89,273,383258,1,0,1:2:0:0:
85,251,383356,5,8,3:2:0:0:
208,155,383652,1,8,3:2:0:0:
34,19,383949,1,8,3:2:0:0:
104,148,384146,6,0,L|271:116,1,135.000005149842,4|10,3:2|3:2,0:0:0:0:
361,100,384442,1,0,0:0:0:0:
361,100,384541,1,0,3:2:0:0:
349,145,384639,1,0,3:2:0:0:
338,191,384738,2,0,L|323:258,1,67.5000025749208,10|0,3:2|0:0,0:0:0:0:
412,355,384935,6,0,B|399:339|399:339|415:267,1,67.5000025749208,0|0,3:2|0:0,0:0:0:0:
236,122,385133,2,0,B|249:138|249:138|233:210,1,67.5000025749208,10|0,3:2|0:0,0:0:0:0:
202,355,385330,1,0,3:2:0:0:
202,355,385429,1,0,3:2:0:0:
202,355,385527,2,0,L|279:338,1,67.5000025749208,10|0,3:2|0:0,0:0:0:0:
136,233,385725,6,0,B|109:214|109:214|66:220,1,67.5000025749208,4|0,3:1|0:0,0:0:0:0:
32,337,385922,1,10,3:2:0:0:
45,351,386021,2,0,B|72:370|72:370|115:364,1,67.5000025749208,0|0,0:0|3:2,0:0:0:0:
156,229,386218,1,0,3:2:0:0:
143,215,386317,2,0,B|116:196|116:196|73:202,1,67.5000025749208,10|0,3:2|0:0,0:0:0:0:
211,314,386514,6,0,B|269:281|269:281|360:301,1,135.000005149842,4|10,3:1|3:2,0:0:0:0:
436,384,386810,2,0,B|410:356|410:356|443:244,1,135.000005149842,0|0,0:0|3:2,0:0:0:0:
359,143,387106,2,0,B|371:157|371:157|355:213,1,67.5000025749208,10|0,3:2|0:0,0:0:0:0:
472,134,387304,6,0,B|523:128|523:128|503:106,1,67.5000025749208,4|0,3:2|0:0,0:0:0:0:
336,60,387501,1,10,3:2:0:0:
315,56,387600,2,0,B|264:50|264:50|284:28,1,67.5000025749208,0|0,0:0|3:2,0:0:0:0:
450,28,387797,1,0,3:2:0:0:
471,24,387896,2,0,B|522:18|522:18|502:-4,1,67.5000025749208,10|0,3:2|0:0,0:0:0:0:
359,143,388093,6,0,B|347:157|347:157|363:213,1,67.5000025749208,4|0,3:1|0:0,0:0:0:0:
250,383,388291,2,0,B|262:369|262:369|246:313,1,67.5000025749208,10|0,3:2|0:0,0:0:0:0:
54,295,388488,1,0,3:2:0:0:
54,295,388587,1,0,3:2:0:0:
54,295,388685,2,0,B|56:276|56:276|107:250,1,67.5000025749208,10|0,3:2|0:0,0:0:0:0:
238,187,388883,6,0,B|197:200|197:200|77:160,1,135.000005149842,4|10,3:1|3:2,0:0:0:0:
22,142,389179,1,0,0:0:0:0:
22,142,389277,1,0,3:2:0:0:
18,108,389376,1,0,3:2:0:0:
14,74,389475,1,10,3:2:0:0:
10,41,389574,1,0,0:0:0:0:
6,7,389672,1,0,3:2:0:0:
203,110,389870,6,0,P|248:57|326:83,1,135.000005149842,10|0,3:2|3:2,0:0:0:0:
386,141,390166,1,0,3:2:0:0:
386,141,390264,1,10,3:2:0:0:
405,134,390363,1,0,0:0:0:0:
424,129,390462,6,0,L|383:281,1,135.000005149842,4|10,3:2|3:2,0:0:0:0:
488,384,390758,2,0,B|518:343|518:343|479:252,1,135.000005149842,0|0,0:0|3:2,0:0:0:0:
300,237,391054,2,0,B|284:258|284:258|304:306,1,67.5000025749208,10|0,3:2|0:0,0:0:0:0:
386,384,391251,6,0,L|405:311,1,67.5000025749208,0|0,3:2|0:0,0:0:0:0:
424,129,391449,2,0,L|406:194,1,67.5000025749208,10|0,3:2|0:0,0:0:0:0:
300,237,391646,1,0,3:2:0:0:
304,190,391745,1,0,3:2:0:0:
271,124,391843,1,10,3:2:0:0:
183,97,391942,1,0,0:0:0:0:
101,153,392041,6,0,L|194:172,1,67.5000025749208,0|0,3:2|3:2,0:0:0:0:
115,298,392238,2,0,L|208:317,1,67.5000025749208,10|0,3:2|3:2,0:0:0:0:
315,380,392435,2,0,B|370:364|370:364|380:342|380:342|444:319,1,135.000005149842,0|10,3:2|3:2,0:0:0:0:
508,197,392731,1,0,0:0:0:0:
490,206,392830,6,0,P|439:137|481:77,1,135.000005149842,0|10,3:2|3:2,0:0:0:0:
339,35,393126,1,0,3:2:0:0:
339,35,393225,1,0,3:2:0:0:
343,82,393324,1,0,3:2:0:0:
310,148,393422,1,10,3:2:0:0:
222,175,393521,1,0,0:0:0:0:
124,115,393620,5,4,3:2:0:0:
19,367,393817,1,0,3:2:0:0:
17,317,393916,1,0,3:2:0:0:
52,282,394014,1,0,3:2:0:0:
101,282,394113,1,0,3:2:0:0:
135,317,394212,1,4,3:2:0:0:
222,175,394409,5,0,3:2:0:0:
220,224,394508,1,0,3:2:0:0:
255,259,394606,1,0,3:2:0:0:
304,259,394705,1,0,3:2:0:0:
338,224,394804,1,4,3:2:0:0:
220,47,395001,1,0,3:2:0:0:
220,47,395100,1,0,3:2:0:0:
220,47,395199,5,0,3:2:0:0:
459,0,395396,1,0,1:0:0:0:
459,0,395495,1,0,1:0:0:0:
459,0,395593,5,0,1:0:0:0:
464,21,395658,1,0,1:0:0:0:
469,43,395724,1,0,1:0:0:0:
474,65,395790,1,0,1:0:0:0:
480,87,395856,1,0,1:0:0:0:
485,109,395921,1,0,1:0:0:0:
490,131,395987,5,8,3:2:0:0:
338,224,396284,1,8,3:2:0:0:
462,359,396580,1,8,3:2:0:0:
512,256,396777,6,0,L|362:287,1,135.000005149842,4|10,3:2|3:2,0:0:0:0:
282,304,397074,1,0,0:0:0:0:
242,111,397271,1,0,3:2:0:0:
255,95,397370,2,0,B|288:88|288:88|327:112,1,67.5000025749208,10|0,3:2|0:0,0:0:0:0:
254,231,397567,5,0,3:2:0:0:
131,165,397764,2,0,L|164:246,1,67.5000025749208,10|0,3:2|0:0,0:0:0:0:
0,96,397962,2,0,B|29:115|29:115|65:119,1,67.5000025749208,0|0,3:2|3:2,0:0:0:0:
186,27,398159,2,0,B|173:59|173:59|146:83,1,67.5000025749208,10|0,3:2|0:0,0:0:0:0:
81,31,398356,6,0,L|250:52,1,135.000005149842,0|10,3:2|3:2,0:0:0:0:
458,115,398652,1,0,0:0:0:0:
443,100,398751,2,0,L|274:121,1,135.000005149842,0|10,3:2|3:2,0:0:0:0:
304,346,399146,6,0,B|319:255|351:319|366:211,1,135.000005149842,0|10,3:2|3:2,0:0:0:0:
226,50,399442,1,0,0:0:0:0:
209,37,399541,2,0,B|194:128|162:64|147:172,1,135.000005149842,0|10,3:2|3:2,0:0:0:0:
0,254,399935,6,0,P|68:249|116:313,1,135.000005149842,4|10,3:2|3:2,0:0:0:0:
189,331,400231,2,0,P|123:324|77:370,1,135.000005149842,0|0,0:0|3:2,0:0:0:0:
167,219,400527,2,0,L|148:150,1,67.5000025749208,10|0,3:2|0:0,0:0:0:0:
122,65,400725,5,0,3:2:0:0:
298,10,400922,2,0,L|269:98,1,67.5000025749208,10|0,3:2|0:0,0:0:0:0:
335,228,401120,2,0,L|356:163,1,67.5000025749208,0|0,3:2|3:2,0:0:0:0:
512,9,401317,2,0,L|483:97,1,67.5000025749208,10|0,3:2|0:0,0:0:0:0:
459,328,401514,6,0,L|444:262,1,67.5000025749208,0|0,3:2|0:0,0:0:0:0:
397,38,401712,2,0,L|411:103,1,67.5000025749208,10|0,3:2|0:0,0:0:0:0:
512,186,401909,2,0,B|461:196|461:196|433:183|433:183|371:195,1,135.000005149842,0|10,3:2|3:2,0:0:0:0:
275,73,402304,6,0,B|258:49|258:49|276:-13,1,67.5000025749208,0|0,3:2|0:0,0:0:0:0:
22,107,402501,2,0,B|39:131|39:131|21:193,1,67.5000025749208,10|0,3:2|0:0,0:0:0:0:
149,133,402699,1,0,3:2:0:0:
149,133,402797,1,0,3:2:0:0:
149,133,402896,2,0,L|178:52,1,67.5000025749208,10|0,3:2|0:0,0:0:0:0:
113,6,403093,5,4,3:2:0:0:
329,268,403291,1,10,3:2:0:0:
340,218,403389,1,0,0:0:0:0:
351,169,403488,1,0,3:2:0:0:
363,120,403587,1,0,3:2:0:0:
374,70,403685,1,10,3:2:0:0:
235,161,403883,6,0,L|260:241,1,67.5000025749208,0|0,3:2|0:0,0:0:0:0:
459,110,404080,2,0,L|484:190,1,67.5000025749208,10|0,3:2|0:0,0:0:0:0:
255,2,404277,1,0,3:2:0:0:
255,2,404376,1,0,3:2:0:0:
255,2,404475,2,0,L|280:82,1,67.5000025749208,10|0,3:2|0:0,0:0:0:0:
132,176,404672,5,0,3:2:0:0:
28,56,404870,1,10,3:2:0:0:
47,62,404968,2,0,L|132:79,1,67.5000025749208,0|0,0:0|3:2,0:0:0:0:
0,244,405166,1,0,3:2:0:0:
19,250,405264,2,0,L|104:267,1,67.5000025749208,10|0,3:2|0:0,0:0:0:0:
226,275,405462,6,0,B|168:284|189:330|108:358,1,135.000005149842,0|10,3:2|3:2,0:0:0:0:
254,180,405758,1,0,0:0:0:0:
254,180,405856,2,0,B|312:189|291:235|372:263,1,135.000005149842,0|10,3:2|3:2,0:0:0:0:
471,226,406152,1,0,0:0:0:0:
478,207,406251,5,4,3:2:0:0:
345,49,406449,1,0,3:2:0:0:
279,64,406547,1,0,3:2:0:0:
213,80,406646,1,0,3:2:0:0:
148,95,406745,1,0,3:2:0:0:
82,111,406843,1,4,3:2:0:0:
14,259,407041,6,0,B|-6:242|-6:242|15:171,1,67.5000025749208,0|0,3:2|3:2,0:0:0:0:
182,192,407238,1,0,3:2:0:0:
248,207,407337,1,0,3:2:0:0:
314,223,407435,1,4,3:2:0:0:
379,238,407534,1,0,0:0:0:0:
445,254,407633,1,0,3:2:0:0:
256,384,407830,5,0,3:2:0:0:
437,232,408027,5,0,1:2:0:0:
445,254,408126,1,0,1:2:0:0:
474,202,408225,5,0,1:2:0:0:
465,225,408324,1,0,1:2:0:0:
417,183,408422,5,0,1:2:0:0:
426,206,408521,1,0,1:2:0:0:
505,133,408620,5,8,3:2:0:0:
319,196,408916,1,8,3:2:0:0:
129,255,409212,1,8,3:2:0:0:
251,65,409409,6,0,B|204:54|204:54|187:21|187:21|110:6,1,135.000005149842,4|10,3:2|3:2,0:0:0:0:
123,92,409705,1,0,0:0:0:0:
334,21,409902,1,0,3:2:0:0:
340,40,410001,2,0,L|364:134,1,67.5000025749208,10|0,3:2|0:0,0:0:0:0:
361,256,410199,6,0,B|344:227|344:227|360:175,1,67.5000025749208,0|0,3:2|0:0,0:0:0:0:
505,53,410396,2,0,B|522:82|522:82|506:134,1,67.5000025749208,10|0,3:2|0:0,0:0:0:0:
494,202,410593,1,0,3:2:0:0:
494,202,410692,1,0,3:2:0:0:
494,202,410791,2,0,L|397:175,1,67.5000025749208,10|0,3:2|0:0,0:0:0:0:
279,149,410988,5,0,3:2:0:0:
296,274,411185,1,10,3:2:0:0:
277,281,411284,2,0,L|202:305,1,67.5000025749208,0|0,0:0|3:2,0:0:0:0:
140,111,411481,1,0,3:2:0:0:
121,104,411580,2,0,L|46:80,1,67.5000025749208,10|0,3:2|0:0,0:0:0:0:
200,0,411777,6,0,B|220:52|220:52|242:64|242:64|270:141,1,135.000005149842,0|10,3:2|3:2,0:0:0:0:
283,288,412074,1,0,0:0:0:0:
283,288,412172,1,0,3:2:0:0:
279,241,412271,1,0,3:2:0:0:
312,175,412370,1,10,3:2:0:0:
400,148,412468,1,0,0:0:0:0:
493,202,412567,6,0,B|441:177|441:177|467:70,1,135.000005149842,4|10,3:2|3:2,0:0:0:0:
487,11,412863,1,0,0:0:0:0:
468,18,412962,2,0,L|396:41,1,67.5000025749208,0|0,3:2|3:2,0:0:0:0:
289,17,413159,2,0,L|217:40,1,67.5000025749208,10|0,3:2|0:0,0:0:0:0:
53,153,413356,6,0,B|27:135|27:135|49:54,1,67.5000025749208,0|0,3:2|0:0,0:0:0:0:
196,166,413554,2,0,B|222:184|222:184|200:265,1,67.5000025749208,10|0,3:2|0:0,0:0:0:0:
99,321,413751,1,0,3:2:0:0:
99,321,413850,1,0,3:2:0:0:
99,321,413949,2,0,L|0:304,1,67.5000025749208,10|0,3:2|0:0,0:0:0:0:
174,371,414146,5,0,3:2:0:0:
287,264,414343,1,10,3:2:0:0:
320,258,414442,1,0,0:0:0:0:
353,252,414541,1,0,3:2:0:0:
386,247,414639,1,0,3:2:0:0:
420,241,414738,1,10,3:2:0:0:
453,235,414837,1,0,0:0:0:0:
486,230,414935,5,0,3:2:0:0:
388,127,415133,1,10,3:2:0:0:
480,0,415330,1,0,3:2:0:0:
480,0,415429,1,8,3:2:0:0:
480,0,415527,1,0,3:2:0:0:
276,166,415725,6,0,L|308:56,1,67.5000025749208,4|0,3:2|0:0,0:0:0:0:
111,46,415922,2,0,L|92:110,1,67.5000025749208,10|0,3:2|0:0,0:0:0:0:
154,232,416120,1,0,3:2:0:0:
154,232,416218,1,0,3:2:0:0:
154,232,416317,2,0,L|172:167,1,67.5000025749208,10|0,3:2|0:0,0:0:0:0:
25,183,416514,6,0,B|14:213|14:213|34:252,1,67.5000025749208,0|0,3:2|0:0,0:0:0:0:
174,384,416712,2,0,B|185:354|185:354|165:315,1,67.5000025749208,10|0,3:2|0:0,0:0:0:0:
279,196,416909,1,0,3:2:0:0:
298,189,417008,1,0,3:2:0:0:
285,204,417106,1,10,3:2:0:0:
304,197,417205,1,0,0:0:0:0:
320,272,417304,6,0,L|255:96,1,135.000005149842,0|10,3:2|3:2,0:0:0:0:
346,26,417600,1,0,3:2:0:0:
365,31,417699,2,0,B|424:67|424:67|392:136,1,135.000005149842,0|10,3:2|3:2,0:0:0:0:
494,315,417995,1,0,0:0:0:0:
475,310,418093,6,0,B|416:274|416:274|448:205,1,135.000005149842,0|10,3:2|3:2,0:0:0:0:
508,99,418389,1,0,3:2:0:0:
497,116,418488,2,0,L|416:145,1,67.5000025749208,0|0,3:2|3:2,0:0:0:0:
285,186,418685,2,0,L|204:215,1,67.5000025749208,10|0,3:2|0:0,0:0:0:0:
75,250,418883,5,4,3:2:0:0:
137,9,419080,5,8,3:2:0:0:
169,18,419179,1,0,3:2:0:0:
201,27,419277,1,0,3:2:0:0:
262,55,419376,5,8,3:2:0:0:
253,87,419475,1,0,3:2:0:0:
243,119,419574,1,0,3:2:0:0:
224,183,419672,5,8,3:2:0:0:
256,192,419771,1,0,3:2:0:0:
288,202,419870,1,0,3:2:0:0:
349,228,419968,5,8,3:2:0:0:
340,260,420067,1,0,3:2:0:0:
330,292,420166,1,0,3:2:0:0:
309,355,420264,5,8,3:2:0:0:
341,364,420363,1,0,3:2:0:0:
373,374,420462,5,0,3:2:0:0:
387,9,420659,2,0,L|310:34,1,67.5000025749208,12|0,3:1|0:0,0:0:0:0:
262,55,420856,5,0,3:0:0:0:
262,55,420955,2,0,L|282:119,1,67.5000025749208,12|0,3:1|0:0,0:0:0:0:
303,188,421152,5,0,3:0:0:0:
303,188,421251,2,0,L|226:213,1,67.5000025749208,12|0,3:1|0:0,0:0:0:0:
176,230,421449,5,0,3:0:0:0:
176,230,421547,2,0,L|196:294,1,67.5000025749208,12|0,3:1|0:0,0:0:0:0:
220,363,421745,5,0,3:0:0:0:
220,363,421843,2,0,L|143:388,1,67.5000025749208,12|0,3:1|0:0,0:0:0:0:
75,250,422041,5,4,3:2:0:0:
71,344,434041,5,4,3:2:0:0:
71,344,435241,1,4,3:0:0:0:
55,208,435541,2,0,P|97:253|168:246,2,135,0|0|0,1:2|1:2|1:2,0:0:0:0:
55,208,436741,1,0,1:2:0:0:
256,16,437041,5,4,3:2:0:0:
256,16,437941,1,0,1:2:0:0:
256,16,438241,1,4,3:0:0:0:
293,167,438541,5,4,3:2:0:0:
397,55,438841,1,0,1:0:0:0:
498,79,438991,1,0,1:0:0:0:
397,78,439291,1,0,1:0:0:0:
483,98,439441,1,0,1:0:0:0:
464,5,439741,1,0,1:0:0:0:
415,168,440041,5,4,3:2:0:0:
415,168,441091,1,0,3:0:0:0:
438,374,441241,1,12,3:2:0:0:
498,237,441541,1,0,3:0:0:0:
181,203,441841,5,0,3:0:0:0:
183,191,441916,1,0,3:0:0:0:
185,180,441991,1,0,1:0:0:0:
187,169,442066,1,0,1:0:0:0:
168,160,442141,5,0,3:0:0:0:
166,148,442216,1,0,3:0:0:0:
164,137,442291,1,0,1:0:0:0:
162,126,442366,1,0,1:0:0:0:
175,110,442441,5,8,3:2:0:0:
169,143,442516,1,8,3:2:0:0:
164,176,442591,1,0,1:0:0:0:
159,210,442666,1,0,1:0:0:0:
154,243,442741,5,0,1:0:0:0:
158,254,442816,1,0,1:0:0:0:
161,264,442891,1,0,1:0:0:0:
165,275,442966,1,0,1:0:0:0:
169,286,443041,5,4,3:2:0:0:
441,37,444541,6,0,L|351:18,1,90,0|0,0:0|0:0,0:0:0:0:
418,122,444991,2,0,L|328:103,1,90,0|0,0:0|0:0,0:0:0:0:
206,43,445441,2,0,P|229:87|227:137,2,90,0|0|2,0:0|0:0|0:0,0:0:0:0:
158,207,446341,5,2,0:0:0:0:
256,192,446416,12,0,450391,0:0:0:0:
48,157,450521,5,4,3:2:0:0:
158,74,450660,1,0,3:2:0:0:
42,0,450800,1,0,1:2:0:0:
158,167,450939,2,0,L|266:142,1,107.999996704102,8|0,3:2|1:1,0:0:0:0:
441,100,451218,2,0,L|477:38,1,53.9999983520508,8|0,3:2|3:0,0:0:0:0:
426,122,451358,2,0,P|390:99|373:29,1,107.999996704102,0|8,1:1|3:2,0:0:0:0:
316,214,451637,2,0,P|352:237|369:307,1,107.999996704102,0|8,1:1|3:2,0:0:0:0:
512,347,451916,6,0,L|402:369,1,107.999996704102,6|8,1:1|3:2,0:0:0:0:
296,384,452195,1,0,1:1:0:0:
381,280,452334,2,0,B|309:259|309:259|262:270|262:270|165:234,1,215.999993408203,8|8,3:2|3:2,0:0:0:0:
78,336,452753,2,0,P|106:289|96:238,1,107.999996704102,0|8,1:1|3:2,0:0:0:0:
19,24,453032,2,0,P|-9:70|0:121,1,107.999996704102,0|8,1:1|3:2,0:0:0:0:
120,164,453311,6,0,L|338:134,1,215.999993408203,2|0,1:1|1:1,0:0:0:0:
431,17,453730,2,0,B|403:92|403:92|429:141|429:141|401:226,1,215.999993408203,8|8,3:2|3:2,0:0:0:0:
278,333,454148,2,0,B|252:304|252:304|279:233,1,107.999996704102,0|8,1:1|3:2,0:0:0:0:
225,0,454427,2,0,B|250:28|250:28|224:100,1,107.999996704102,0|8,1:1|3:2,0:0:0:0:
68,0,454707,6,0,P|155:56|120:146,1,215.999993408203,6|0,1:1|1:1,0:0:0:0:
67,369,455125,2,0,P|-20:312|13:209,1,215.999993408203,8|8,3:2|3:2,0:0:0:0:
101,120,455544,1,0,1:1:0:0:
207,231,455683,1,8,3:2:0:0:
266,25,455823,2,0,L|287:88,1,53.9999983520508,0|0,1:0|3:0,0:0:0:0:
327,166,455962,5,8,3:2:0:0:
370,176,456032,1,0,3:2:0:0:
414,187,456102,1,2,3:1:0:0:
458,198,456172,1,0,3:2:0:0:
501,209,456241,1,8,3:2:0:0:
296,360,456381,6,0,B|269:346|269:346|346:321,1,107.999996704102,0|8,1:2|3:2,0:0:0:0:
485,297,456660,2,0,B|511:283|511:283|434:258,1,107.999996704102,0|8,1:1|3:2,0:0:0:0:
250,194,456939,2,0,B|223:180|223:180|300:155,1,107.999996704102,0|8,1:1|3:2,0:0:0:0:
485,121,457218,2,0,B|511:107|511:107|434:82,1,107.999996704102,0|8,1:1|3:2,0:0:0:0:
281,4,457497,6,0,B|271:68|327:92|327:92|359:148|300:200,1,215.999993408203,6|0,1:1|1:1,0:0:0:0:
221,378,457916,2,0,B|230:313|174:289|174:289|142:233|201:181,1,215.999993408203,8|8,3:2|3:2,0:0:0:0:
290,276,458334,1,0,1:1:0:0:
90,228,458474,1,8,3:2:0:0:
253,145,458614,1,0,1:1:0:0:
90,228,458753,1,8,3:2:0:0:
236,117,458893,6,0,L|256:7,1,107.999996704102,2|8,1:1|3:2,0:0:0:0:
350,9,459172,1,0,1:1:0:0:
438,154,459311,2,0,L|419:264,1,107.999996704102,8|0,3:2|1:1,0:0:0:0:
313,271,459590,1,8,3:2:0:0:
452,384,459730,2,0,P|416:334|354:328,1,107.999996704102,0|8,1:1|3:2,0:0:0:0:
127,384,460009,2,0,P|179:370|208:324,1,107.999996704102,0|8,1:1|3:2,0:0:0:0:
184,173,460288,6,0,L|69:146,1,107.999996704102,6|8,1:1|3:2,0:0:0:0:
262,128,460567,1,0,1:1:0:0:
137,66,460707,2,0,L|22:39,1,107.999996704102,8|0,3:2|1:1,0:0:0:0:
215,21,460986,1,8,3:2:0:0:
300,199,461125,2,0,P|339:158|339:104,1,107.999996704102,0|8,1:1|3:2,0:0:0:0:
426,18,461404,5,2,1:3:0:0:
436,73,461474,1,2,3:3:0:0:
447,128,461544,1,2,3:3:0:0:
458,183,461614,1,2,3:3:0:0:
469,238,461683,6,0,B|437:225|437:225|442:146,1,107.999996704102,4|8,3:2|3:2,0:0:0:0:
495,342,461962,1,0,1:2:0:0:
489,250,462102,2,0,L|278:311,1,215.999993408203,8|8,3:2|3:2,0:0:0:0:
167,274,462521,2,0,B|206:301|198:341|198:341|182:314,1,107.999996704102,0|8,1:1|3:2,0:0:0:0:
261,181,462800,2,0,B|242:205|242:205|231:148|286:110,1,107.999996704102,0|8,1:1|3:2,0:0:0:0:
335,18,463079,6,0,B|298:40|239:16|239:16|169:13|155:86,1,215.999993408203,6|0,1:1|1:1,0:0:0:0:
27,145,463497,2,0,B|-17:109|36:76|124:95|139:196,1,215.999993408203,8|8,3:2|3:2,0:0:0:0:
63,313,463916,2,0,B|39:297|39:297|66:220,1,107.999996704102,0|8,1:1|3:2,0:0:0:0:
300,294,464195,2,0,B|323:309|323:309|296:386,1,107.999996704102,0|8,1:1|3:2,0:0:0:0:
188,318,464474,6,0,B|173:239|173:239|195:206|195:206|172:87,1,215.999993408203,2|0,1:1|1:1,0:0:0:0:
162,26,464893,1,8,3:2:0:0:
265,69,465032,2,0,B|305:71|335:47|335:47|298:40,1,107.999996704102,0|8,1:1|3:2,0:0:0:0:
105,177,465311,2,0,B|64:179|34:155|34:155|71:148,1,107.999996704102,0|8,1:1|3:2,0:0:0:0:
272,205,465590,2,0,B|312:207|342:183|342:183|305:176,1,107.999996704102,0|8,1:1|3:2,0:0:0:0:
164,105,465869,6,0,B|144:204|144:204|167:240|167:240|152:327,1,215.999993408203,6|0,1:1|1:1,0:0:0:0:
22,346,466288,2,0,B|-13:314|-13:314|13:258,1,107.999996704102,8|0,3:2|1:1,0:0:0:0:
125,384,466567,1,8,3:2:0:0:
261,334,466707,2,0,L|149:310,1,107.999996704102,0|8,1:1|3:2,0:0:0:0:
380,362,466986,1,0,1:1:0:0:
336,224,467125,1,8,3:2:0:0:
492,169,467265,6,0,B|448:203|458:254|458:254|508:300|467:373,1,215.999993408203,2|0,3:1|1:1,0:0:0:0:
336,224,467683,1,8,3:2:0:0:
261,334,467823,2,0,B|236:310|236:310|225:267|272:238,1,107.999996704102,0|8,1:1|3:2,0:0:0:0:
251,50,468102,2,0,B|276:74|276:74|289:112|237:144,1,107.999996704102,0|8,1:1|3:2,0:0:0:0:
119,160,468381,2,0,L|14:130,1,107.999996704102,2|8,1:3|3:2,0:0:0:0:
0,59,468660,5,6,1:1:0:0:
114,308,468939,1,2,1:3:0:0:
251,7,469218,1,4,1:1:0:0:
287,150,469497,5,10,1:1:0:0:
330,159,469567,1,8,1:0:0:0:
374,169,469637,1,8,1:2:0:0:
418,178,469707,1,8,1:0:0:0:
462,188,469776,1,0,1:1:0:0:
364,254,469916,1,8,3:2:0:0:
512,113,470055,6,0,L|402:142,1,107.999996704102,0|0,1:1|3:2,0:0:0:0:
466,371,470334,1,0,1:1:0:0:
465,326,470404,1,0,1:0:0:0:
445,286,470474,1,8,1:2:0:0:
408,261,470544,1,0,1:0:0:0:
364,254,470614,1,0,1:1:0:0:
273,331,470753,1,8,3:2:0:0:
161,247,470893,2,0,B|168:211|168:211|180:198|180:198|191:143,1,107.999996704102,0|8,1:1|3:2,0:0:0:0:
136,95,471172,1,0,1:1:0:0:
265,2,471311,6,0,B|297:29|297:29|279:92,1,107.999996704102,8|0,3:2|1:1,0:0:0:0:
395,204,471590,2,0,B|363:177|363:177|381:114,1,107.999996704102,12|0,3:1|1:1,0:0:0:0:
466,46,471869,2,0,L|490:156,1,107.999996704102,12|0,3:1|1:1,0:0:0:0:
364,355,472148,2,0,L|338:244,1,107.999996704102,8|0,3:1|1:1,0:0:0:0:
319,134,472427,1,8,3:2:0:0:
466,219,472567,1,0,1:1:0:0:
466,46,472707,1,8,3:2:0:0:
257,190,472846,6,0,P|232:144|252:81,1,107.999996704102,0|8,1:1|3:2,0:0:0:0:
314,38,473125,1,0,1:1:0:0:
314,38,473195,1,0,3:2:0:0:
314,38,473265,1,8,3:2:0:0:
425,114,473404,2,0,L|299:137,1,107.999996704102,0|8,1:1|3:2,0:0:0:0:
202,244,473683,1,0,1:1:0:0:
202,244,473753,1,0,3:2:0:0:
202,244,473823,1,8,3:2:0:0:
72,190,473962,1,0,1:1:0:0:
72,190,474032,1,0,3:2:0:0:
72,190,474102,1,8,3:2:0:0:
0,317,474241,5,4,1:2:0:0:
0,317,474381,1,8,3:2:0:0:
122,380,474520,2,0,B|148:358|148:358|121:281,1,107.999996704102,0|8,1:1|3:2,0:0:0:0:
180,146,474800,2,0,B|154:168|154:168|181:245,1,107.999996704102,0|8,1:1|3:2,0:0:0:0:
308,256,475079,1,0,1:1:0:0:
308,256,475148,1,0,3:0:0:0:
308,256,475218,1,8,3:2:0:0:
408,198,475358,1,0,1:1:0:0:
503,307,475497,1,8,3:2:0:0:
487,140,475637,5,0,1:1:0:0:
487,140,475707,1,0,3:0:0:0:
487,140,475776,1,8,3:2:0:0:
408,198,475916,1,0,1:1:0:0:
312,70,476055,2,0,L|418:94,1,107.999996704102,12|0,3:1|1:1,0:0:0:0:
327,249,476334,2,0,L|220:275,1,107.999996704102,8|0,3:2|1:1,0:0:0:0:
95,306,476614,1,8,3:2:0:0:
139,206,476753,1,0,1:1:0:0:
139,206,476823,1,0,3:0:0:0:
139,206,476893,1,8,3:2:0:0:
36,76,477032,6,0,B|23:84|34:110|34:110|63:127|67:171,1,107.999996704102,4|0,3:1|0:1,0:0:0:0:
192,351,477311,2,0,B|179:343|190:317|190:317|219:300|223:256,1,107.999996704102,4|0,3:3|0:1,0:0:0:0:
274,97,477590,2,0,B|265:84|239:97|239:97|225:127|181:134,1,107.999996704102,4|0,3:1|0:1,0:0:0:0:
10,271,477869,2,0,B|17:257|43:266|43:266|62:294|106:295,1,107.999996704102,4|0,3:3|0:1,0:0:0:0:
326,384,478148,2,0,B|318:364|303:347|303:347|309:318|338:286,1,107.999996704102,4|0,3:1|0:1,0:0:0:0:
374,74,478427,2,0,B|366:94|351:111|351:111|357:140|386:172,1,107.999996704102,4|0,3:3|0:1,0:0:0:0:
471,262,478707,5,0,3:1:0:0:
109,14,493653,5,0,0:0:0:0:
51,159,493792,2,0,B|25:155|25:155|1:130|35:81,1,107.999996704102,8|2,3:2|1:2,0:0:0:0:
155,187,494071,2,0,L|194:297,1,107.999996704102,8|2,3:2|1:2,0:0:0:0:
237,95,494350,1,8,3:2:0:0:
386,212,494490,2,0,B|357:190|357:190|270:175,1,107.999996704102,2|8,1:2|3:2,0:0:0:0:
407,110,494769,6,0,P|452:114|500:72,1,107.999996704102,2|8,1:2|3:2,0:0:0:0:
323,39,495048,1,2,1:2:0:0:
282,180,495187,2,0,L|176:207,1,107.999996704102,8|2,3:2|1:2,0:0:0:0:
408,289,495466,2,0,L|514:316,1,107.999996704102,8|2,3:2|1:2,0:0:0:0:
333,374,495746,1,8,3:2:0:0:
394,272,495885,6,0,B|370:239|370:239|392:163,1,107.999996704102,2|8,1:2|3:2,0:0:0:0:
246,4,496164,2,0,B|270:37|270:37|248:113,1,107.999996704102,2|8,1:2|3:2,0:0:0:0:
6,99,496443,2,0,P|102:115|128:219,1,215.999993408203,2|2,1:2|1:2,0:0:0:0:
47,302,496862,1,8,3:2:0:0:
208,384,497001,6,0,P|188:361|187:281,1,107.999996704102,2|8,1:2|3:2,0:0:0:0:
303,292,497280,2,0,P|302:261|354:200,1,107.999996704102,2|8,1:2|3:2,0:0:0:0:
460,253,497559,1,2,1:2:0:0:
460,253,497839,6,0,P|480:230|481:150,1,107.999996704102,2|8,1:2|3:2,0:0:0:0:
340,135,498118,2,0,P|340:104|288:43,1,107.999996704102,2|8,1:2|3:2,0:0:0:0:
119,54,498397,5,2,1:2:0:0:
173,208,498536,1,8,3:2:0:0:
225,1,498676,2,0,L|193:119,1,107.999996704102,4|8,1:1|3:2,0:0:0:0:
146,290,498955,1,4,1:1:0:0:
302,222,499094,1,8,3:2:0:0:
101,158,499234,5,4,1:1:0:0:
101,158,499373,1,8,3:2:0:0:
203,352,499513,2,0,B|232:320|232:320|223:255,1,107.999996704102,2|8,1:2|3:2,0:0:0:0:
31,98,499792,2,0,B|2:130|2:130|11:195,1,107.999996704102,2|8,1:2|3:2,0:0:0:0:
274,186,500071,2,0,L|161:202,1,107.999996704102,2|8,1:2|3:2,0:0:0:0:
0,268,500350,6,0,B|136:285|54:353|191:375,1,215.999993408203,2|2,1:2|1:2,0:0:0:0:
326,385,500769,2,0,B|321:346|321:346|309:330|309:330|304:272,1,107.999996704102,8|2,3:2|1:2,0:0:0:0:
457,155,501048,2,0,P|499:228|395:283,1,215.999993408203,8|8,3:2|3:2,0:0:0:0:
347,14,501466,6,0,B|357:53|357:53|377:69|377:69|392:120,1,107.999996704102,2|8,1:2|3:2,0:0:0:0:
327,199,501746,2,0,B|307:126|307:126|281:100|281:100|253:-4,1,215.999993408203,2|2,1:2|1:2,0:0:0:0:
143,191,502164,2,0,B|132:230|132:230|112:246|112:246|97:297,1,107.999996704102,8|2,3:2|1:2,0:0:0:0:
162,376,502443,2,0,B|181:303|181:303|207:277|207:277|235:172,1,215.999993408203,8|8,3:2|3:2,0:0:0:0:
50,138,502862,6,0,P|12:106|7:47,1,107.999996704102,2|8,1:2|3:2,0:0:0:0:
109,0,503141,2,0,P|146:31|151:90,1,107.999996704102,2|8,1:2|3:2,0:0:0:0:
340,243,503420,2,0,P|377:211|382:152,1,107.999996704102,4|8,1:1|3:2,0:0:0:0:
280,105,503699,2,0,P|242:136|237:195,1,107.999996704102,2|8,1:2|3:2,0:0:0:0:
123,384,503978,2,0,B|113:350|113:350|96:338|96:338|76:275,1,107.999996704102,2|8,1:2|3:2,0:0:0:0:
56,218,504257,5,4,1:1:0:0:
11,345,504397,1,8,3:2:0:0:
47,193,504536,1,2,1:2:0:0:
196,342,504676,1,8,3:2:0:0:
263,165,504815,5,0,3:2:0:0:
263,165,504885,1,0,3:2:0:0:
263,165,504955,1,0,3:2:0:0:
274,289,505094,1,4,1:1:0:0:
145,173,505234,1,8,3:2:0:0:
378,159,505373,2,0,L|489:139,1,107.999996704102,2|8,1:2|3:2,0:0:0:0:
266,56,505653,6,0,P|117:46|149:175,1,323.999990112305,2|8,1:2|3:2,0:0:0:0:
195,266,506211,2,0,B|205:229|205:229|220:214|220:214|233:161,1,107.999996704102,2|8,1:2|3:2,0:0:0:0:
287,245,506490,1,2,1:2:0:0:
342,65,506629,2,0,B|354:107|354:107|369:122|369:122|382:175,1,107.999996704102,8|2,3:2|1:2,0:0:0:0:
431,56,506908,1,12,3:1:0:0:
486,289,507048,6,0,B|434:246|370:274|370:274|349:323|284:331,1,215.999993408203,2|2,1:2|1:2,0:0:0:0:
287,245,507466,1,8,3:2:0:0:
125,119,507606,2,0,P|155:159|138:220,1,107.999996704102,2|8,1:2|3:2,0:0:0:0:
39,338,507885,2,0,P|10:302|88:176,1,215.999993408203,2|2,1:2|1:2,0:0:0:0:
235,151,508304,1,8,3:2:0:0:
212,319,508443,5,2,1:2:0:0:
212,319,508583,1,8,3:2:0:0:
341,220,508722,1,2,1:2:0:0:
235,151,508862,1,8,3:2:0:0:
322,381,509001,1,2,1:2:0:0:
322,381,509071,1,0,3:0:0:0:
322,381,509141,1,8,3:2:0:0:
255,248,509280,5,2,1:2:0:0:
255,248,509350,1,0,3:0:0:0:
255,248,509420,1,8,3:2:0:0:
386,278,509559,2,0,B|413:278|431:255|431:255|468:242|506:267,1,107.999996704102,6|8,1:2|3:2,0:0:0:0:
437,151,509839,2,0,B|416:128|416:128|428:43,1,107.999996704102,2|8,1:2|3:2,0:0:0:0:
255,248,510118,2,0,B|276:271|276:271|261:355,1,107.999996704102,2|8,1:2|3:2,0:0:0:0:
133,174,510397,6,0,L|20:151,1,107.999996704102,2|8,1:2|3:2,0:0:0:0:
243,141,510676,2,0,P|259:110|240:34,1,107.999996704102,2|8,1:2|3:2,0:0:0:0:
182,3,510955,1,2,1:2:0:0:
255,248,511094,2,0,L|367:224,1,107.999996704102,8|2,3:2|1:2,0:0:0:0:
96,384,511373,5,8,3:2:0:0:
175,276,511513,1,2,1:2:0:0:
69,187,511653,1,8,3:2:0:0:
196,370,511792,1,2,1:2:0:0:
196,370,511862,1,0,3:0:0:0:
196,370,511932,1,8,3:2:0:0:
364,264,512071,2,0,B|332:238|332:238|328:201|346:172,1,107.999996704102,2|8,1:2|3:2,0:0:0:0:
239,8,512350,2,0,B|275:35|275:35|279:72|261:101,1,107.999996704102,6|8,1:2|3:2,0:0:0:0:
161,181,512629,6,0,L|268:166,1,107.999996704102,4|0,3:1|0:0,0:0:0:0:
400,89,512908,2,0,B|385:104|385:104|416:140|393:188,1,107.999996704102,4|0,3:1|0:0,0:0:0:0:
364,384,513187,2,0,B|372:350|372:350|324:338|313:287,1,107.999996704102,4|0,3:1|0:0,0:0:0:0:
487,261,513466,2,0,B|459:238|459:238|418:279|364:259,1,107.999996704102,4|0,3:1|0:0,0:0:0:0:
207,315,513746,2,0,B|227:309|227:309|218:262|262:232,1,107.999996704102,4|0,3:1|0:0,0:0:0:0:
154,148,513955,1,0,0:0:0:0:
154,148,514025,6,0,P|116:125|88:67,1,107.999996704102,2|8,1:1|3:2,0:0:0:0:
138,0,514304,1,0,1:1:0:0:
308,218,514443,2,0,P|346:195|357:29,1,215.999993408203,8|8,3:2|3:2,0:0:0:0:
277,0,514862,1,0,1:1:0:0:
154,148,515001,1,8,3:2:0:0:
42,1,515141,1,0,1:1:0:0:
260,123,515280,1,8,3:2:0:0:
61,253,515420,6,0,B|46:220|15:208|15:208|-1:113|83:88,1,215.999993408203,6|0,1:1|1:1,0:0:0:0:
21,373,515838,2,0,P|38:310|174:296,1,215.999993408203,8|8,3:2|3:2,0:0:0:0:
258,378,516257,1,0,1:1:0:0:
391,220,516397,1,8,3:2:0:0:
499,352,516536,1,0,1:1:0:0:
269,238,516676,1,8,3:2:0:0:
421,382,516815,6,0,B|404:325|436:290|436:290|493:259|468:174,1,215.999993408203,6|0,1:1|1:1,0:0:0:0:
268,135,517234,2,0,B|289:165|280:229|280:229|336:269|406:206,1,215.999993408203,8|8,3:2|3:2,0:0:0:0:
499,110,517652,2,0,B|499:78|484:55|484:55|456:54|416:79,1,107.999996704102,0|8,1:1|3:2,0:0:0:0:
240,2,517931,5,0,1:1:0:0:
231,22,518001,1,0,3:2:0:0:
223,43,518071,1,0,3:2:0:0:
215,64,518141,1,0,3:2:0:0:
206,85,518211,6,0,L|96:103,1,107.999996704102,6|8,1:1|3:2,0:0:0:0:
289,145,518490,1,0,1:1:0:0:
416,194,518629,2,0,L|526:212,1,107.999996704102,8|0,3:2|1:1,0:0:0:0:
333,254,518908,1,8,3:2:0:0:
222,373,519048,2,0,B|199:352|199:352|192:316|230:270,1,107.999996704102,4|8,1:1|3:2,0:0:0:0:
289,145,519327,1,0,1:1:0:0:
333,254,519466,1,8,3:2:0:0:
492,101,519606,2,0,L|381:126,1,107.999996704102,0|8,1:1|3:2,0:0:0:0:
174,158,519885,5,4,1:1:0:0:
306,57,520025,1,8,3:2:0:0:
254,220,520164,5,0,1:1:0:0:
140,39,520304,1,8,3:2:0:0:
224,323,520443,5,0,1:1:0:0:
215,74,520583,1,8,3:2:0:0:
12,242,520742,6,0,B|110:218|110:218|57:253,1,135,4|0,3:1|0:0,0:0:0:0:
191,243,521042,2,0,B|289:219|289:219|236:254,1,135,4|0,3:1|0:0,0:0:0:0:
366,242,521342,2,0,B|464:218|464:218|411:253,1,135,8|0,3:3|0:0,0:0:0:0:
413,321,521642,6,0,B|440:327|470:317|470:317|497:321|526:358,1,107.999996704102,0|0,3:2|0:0,0:0:0:0:
263,241,521942,2,0,B|236:247|206:237|206:237|179:241|150:278,1,107.999996704102,10|0,3:2|0:0,0:0:0:0:
298,341,522242,1,2,3:2:0:0:
326,141,522392,2,0,B|307:130|304:101|304:101|337:69|312:14,1,107.999996704102,0|10,3:2|3:2,0:0:0:0:
215,0,522692,6,0,B|169:12|163:96|224:114|224:114|241:148|213:184,1,215.999993408203,4|0,3:1|3:2,0:0:0:0:
8,216,523142,2,0,B|53:184|53:184|130:192,1,107.999996704102,10|0,3:2|0:0,0:0:0:0:
103,371,523442,1,2,3:2:0:0:
76,271,523592,1,0,3:2:0:0:
213,298,523742,2,0,B|265:303|265:303|310:271,1,107.999996704102,10|0,3:2|0:0,0:0:0:0:
417,235,524042,6,0,B|399:218|384:228|384:228|404:302,1,107.999996704102,4|0,3:1|0:0,0:0:0:0:
255,185,524342,2,0,B|273:202|288:192|288:192|268:118,1,107.999996704102,10|0,3:2|0:0,0:0:0:0:
250,46,524642,1,2,3:2:0:0:
141,143,524792,1,0,3:2:0:0:
87,1,524942,1,10,3:2:0:0:
269,123,525092,1,0,0:0:0:0:
431,42,525242,6,0,B|413:29|402:-1|402:-1|386:76|488:49|482:159,1,215.999993408203,2|10,3:2|3:2,0:0:0:0:
448,340,525692,1,0,0:0:0:0:
404,137,525842,1,2,3:2:0:0:
512,250,525992,1,0,3:2:0:0:
299,207,526142,2,0,B|327:206|349:189|349:189|404:247|315:313,1,161.999995056153,12|0,3:1|0:0,0:0:0:0:
244,289,526442,6,0,B|157:303|157:303|107:285|107:285|19:303,1,215.999993408203,4|10,3:2|3:2,0:0:0:0:
161,95,527042,1,2,3:2:0:0:
161,95,527192,1,0,3:2:0:0:
118,171,527342,2,0,B|77:158|77:158|64:69,1,107.999996704102,10|0,3:2|0:0,0:0:0:0:
255,2,527642,6,0,L|235:117,1,107.999996704102,2|0,3:2|3:2,0:0:0:0:
198,245,527942,1,10,3:2:0:0:
298,164,528092,1,0,0:0:0:0:
357,348,528242,1,2,3:2:0:0:
357,348,528392,1,0,3:2:0:0:
504,257,528542,2,0,B|483:294|429:292|429:292|430:243|373:216,1,161.999995056153,10|0,3:2|0:0,0:0:0:0:
382,144,528842,6,0,B|417:139|443:156|443:156|466:134|471:80,1,107.999996704102,4|0,3:1|0:0,0:0:0:0:
231,87,529142,2,0,B|196:82|170:99|170:99|147:77|142:23,1,107.999996704102,10|0,3:2|0:0,0:0:0:0:
306,4,529442,1,2,3:2:0:0:
306,4,529592,1,0,3:2:0:0:
217,172,529742,2,0,L|111:207,1,107.999996704102,10|0,3:2|0:0,0:0:0:0:
10,309,530042,6,0,B|36:281|36:281|3:254|8:205,1,107.999996704102,2|0,3:2|3:2,0:0:0:0:
90,36,530342,2,0,B|64:64|64:64|97:91|92:140,1,107.999996704102,10|0,3:2|0:0,0:0:0:0:
6,136,530642,1,4,3:2:0:0:
6,136,530792,1,0,3:2:0:0:
171,58,530942,2,0,L|300:85,1,107.999996704102,8|0,3:2|3:2,0:0:0:0:
376,176,531242,5,0,3:2:0:0:
376,176,531392,1,0,3:2:0:0:
481,85,531542,2,0,B|464:63|431:62|431:62|409:81|411:108,1,107.999996704102,10|0,3:2|0:0,0:0:0:0:
505,262,531842,1,2,3:2:0:0:
472,166,531992,1,0,3:2:0:0:
509,273,532142,1,10,3:2:0:0:
383,380,532292,6,0,B|392:307|392:307|360:259|360:259|378:162,1,215.999993408203,4|0,3:1|3:2,0:0:0:0:
209,73,532742,2,0,B|202:36|226:0|226:0|189:23,1,107.999996704102,10|0,3:2|0:0,0:0:0:0:
293,52,533042,2,0,B|328:64|347:103|347:103|346:59,1,107.999996704102,2|0,3:2|3:2,0:0:0:0:
270,132,533342,2,0,B|241:156|198:153|198:153|236:174,1,107.999996704102,10|0,3:2|0:0,0:0:0:0:
142,208,533642,6,0,P|125:192|130:108,1,107.999996704102,4|0,3:1|0:0,0:0:0:0:
95,290,533942,2,0,P|112:306|107:390,1,107.999996704102,10|0,3:2|0:0,0:0:0:0:
2,220,534242,1,2,3:2:0:0:
2,220,534392,1,0,3:2:0:0:
225,168,534542,2,0,L|347:138,1,107.999996704102,10|0,3:2|0:0,0:0:0:0:
466,104,534842,5,2,3:2:0:0:
363,33,534992,1,0,3:2:0:0:
363,33,535067,1,0,3:2:0:0:
363,33,535142,1,10,3:2:0:0:
489,173,535292,2,0,B|553:140|513:49|513:49|500:92|457:107,1,215.999993408203,0|0,3:2|3:2,0:0:0:0:
428,304,535742,2,0,B|378:278|408:208|408:208|419:241|452:252,1,161.999995056153,10|0,3:2|0:0,0:0:0:0:
510,293,536042,5,4,3:2:0:0:
510,293,536192,1,0,0:0:0:0:
327,204,536342,2,0,L|219:227,1,107.999996704102,10|0,3:2|0:0,0:0:0:0:
101,350,536642,6,0,B|112:311|112:311|132:301|132:301|149:243,1,107.999996704102,2|0,3:2|3:2,0:0:0:0:
14,148,536867,2,0,B|25:186|25:186|45:197|45:197|58:241,1,107.999996704102,0|0,0:0|0:0,0:0:0:0:
140,161,537092,2,0,L|213:145,1,53.9999983520508,0|0,3:0|0:0,0:0:0:0:
288,133,537242,5,2,3:2:0:0:
288,133,537392,1,0,3:2:0:0:
405,19,537542,2,0,B|395:60|395:60|408:79|408:79|399:124,1,107.999996704102,10|0,3:2|0:0,0:0:0:0:
257,275,537842,1,2,3:2:0:0:
257,275,537992,1,0,3:2:0:0:
344,213,538142,1,10,3:2:0:0:
208,84,538292,1,0,0:0:0:0:
379,129,538442,6,0,B|419:142|419:142|476:130|494:78,1,107.999996704102,4|0,3:1|0:0,0:0:0:0:
302,8,538742,1,10,3:2:0:0:
208,84,538892,2,0,B|168:71|168:71|111:83|93:135,1,107.999996704102,0|2,0:0|3:2,0:0:0:0:
183,205,539192,1,0,3:2:0:0:
294,143,539342,2,0,L|327:251,1,107.999996704102,10|0,3:2|0:0,0:0:0:0:
366,372,539642,5,2,3:2:0:0:
418,224,539792,1,0,3:2:0:0:
307,313,539942,1,10,3:2:0:0:
454,368,540092,1,0,0:0:0:0:
282,144,540242,5,4,3:2:0:0:
366,372,540392,1,0,3:2:0:0:
206,244,540542,1,8,3:2:0:0:
407,148,540692,1,0,3:2:0:0:
207,62,540842,5,12,3:1:0:0:
328,241,540992,1,0,3:2:0:0:
381,1,541142,1,12,3:1:0:0:
334,265,541292,1,0,3:2:0:0:
489,110,541442,5,12,3:1:0:0:
500,134,541517,1,0,3:0:0:0:
512,158,541592,1,0,3:2:0:0:
132,0,541742,5,8,3:2:0:0:
120,24,541817,1,0,3:2:0:0:
108,48,541892,2,0,L|83:-9,1,53.9999983520508,0|0,3:0|3:0,0:0:0:0:
354,129,542042,6,0,B|316:160|316:160|337:238,1,107.999996704102,4|0,3:1|3:2,0:0:0:0:
360,342,542342,1,10,3:2:0:0:
502,182,542492,2,0,B|510:230|510:230|444:276,1,107.999996704102,0|10,3:2|3:2,0:0:0:0:
360,342,542792,1,0,3:2:0:0:
452,77,542942,2,0,B|428:115|428:115|437:139|437:139|406:190,1,107.999996704102,10|0,3:2|3:2,0:0:0:0:
158,129,543167,1,0,3:0:0:0:
158,129,543242,6,0,B|195:160|195:160|174:238,1,107.999996704102,4|0,3:1|3:2,0:0:0:0:
152,342,543542,1,10,3:2:0:0:
10,182,543692,2,0,B|1:230|1:230|67:276,1,107.999996704102,0|10,3:2|3:2,0:0:0:0:
152,342,543992,1,0,3:2:0:0:
60,77,544142,2,0,B|83:115|83:115|74:139|74:139|105:190,1,107.999996704102,10|0,3:2|3:2,0:0:0:0:
256,256,544367,1,0,3:2:0:0:
256,256,544442,6,0,B|281:208|281:208|266:141,1,107.999996704102,4|0,3:1|3:2,0:0:0:0:
243,340,544742,1,10,3:2:0:0:
207,69,544892,2,0,B|182:117|182:117|197:184,1,107.999996704102,0|10,3:2|3:2,0:0:0:0:
243,340,545192,1,0,3:2:0:0:
318,163,545342,2,0,L|180:177,1,107.999996704102,10|0,3:2|3:2,0:0:0:0:
24,189,545567,1,0,3:2:0:0:
24,189,545642,5,4,3:1:0:0:
100,91,545792,1,0,1:0:0:0:
169,250,545942,1,0,1:0:0:0:
184,70,546092,5,4,3:1:0:0:
108,168,546242,1,0,1:0:0:0:
39,9,546392,1,0,1:0:0:0:
11,198,546542,5,4,3:1:0:0:
203,160,546692,1,0,1:0:0:0:
301,332,546842,6,0,B|334:315|334:315|400:338,1,107.999996704102,4|0,3:1|3:2,0:0:0:0:
511,326,547142,1,10,3:2:0:0:
346,192,547292,2,0,B|362:225|362:225|428:248,1,107.999996704102,0|10,3:2|3:2,0:0:0:0:
511,326,547592,1,0,3:2:0:0:
396,288,547742,2,0,L|291:254,1,107.999996704102,10|0,3:2|3:2,0:0:0:0:
211,332,547967,1,0,3:2:0:0:
211,332,548042,6,0,B|177:315|177:315|111:338,1,107.999996704102,4|0,3:1|3:2,0:0:0:0:
1,326,548342,1,10,3:2:0:0:
166,192,548492,2,0,B|149:225|149:225|83:248,1,107.999996704102,0|10,3:2|3:2,0:0:0:0:
1,326,548792,1,0,3:2:0:0:
116,288,548942,2,0,L|221:254,1,107.999996704102,10|0,3:2|3:2,0:0:0:0:
152,93,549167,1,0,3:2:0:0:
152,93,549242,6,0,B|128:70|128:70|154:-6,1,107.999996704102,4|0,3:1|3:2,0:0:0:0:
256,192,549542,1,10,3:2:0:0:
360,93,549692,2,0,B|384:70|384:70|358:-6,1,107.999996704102,0|10,3:2|3:2,0:0:0:0:
256,192,549992,1,0,3:2:0:0:
259,0,550142,2,0,B|247:44|247:44|263:61|263:61|252:124,1,107.999996704102,10|0,3:2|3:2,0:0:0:0:
182,292,550442,5,4,3:1:0:0:
362,203,550592,1,0,1:0:0:0:
156,105,550742,1,0,1:0:0:0:
330,292,550892,5,4,3:1:0:0:
150,203,551042,1,0,1:0:0:0:
356,105,551192,1,0,1:0:0:0:
256,368,551342,5,4,3:1:0:0:
256,192,551492,1,0,1:0:0:0:
256,272,551642,5,4,3:1:0:0:
89,350,551942,5,0,1:2:0:0:
66,322,552042,1,0,1:2:0:0:
69,287,552142,1,0,1:2:0:0:
129,223,552242,5,0,1:2:0:0:
131,188,552342,1,0,1:2:0:0:
109,160,552442,1,0,1:2:0:0:
23,142,552542,5,0,1:2:0:0:
1,114,552642,1,0,1:2:0:0:
3,79,552742,1,0,1:2:0:0:
81,21,552842,5,0,1:2:0:0:
128,33,553142,1,0,0:0:0:0:
175,45,553442,1,0,0:0:0:0:
222,57,553742,1,0,0:0:0:0:
195,235,554042,6,0,L|186:185,1,45,8|0,0:0|0:0,0:0:0:0:
317,149,554192,2,0,L|326:199,1,45,8|0,0:2|0:0,0:0:0:0:
184,242,554342,2,0,L|174:183,1,45,8|0,0:2|0:0,0:0:0:0:
327,141,554492,2,0,L|337:200,1,45,8|0,0:2|0:0,0:0:0:0:
162,186,554642,6,0,L|172:132,1,53.9999983520508,8|0,0:0|0:0,0:0:0:0:
349,197,554792,2,0,L|339:251,1,53.9999983520508,8|0,0:2|0:0,0:0:0:0:
145,173,554942,2,0,L|154:120,1,53.9999983520508,8|0,0:2|0:0,0:0:0:0:
366,210,555092,2,0,L|357:263,1,53.9999983520508,8|0,0:2|0:0,0:0:0:0:
138,274,555242,6,0,L|121:178,1,62.9999980773926,8|0,0:0|0:0,0:0:0:0:
373,109,555392,2,0,L|390:205,1,62.9999980773926,8|0,0:2|0:0,0:0:0:0:
114,291,555542,2,0,L|93:175,1,62.9999980773926,8|0,0:2|0:0,0:0:0:0:
397,92,555692,2,0,L|418:208,1,62.9999980773926,8|0,0:2|0:0,0:0:0:0:
252,367,555842,5,0,0:0:0:0:
244,336,555917,1,0,0:0:0:0:
237,305,555992,1,0,0:0:0:0:
230,274,556067,1,0,0:0:0:0:
276,253,556142,5,0,0:0:0:0:
283,222,556217,1,0,0:0:0:0:
290,191,556292,1,0,0:0:0:0:
297,160,556367,1,0,0:0:0:0:
280,132,556442,5,4,0:0:0:0:
435,337,556775,5,0,0:0:0:0:
435,337,556886,2,0,P|461:347|508:336,1,60,0|0,0:0|0:0,0:0:0:0:
385,248,557108,1,0,0:0:0:0:
385,248,557233,2,0,P|359:238|312:249,1,60,0|0,0:0|0:0,0:0:0:0:
255,367,557483,1,0,0:0:0:0:
255,367,557616,2,0,P|281:377|328:366,1,60,0|0,0:0|0:0,0:0:0:0:
327,241,557883,6,0,B|315:182|315:182|341:140|341:140|324:60,1,180,4|0,0:0|0:0,0:0:0:0:
310,0,558565,1,0,0:0:0:0:
310,0,558676,1,0,0:0:0:0:
310,0,558787,1,0,0:0:0:0:
260,117,559067,1,0,0:0:0:0:
139,6,559327,5,4,0:0:0:0:
419,90,559857,1,2,3:2:0:0:
256,192,560571,5,2,0:0:0:0:
135,197,560809,5,2,3:2:0:0:
163,174,560928,1,0,0:0:0:0:
144,266,561047,5,2,3:2:0:0:
148,230,561166,1,0,0:0:0:0:
201,299,561285,5,2,3:2:0:0:
179,271,561404,1,0,0:0:0:0:
236,294,561523,5,2,3:2:0:0:
256,192,561761,5,2,0:0:0:0:
256,192,562476,1,2,0:0:0:0:
377,187,562714,5,2,3:2:0:0:
349,210,562833,1,0,0:0:0:0:
368,118,562952,5,2,3:2:0:0:
364,154,563071,1,0,0:0:0:0:
311,85,563190,5,2,3:2:0:0:
333,113,563309,1,0,0:0:0:0:
276,90,563428,5,2,3:2:0:0:
371,306,563666,6,0,L|536:279,1,135.000005149842,2|0,3:2|3:2,0:0:0:0:
276,326,563904,1,8,3:2:0:0:
282,299,564023,1,8,3:2:0:0:
185,314,564142,6,0,L|51:335,1,116.999994644165,2|0,3:2|3:2,0:0:0:0:
282,299,564380,1,8,3:2:0:0:
276,326,564499,1,8,3:2:0:0:
371,306,564618,6,0,L|486:287,1,99.0000030212403,2|0,3:2|3:2,0:0:0:0:
276,326,564857,1,8,3:2:0:0:
282,299,564976,1,8,3:2:0:0:
185,314,565095,6,0,L|87:329,1,80.9999975280763,2|0,3:2|3:2,0:0:0:0:
282,299,565333,1,8,3:2:0:0:
276,326,565452,1,8,3:2:0:0:
143,193,565571,5,2,3:2:0:0:
301,253,565809,1,2,0:0:0:0:
287,221,565928,1,0,0:0:0:0:
365,127,566047,1,2,0:0:0:0:
352,159,566166,1,0,0:0:0:0:
433,263,566285,1,2,0:0:0:0:
420,231,566404,1,0,0:0:0:0:
510,98,566523,5,0,1:2:0:0:
352,159,566761,1,2,1:2:0:0:
365,127,566880,1,0,1:2:0:0:
287,33,566999,1,2,1:2:0:0:
301,64,567118,1,0,1:2:0:0:
219,168,567237,1,2,1:2:0:0:
232,136,567357,1,0,0:0:0:0:
143,4,567476,5,2,3:2:0:0:
256,192,568190,1,2,0:0:0:0:
377,197,568428,5,2,3:2:0:0:
349,174,568547,1,0,0:0:0:0:
368,266,568666,5,2,3:2:0:0:
364,230,568785,1,0,0:0:0:0:
311,299,568904,5,2,3:2:0:0:
333,271,569023,1,0,0:0:0:0:
276,294,569142,5,2,3:2:0:0:
256,192,569380,5,2,0:0:0:0:
256,192,570095,1,2,0:0:0:0:
135,187,570333,5,2,3:2:0:0:
163,210,570452,1,0,0:0:0:0:
144,118,570571,5,2,3:2:0:0:
148,154,570690,1,0,0:0:0:0:
201,85,570809,5,2,3:2:0:0:
179,113,570928,1,0,0:0:0:0:
236,90,571047,5,2,3:2:0:0:
133,316,571285,6,0,L|-32:289,1,135.000005149842,2|0,3:2|3:2,0:0:0:0:
228,336,571523,1,8,3:2:0:0:
222,309,571642,1,8,3:2:0:0:
319,324,571761,6,0,L|452:345,1,116.999994644165,2|0,3:2|3:2,0:0:0:0:
222,309,571999,1,8,3:2:0:0:
228,336,572118,1,8,3:2:0:0:
133,316,572237,6,0,L|17:297,1,99.0000030212403,2|0,3:2|3:2,0:0:0:0:
228,336,572476,1,8,3:2:0:0:
222,309,572595,1,8,3:2:0:0:
319,324,572714,6,0,L|416:339,1,80.9999975280763,2|0,3:2|3:2,0:0:0:0:
222,309,572952,1,8,3:2:0:0:
228,336,573071,1,8,3:2:0:0:
256,224,573190,5,2,3:2:0:0:
256,224,573428,1,0,0:0:0:0:
256,224,573666,1,0,0:0:0:0:
256,224,573904,1,0,0:0:0:0:
319,143,574142,6,0,B|311:144|293:156|293:156|321:123|309:65,1,90,2|0,3:2|0:0,0:0:0:0:
188,45,574380,2,0,B|196:46|214:58|214:58|186:25|198:-33,1,90,8|0,3:2|0:0,0:0:0:0:
67,114,574618,5,0,1:2:0:0:
77,154,574698,1,0,1:2:0:0:
88,195,574777,1,0,1:2:0:0:
146,215,574857,5,0,1:2:0:0:
135,255,574936,1,0,1:2:0:0:
124,296,575015,1,0,1:2:0:0:
144,353,575095,5,2,3:2:0:0:
246,283,575214,1,2,0:0:0:0:
383,382,575333,1,8,3:2:0:0:
383,382,575452,1,0,0:0:0:0:
484,272,575571,2,0,B|476:293|439:294|439:294|410:275|371:279,1,107.999996704102,0|2,3:2|0:0,0:0:0:0:
228,177,575809,2,0,B|236:198|273:199|273:199|302:180|341:184,1,107.999996704102,8|2,3:2|0:0,0:0:0:0:
419,58,576047,6,0,B|450:77|450:77|465:120|413:142,1,107.999996704102,0|0,3:2|0:0,0:0:0:0:
335,8,576285,1,10,3:2:0:0:
335,8,576404,1,0,0:0:0:0:
225,69,576523,2,0,B|200:59|170:69|170:69|162:38|117:15,1,107.999996704102,2|0,3:2|0:0,0:0:0:0:
323,259,576761,2,0,B|348:249|378:259|378:259|386:228|431:205,1,107.999996704102,10|0,3:2|0:0,0:0:0:0:
228,177,576999,6,0,B|199:138|199:138|164:187|177:220|177:220|217:243|225:302,1,215.999993408203,6|8,3:2|3:2,0:0:0:0:
180,384,577357,1,0,0:0:0:0:
64,304,577476,2,0,B|49:320|49:320|141:301,1,107.999996704102,2|2,3:2|0:0,0:0:0:0:
311,187,577714,2,0,B|326:203|326:203|234:184,1,107.999996704102,10|2,3:2|0:0,0:0:0:0:
55,140,577952,5,0,3:2:0:0:
119,1,578071,1,0,0:0:0:0:
156,103,578190,1,10,3:2:0:0:
18,37,578309,1,0,0:0:0:0:
185,81,578428,2,0,B|264:60|264:60|222:51,1,107.999996704102,2|0,3:2|0:0,0:0:0:0:
53,230,578666,2,0,B|-26:209|-26:209|16:200,1,107.999996704102,10|0,3:2|0:0,0:0:0:0:
155,383,578904,6,0,B|108:311|150:249|150:249|192:254|234:220,1,215.999993408203,6|8,3:2|3:2,0:0:0:0:
170,165,579261,1,0,0:0:0:0:
318,294,579380,2,0,B|339:288|351:261|351:261|329:234|318:181,1,107.999996704102,0|2,3:2|0:0,0:0:0:0:
391,52,579618,2,0,B|412:58|424:85|424:85|402:112|391:165,1,107.999996704102,8|2,3:2|0:0,0:0:0:0:
451,356,579857,5,0,3:2:0:0:
512,335,579976,1,0,0:0:0:0:
512,271,580095,1,10,3:2:0:0:
451,251,580214,1,2,0:0:0:0:
412,303,580333,2,0,B|444:295|461:275|461:275|492:283|516:276,1,107.999996704102,0|0,3:2|0:0,0:0:0:0:
324,207,580571,2,0,B|292:199|275:179|275:179|244:187|220:180,1,107.999996704102,8|0,3:2|0:0,0:0:0:0:
434,22,580809,6,0,B|455:55|448:79|448:79|420:86|398:125,1,107.999996704102,6|2,3:2|0:0,0:0:0:0:
490,166,581047,1,8,3:2:0:0:
490,166,581166,1,2,0:0:0:0:
380,351,581285,2,0,B|359:318|366:294|366:294|394:287|403:266,1,107.999996704102,4|0,3:2|0:0,0:0:0:0:
324,207,581523,1,8,3:2:0:0:
324,207,581642,1,2,0:0:0:0:
490,166,581761,5,4,3:2:0:0:
324,207,581999,1,10,3:2:0:0:
324,207,582118,1,2,0:0:0:0:
438,295,582237,2,0,B|403:307|403:307|443:224,1,107.999996704102,0|0,1:2|0:0,0:0:0:0:
321,63,582476,2,0,B|286:50|286:50|326:133,1,107.999996704102,8|0,1:2|3:2,0:0:0:0:
250,280,582714,6,0,B|208:293|208:293|197:320|197:320|144:340,1,107.999996704102,6|2,3:2|0:0,0:0:0:0:
65,289,582952,1,8,3:2:0:0:
65,289,583071,1,0,0:0:0:0:
136,185,583190,2,0,B|154:200|154:200|196:165|168:104,1,107.999996704102,0|2,3:2|0:0,0:0:0:0:
52,68,583428,2,0,B|34:83|34:83|-8:48|20:-13,1,107.999996704102,8|2,3:2|0:0,0:0:0:0:
178,56,583666,6,0,P|225:12|352:102,1,215.999993408203,0|8,3:2|3:2,0:0:0:0:
348,175,584023,2,0,B|325:152|325:152|346:65,1,107.999996704102,0|0,0:0|3:2,0:0:0:0:
419,85,584222,1,0,3:2:0:0:
454,92,584301,1,0,3:2:0:0:
489,99,584380,1,10,3:2:0:0:
487,236,584499,1,2,0:0:0:0:
281,281,584618,6,0,B|272:257|303:241|303:241|333:261|384:249,1,107.999996704102,6|0,3:2|0:0,0:0:0:0:
346,360,584857,1,8,3:2:0:0:
346,360,584976,1,0,0:0:0:0:
182,198,585095,2,0,B|169:235|169:235|184:259|184:259|169:313,1,107.999996704102,0|0,3:2|0:0,0:0:0:0:
339,74,585333,2,0,B|352:111|352:111|337:135|337:135|352:189,1,107.999996704102,8|0,3:2|0:0,0:0:0:0:
256,32,585571,5,0,3:2:0:0:
256,32,585809,1,10,3:2:0:0:
376,1,585928,1,2,0:0:0:0:
256,48,586047,5,2,3:2:0:0:
148,20,586166,1,2,0:0:0:0:
256,64,586285,5,10,3:2:0:0:
352,39,586404,1,2,0:0:0:0:
256,144,586523,5,6,3:2:0:0:
256,64,586642,1,0,0:0:0:0:
256,160,586761,1,8,3:2:0:0:
256,48,586880,1,0,0:0:0:0:
160,126,586999,6,0,B|139:95|139:95|143:66|143:66|114:15,1,107.999996704102,0|2,3:2|0:0,0:0:0:0:
352,258,587237,2,0,B|373:289|373:289|369:318|369:318|398:369,1,107.999996704102,8|2,3:2|0:0,0:0:0:0:
89,312,587476,6,0,B|94:278|94:278|174:238,1,107.999996704102,0|0,3:2|0:0,0:0:0:0:
423,72,587714,2,0,B|418:106|418:106|338:146,1,107.999996704102,10|2,3:2|0:0,0:0:0:0:
263,273,587952,5,0,1:2:0:0:
236,105,588071,1,0,1:2:0:0:
256,194,588190,1,0,1:2:0:0:
256,194,588249,1,0,1:2:0:0:
256,194,588309,1,2,1:2:0:0:
229,26,588428,5,6,1:2:0:0:
278,361,589857,1,0,3:2:0:0:
414,254,590333,6,0,B|435:236|435:236|404:164,1,90,0|0,3:2|0:0,0:0:0:0:
468,10,590571,2,0,B|447:28|447:28|478:100,1,90,10|0,3:2|0:0,0:0:0:0:
510,173,590809,1,0,3:2:0:0:
382,106,590928,2,0,L|282:141,1,90,0|10,3:2|3:2,0:0:0:0:
256,240,591166,1,0,0:0:0:0:
202,364,591285,6,0,B|210:322|184:290|184:290|122:285|110:229,1,180,2|10,3:2|3:2,0:0:0:0:
97,75,591642,2,0,B|88:116|114:148|114:148|177:154|189:210,1,180,0|0,0:0|3:2,0:0:0:0:
0,366,591999,2,0,L|96:335,1,90,10|0,3:2|0:0,0:0:0:0:
306,344,592237,6,0,P|278:306|305:236,1,90,2|0,3:2|0:0,0:0:0:0:
459,124,592476,2,0,P|460:168|433:202,1,90,10|0,3:2|0:0,0:0:0:0:
239,175,592714,1,0,3:2:0:0:
220,86,592833,1,0,3:2:0:0:
305,114,592952,2,0,L|413:151,1,90,10|0,3:2|0:0,0:0:0:0:
295,11,593190,6,0,L|187:48,1,90,0|0,3:2|0:0,0:0:0:0:
48,99,593428,1,10,3:2:0:0:
0,182,593547,2,0,L|108:219,1,90,0|0,0:0|3:2,0:0:0:0:
235,260,593785,1,0,3:2:0:0:
283,343,593904,2,0,L|175:380,1,90,10|0,3:2|0:0,0:0:0:0:
418,364,594142,6,0,B|388:310|388:310|399:281|399:281|364:196,1,180,4|10,3:2|3:2,0:0:0:0:
472,194,594499,1,0,0:0:0:0:
462,72,594618,2,0,B|473:94|473:94|437:102|403:71,1,90,0|0,3:2|3:2,0:0:0:0:
263,9,594857,2,0,B|252:-13|252:-13|288:-21|322:10,1,90,10|0,3:2|0:0,0:0:0:0:
292,111,595095,6,0,L|193:139,1,90,2|0,3:2|0:0,0:0:0:0:
63,183,595333,1,10,3:2:0:0:
98,33,595452,2,0,B|101:7|139:0|139:0|185:66|100:113,1,180,0|0,0:0|3:2,0:0:0:0:
20,280,595809,2,0,B|18:293|0:296|0:296|-23:263|18:240,1,90,10|0,3:2|0:0,0:0:0:0:
183,174,596047,6,0,B|214:179|214:179|238:208|217:246,1,90,2|0,3:2|0:0,0:0:0:0:
147,297,596285,1,10,3:2:0:0:
147,297,596404,1,0,0:0:0:0:
315,384,596523,2,0,B|284:379|284:379|260:350|281:312,1,90,2|0,3:2|3:2,0:0:0:0:
355,261,596761,1,10,3:2:0:0:
355,261,596880,1,0,0:0:0:0:
442,310,596999,5,2,3:2:0:0:
448,26,597237,1,10,3:2:0:0:
405,105,597357,1,0,0:0:0:0:
484,147,597476,2,0,L|522:238,1,90,2|0,3:2|3:2,0:0:0:0:
396,384,597714,2,0,L|361:300,1,90,10|0,3:2|3:2,0:0:0:0:
223,219,597952,6,0,B|204:224|177:216|177:216|152:223|142:260,1,90,4|0,3:2|0:0,0:0:0:0:
327,244,598190,1,10,3:2:0:0:
294,147,598309,1,0,0:0:0:0:
402,166,598428,2,0,B|421:161|448:169|448:169|473:162|483:125,1,90,0|0,3:2|3:2,0:0:0:0:
383,0,598666,2,0,L|354:102,1,90,10|0,3:2|0:0,0:0:0:0:
198,138,598904,6,0,B|150:132|135:77|135:77|105:43|35:49,1,180,2|10,3:2|3:2,0:0:0:0:
55,142,599261,1,0,0:0:0:0:
239,204,599380,2,0,P|267:183|275:124,1,90,2|0,3:2|3:2,0:0:0:0:
106,259,599618,2,0,P|111:302|144:331,1,90,10|0,3:2|0:0,0:0:0:0:
306,374,599857,6,0,B|333:352|333:352|303:284,1,90,2|0,3:2|0:0,0:0:0:0:
387,156,600095,1,10,3:2:0:0:
376,242,600214,1,0,0:0:0:0:
243,131,600333,2,0,B|216:153|216:153|246:221,1,90,0|0,3:2|3:2,0:0:0:0:
367,73,600571,2,0,B|394:51|394:51|364:-17,1,90,10|0,3:2|0:0,0:0:0:0:
273,53,600809,5,2,3:2:0:0:
174,26,600928,1,0,0:0:0:0:
282,63,601047,1,10,3:2:0:0:
183,36,601166,1,0,0:0:0:0:
382,85,601285,2,0,B|393:64|418:54|418:54|441:64|491:54,1,90,2|0,3:2|3:2,0:0:0:0:
316,202,601523,2,0,B|305:181|280:171|280:171|257:181|207:171,1,90,10|0,3:2|0:0,0:0:0:0:
425,171,601761,6,0,L|404:383,1,180,4|10,3:2|3:2,0:0:0:0:
316,202,602237,1,0,3:2:0:0:
316,202,602357,1,0,3:2:0:0:
357,82,602476,2,0,B|368:65|368:65|401:54|441:99,1,90,10|0,3:2|0:0,0:0:0:0:
239,126,602714,5,4,3:1:0:0:
33,78,603071,1,4,3:1:0:0:
239,126,603428,1,10,3:2:0:0:
97,264,603666,5,0,3:2:0:0:
97,264,605095,1,0,3:2:0:0:
360,363,605571,6,0,B|370:328|370:328|386:319|386:319|402:271,1,90,2|0,3:2|0:0,0:0:0:0:
512,252,605809,2,0,B|530:279|530:279|441:250,1,90,10|0,3:2|0:0,0:0:0:0:
436,177,606047,1,0,3:2:0:0:
436,177,606166,1,0,3:2:0:0:
299,139,606285,2,0,B|294:166|294:166|383:137,1,90,10|0,3:2|0:0,0:0:0:0:
483,101,606523,5,0,3:2:0:0:
222,74,606761,2,0,B|196:53|196:53|194:18|227:-13,1,90,10|0,3:2|0:0,0:0:0:0:
299,139,606999,2,0,B|330:126|330:126|361:142|371:186,1,90,2|0,3:2|3:2,0:0:0:0:
204,170,607237,2,0,B|198:203|198:203|169:222|126:209,1,90,10|0,3:2|0:0,0:0:0:0:
23,116,607476,6,0,L|46:231,1,90,2|0,3:2|0:0,0:0:0:0:
55,356,607714,1,10,3:2:0:0:
104,279,607833,1,0,0:0:0:0:
144,353,607952,1,0,3:2:0:0:
15,279,608071,1,0,3:2:0:0:
145,203,608190,2,0,B|179:195|179:195|201:199|201:199|243:190,1,90,10|0,3:2|0:0,0:0:0:0:
319,14,608428,6,0,P|285:41|275:84,1,90,0|0,3:2|0:0,0:0:0:0:
343,174,608666,1,10,3:2:0:0:
343,174,608904,1,0,3:2:0:0:
398,72,609023,1,0,3:2:0:0:
492,99,609142,2,0,P|490:137|448:181,1,90,10|0,3:2|0:0,0:0:0:0:
488,343,609380,6,0,B|454:332|454:332|443:313|443:313|401:295,1,90,4|0,3:2|0:0,0:0:0:0:
309,269,609618,1,10,3:2:0:0:
217,352,609737,1,0,0:0:0:0:
193,251,609857,1,0,3:2:0:0:
325,359,609976,1,0,3:2:0:0:
169,257,610095,2,0,L|69:271,1,90,10|0,3:2|0:0,0:0:0:0:
317,160,610333,6,0,B|293:164|264:189|264:189|200:130|250:59,1,180,2|10,3:2|3:2,0:0:0:0:
340,81,610690,2,0,B|364:85|393:110|393:110|457:51|407:-20,1,180,0|0,0:0|3:2,0:0:0:0:
217,75,611047,2,0,B|178:51|181:11|181:11|213:37,1,90,10|0,3:2|0:0,0:0:0:0:
131,189,611285,6,0,B|109:169|109:169|33:154,1,90,2|0,3:2|0:0,0:0:0:0:
68,255,611523,1,10,3:2:0:0:
68,255,611642,1,0,0:0:0:0:
214,273,611761,2,0,B|236:253|236:253|312:238,1,90,0|0,3:2|3:2,0:0:0:0:
277,339,611999,1,10,3:2:0:0:
277,339,612118,1,0,0:0:0:0:
156,383,612237,6,0,L|176:177,1,180,2|10,3:2|3:2,0:0:0:0:
128,21,612714,2,0,B|121:5|91:-2|91:-2|111:21|106:66,1,90,2|0,3:2|3:2,0:0:0:0:
0,78,612952,2,0,B|7:94|37:101|37:101|17:78|22:33,1,90,10|0,3:2|3:2,0:0:0:0:
227,52,613190,6,0,B|259:20|305:36|305:36|333:88|407:73,1,180,6|10,3:2|3:2,0:0:0:0:
431,265,613666,1,0,3:2:0:0:
508,218,613785,1,0,3:2:0:0:
463,139,613904,2,0,B|461:118|485:101|485:101|492:70|482:36,1,90,10|0,3:2|0:0,0:0:0:0:
294,58,614142,5,2,3:2:0:0:
321,162,614261,1,0,0:0:0:0:
349,266,614380,1,10,3:2:0:0:
376,370,614499,1,0,0:0:0:0:
222,153,614618,5,2,3:2:0:0:
264,315,614737,1,0,3:2:0:0:
222,153,614857,1,10,3:2:0:0:
264,315,614976,1,0,0:0:0:0:
100,281,615095,6,0,B|77:265|77:265|112:271|146:247,1,90,2|0,3:2|0:0,0:0:0:0:
206,53,615333,2,0,B|229:69|229:69|194:63|160:87,1,90,10|0,3:2|0:0,0:0:0:0:
85,162,615571,1,0,3:2:0:0:
29,35,615690,1,0,3:2:0:0:
88,178,615809,1,10,3:2:0:0:
148,0,615928,1,0,0:0:0:0:
268,129,616047,6,0,L|453:98,1,180,2|10,3:2|3:2,0:0:0:0:
374,189,616404,1,0,0:0:0:0:
468,25,616523,2,0,B|492:7|492:7|518:30|507:69,1,90,2|0,3:2|3:2,0:0:0:0:
512,246,616761,2,0,B|487:263|487:263|461:240|472:201,1,90,10|0,3:2|0:0,0:0:0:0:
314,259,616999,6,0,B|352:218|348:156|312:108|312:108|381:143|374:219,1,270,6|0,3:2|0:0,0:0:0:0:
408,336,617476,1,0,3:2:0:0:
408,336,617595,1,0,3:2:0:0:
259,321,617714,2,0,P|229:268|240:227,1,90,10|0,3:2|0:0,0:0:0:0:
165,143,617952,6,0,L|69:130,1,90,2|0,3:2|0:0,0:0:0:0:
6,0,618190,2,0,B|38:30|38:30|21:72,1,90,10|0,3:2|0:0,0:0:0:0:
75,284,618428,2,0,B|43:254|43:254|60:212,1,90,0|0,3:2|3:2,0:0:0:0:
173,121,618666,2,0,L|269:108,1,90,10|0,3:2|0:0,0:0:0:0:
400,103,618904,6,0,B|398:90|407:64|407:64|369:40|360:-7|360:-7|320:20|335:61,1,180,6|10,3:2|3:2,0:0:0:0:
379,191,619261,1,0,0:0:0:0:
387,244,619380,1,0,3:2:0:0:
434,270,619499,1,0,3:2:0:0:
484,250,619618,1,10,3:2:0:0:
500,198,619737,1,0,0:0:0:0:
469,154,619857,6,0,L|379:186,1,90,2|0,3:2|0:0,0:0:0:0:
294,277,620095,1,10,3:2:0:0:
204,182,620214,2,0,L|114:214,1,90,0|0,3:2|3:2,0:0:0:0:
102,217,620412,1,0,3:2:0:0:
321,106,620571,2,0,B|329:68|329:68|295:5,1,90,10|0,3:2|0:0,0:0:0:0:
25,51,620809,6,0,B|-6:43|-10:86|68:124|129:64|116:-27,1,180,4|2,3:2|3:2,0:0:0:0:
204,182,621166,2,0,B|176:198|204:231|286:203|286:117|213:62,1,180,0|0,3:2|3:2,0:0:0:0:
393,56,621523,2,0,B|389:71|410:73|429:34|399:4|354:10,1,90,2|0,3:2|3:2,0:0:0:0:
512,211,621761,6,0,B|543:219|547:176|469:138|408:198|421:289,1,180,2|2,3:2|3:2,0:0:0:0:
320,182,622118,2,0,B|333:173|320:157|278:171|278:214|315:241,1,90,0|2,3:2|0:0,0:0:0:0:
357,322,622357,1,0,3:2:0:0:
357,322,622476,1,2,3:2:0:0:
406,194,622595,1,0,3:2:0:0:
464,383,622714,6,0,B|486:360|486:360|462:288,1,90,2|0,0:0|0:0,0:0:0:0:
406,194,622952,1,8,0:2:0:0:
352,200,623071,1,0,0:0:0:0:
298,207,623190,1,0,0:0:0:0:
245,213,623309,1,0,0:0:0:0:
191,220,623428,1,8,0:2:0:0:
137,226,623547,1,0,0:0:0:0:
51,221,623666,5,0,0:0:0:0:
70,171,623785,1,0,0:0:0:0:
115,143,623904,1,8,0:2:0:0:
168,147,624023,1,0,0:0:0:0:
209,181,624142,1,0,0:0:0:0:
221,233,624261,1,0,0:0:0:0:
201,282,624380,1,12,0:2:0:0:
235,18,624618,6,0,P|329:-2|367:100,1,180,4|2,3:2|3:2,0:0:0:0:
468,82,624976,2,0,P|516:165|430:232,1,180,0|0,3:2|3:2,0:0:0:0:
487,316,625333,2,0,P|451:340|406:336,1,90,2|0,3:2|3:2,0:0:0:0:
218,383,625571,6,0,P|250:292|357:314,1,180,2|2,3:2|3:2,0:0:0:0:
41,209,625928,2,0,P|89:210|95:264,1,90,0|2,3:2|0:0,0:0:0:0:
101,334,626166,1,0,3:2:0:0:
101,334,626285,1,2,3:2:0:0:
189,200,626404,1,0,3:2:0:0:
41,209,626523,6,0,B|19:186|19:186|43:114,1,90,2|0,0:0|0:0,0:0:0:0:
156,86,626761,1,8,0:2:0:0:
210,92,626880,1,0,0:0:0:0:
264,99,626999,1,0,0:0:0:0:
317,105,627118,1,0,0:0:0:0:
371,112,627237,1,8,0:2:0:0:
425,118,627357,1,0,0:0:0:0:
511,113,627476,5,0,0:0:0:0:
491,63,627595,1,0,0:0:0:0:
446,35,627714,1,8,0:2:0:0:
393,39,627833,1,0,0:0:0:0:
352,73,627952,1,0,0:0:0:0:
340,125,628071,1,0,0:0:0:0:
360,174,628190,1,12,0:2:0:0:
405,356,628428,6,0,B|426:344|459:354|459:354|423:272|321:304,1,180,4|2,3:2|3:2,0:0:0:0:
286,179,628785,2,0,B|281:155|300:127|300:127|211:135|210:242,1,180,0|0,3:2|3:2,0:0:0:0:
145,280,629142,2,0,B|132:278|122:264|122:264|113:308|163:325,1,90,2|0,3:2|3:2,0:0:0:0:
23,238,629380,6,0,B|2:226|-31:236|-31:236|5:154|107:186,1,180,2|2,3:2|3:2,0:0:0:0:
63,71,629737,2,0,B|66:56|53:38|53:38|109:44|109:110,1,90,0|2,3:2|0:0,0:0:0:0:
146,196,629976,1,0,3:2:0:0:
146,196,630095,1,2,3:2:0:0:
59,317,630214,1,0,3:2:0:0:
176,376,630333,5,0,3:2:0:0:
379,251,631047,5,0,0:0:0:0:
460,273,631166,1,0,0:0:0:0:
379,251,631285,1,0,0:0:0:0:
156,210,631523,5,0,0:0:0:0:
83,229,631642,1,0,0:0:0:0:
156,210,631761,1,0,0:0:0:0:
342,111,631999,5,0,0:0:0:0:
407,128,632118,1,0,0:0:0:0:
342,111,632237,1,0,0:0:0:0:
195,54,632476,5,0,0:0:0:0:
136,69,632595,1,0,0:0:0:0:
195,54,632714,1,0,0:0:0:0:
309,0,632952,5,0,0:0:0:0:
362,13,633071,1,0,0:0:0:0:
309,0,633190,1,0,0:0:0:0:
256,192,633428,5,4,0:3:0:0:
247,235,633666,5,0,1:0:0:0:
224,216,633745,1,0,1:0:0:0:
213,188,633825,1,0,1:0:0:0:
265,149,633904,5,0,1:0:0:0:
288,168,633983,1,0,1:0:0:0:
299,196,634063,1,0,1:0:0:0:
256,192,634142,6,0,B|259:155|259:155|271:144|271:144|277:89,1,90,4|0,3:2|0:0,0:0:0:0:
161,87,634380,2,0,B|164:50|164:50|176:39|176:39|182:-16,1,90,10|0,3:2|0:0,0:0:0:0:
256,192,634618,2,0,B|253:155|253:155|241:144|241:144|235:89,1,90,0|0,3:2|3:2,0:0:0:0:
351,87,634857,2,0,B|348:50|348:50|336:39|336:39|330:-16,1,90,10|0,3:2|0:0,0:0:0:0:
488,109,635095,6,0,P|520:141|517:201,1,90,0|0,3:2|0:0,0:0:0:0:
361,300,635333,2,0,P|378:204|478:179,1,180,10|0,3:2|3:2,0:0:0:0:
463,270,635690,1,0,3:2:0:0:
345,203,635809,2,0,L|239:189,1,90,10|0,3:2|0:0,0:0:0:0:
33,334,636047,6,0,B|38:360|38:360|44:322|90:300,1,90,4|0,3:1|0:0,0:0:0:0:
16,170,636285,2,0,B|-9:160|-9:160|20:186|16:236,1,90,10|0,3:2|0:0,0:0:0:0:
171,239,636523,2,0,B|191:221|191:221|155:234|113:206,1,90,0|0,3:2|3:2,0:0:0:0:
39,340,636761,2,0,B|44:366|44:366|50:328|96:306,1,90,10|0,3:2|0:0,0:0:0:0:
327,320,636999,6,0,P|292:292|285:244,1,90,0|0,3:2|0:0,0:0:0:0:
338,353,637237,2,0,P|284:308|340:131,1,270,10|0,3:2|3:2,0:0:0:0:
391,203,637714,1,10,3:2:0:0:
256,0,637952,5,4,3:2:0:0:
256,0,638190,2,0,B|277:7|289:27|289:27|314:-2|307:-40,1,90,10|0,3:2|0:0,0:0:0:0:
211,85,638428,2,0,B|190:92|178:112|178:112|153:83|160:45,1,90,0|0,3:2|3:2,0:0:0:0:
288,150,638666,2,0,B|309:157|321:177|321:177|346:148|339:110,1,90,10|0,3:2|0:0,0:0:0:0:
48,281,638904,6,0,B|88:243|128:261|128:261|161:308|216:298,1,180,0|10,3:2|3:2,0:0:0:0:
256,224,639261,1,0,0:0:0:0:
305,299,639380,2,0,B|351:308|384:261|384:261|424:243|464:281,1,180,0|10,3:2|3:2,0:0:0:0:
256,368,639857,5,4,3:1:0:0:
256,368,640095,2,0,B|235:361|223:341|223:341|198:370|205:408,1,90,10|0,3:2|0:0,0:0:0:0:
301,283,640333,2,0,B|322:276|334:256|334:256|359:285|352:323,1,90,0|0,3:2|3:2,0:0:0:0:
224,218,640571,2,0,B|203:211|191:191|191:191|166:220|173:258,1,90,10|0,3:2|0:0,0:0:0:0:
434,76,640809,6,0,B|402:135|319:113|319:113|338:90|333:42,1,180,0|10,3:2|3:2,0:0:0:0:
256,0,641166,1,0,0:0:0:0:
178,68,641285,2,0,B|174:90|193:113|193:113|110:135|78:76,1,180,0|10,3:2|3:2,0:0:0:0:
319,325,641761,6,0,B|342:388|252:381|233:356|250:254|320:241|392:279|369:372|525:306|525:306|455:305|408:254|408:254|459:222|449:147,1,630,4|0,3:2|0:0,0:0:0:0:
434,76,642714,1,0,3:2:0:0:
158,9,642952,6,0,P|170:51|215:76,1,90,10|0,3:2|0:0,0:0:0:0:
62,140,643190,2,0,P|100:161|149:147,1,90,0|0,3:2|3:2,0:0:0:0:
159,268,643428,2,0,P|201:256|226:210,1,90,10|0,3:2|0:0,0:0:0:0:
145,349,643666,6,0,P|103:337|78:292,1,90,4|0,3:1|0:0,0:0:0:0:
229,135,643904,2,0,P|271:147|296:192,1,90,10|0,3:2|0:0,0:0:0:0:
278,331,644142,1,0,3:2:0:0:
157,274,644261,2,0,L|263:256,1,90,4|0,3:2|0:0,0:0:0:0:
368,244,644499,1,0,0:0:0:0:
473,340,644618,6,0,B|449:315|449:315|465:261,1,90,0|0,3:2|0:0,0:0:0:0:
422,57,644857,2,0,B|446:82|446:82|430:136,1,90,10|0,3:2|0:0,0:0:0:0:
277,169,645095,5,0,1:2:0:0:
236,157,645174,1,0,1:2:0:0:
196,146,645253,1,0,1:2:0:0:
169,106,645333,5,0,1:2:0:0:
128,117,645412,1,0,1:2:0:0:
88,128,645491,1,0,1:2:0:0:
21,97,645571,5,4,3:2:0:0:
61,138,645650,1,0,3:0:0:0:
57,197,645730,1,0,3:0:0:0:
12,233,645809,1,10,3:2:0:0:
5,273,645888,1,0,3:0:0:0:
32,304,645968,1,0,3:0:0:0:
71,306,646047,5,0,3:2:0:0:
125,282,646126,1,0,3:0:0:0:
183,290,646206,1,0,3:0:0:0:
229,327,646285,1,10,3:2:0:0:
225,367,646364,1,0,3:0:0:0:
188,385,646444,1,0,3:0:0:0:
148,374,646523,5,0,3:2:0:0:
137,316,646603,1,0,3:0:0:0:
167,266,646682,1,0,3:0:0:0:
224,249,646761,1,10,3:2:0:0:
268,211,646841,1,0,3:0:0:0:
276,153,646920,1,0,3:0:0:0:
245,104,646999,5,0,3:2:0:0:
249,121,647079,1,0,3:0:0:0:
254,138,647158,1,0,3:0:0:0:
258,156,647237,1,10,3:2:0:0:
263,173,647317,1,0,3:0:0:0:
267,191,647396,1,0,3:0:0:0:
272,208,647476,5,4,3:2:0:0:
395,140,647595,1,0,3:0:0:0:
480,316,647714,1,10,3:2:0:0:
485,286,647793,1,0,3:0:0:0:
491,257,647872,1,0,3:0:0:0:
497,227,647952,5,0,3:2:0:0:
363,320,648071,1,0,3:0:0:0:
395,140,648190,1,10,3:2:0:0:
389,169,648269,1,0,3:0:0:0:
383,198,648349,1,0,3:0:0:0:
377,228,648428,5,0,3:2:0:0:
323,204,648507,1,0,3:0:0:0:
267,222,648587,1,0,3:0:0:0:
236,272,648666,1,10,3:2:0:0:
228,312,648745,1,0,3:0:0:0:
198,340,648825,1,0,3:0:0:0:
157,343,648904,5,0,3:2:0:0:
107,312,648983,1,0,3:0:0:0:
101,254,649063,1,0,3:0:0:0:
143,214,649142,1,10,3:2:0:0:
183,211,649222,1,0,3:0:0:0:
215,237,649301,1,0,3:0:0:0:
209,262,649380,5,4,3:2:0:0:
458,384,649618,1,10,3:2:0:0:
466,325,649698,1,0,3:0:0:0:
432,278,649777,1,0,3:0:0:0:
375,265,649857,1,0,3:2:0:0:
340,217,649936,1,0,3:0:0:0:
347,159,650015,1,0,3:0:0:0:
392,122,650095,1,10,3:2:0:0:
420,151,650174,1,0,3:0:0:0:
461,160,650253,1,0,3:0:0:0:
496,136,650333,5,0,3:2:0:0:
442,111,650412,1,0,3:0:0:0:
422,56,650491,1,0,3:0:0:0:
447,3,650571,1,10,3:2:0:0:
487,13,650650,1,0,3:0:0:0:
504,50,650730,1,0,3:0:0:0:
494,91,650809,5,0,3:2:0:0:
499,148,650888,1,0,3:0:0:0:
462,193,650968,1,0,3:0:0:0:
403,198,651047,1,10,3:2:0:0:
392,158,651126,1,0,3:0:0:0:
415,125,651206,1,0,3:0:0:0:
455,123,651285,5,4,3:2:0:0:
430,176,651364,1,0,3:0:0:0:
376,199,651443,1,0,3:0:0:0:
320,179,651523,1,10,3:2:0:0:
282,188,651602,1,0,3:0:0:0:
258,219,651681,1,0,3:0:0:0:
259,258,651761,5,0,3:2:0:0:
280,204,651840,1,0,3:0:0:0:
254,152,651919,1,0,3:0:0:0:
198,137,651999,1,10,3:2:0:0:
154,96,652079,1,0,3:0:0:0:
155,38,652158,1,0,3:0:0:0:
200,2,652237,6,0,L|222:101,1,90,0|0,3:2|0:0,0:0:0:0:
348,150,652476,2,0,L|370:249,1,90,10|0,3:2|0:0,0:0:0:0:
350,380,652714,5,0,3:2:0:0:
350,380,652773,1,0,3:0:0:0:
350,380,652833,2,0,L|334:315,1,45,0|0,3:0|3:0,0:0:0:0:
476,226,652952,1,8,3:2:0:0:
476,226,653011,1,0,3:0:0:0:
476,226,653071,2,0,L|492:291,1,45,8|0,3:2|3:0,0:0:0:0:
241,179,653190,5,4,3:2:0:0:
348,150,653309,2,0,B|407:138|407:138|439:157|414:189,1,107.999996704102,0|10,0:0|3:2,0:0:0:0:
236,155,653547,2,0,L|168:144,1,53.9999983520508,0|0,0:0|0:0,0:0:0:0:
79,129,653666,1,0,3:2:0:0:
156,66,653785,1,0,0:0:0:0:
95,13,653904,1,10,3:2:0:0:
128,201,654023,1,0,0:0:0:0:
39,362,654142,6,0,B|48:406|-43:401|-2:309|51:296|120:347|120:347|185:371|238:343|278:308|260:234|216:183|216:183|222:216|191:260,1,539.999983520508,0|0,3:2|0:0,0:0:0:0:
328,356,654857,1,10,3:2:0:0:
328,356,654976,1,0,0:0:0:0:
415,295,655095,6,0,B|445:271|445:271|533:297,1,107.999996704102,6|0,3:2|0:0,0:0:0:0:
379,182,655333,1,10,3:2:0:0:
379,182,655452,1,0,0:0:0:0:
299,225,655571,1,2,3:2:0:0:
457,143,655690,1,0,0:0:0:0:
355,94,655809,1,10,3:2:0:0:
402,263,655928,1,0,0:0:0:0:
512,160,656047,6,0,B|523:131|523:131|441:158,1,107.999996704102,2|0,3:2|0:0,0:0:0:0:
290,210,656285,2,0,B|216:234|216:234|228:205,1,107.999996704102,10|0,3:2|0:0,0:0:0:0:
355,94,656523,1,2,3:2:0:0:
402,263,656642,1,0,0:0:0:0:
363,127,656761,1,10,3:2:0:0:
392,231,656880,1,0,0:0:0:0:
483,92,656999,6,0,P|422:47|415:10,1,107.999996704102,6|0,3:2|0:0,0:0:0:0:
499,11,657237,1,10,3:2:0:0:
363,127,657357,2,0,L|227:168,1,107.999996704102,0|2,0:0|3:2,0:0:0:0:
142,203,657595,1,0,0:0:0:0:
182,101,657714,1,10,3:2:0:0:
142,203,657833,1,0,0:0:0:0:
97,41,657952,5,2,3:2:0:0:
0,154,658071,2,0,B|32:129|32:129|111:142,1,107.999996704102,0|10,0:0|3:2,0:0:0:0:
132,290,658309,1,0,0:0:0:0:
230,241,658428,2,0,B|262:266|262:266|341:253,1,107.999996704102,2|0,3:2|0:0,0:0:0:0:
441,233,658666,1,10,3:2:0:0:
441,233,658785,1,0,0:0:0:0:
352,359,658904,5,6,3:2:0:0:
389,153,659023,1,0,0:0:0:0:
389,287,659142,1,10,3:2:0:0:
348,224,659261,1,0,0:0:0:0:
264,240,659380,5,2,3:2:0:0:
470,277,659499,1,0,0:0:0:0:
336,277,659618,1,10,3:2:0:0:
399,236,659737,1,0,0:0:0:0:
245,325,659857,6,0,B|176:317|132:231|183:131|292:152|292:152|225:83|308:-6|308:-6|408:28|394:129,1,647.99998022461,0|10,3:2|3:2,0:0:0:0:
86,361,660809,5,4,3:2:0:0:
87,354,660868,1,0,3:0:0:0:
88,347,660928,1,0,3:0:0:0:
89,341,660987,1,0,3:0:0:0:
90,334,661047,1,10,3:2:0:0:
91,327,661107,1,0,3:0:0:0:
92,321,661166,1,0,3:0:0:0:
93,314,661226,1,0,3:0:0:0:
95,308,661285,6,0,B|96:223|5:193|5:193|49:143|28:61|28:61|113:108|116:171,1,431.999986816407,0|0,3:2|3:2,0:0:0:0:
290,49,661999,6,0,B|250:51|231:88|231:88|210:66|241:39,1,107.999996704102,10|0,3:2|3:2,0:0:0:0:
357,111,662237,2,0,B|397:113|416:150|416:150|437:128|406:101,1,107.999996704102,0|0,3:2|3:2,0:0:0:0:
265,185,662476,2,0,B|225:187|206:224|206:224|185:202|216:175,1,107.999996704102,10|0,3:2|0:0,0:0:0:0:
412,249,662714,6,0,B|386:269|376:286|376:286|379:219|413:166|482:194|554:140|493:40|493:40|415:106|458:176|541:237|541:237|520:237|485:270,1,647.99998022461,4|10,3:2|3:2,0:0:0:0:
478,331,663547,1,0,0:0:0:0:
342,378,663666,5,2,3:2:0:0:
305,289,663785,1,0,0:0:0:0:
224,274,663904,1,10,3:2:0:0:
173,303,664023,1,0,0:0:0:0:
49,259,664142,5,2,3:2:0:0:
14,211,664261,1,0,3:2:0:0:
19,129,664380,1,10,3:2:0:0:
102,82,664499,1,0,0:0:0:0:
177,1,664618,5,4,3:2:0:0:
179,7,664678,1,0,3:0:0:0:
181,13,664737,1,0,3:0:0:0:
183,20,664797,1,0,3:0:0:0:
185,26,664857,1,10,3:2:0:0:
188,32,664916,1,0,3:0:0:0:
190,39,664976,1,0,3:0:0:0:
192,45,665035,1,0,3:0:0:0:
194,51,665095,6,0,B|195:136|104:166|104:166|148:216|127:298|127:298|212:251|215:188,1,431.999986816407,0|0,3:2|3:2,0:0:0:0:
345,115,665809,6,0,B|315:109|315:109|338:164|398:152,1,107.999996704102,10|0,3:2|0:0,0:0:0:0:
436,239,666047,2,0,B|421:265|421:265|480:260|487:200,1,107.999996704102,0|0,3:2|3:2,0:0:0:0:
477,72,666285,2,0,B|480:41|480:41|427:69|444:128,1,107.999996704102,10|0,3:2|0:0,0:0:0:0:
468,344,666523,6,0,B|542:344|530:249|530:249|428:202|380:294|442:341|263:316|204:276|239:150|314:128|314:128|346:161|328:211,1,647.99998022461,4|10,3:2|3:2,0:0:0:0:
213,312,667357,1,0,0:0:0:0:
66,233,667476,5,2,3:2:0:0:
117,90,667595,1,0,0:0:0:0:
19,135,667714,1,10,3:2:0:0:
162,187,667833,1,0,3:2:0:0:
80,222,667952,1,2,3:2:0:0:
105,97,668071,1,0,3:2:0:0:
30,146,668190,1,10,3:2:0:0:
154,172,668309,1,0,0:0:0:0:
198,318,668428,5,6,3:2:0:0:
220,245,668547,1,0,0:0:0:0:
291,219,668666,1,10,3:2:0:0:
313,146,668785,1,0,0:0:0:0:
187,307,668904,5,2,3:2:0:0:
209,234,669023,1,0,3:2:0:0:
280,208,669142,1,10,3:2:0:0:
302,135,669261,1,0,0:0:0:0:
343,0,669380,5,2,3:2:0:0:
365,73,669499,1,0,0:0:0:0:
436,99,669618,1,10,3:2:0:0:
458,172,669737,1,0,0:0:0:0:
332,11,669857,5,2,3:2:0:0:
354,84,669976,1,0,3:2:0:0:
425,110,670095,1,10,3:2:0:0:
447,183,670214,1,0,0:0:0:0:
465,384,670333,6,0,B|407:264|226:406|328:224|260:191|171:189|171:189|105:283|223:338,1,539.999983520508,4|0,3:2|3:2,0:0:0:0:
366,243,671047,1,10,3:2:0:0:
366,243,671166,1,0,0:0:0:0:
484,269,671285,5,2,3:2:0:0:
333,128,671404,1,0,0:0:0:0:
449,155,671523,5,10,3:2:0:0:
252,214,671642,1,0,0:0:0:0:
333,128,671761,5,2,3:2:0:0:
287,328,671880,1,0,0:0:0:0:
252,214,671999,5,10,3:2:0:0:
403,356,672118,1,0,0:0:0:0:
366,243,672237,6,0,B|332:198|369:147|369:147|451:141|438:40|438:40|385:95|295:80|306:-9|306:-9|376:-11|359:75,1,539.999983520508,4|0,3:2|3:2,0:0:0:0:
452,286,672952,6,0,B|343:378|271:260|271:260|192:137|33:262|32:283|38:364|111:367|164:345|202:309|129:151|71:106|71:106|93:146|75:206,1,863.999973632813,10|10,3:2|3:2,0:0:0:0:
277,384,674142,5,4,3:2:0:0:
267,325,674222,1,0,3:0:0:0:
294,273,674301,1,0,3:0:0:0:
348,248,674380,1,10,3:2:0:0:
389,250,674460,1,0,3:0:0:0:
417,280,674539,1,0,3:0:0:0:
412,322,674618,5,4,3:2:0:0:
354,309,674698,1,0,3:0:0:0:
316,264,674777,1,0,3:0:0:0:
314,205,674857,1,10,3:2:0:0:
339,173,674936,1,0,3:0:0:0:
340,131,675015,1,0,3:0:0:0:
320,94,675095,5,4,3:2:0:0:
291,145,675174,1,0,3:0:0:0:
238,170,675253,1,0,3:0:0:0:
180,160,675333,1,10,3:2:0:0:
139,117,675412,1,0,3:0:0:0:
131,59,675491,1,0,3:0:0:0:
159,6,675571,5,4,3:2:0:0:
216,48,675650,1,0,3:0:0:0:
244,113,675730,1,0,3:0:0:0:
236,184,675809,1,10,3:2:0:0:
192,240,675888,1,0,3:0:0:0:
126,267,675968,1,0,3:0:0:0:
56,256,676047,6,0,P|148:245|191:321,1,180,4|2,3:2|3:2,0:0:0:0:
159,383,676404,2,0,P|209:314|293:328,1,180,0|0,3:2|3:2,0:0:0:0:
383,367,676761,2,0,L|486:350,1,90,2|0,3:2|3:2,0:0:0:0:
512,96,676999,6,0,P|420:85|377:161,1,180,2|2,3:2|3:2,0:0:0:0:
379,225,677357,2,0,P|351:192|269:195,1,90,0|2,3:2|0:0,0:0:0:0:
231,292,677595,1,0,3:2:0:0:
231,292,677714,1,2,3:2:0:0:
201,163,677833,1,0,3:2:0:0:
96,317,677952,6,0,B|109:289|109:289|129:276|129:276|148:239,1,90,2|0,0:0|0:0,0:0:0:0:
61,21,678190,1,8,0:2:0:0:
48,72,678309,1,0,0:0:0:0:
60,124,678428,1,0,0:0:0:0:
98,162,678547,1,0,0:0:0:0:
149,176,678666,1,8,0:2:0:0:
201,163,678785,1,0,0:0:0:0:
292,229,678904,5,0,0:0:0:0:
340,206,679023,1,0,0:0:0:0:
393,210,679142,1,8,0:2:0:0:
437,240,679261,1,0,0:0:0:0:
459,289,679380,1,0,0:0:0:0:
456,341,679499,1,0,0:0:0:0:
421,383,679618,1,12,0:2:0:0:
378,41,679857,6,0,B|347:49|343:6|421:-32|482:28|469:119,1,180,4|2,3:2|3:2,0:0:0:0:
254,137,680214,2,0,B|226:120|254:87|336:115|336:201|263:256,1,180,0|0,3:2|3:2,0:0:0:0:
104,142,680571,2,0,B|100:126|121:124|140:163|110:193|64:187,1,90,2|0,3:2|3:2,0:0:0:0:
91,343,680809,6,0,B|122:335|126:378|48:416|-13:356|0:265,1,180,2|2,3:2|3:2,0:0:0:0:
196,267,681166,2,0,B|211:276|196:295|149:279|148:230|190:198,1,90,0|2,3:2|0:0,0:0:0:0:
244,162,681404,1,0,3:2:0:0:
244,162,681523,1,2,3:2:0:0:
309,304,681642,1,0,3:2:0:0:
454,181,681761,6,0,B|424:201|424:201|417:272,1,90,2|0,0:0|0:0,0:0:0:0:
450,362,681999,1,8,0:2:0:0:
463,311,682118,1,0,0:0:0:0:
451,259,682237,1,0,0:0:0:0:
413,221,682357,1,0,0:0:0:0:
362,207,682476,1,8,0:2:0:0:
310,220,682595,1,0,0:0:0:0:
219,154,682714,5,0,0:0:0:0:
171,177,682833,1,0,0:0:0:0:
118,173,682952,1,8,0:2:0:0:
74,143,683071,1,0,0:0:0:0:
52,94,683190,1,0,0:0:0:0:
55,42,683309,1,0,0:0:0:0:
90,0,683428,1,12,0:2:0:0:
149,79,683547,1,0,0:0:0:0:
53,231,683666,6,0,B|27:191|61:142|61:142|118:141|158:193,1,180,4|2,3:2|3:2,0:0:0:0:
230,108,684023,2,0,B|240:61|299:51|299:51|339:90|330:156,1,180,0|0,3:2|3:2,0:0:0:0:
443,168,684380,2,0,B|461:153|487:163|487:163|487:194|445:204,1,90,2|0,3:2|3:2,0:0:0:0:
512,384,684618,6,0,B|537:344|503:295|503:295|446:294|406:346,1,180,2|2,3:2|3:2,0:0:0:0:
343,249,684976,2,0,B|337:225|308:220|308:220|288:240|310:274,1,90,0|2,3:2|0:0,0:0:0:0:
354,374,685214,1,0,3:2:0:0:
354,374,685333,1,2,3:2:0:0:
415,245,685452,1,0,3:2:0:0:
285,139,685571,5,0,3:2:0:0:
133,251,686285,5,0,0:0:0:0:
52,273,686404,1,0,0:0:0:0:
133,251,686523,1,0,0:0:0:0:
356,210,686761,5,0,0:0:0:0:
429,229,686880,1,0,0:0:0:0:
356,210,686999,1,0,0:0:0:0:
170,111,687237,5,0,0:0:0:0:
105,128,687357,1,0,0:0:0:0:
170,111,687476,1,0,0:0:0:0:
317,54,687714,5,2,2:2:0:0:
376,69,687833,1,0,0:0:0:0:
317,54,687952,1,4,2:3:0:0:
203,0,688190,5,0,0:0:0:0:
150,13,688309,1,0,0:0:0:0:
203,0,688428,5,0,3:2:0:0:
170,111,688547,1,12,3:1:0:0:
463,212,688785,5,0,3:2:0:0:
404,149,688904,5,8,1:2:0:0:
383,184,688983,1,0,1:0:0:0:
382,226,689063,1,0,1:0:0:0:
311,261,689142,5,0,1:0:0:0:
333,297,689222,1,0,1:0:0:0:
334,339,689301,1,0,1:0:0:0:
404,374,689380,5,0,1:0:0:0:
351,364,689499,1,0,1:0:0:0:
298,355,689618,1,0,1:0:0:0:
245,345,689737,1,0,1:0:0:0:
192,336,689856,1,0,1:0:0:0:
139,326,689976,1,0,1:0:0:0:
85,317,690095,1,8,1:0:0:0:
136,237,690333,5,0,1:0:0:0:
190,227,690452,1,0,1:0:0:0:
243,218,690571,1,0,1:0:0:0:
296,208,690690,1,8,1:2:0:0:
349,199,690809,1,0,1:0:0:0:
402,189,690928,1,0,1:0:0:0:
456,180,691047,1,8,1:2:0:0:
184,102,691285,6,0,B|211:154|266:179|266:179|316:164|362:108|340:36|285:6|285:6|333:79|297:161|281:118|221:202|258:291,1,630,0|0,1:0|0:0,0:0:0:0:
386,366,692237,5,4,3:1:0:0:
466,161,692357,1,0,0:0:0:0:
505,384,692476,5,8,3:2:0:0:
363,223,692595,1,0,0:0:0:0:
512,276,692714,5,0,1:2:0:0:
512,276,692773,1,0,1:2:0:0:
512,276,692833,2,0,L|441:290,1,45,0|0,1:0|1:0,0:0:0:0:
363,300,692952,1,0,1:2:0:0:
363,300,693011,1,0,1:2:0:0:
363,300,693071,2,0,L|292:314,1,45,0|0,1:0|1:0,0:0:0:0:
171,322,693190,6,0,B|192:354|192:354|218:318|208:293|208:293|178:276|172:232,1,161.999995056153,4|0,3:2|0:0,0:0:0:0:
175,248,693428,2,0,B|154:208|154:208|177:132,1,107.999996704102,10|0,3:2|0:0,0:0:0:0:
247,194,693666,1,0,3:2:0:0:
247,194,693785,1,0,3:2:0:0:
308,64,693904,2,0,B|253:92|179:70|234:34|152:5|63:49,1,215.999993408203,10|0,3:2|3:2,0:0:0:0:
37,226,694380,5,10,3:2:0:0:
37,226,694499,2,0,B|10:200|10:200|32:129,1,107.999996704102,0|0,3:2|0:0,0:0:0:0:
118,178,694737,1,0,3:2:0:0:
118,178,694857,2,0,L|149:302,1,107.999996704102,10|0,3:2|0:0,0:0:0:0:
136,381,695095,6,0,B|269:365|178:304|332:288,1,215.999993408203,4|10,3:1|3:2,0:0:0:0:
490,277,695452,2,0,B|357:261|448:200|294:184,1,215.999993408203,0|0,0:0|3:2,0:0:0:0:
512,98,695809,2,0,P|522:125|481:185,1,107.999996704102,10|0,3:2|0:0,0:0:0:0:
277,32,696047,6,0,B|391:6|391:6|451:31,1,161.999995056153,4|0,3:1|0:0,0:0:0:0:
432,23,696285,2,0,L|407:145,1,107.999996704102,10|4,3:2|3:1,0:0:0:0:
303,185,696523,1,0,0:0:0:0:
303,185,696642,1,0,3:2:0:0:
162,115,696761,2,0,B|143:94|116:93|116:93|174:58|224:103,1,161.999995056153,10|0,3:2|0:0,0:0:0:0:
207,173,696999,6,0,B|193:240|193:240|214:273|214:273|202:352,1,161.999995056153,4|0,3:2|0:0,0:0:0:0:
205,326,697237,2,0,P|130:323|115:270,1,107.999996704102,10|0,3:2|0:0,0:0:0:0:
295,279,697476,1,0,3:2:0:0:
295,279,697595,1,0,3:2:0:0:
409,385,697714,2,0,B|430:323|383:285|383:285|364:232|403:175,1,215.999993408203,10|0,3:2|3:2,0:0:0:0:
178,79,698190,6,0,B|162:82|135:77|135:77|169:106|206:97,1,107.999996704102,10|0,3:2|3:2,0:0:0:0:
271,163,698428,2,0,B|282:174|290:200|290:200|299:156|273:128,1,107.999996704102,0|0,0:0|3:2,0:0:0:0:
308,39,698666,2,0,B|312:23|330:4|330:4|288:17|277:54,1,107.999996704102,10|0,3:2|0:0,0:0:0:0:
381,174,698904,6,0,B|304:194|304:194|297:221|297:221|185:252,1,215.999993408203,4|10,3:1|3:2,0:0:0:0:
74,351,699261,2,0,B|54:397|159:409|160:272|39:250,1,215.999993408203,0|0,0:0|3:2,0:0:0:0:
18,120,699618,2,0,B|-7:145|-7:145|19:179|68:165,1,107.999996704102,10|0,3:2|0:0,0:0:0:0:
165,72,699857,6,0,B|148:68|132:42|132:42|101:27|66:40,1,107.999996704102,0|0,3:1|0:0,0:0:0:0:
169,181,700095,2,0,B|186:177|202:151|202:151|233:136|262:147,1,107.999996704102,12|0,3:1|3:1,0:0:0:0:
366,74,700333,5,0,1:2:0:0:
363,95,700412,1,0,1:2:0:0:
368,116,700491,1,0,1:2:0:0:
406,135,700571,5,10,3:2:0:0:
407,149,700650,1,0,1:2:0:0:
404,164,700730,1,0,1:2:0:0:
377,193,700809,5,4,3:2:0:0:
478,318,700928,1,0,0:0:0:0:
512,242,701047,2,0,B|459:231|459:231|389:284,1,107.999996704102,10|0,3:2|0:0,0:0:0:0:
248,277,701285,1,0,3:2:0:0:
310,336,701404,2,0,B|267:368|267:368|214:357,1,107.999996704102,0|10,3:2|3:2,0:0:0:0:
73,263,701642,1,0,0:0:0:0:
75,370,701761,6,0,B|102:286|102:286|130:268|130:268|157:177,1,215.999993408203,0|10,3:2|3:2,0:0:0:0:
103,0,702118,2,0,B|76:84|76:84|48:102|48:102|21:193,1,215.999993408203,0|0,3:2|3:2,0:0:0:0:
213,356,702476,2,0,B|239:319|239:319|213:246,1,107.999996704102,10|0,3:2|0:0,0:0:0:0:
313,162,702714,6,0,B|267:94|178:106|178:106|211:134|218:162,1,215.999993408203,0|10,3:1|3:2,0:0:0:0:
456,218,703071,2,0,B|479:184|523:190|523:190|507:204|503:218,1,107.999996704102,0|0,0:0|3:2,0:0:0:0:
476,314,703309,1,0,3:2:0:0:
342,361,703428,2,0,L|381:198,1,161.999995056153,10|0,3:2|0:0,0:0:0:0:
379,203,703666,6,0,B|389:158|389:158|357:68,1,107.999996704102,0|0,3:1|0:0,0:0:0:0:
277,1,703904,2,0,B|266:45|266:45|298:135,1,107.999996704102,10|0,3:2|3:1,0:0:0:0:
267,192,704142,1,0,0:0:0:0:
267,192,704261,1,0,3:2:0:0:
184,115,704380,2,0,B|144:124|144:124|122:145|122:145|71:155,1,107.999996704102,10|0,3:2|0:0,0:0:0:0:
0,123,704618,5,4,3:2:0:0:
0,123,704737,1,0,0:0:0:0:
74,244,704856,2,0,B|45:221|45:221|73:143,1,107.999996704102,10|0,3:2|0:0,0:0:0:0:
148,309,705095,1,0,3:2:0:0:
219,355,705214,2,0,B|248:332|248:332|220:254,1,107.999996704102,0|10,3:2|3:2,0:0:0:0:
192,168,705452,1,0,0:0:0:0:
148,309,705571,5,0,3:2:0:0:
119,9,705809,2,0,B|103:28|103:28|128:69|184:46,1,107.999996704102,10|0,3:2|3:2,0:0:0:0:
312,0,706047,1,0,0:0:0:0:
384,164,706166,1,0,3:2:0:0:
427,0,706285,1,10,3:2:0:0:
248,82,706404,1,0,0:0:0:0:
396,188,706523,5,4,3:1:0:0:
105,239,706880,1,4,3:1:0:0:
287,325,707237,1,4,3:1:0:0:
149,28,707476,1,4,3:1:0:0:
149,28,707952,6,0,L|70:46,1,80.9999975280763,0|0,3:1|2:2,0:0:0:0:
0,27,708428,6,0,B|60:39|60:39|80:69|80:69|145:84,1,161.999995056153,4|0,3:2|0:0,0:0:0:0:
143,83,708666,2,0,B|161:77|168:56|168:56|190:96|148:139,1,107.999996704102,10|0,3:2|0:0,0:0:0:0:
62,163,708904,1,0,3:2:0:0:
62,163,709023,1,0,3:2:0:0:
74,266,709142,2,0,B|74:174|167:154|167:154|164:187|192:224,1,215.999993408203,10|0,3:2|3:2,0:0:0:0:
387,229,709618,6,0,B|371:207|341:204|341:204|325:179|322:147,1,107.999996704102,10|0,3:2|3:2,0:0:0:0:
412,313,709856,2,0,B|439:310|456:285|456:285|486:284|515:297,1,107.999996704102,0|0,0:0|3:2,0:0:0:0:
329,291,710095,2,0,B|317:315|330:343|330:343|316:369|290:388,1,107.999996704102,10|0,3:2|0:0,0:0:0:0:
173,364,710333,6,0,B|110:307|136:239|136:239|174:236|199:191,1,215.999993408203,4|10,3:1|3:2,0:0:0:0:
136,80,710690,2,0,B|91:43|33:83|33:83|68:147|126:135,1,215.999993408203,0|0,0:0|3:2,0:0:0:0:
274,187,711047,2,0,B|297:192|314:160|314:160|285:140|264:158,1,107.999996704102,10|0,3:2|0:0,0:0:0:0:
143,347,711285,6,0,B|118:320|118:320|198:340,1,107.999996704102,0|0,3:1|0:0,0:0:0:0:
349,371,711523,1,10,3:2:0:0:
376,297,711642,2,0,B|400:270|400:270|320:290,1,107.999996704102,0|0,3:1|0:0,0:0:0:0:
166,249,711880,1,0,3:2:0:0:
139,175,711999,2,0,B|114:148|114:148|194:168,1,107.999996704102,10|0,3:2|0:0,0:0:0:0:
406,73,712237,6,0,B|373:39|373:39|307:79|331:141,1,161.999995056153,4|0,3:2|0:0,0:0:0:0:
328,134,712476,2,0,B|374:171|374:171|428:140,1,107.999996704102,10|0,3:2|0:0,0:0:0:0:
502,100,712714,1,0,3:2:0:0:
502,100,712833,1,0,3:2:0:0:
512,246,712952,2,0,B|435:230|435:230|389:255|389:255|263:223,1,215.999993408203,10|0,3:2|3:2,0:0:0:0:
104,366,713428,6,0,B|121:358|125:334|125:334|81:309|82:249,1,107.999996704102,10|0,3:2|3:2,0:0:0:0:
20,166,713666,2,0,B|18:184|37:200|37:200|80:174|132:205,1,107.999996704102,0|0,0:0|3:2,0:0:0:0:
237,191,713904,2,0,B|221:180|198:188|198:188|199:239|146:268,1,107.999996704102,10|0,3:2|0:0,0:0:0:0:
247,384,714142,6,0,B|285:348|285:348|234:178,1,215.999993408203,4|10,3:1|3:2,0:0:0:0:
428,47,714499,2,0,P|438:127|306:128,1,215.999993408203,0|0,0:0|3:2,0:0:0:0:
239,14,714856,2,0,P|288:17|289:67,1,107.999996704102,10|0,3:2|0:0,0:0:0:0:
120,108,715095,6,0,B|83:100|83:100|68:75|68:75|15:65,1,107.999996704102,0|0,3:1|0:0,0:0:0:0:
208,204,715333,2,0,B|245:196|245:196|260:171|260:171|313:161,1,107.999996704102,10|4,3:2|3:1,0:0:0:0:
99,201,715571,5,0,1:2:0:0:
102,222,715650,1,0,1:2:0:0:
97,243,715730,1,0,1:2:0:0:
59,262,715809,5,10,1:2:0:0:
58,276,715888,1,0,1:2:0:0:
61,291,715968,1,0,1:2:0:0:
88,320,716047,5,4,3:2:0:0:
376,365,716285,2,0,B|355:305|404:332|374:241,1,107.999996704102,10|0,3:2|0:0,0:0:0:0:
344,185,716523,1,0,3:2:0:0:
154,130,716642,2,0,B|216:141|168:170|262:190,1,107.999996704102,0|10,3:2|3:2,0:0:0:0:
344,185,716880,1,0,0:0:0:0:
484,53,716999,6,0,B|442:101|441:45|377:116,1,107.999996704102,0|0,3:2|0:0,0:0:0:0:
439,245,717237,2,0,B|470:218|470:218|444:138,1,107.999996704102,10|0,3:2|3:2,0:0:0:0:
387,0,717476,1,0,0:0:0:0:
387,0,717595,1,0,3:2:0:0:
296,0,717714,2,0,B|265:27|265:27|291:107,1,107.999996704102,10|0,3:2|0:0,0:0:0:0:
249,230,717952,6,0,B|267:180|314:129|406:145|411:214|345:221|306:182,1,215.999993408203,4|10,3:1|3:2,0:0:0:0:
94,297,718309,2,0,B|78:261|49:243|3:251|1:286|33:289|53:270,1,107.999996704102,0|0,3:1|3:2,0:0:0:0:
39,373,718547,1,0,3:2:0:0:
195,374,718666,2,0,L|156:211,1,161.999995056153,10|0,3:2|0:0,0:0:0:0:
158,217,718904,6,0,B|138:139|138:139|178:157,1,107.999996704102,0|0,3:1|0:0,0:0:0:0:
228,0,719142,2,0,B|251:77|251:77|208:60,1,107.999996704102,10|0,3:2|0:0,0:0:0:0:
124,45,719380,1,0,0:0:0:0:
124,45,719499,1,0,3:2:0:0:
249,159,719618,2,0,B|287:152|287:152|305:126|305:126|342:119,1,107.999996704102,10|0,3:2|0:0,0:0:0:0:
512,96,719856,6,0,B|485:65|485:65|506:-35,1,107.999996704102,4|0,3:2|0:0,0:0:0:0:
499,222,720095,2,0,B|526:253|526:253|505:353,1,107.999996704102,10|0,3:2|0:0,0:0:0:0:
452,162,720333,1,0,3:2:0:0:
376,250,720452,2,0,L|253:273,1,107.999996704102,0|10,3:2|3:2,0:0:0:0:
423,323,720690,1,0,0:0:0:0:
452,162,720809,5,0,3:2:0:0:
98,137,721047,2,0,B|115:155|124:171|124:171|156:148|147:92,1,107.999996704102,12|0,3:1|3:2,0:0:0:0:
69,11,721285,1,0,1:0:0:0:
96,18,721364,1,0,1:0:0:0:
124,23,721444,1,0,1:0:0:0:
151,31,721523,1,10,3:2:0:0:
274,55,721642,1,0,3:0:0:0:
373,5,721761,5,4,3:1:0:0:
456,233,722118,1,4,3:1:0:0:
373,5,722476,1,4,3:1:0:0:
256,288,722714,1,4,3:1:0:0:
75,209,722952,5,0,3:2:0:0:
71,195,723011,1,0,3:2:0:0:
68,182,723071,1,0,3:2:0:0:
65,169,723130,1,0,3:2:0:0:
61,156,723190,1,0,3:1:0:0:
61,156,723428,5,8,3:2:0:0:
151,88,723547,1,8,3:2:0:0:
86,5,723666,5,4,0:2:0:0:
94,57,723785,1,0,0:0:0:0:
123,103,723904,1,10,0:2:0:0:
168,132,724023,1,0,0:0:0:0:
221,140,724142,1,0,0:0:0:0:
272,125,724261,1,0,0:0:0:0:
316,86,724380,5,10,0:2:0:0:
279,124,724499,1,0,0:0:0:0:
262,175,724618,1,2,0:2:0:0:
269,228,724737,1,0,0:0:0:0:
298,273,724856,2,0,P|334:241|346:170,1,107.999996704102,10|0,0:2|0:0,0:0:0:0:
139,174,725095,2,0,P|167:219|167:273,1,107.999996704102,2|0,0:2|0:0,0:0:0:0:
106,384,725333,2,0,P|73:348|2:336,1,107.999996704102,10|0,0:2|0:0,0:0:0:0:
167,273,725571,6,0,P|168:224|127:166,2,107.999996704102,0|0|10,0:0|0:0|0:2,0:0:0:0:
298,273,725928,2,0,P|334:241|346:170,2,107.999996704102,0|0|0,0:0|0:0|0:0,0:0:0:0:
360,369,726285,2,0,P|406:379|472:350,1,107.999996704102,10|0,0:2|0:0,0:0:0:0:
488,260,726523,5,0,0:0:0:0:
475,207,726642,1,0,0:0:0:0:
462,155,726761,1,10,0:2:0:0:
449,102,726880,1,0,0:0:0:0:
436,50,726999,5,0,0:0:0:0:
375,78,727118,1,0,0:0:0:0:
314,107,727237,1,10,0:2:0:0:
253,136,727356,1,0,0:0:0:0:
192,164,727476,5,4,0:2:0:0:
140,153,727595,1,0,0:0:0:0:
107,112,727714,1,10,0:2:0:0:
109,59,727833,1,0,0:0:0:0:
144,20,727952,1,2,0:2:0:0:
197,12,728071,1,0,0:0:0:0:
242,40,728190,5,10,0:2:0:0:
232,93,728309,1,0,0:0:0:0:
222,146,728428,1,0,0:0:0:0:
212,199,728547,1,0,0:0:0:0:
202,253,728666,6,0,B|234:219|288:227|288:227|266:258,1,107.999996704102,10|0,0:2|0:0,0:0:0:0:
77,183,728904,2,0,B|45:148|-8:156|-8:156|13:187,1,107.999996704102,0|0,0:0|0:0,0:0:0:0:
183,92,729142,2,0,B|192:46|242:25|242:25|240:63,1,107.999996704102,10|0,0:2|0:0,0:0:0:0:
202,253,729380,6,0,B|234:219|288:227|288:227|266:258,2,107.999996704102,4|0|10,0:2|0:0|0:2,0:0:0:0:
77,183,729737,2,0,B|45:148|-8:156|-8:156|13:187,2,107.999996704102,0|0|0,0:0|0:0|0:0,0:0:0:0:
183,92,730095,2,0,B|192:46|242:25|242:25|240:63,1,107.999996704102,10|0,0:2|0:0,0:0:0:0:
371,139,730333,5,4,1:1:0:0:
339,47,730452,1,0,1:1:0:0:
470,109,730571,1,0,1:1:0:0:
438,17,730690,1,12,1:1:0:0:
308,152,730809,5,0,1:1:0:0:
340,60,730928,1,0,1:1:0:0:
407,182,731047,1,12,1:1:0:0:
439,90,731166,1,0,1:1:0:0:
339,239,731285,5,4,0:2:0:0:
382,209,731404,1,0,0:0:0:0:
435,211,731523,1,10,0:2:0:0:
477,244,731642,1,0,0:0:0:0:
490,296,731761,1,0,0:0:0:0:
470,345,731880,1,0,0:0:0:0:
425,373,731999,5,10,0:2:0:0:
371,363,732118,1,0,0:0:0:0:
318,353,732237,1,0,0:0:0:0:
265,344,732356,1,0,0:0:0:0:
212,334,732476,6,0,B|215:311|203:289|203:289|212:253|248:226,1,107.999996704102,10|0,0:2|0:0,0:0:0:0:
154,83,732714,2,0,B|173:96|198:97|198:97|225:123|230:168,1,107.999996704102,2|0,0:2|0:0,0:0:0:0:
401,158,732952,2,0,B|379:168|366:189|366:189|330:199|289:181,1,107.999996704102,10|0,0:2|0:0,0:0:0:0:
212,334,733190,6,0,B|215:311|203:289|203:289|212:253|248:226,2,107.999996704102,4|0|10,0:2|0:0|0:2,0:0:0:0:
154,83,733547,2,0,B|173:96|198:97|198:97|225:123|230:168,2,107.999996704102,0|0|0,0:0|0:0|0:0,0:0:0:0:
401,158,733904,2,0,B|379:168|366:189|366:189|330:199|289:181,1,107.999996704102,10|0,0:2|0:0,0:0:0:0:
34,77,734142,5,0,0:0:0:0:
0,117,734261,1,0,0:0:0:0:
3,169,734380,1,10,0:2:0:0:
42,205,734499,1,0,0:0:0:0:
95,203,734618,5,0,0:0:0:0:
154,175,734737,1,0,0:0:0:0:
217,196,734856,1,10,0:2:0:0:
247,255,734976,1,0,0:0:0:0:
228,318,735095,5,4,0:2:0:0:
188,283,735214,1,0,0:0:0:0:
170,233,735333,1,10,0:2:0:0:
179,180,735452,1,0,0:0:0:0:
213,139,735571,1,0,0:0:0:0:
263,120,735690,1,0,0:0:0:0:
316,129,735809,5,10,0:2:0:0:
320,182,735928,1,0,0:0:0:0:
352,224,736047,1,0,0:0:0:0:
402,243,736166,1,0,0:0:0:0:
454,231,736285,6,0,B|468:196|468:196|489:180|489:180|503:138,1,107.999996704102,14|0,0:2|0:0,0:0:0:0:
339,0,736523,5,0,1:0:0:0:
268,13,736603,1,0,1:0:0:0:
197,26,736682,1,0,1:0:0:0:
145,77,736761,5,0,1:0:0:0:
97,68,736841,1,0,1:0:0:0:
50,59,736920,1,0,1:0:0:0:
3,48,736999,5,4,3:1:0:0:
197,164,737356,1,4,3:1:0:0:
34,298,737714,1,4,3:1:0:0:
145,77,737952,1,4,3:1:0:0:
363,280,738428,5,0,3:1:0:0:
256,192,738904,5,6,3:1:0:0:
256,192,739618,1,0,3:0:0:0:
377,187,739856,5,0,3:2:0:0:
349,210,739976,1,0,0:0:0:0:
368,118,740095,5,0,3:2:0:0:
364,154,740214,1,0,0:0:0:0:
311,85,740333,5,0,3:2:0:0:
333,113,740452,1,0,0:0:0:0:
276,90,740571,5,2,1:2:0:0:
256,192,740809,5,6,1:1:0:0:
256,192,741523,1,0,3:0:0:0:
135,197,741761,5,0,3:2:0:0:
163,174,741880,1,0,0:0:0:0:
144,266,741999,5,0,3:2:0:0:
148,230,742118,1,0,0:0:0:0:
201,299,742237,5,0,3:2:0:0:
179,271,742356,1,0,0:0:0:0:
236,294,742476,5,2,1:2:0:0:
132,150,742714,6,0,L|-2:107,1,135.000005149842,6|0,1:2|0:0,0:0:0:0:
256,192,742952,1,0,3:2:0:0:
256,192,743071,1,0,0:0:0:0:
380,234,743190,6,0,L|508:275,1,116.999994644165,12|0,3:1|3:2,0:0:0:0:
256,192,743428,1,0,1:2:0:0:
256,192,743547,1,0,1:2:0:0:
144,229,743666,6,0,L|15:270,1,99.0000030212403,4|8,3:1|3:2,0:0:0:0:
256,192,743904,1,0,1:2:0:0:
256,192,744023,1,0,1:2:0:0:
368,155,744142,6,0,L|462:124,1,80.9999975280763,4|0,3:3|3:2,0:0:0:0:
256,192,744380,1,0,1:2:0:0:
256,192,744499,1,0,1:2:0:0:
273,102,744618,6,0,L|238:314,1,180,4|0,1:2|1:2,0:0:0:0:
223,364,745809,1,0,0:0:0:0:
223,364,746047,1,0,0:0:0:0:
223,364,746285,1,0,0:0:0:0:
223,364,746523,5,0,3:2:0:0:
212,152,746761,6,0,L|157:107,2,60,2|0|0,0:0|0:0|0:0,0:0:0:0:
300,232,746999,2,0,L|355:277,2,56.9999984779358,2|0|0,0:0|0:0|0:0,0:0:0:0:
232,137,747237,2,0,L|200:74,2,53.9999983520508,2|0|0,0:0|0:0|0:0,0:0:0:0:
279,246,747476,2,0,L|311:309,2,51.0000009727478,2|0|0,0:0|0:0|0:0,0:0:0:0:
256,132,747714,2,0,L|252:61,2,48,2|0|0,0:0|0:0|0:0,0:0:0:0:
255,251,747952,2,0,L|259:322,2,45.0000017166138,2|0|0,0:0|0:0|0:0,0:0:0:0:
280,137,748190,2,0,L|306:71,2,41.9999987182618,2|0|0,0:0|0:0|0:0,0:0:0:0:
231,246,748428,2,0,L|205:312,2,38.9999982147218,2|0|0,0:0|0:0|0:0,0:0:0:0:
296,155,748666,2,0,L|342:110,2,35.9999989013672,2|0|0,0:0|0:0|0:0,0:0:0:0:
215,228,748904,2,0,L|169:273,2,33.0000010070801,2|0|0,0:0|0:0|0:0,0:0:0:0:
301,177,749142,2,0,L|342:161,2,30,2|0|0,0:0|0:0|0:0,0:0:0:0:
211,207,749380,2,0,L|169:222,2,26.9999991760254,2|0|0,0:0|0:0|0:0,0:0:0:0:
294,195,749618,2,0,L|329:197,2,24,2|0|0,0:0|0:0|0:0,0:0:0:0:
217,188,749856,2,0,L|182:186,2,20.9999993591309,2|0|0,0:0|0:0|0:0,0:0:0:0:
272,201,750095,2,0,L|288:209,2,17.9999994506836,2|0|0,0:0|0:0|0:0,0:0:0:0:
256,192,750333,5,4,3:1:0:0:
256,384,751285,1,4,3:1:0:0:
256,0,752237,1,4,3:2:0:0:
256,192,752297,12,0,757952,0:0:0:0:
