osu file format v14

[General]
AudioFilename: audio.mp3
AudioLeadIn: 0
PreviewTime: 692178
Countdown: 0
SampleSet: Normal
StackLeniency: 0.7
Mode: 1
LetterboxInBreaks: 0
WidescreenStoryboard: 0

[Editor]
Bookmarks: 272041,290988,383356,384146,395988,450521,605093,605569,645569,677950,708426
DistanceSpacing: 1.1
BeatDivisor: 6
GridSize: 16
TimelineZoom: 3.2

[Metadata]
Title:Curse Bride
TitleUnicode:Curse Bride
Artist:TEARS OF TRAGEDY
ArtistUnicode:TEARS OF TRAGEDY
Creator:Hana Hayashi
Version:Doomed Hearts Entwined in a Tapestry of Forsaken Vows
Source:
Tags:STATICE HARUKA TORU YOHEI HAYATO HIDEYUKI Symphonic Melodic Power Metal Japanese rock
BeatmapID:4267766
BeatmapSetID:2044774

[Difficulty]
HPDrainRate:4
CircleSize:0.1
OverallDifficulty:7
ApproachRate:10
SliderMultiplier:1.2
SliderTickRate:1

[Events]
//Background and Video events
0,0,"bg2.jpg",0,0
//Break Periods
2,322768,328439
2,422241,433591
2,478906,492256
//Storyboard Layer 0 (Background)
//Storyboard Layer 1 (Fail)
//Storyboard Layer 2 (Pass)
//Storyboard Layer 3 (Foreground)
//Storyboard Layer 4 (Overlay)
//Storyboard Sound Samples

[TimingPoints]
2602,1016.94915254237,4,1,0,40,1,0
2602,-333.333333333333,4,1,0,40,0,0
6664,-307.312897954484,4,1,0,40,0,0
10732,-284.51899574776,4,1,0,40,0,0
14800,-264.397449609251,4,1,0,40,0,0
18868,-246.509908042956,4,1,0,40,0,0
22935,-230.512627542684,4,1,0,40,0,0
27003,-216.118811417472,4,1,0,40,0,0
31071,-203.106027002602,4,1,0,40,0,0
35139,-191.288343227429,4,1,0,40,0,0
39207,-180.511756215115,4,1,0,40,0,0
43274,-170.649939705628,4,1,0,40,0,0
47342,-161.589759009962,4,1,0,40,0,0
51410,-153.241912081254,4,1,0,40,0,0
55478,-145.528021684922,4,1,0,40,0,0
59546,-138.380789353252,4,1,0,40,0,0
62601,1153.84615384615,4,1,0,40,1,8
64908,1016.94915254237,4,1,0,40,1,0
64908,-129.736333672863,4,1,0,40,0,0
68970,-123.692893373724,4,1,0,40,0,0
73038,-118.049276229065,4,1,0,40,0,0
77111,1071.42857142857,4,1,0,40,1,0
77111,-107.035948755042,4,1,0,40,0,0
78182,1224.48979591837,4,1,0,40,1,8
79406,1304.34782608696,4,1,0,40,1,8
80710,2000,4,1,0,40,1,8
84710,2608.69565217391,4,1,0,40,1,0
84710,-40.454529739378,4,1,0,40,0,0
89927,3976.14314115308,4,1,0,40,1,8
97879,447.761194029851,4,1,0,40,1,0
97879,-205.370486700252,4,1,0,40,0,0
99665,-201.672214366717,4,1,0,40,0,0
101456,-198.064896133859,4,1,0,40,0,0
103247,-194.545440165213,4,1,0,40,0,0
105038,-191.110892434373,4,1,0,40,0,0
106829,-187.758429125848,4,1,0,40,0,0
108620,-184.485349533359,4,1,0,40,0,0
110411,-181.289069417983,4,1,0,40,0,0
112202,-178.167114791793,4,1,0,40,0,0
113993,-175.117116095521,4,1,0,40,0,0
115784,-172.13680274141,4,1,0,40,0,0
117575,-169.223997994813,4,1,0,40,0,0
119366,-166.376614170251,4,1,0,40,0,0
121157,-163.592648119634,4,1,0,40,0,0
122953,487.80487804878,4,1,0,40,1,0
122953,-147.664416119659,4,1,0,40,0,0
124904,659.340659340659,4,1,0,50,1,0
124904,-107.279698016603,4,1,0,50,0,0
127541,652.173913043478,4,1,0,60,1,0
127541,-105.843903269686,4,1,0,60,0,0
130144,-103.338855774049,4,1,0,60,0,0
132753,-100.909950159281,4,1,0,60,0,0
135362,-98.5549717245932,4,1,0,60,0,0
137970,-96.2717640743937,4,1,0,60,0,0
140584,540.540540540541,6,1,0,50,1,0
140584,-113.480278134267,6,1,0,50,0,0
143827,530.973451327434,4,1,0,50,1,0
143827,-112.253178349793,4,1,0,50,0,0
145950,535.714285714286,4,1,0,50,1,0
145950,-109.200583142508,4,1,0,50,0,0
148087,-107.172132614435,4,1,0,50,0,0
150230,-105.190605396112,4,1,0,50,0,0
152373,-103.255460507643,4,1,0,50,0,0
154516,-101.365259634372,4,1,0,50,0,0
156659,-99.5186224466801,4,1,0,50,0,0
158802,-97.7142237033374,4,1,0,50,0,0
160945,-95.9507905269057,4,1,0,50,0,0
163087,-94.2278950909733,4,1,0,50,0,0
165235,508.474576271186,4,1,0,40,1,0
165235,-97.5004041284739,4,1,0,40,0,0
166251,576.923076923077,4,1,0,40,1,8
167394,535.714285714286,4,1,0,40,1,0
167394,-90.8828845668137,4,1,0,40,0,0
169531,-89.2725396416377,4,1,0,40,0,0
171674,-87.6967297232183,4,1,0,40,0,0
173817,-86.155207596527,4,1,0,40,0,0
175960,-84.6470030672336,4,1,0,40,0,0
178103,-83.1711814481895,4,1,0,40,0,0
180246,-81.7268419476907,4,1,0,40,0,0
182389,-80.313116144838,4,1,0,40,0,0
184531,-78.9298055292716,4,1,0,40,0,0
186674,-77.5748108702656,4,1,0,40,0,0
188817,-76.2480051769162,4,1,0,40,0,0
190960,-74.9486358121672,4,1,0,40,0,0
193094,394.736842105263,4,1,0,70,1,0
193094,-76.9230769230769,4,1,0,70,0,0
193192,-83.3333333333334,4,1,0,70,0,0
194178,-83.6607986745882,4,1,0,70,0,0
194277,-84.6493639203704,4,1,0,70,0,0
194573,-87.6605345763034,4,1,0,70,0,0
194671,-88.6758864285476,4,1,0,70,0,0
194968,-91.8093259775937,4,1,0,70,0,0
195066,-92.8619100984281,4,1,0,70,0,0
195362,-96.0976289718121,4,1,0,70,0,0
195461,-97.1988432494291,4,1,0,70,0,0
195757,-100.548359372652,4,1,0,70,0,0
195856,-101.687735510705,4,1,0,70,0,0
196152,-105.151559139809,4,1,0,70,0,0
196250,-106.317268709829,4,1,0,70,0,0
196546,-109.895280623609,4,1,0,70,0,0
196645,-111.111111111111,4,1,0,70,0,0
196778,-83.3333333333334,4,1,0,70,0,0
196975,-80,4,1,0,70,0,0
197699,-41.6666666666667,4,1,0,70,0,0
198606,-55.4969754148399,4,1,0,70,0,8
198685,-54.3754210526577,4,1,0,70,0,8
198750,-53.2930154958877,4,1,0,70,0,8
198816,-52.2160015945631,4,1,0,70,0,8
198882,-51.1607533774065,4,1,0,70,0,8
198948,-50.126830975437,4,1,0,70,0,8
199005,-49.1138034091124,4,1,0,70,0,8
199079,-48.1361364284255,4,1,0,70,0,8
199145,-47.1633393816253,4,1,0,70,0,8
199211,-46.2102018705603,4,1,0,70,0,8
199277,-45.2763265900096,4,1,0,70,0,8
199343,-44.3613242640084,4,1,0,70,0,8
199405,-43.4782608695652,4,1,0,70,0,0
199497,-45.4545454545455,4,1,0,70,0,0
202365,-44.4444444444444,4,1,0,70,0,0
202562,-41.6666666666667,4,1,0,70,0,0
202633,-45.4545454545455,4,1,0,70,0,0
204141,-45.4545454545455,4,1,0,70,0,0
204190,-45.5971440945711,4,1,0,70,0,0
204240,-45.7431140646821,4,1,0,70,0,0
204339,-46.0335146553594,4,1,0,70,0,0
204437,-46.3227976394263,4,1,0,70,0,0
204536,-46.6168783567403,4,1,0,70,0,0
204585,-46.7631234327703,4,1,0,70,0,0
204635,-46.9128260482592,4,1,0,70,0,0
204734,-47.2106525664864,4,1,0,70,0,0
204832,-47.5073328994227,4,1,0,70,0,0
204931,-47.8089336499966,4,1,0,70,0,0
204980,-47.958918406227,4,1,0,70,0,0
205030,-48.1124491157775,4,1,0,70,0,0
205129,-48.417891452353,4,1,0,70,0,0
205227,-48.7221582941622,4,1,0,70,0,0
205325,-49.0283372041811,4,1,0,70,0,0
205374,-49.1821474367578,4,1,0,70,0,0
205424,-49.3395940649162,4,1,0,70,0,0
205523,-49.6528269427646,4,1,0,70,0,0
205621,-49.9648543439504,4,1,0,70,0,0
205724,-45.4545454545455,4,1,0,70,0,0
205823,-46.5309954881825,4,1,0,70,0,0
205921,-47.6190476190476,4,1,0,70,0,0
206021,-50,4,1,0,70,0,0
208089,-50,4,1,0,70,0,0
208138,-49.8297684753744,4,1,0,70,0,0
208187,-49.6601165261884,4,1,0,70,0,0
208286,-49.3191106986349,4,1,0,70,0,0
208385,-48.9804464881084,4,1,0,70,0,0
208483,-48.647493602084,4,1,0,70,0,0
208533,-48.478492602457,4,1,0,70,0,0
208582,-48.3134412483116,4,1,0,70,0,0
208681,-47.9816827634891,4,1,0,70,0,0
208779,-47.6555191431495,4,1,0,70,0,0
208878,-45.4545454545455,4,1,0,70,0,0
208977,-46.529704009205,4,1,0,70,0,0
209075,-47.6190476190476,4,1,0,70,0,0
209168,-50,4,1,0,70,0,0
211645,-48.5436893203883,4,1,0,70,0,0
211744,-47.2212342370472,4,1,0,70,0,0
211843,-45.9348062351237,4,1,0,70,0,0
211941,-44.6958920482242,4,1,0,70,0,0
212040,-43.4782608695652,4,1,0,70,0,0
212140,-50,4,1,0,70,0,0
213615,-50,4,1,0,70,0,0
213664,-50.3474344131838,4,1,0,70,0,0
213714,-50.7044480627069,4,1,0,70,0,0
213812,-51.4115550962346,4,1,0,70,0,0
213911,-52.1358905040004,4,1,0,70,0,0
214010,-52.8704310452612,4,1,0,70,0,0
214108,-53.6077441427534,4,1,0,70,0,0
214207,-54.3630215729024,4,1,0,70,0,0
214306,-55.1289400775009,4,1,0,70,0,0
214408,-55.8977495758612,4,1,0,70,0,0
214507,-56.685290803829,4,1,0,70,0,0
214606,-57.4839276696437,4,1,0,70,0,0
214704,-58.2855790261427,4,1,0,70,0,0
214803,-59.106762290717,4,1,0,70,0,0
214902,-59.9395151744884,4,1,0,70,0,0
215000,-60.7754113213848,4,1,0,70,0,0
215099,-61.631673736696,4,1,0,70,0,0
215198,-62.5,4,1,0,70,0,0
215581,-52.6315789473684,4,1,0,70,0,0
215786,-52.6315789473684,4,1,0,70,0,0
215885,-52.4374638849409,4,1,0,70,0,0
215983,-52.1592665192389,4,1,0,70,0,0
216181,-51.4799666725812,4,1,0,70,0,0
216279,-51.1065797462278,4,1,0,70,0,0
216358,-50.7119370406894,4,1,0,70,0,0
216575,-49.8881764021659,4,1,0,70,0,0
216674,-49.4599502786208,4,1,0,70,0,0
216765,-49.0247968521389,4,1,0,70,0,0
216970,-48.1441976803432,4,1,0,70,0,0
217069,-47.6967176524397,4,1,0,70,0,0
217118,-47.4744580578184,4,1,0,70,0,0
217167,-47.2518276689296,4,1,0,70,0,0
217266,-46.8012926387438,4,1,0,70,0,0
217365,-46.3503886268303,4,1,0,70,0,0
217414,-46.1272816152798,4,1,0,70,0,0
217464,-45.8997689900669,4,1,0,70,0,0
217562,-45.4545454545455,4,1,0,70,0,0
217764,-50,4,1,0,70,0,0
217862,-48.8564661871305,4,1,0,70,0,0
217888,-48.2831442700326,4,1,0,70,0,0
217961,-47.7278166445572,4,1,0,70,0,0
218060,-46.6252404120157,4,1,0,70,0,0
218158,-45.5588896331295,4,1,0,70,0,0
218257,-44.5064185078617,4,1,0,70,0,0
218356,-43.4782608695652,4,1,0,70,0,0
218444,-45.4545454545455,4,1,0,70,0,0
221115,-45.2488687782805,4,1,0,70,0,0
221164,-45.0253646582353,4,1,0,70,0,0
221214,-44.7984372021318,4,1,0,70,0,0
221263,-44.5771579623054,4,1,0,70,0,0
221312,-44.3569717182403,4,1,0,70,0,0
221362,-44.133412956887,4,1,0,70,0,0
221411,-43.9154185651188,4,1,0,70,0,0
221510,-43.4782608695652,4,1,0,70,0,0
221602,-45.4545454545455,4,1,0,70,0,0
226246,-45.4545454545455,4,1,0,70,0,0
226296,-45.6524353603611,4,1,0,70,0,0
226345,-45.8472032993857,4,1,0,70,0,0
226444,-46.2432531082545,4,1,0,70,0,0
226542,-46.6386719188075,4,1,0,70,0,0
226641,-47.0415588076483,4,1,0,70,0,0
226690,-47.242253193066,4,1,0,70,0,0
226740,-47.4479260238337,4,1,0,70,0,0
226839,-47.8578036320762,4,1,0,70,0,0
226937,-48.2670282111424,4,1,0,70,0,0
227036,-48.6839816111755,4,1,0,70,0,0
227085,-48.8916830993233,4,1,0,70,0,0
227135,-49.1045368517246,4,1,0,70,0,0
227233,-49.5244220511765,4,1,0,70,0,0
227332,-49.9522374134272,4,1,0,70,0,0
227435,-51.2820512820513,4,1,0,70,0,0
227500,-50.6588973639956,4,1,0,70,0,0
227566,-50.0339038745173,4,1,0,70,0,0
227632,-49.4166211107401,4,1,0,70,0,0
227698,-48.8069539432076,4,1,0,70,0,0
227764,-48.2048084161031,4,1,0,70,0,0
227829,-47.1698113207547,4,1,0,70,0,0
227929,-71.4285714285714,4,1,0,70,0,0
230766,-50,4,1,0,70,0,0
230939,-45.4545454545455,4,1,0,70,0,0
231050,-71.4285714285714,4,1,0,70,0,0
232937,-58.8235294117647,4,1,0,70,0,0
233356,-66.6666666666667,4,1,0,70,0,0
233421,-66.1512537067916,4,1,0,70,0,0
233487,-65.3994334104337,4,1,0,70,0,0
233553,-64.5411112880031,4,1,0,70,0,0
233619,-63.6163755716813,4,1,0,70,0,0
233685,-62.6479149116471,4,1,0,70,0,0
233750,-61.6660761306737,4,1,0,70,0,0
233816,-60.6513871771827,4,1,0,70,0,0
233882,-59.6269677748755,4,1,0,70,0,0
233948,-58.5991572590937,4,1,0,70,0,0
234014,-57.5729388350899,4,1,0,70,0,0
234079,-56.5676751338456,4,1,0,70,0,0
234145,-55.5555555555556,4,1,0,70,0,0
234277,-56.3963719553531,4,1,0,70,0,0
234408,-57.2417789755777,4,1,0,70,0,0
234540,-58.1047794140106,4,1,0,70,0,0
234671,-58.9723916810095,4,1,0,70,0,0
234803,-59.8579561570392,4,1,0,70,0,0
234935,-60.7549868700523,4,1,0,70,0,0
235066,-61.6566501912976,4,1,0,70,0,0
235198,-62.5768037814888,4,1,0,70,0,0
235329,-63.5015958304051,4,1,0,70,0,0
235461,-64.445235083695,4,1,0,70,0,0
235593,-65.4007958904855,4,1,0,70,0,0
235724,-66.3609908607925,4,1,0,70,0,0
235856,-67.3405657182575,4,1,0,70,0,0
235987,-68.3247625144696,4,1,0,70,0,0
236119,-69.3286907316203,4,1,0,70,0,0
236250,-70.3372206400396,4,1,0,70,0,0
236382,-71.3658302604145,4,1,0,70,0,0
236514,-68.9655172413793,4,1,0,70,0,0
236579,-68.5053836191746,4,1,0,70,0,0
236645,-67.8324335604328,4,1,0,70,0,0
236711,-67.0615836285204,4,1,0,70,0,0
236777,-66.2280051313061,4,1,0,70,0,0
236843,-65.3515637948636,4,1,0,70,0,0
236908,-64.4593926082124,4,1,0,70,0,0
236974,-63.5335146960776,4,1,0,70,0,0
237040,-62.594756115929,4,1,0,70,0,0
237106,-61.648822941924,4,1,0,70,0,0
237171,-60.7146369670737,4,1,0,70,0,0
237237,-59.7670859205007,4,1,0,70,0,0
237303,-58.8235294117647,4,1,0,70,0,0
237649,-83.3333333333334,4,1,0,70,0,0
238093,-95.2371494113754,4,1,0,70,0,0
238290,-94.3316793604354,4,1,0,70,0,0
238487,-93.0439293540092,4,1,0,70,0,0
238685,-91.5757703116393,4,1,0,70,0,0
238882,-90.0115052288514,4,1,0,70,0,0
239079,-88.3833993690043,4,1,0,70,0,0
239277,-86.7089953484452,4,1,0,70,0,0
239474,-85.0238472144567,4,1,0,70,0,0
239671,-83.3333333333334,4,1,0,70,0,0
239869,-84.4872168657972,4,1,0,70,0,0
240066,-86.9173368833619,4,1,0,70,0,0
240264,-90.4807726513675,4,1,0,70,0,0
240413,-90.4807726513675,4,1,0,55,0,0
240461,-95.238095238095,4,1,0,55,0,0
240536,-105.263157894737,4,1,0,55,0,0
262518,-105.263157894737,4,1,0,70,0,0
262545,-83.3333333333333,4,1,0,70,0,0
262699,-80.455865407031,4,1,0,70,0,0
262961,-78.0177461131371,4,1,0,70,0,0
263158,-75.102938628581,4,1,0,70,0,0
263257,-73.5683454210913,4,1,0,70,0,0
263356,-72.0161576268785,4,1,0,70,0,0
263553,-68.9280884824986,4,1,0,70,0,0
263750,-65.8985091491918,4,1,0,70,0,0
263948,-62.9554773785673,4,1,0,70,0,0
264046,-61.544498047801,4,1,0,70,0,0
264145,-60.1523851368848,4,1,0,70,0,0
264343,-57.4726584975858,4,1,0,70,0,0
264540,-54.9476359073794,4,1,0,70,0,0
264737,-52.5629006254887,4,1,0,70,0,0
264927,-50.3038490653033,4,1,0,70,0,0
264976,-49.7655127406754,4,1,0,70,0,0
265025,-49.235213285529,4,1,0,70,0,0
265075,-48.7022740740874,4,1,0,70,0,0
265124,-48.1879099970237,4,1,0,70,0,0
265173,-47.6812783361169,4,1,0,70,0,0
265223,-47.1721688376279,4,1,0,70,0,0
265272,-46.6808373791348,4,1,0,70,0,0
265321,-46.1969164629649,4,1,0,70,0,0
265387,-45.5566258720747,4,1,0,70,0,0
265453,-44.9293153507948,4,1,0,70,0,0
265519,-44.3147169021821,4,1,0,70,0,0
265585,-43.7125626439281,4,1,0,70,0,0
265650,-43.1314351240577,4,1,0,70,0,0
265716,-42.5531914893617,4,1,0,70,0,0
265816,-45.4545454545455,4,1,0,70,0,0
276773,-45.4545454545455,4,1,0,70,0,0
276871,-45.2495817594984,4,1,0,70,0,0
276921,-45.1053753880235,4,1,0,70,0,0
276970,-44.9498805430934,4,1,0,70,0,0
277069,-44.6043382150444,4,1,0,70,0,0
277167,-44.231766797755,4,1,0,70,0,0
277217,-44.0327340691024,4,1,0,70,0,0
277266,-43.832850435788,4,1,0,70,0,0
277315,-43.6287976335592,4,1,0,70,0,0
277365,-43.4168243324702,4,1,0,70,0,0
277464,-42.9877418850232,4,1,0,70,0,0
277566,-42.5531914893617,4,1,0,70,0,0
277764,-50.0625782227785,4,1,0,70,0,0
277862,-49.3414276023272,4,1,0,70,0,0
277961,-48.3123890992263,4,1,0,70,0,0
278010,-47.7534869459117,4,1,0,70,0,0
278060,-47.1619545184546,4,1,0,70,0,0
278158,-45.9626996873821,4,1,0,70,0,0
278257,-44.7236003022803,4,1,0,70,0,0
278356,-43.4782608695652,4,1,0,70,0,0
278422,-45.4545454545455,4,1,0,70,0,0
283092,-45.5062571103527,4,1,0,70,0,0
283093,-45.5082244082886,4,1,0,70,0,0
283142,-45.6048308195078,4,1,0,70,0,0
283191,-45.701848262049,4,1,0,70,0,0
283241,-45.8012720802958,4,1,0,70,0,0
283290,-45.8991280183073,4,1,0,70,0,0
283339,-45.9974029965312,4,1,0,70,0,0
283389,-46.0981183413728,4,1,0,70,0,0
283438,-46.1972482063458,4,1,0,70,0,0
283487,-46.2968053298501,4,1,0,70,0,0
283586,-46.4992663629048,4,1,0,70,0,0
283685,-46.7035059425701,4,1,0,70,0,0
283783,-46.9074572905225,4,1,0,70,0,0
283882,-47.1153064322539,4,1,0,70,0,0
283931,-47.2188642203467,4,1,0,70,0,0
283981,-47.3250057507825,4,1,0,70,0,0
284079,-47.534433489047,4,1,0,70,0,0
284178,-47.7478887283685,4,1,0,70,0,0
284227,-47.8542491103095,4,1,0,70,0,0
284277,-47.9632696734078,4,1,0,70,0,0
284326,-48.0705928376643,4,1,0,70,0,0
284375,-48.1783973741401,4,1,0,70,0,0
284474,-48.3976886195701,4,1,0,70,0,0
284573,-48.6189852672774,4,1,0,70,0,0
284671,-48.8400488400488,4,1,0,70,0,0
284796,-51.3478818998716,4,1,0,70,0,0
287825,-47.6190476190476,4,1,0,70,0,0
288023,-48.6106079430433,4,1,0,70,0,0
288220,-49.6176505478682,4,1,0,70,0,0
288319,-50.1315773705103,4,1,0,70,0,0
288417,-50.6455555704008,4,1,0,70,0,0
288467,-50.9098161080585,4,1,0,70,0,0
288516,-51.1701291680589,4,1,0,70,0,0
288615,-51.7001361636977,4,1,0,70,0,0
288812,-52.7711830399905,4,1,0,70,0,0
288911,-53.3177733385506,4,1,0,70,0,0
289010,-53.8700250783986,4,1,0,70,0,0
289059,-54.1454743363707,4,1,0,70,0,0
289108,-54.4223320268358,4,1,0,70,0,0
289207,-54.9860245005926,4,1,0,70,0,0
289306,-55.5555555555556,4,1,0,70,0,0
289404,-52.6315789473684,4,1,0,70,0,0
289503,-51.8197321507151,4,1,0,70,0,0
289602,-51.0204081632653,4,1,0,70,0,0
289799,-52.6315789473684,4,1,0,70,0,0
289898,-52.1771393227935,4,1,0,70,0,0
290095,-50.7943437668082,4,1,0,70,0,0
290194,-50,4,1,0,70,0,0
290395,-52.7009222661397,4,1,0,70,0,0
290494,-51.8985021125893,4,1,0,70,0,0
290592,-50.7803824603805,4,1,0,70,0,0
290691,-49.5211831600416,4,1,0,70,0,0
290790,-48.1976961417975,4,1,0,70,0,0
290889,-46.84698659821,4,1,0,70,0,0
290987,-45.5062571103527,4,1,0,70,0,0
302040,-45.5062571103527,4,1,0,70,0,0
302089,-45.421210997423,4,1,0,70,0,0
302138,-45.2974197388882,4,1,0,70,0,0
302237,-44.9921147857895,4,1,0,70,0,0
302336,-44.640200625572,4,1,0,70,0,0
302434,-44.2608657496687,4,1,0,70,0,0
302484,-44.058265283564,4,1,0,70,0,0
302533,-43.85483046603,4,1,0,70,0,0
302582,-43.6471852793191,4,1,0,70,0,0
302632,-43.4315153116645,4,1,0,70,0,0
302731,-42.9950595970856,4,1,0,70,0,0
302829,-42.5531914893617,4,1,0,70,0,0
303027,-50.0625782227785,4,1,0,70,0,0
303125,-49.3414276023272,4,1,0,70,0,0
303224,-48.3123890992263,4,1,0,70,0,0
303273,-47.7534869459117,4,1,0,70,0,0
303323,-47.1619545184546,4,1,0,70,0,0
303421,-45.9626996873821,4,1,0,70,0,0
303520,-44.7236003022803,4,1,0,70,0,0
303619,-43.4782608695652,4,1,0,70,0,0
303653,-45.4545454545455,4,1,0,70,0,0
308356,-45.5062571103527,4,1,0,70,0,0
308405,-45.6028551603934,4,1,0,70,0,0
308454,-45.699864188339,4,1,0,70,0,0
308504,-45.7992793647271,4,1,0,70,0,0
308553,-45.8971267788225,4,1,0,70,0,0
308602,-45.995393178321,4,1,0,70,0,0
308652,-46.0960997123737,4,1,0,70,0,0
308701,-46.1952208864421,4,1,0,70,0,0
308750,-46.2947692627947,4,1,0,70,0,0
308801,-46.3821892393321,4,1,0,70,0,0
308849,-46.4972124494151,4,1,0,70,0,0
308948,-46.7014339469736,4,1,0,70,0,0
309046,-46.9053671592622,4,1,0,70,0,0
309145,-47.1131977374327,4,1,0,70,0,0
309194,-47.2167462458725,4,1,0,70,0,0
309244,-47.3228782439886,4,1,0,70,0,0
309342,-47.5322871112697,4,1,0,70,0,0
309393,-47.6871721506915,4,1,0,70,0,0
309441,-47.7457230309614,4,1,0,70,0,0
309492,-47.7783086478739,4,1,0,70,0,0
309540,-47.961084394347,4,1,0,70,0,0
309638,-48.176192448481,4,1,0,70,0,0
309737,-48.3954635765903,4,1,0,70,0,0
309836,-48.6167398303956,4,1,0,70,0,0
309934,-48.8377829378602,4,1,0,70,0,0
309935,-48.8400488400488,4,1,0,70,0,0
310034,-51.3478818998716,4,1,0,70,0,0
313069,-47.6190476190476,4,1,0,70,0,0
313126,-52.7009222661397,4,1,0,70,0,0
314079,-52.7009222661397,4,1,0,70,0,0
314178,-51.8822690093268,4,1,0,70,0,0
314277,-51.0763326676279,4,1,0,70,0,0
314375,-50.2908680669963,4,1,0,70,0,0
314474,-49.5096524608807,4,1,0,70,0,0
314573,-48.7405722154518,4,1,0,70,0,0
314671,-47.9910275224353,4,1,0,70,0,0
314770,-47.245537514108,4,1,0,70,0,0
314869,-46.5116279069767,4,1,0,70,0,0
315066,-50,4,1,0,70,0,0
315165,-47.6190476190476,4,1,0,70,0,0
315362,-51.2820512820513,4,1,0,70,0,0
315461,-48.780487804878,4,1,0,70,0,0
315658,-51.3478818998716,4,1,0,70,0,0
315757,-50.9640112307695,4,1,0,70,0,0
315855,-50.4189256619071,4,1,0,70,0,0
315954,-49.7904090226868,4,1,0,70,0,0
316053,-49.1124403806128,4,1,0,70,0,0
316102,-48.7638864395242,4,1,0,70,0,0
316152,-48.4014335510958,4,1,0,70,0,0
316250,-47.6758045292014,4,1,0,70,0,0
316382,-48.3021271513688,4,1,0,70,0,0
316514,-48.9451249848727,4,1,0,70,0,0
316645,-49.6004033439393,4,1,0,70,0,0
316777,-50.278673692789,4,1,0,70,0,0
316908,-50.9703979611841,4,1,0,70,0,0
317040,-51.6869249119618,4,1,0,70,0,0
317171,-52.4182225326354,4,1,0,70,0,0
317303,-53.1763365302441,4,1,0,70,0,0
317435,-53.9567012295902,4,1,0,70,0,0
317566,-54.7541328840687,4,1,0,70,0,0
317698,-55.5818534410359,4,1,0,70,0,0
317829,-50.0625782227785,4,1,0,70,0,0
317961,-50.5174709954773,4,1,0,70,0,0
318092,-50.9771650310092,4,1,0,70,0,0
318224,-51.4489086894946,4,1,0,70,0,0
318356,-51.9294649496084,4,1,0,70,0,0
318487,-52.415339147404,4,1,0,70,0,0
318619,-52.9142063014424,4,1,0,70,0,0
318750,-53.4187720609256,4,1,0,70,0,0
318882,-53.9370169747498,4,1,0,70,0,0
319014,-54.4654159571699,4,1,0,70,0,0
319145,-55.0001480773218,4,1,0,70,0,0
319277,-55.549688586004,4,1,0,70,0,0
319408,-50.0625782227785,4,1,0,70,0,0
319540,-51.0622089511592,4,1,0,70,0,0
319671,-52.0945326475106,4,1,0,70,0,0
319803,-53.17783474389,4,1,0,70,0,0
319935,-54.3071480193506,4,1,0,70,0,0
320066,-55.4763485833873,4,1,0,70,0,0
320198,-51.2820512820513,4,1,0,70,0,0
320329,-52.0845078784466,4,1,0,70,0,0
320461,-52.9057915105442,4,1,0,70,0,0
320592,-53.7336562375547,4,1,0,70,0,0
320724,-54.5809441194649,4,1,0,70,0,0
320856,-55.4415922825304,4,1,0,70,0,0
320939,-53.835800807537,4,1,0,70,0,0
321210,-52.8258229239816,4,1,0,70,0,0
321382,-52.7239821048592,4,1,0,70,0,0
321514,-52.5587695543128,4,1,0,70,0,0
321645,-52.3727077387297,4,1,0,70,0,0
321777,-52.1687619249242,4,1,0,70,0,0
321842,-52.0633612233131,4,1,0,70,0,0
321908,-51.953416790039,4,1,0,70,0,0
321974,-51.8407929924534,4,1,0,70,0,0
322040,-51.725719567353,4,1,0,70,0,0
322106,-51.6083971904694,4,1,0,70,0,0
322171,-51.4908268196834,4,1,0,70,0,0
322237,-51.3695472064136,4,1,0,70,0,0
322303,-51.246494319601,4,1,0,70,0,0
322369,-51.1217972021121,4,1,0,70,0,0
322435,-50.995573447699,4,1,0,70,0,0
322500,-50.8698748601078,4,1,0,70,0,0
322566,-48.1347773766546,4,1,0,70,0,0
322567,400,4,1,0,70,1,8
322567,-48.1347773766546,4,1,0,70,0,0
322568,400,4,1,0,70,1,0
322568,-48.1347773766546,4,1,0,70,0,0
322718,-166.666666666667,4,1,0,70,0,0
328818,-83.5073068893528,4,1,0,55,0,0
328889,394.736842105263,4,1,0,55,1,0
328889,-125,4,1,0,55,0,0
329283,-124.116934379281,4,1,0,55,0,0
330068,-122.739685108175,4,1,0,55,0,0
330265,-122.36758841935,4,1,0,55,0,0
330462,-121.996619775995,4,1,0,55,0,0
330660,-121.624901240588,4,1,0,55,0,0
330857,-121.256184121993,4,1,0,55,0,0
331252,-120.520242403632,4,1,0,55,0,0
331652,-119.668824142293,4,1,0,55,0,0
332041,-119.063566852418,4,1,0,55,0,0
332046,394.736842105263,4,1,0,55,1,8
332095,-119.047619047619,4,1,0,55,0,0
332096,394.736842105263,4,1,0,55,1,0
332096,-119.047619047619,4,1,0,55,0,0
332502,-118.220617261927,4,1,0,55,0,0
332699,-117.862220544555,4,1,0,55,0,0
333028,-117.266100638668,4,1,0,55,0,0
333226,-116.908795794793,4,1,0,55,0,0
333423,-116.554375985328,4,1,0,55,0,0
333624,-116.201030632242,4,1,0,55,0,0
333625,394.736842105263,4,1,0,55,1,0
333625,-116.201030632242,4,1,0,55,0,0
334020,-115.378347306221,4,1,0,55,0,0
334410,-114.794790257831,4,1,0,55,0,0
334810,-113.983819596116,4,1,0,55,0,0
335199,-113.407315746991,4,1,0,55,0,0
335594,-112.719011266441,4,1,0,55,0,0
336290,-111.243411083809,4,1,0,55,0,0
336778,-110.680767588383,4,1,0,55,0,0
337765,-109.009853928466,4,1,0,55,0,0
337962,-108.679380490634,4,1,0,55,0,0
338160,-108.348239019509,4,1,0,55,0,0
338357,-108.019771328365,4,1,0,55,0,0
338818,-107.255009912145,4,1,0,55,0,0
339541,-106.066501746405,4,1,0,55,0,0
339936,-105.422750962715,4,1,0,55,0,0
340923,-103.83121596989,4,1,0,55,0,0
341120,-103.51644205121,4,1,0,55,0,0
341318,-103.201031834923,4,1,0,55,0,0
341518,-102.888168377637,4,1,0,55,0,0
341519,394.736842105263,5,1,0,55,1,0
341519,-102.888168377637,4,1,0,55,0,0
341974,-102.159737828367,4,1,0,55,0,0
342699,-101.027691104224,4,1,0,55,0,0
343099,417.246175243394,4,1,0,55,1,0
343099,-94.997423157262,4,1,0,55,0,0
344137,-93.4825582648624,4,1,0,55,0,0
344345,-93.1833581860028,4,1,0,55,0,0
344554,-92.8836841763905,4,1,0,55,0,0
344761,-92.5878278207546,4,1,0,55,0,0
344766,-97.0933866863212,4,1,0,55,0,0
344767,397.877984084881,4,1,0,55,1,0
344767,-97.0933866863212,4,1,0,55,0,0
345159,-96.501121916632,4,1,0,55,0,0
345823,-95.5185964153595,4,1,0,55,0,0
346358,375.469336670839,4,1,0,55,1,0
346358,-100.395873659301,4,1,0,55,0,0
347291,-98.954930069075,4,1,0,55,0,0
347479,-98.6686243881527,4,1,0,55,0,0
347667,-98.3831470736682,4,1,0,55,0,0
347859,408.163265306122,4,1,0,55,1,0
347859,-90.2421822619478,4,1,0,55,0,0
348262,-89.6765050033611,4,1,0,55,0,0
349010,-88.648623508436,4,1,0,55,0,0
349491,382.165605095541,4,1,0,55,1,0
349491,-93.9871001123848,4,1,0,55,0,0
350441,-92.6138705518196,4,1,0,55,0,0
350632,-92.3416417656313,4,1,0,55,0,0
350823,-92.0702131674882,4,1,0,55,0,0
351019,400,4,1,0,55,1,0
351019,-87.7066098011221,4,1,0,55,0,0
351414,-87.1675734809616,4,1,0,55,0,0
352214,-86.0994190749763,4,1,0,55,0,0
352619,394.736842105263,4,1,0,55,1,0
352619,-86.7111961103523,4,1,0,55,0,0
353600,-85.4034599742624,4,1,0,55,0,0
353798,-85.1432392475029,4,1,0,55,0,0
353995,-84.8851196558488,4,1,0,55,0,0
354197,379.746835443038,4,1,0,55,1,0
354197,-87.9683503898049,4,1,0,55,0,0
354571,-87.4560064755498,4,1,0,55,0,0
355331,-86.437588802217,4,1,0,55,0,0
355715,410.958904109589,4,1,0,55,1,0
355715,-79.4075204070126,4,1,0,55,0,0
356737,-78.1605296030181,4,1,0,55,0,0
356942,-77.9139715629542,4,1,0,55,0,0
357148,-77.666994266357,4,1,0,55,0,0
357358,382.897255902999,4,1,0,55,1,0
357358,-83.0960655506344,4,1,0,55,0,0
357735,-82.6082791167416,4,1,0,55,0,0
358501,-81.6387630809244,4,1,0,55,0,0
358889,394.736842105263,4,1,0,55,1,0
358889,-78.7240519105881,4,1,0,55,0,0
360466,-76.8325458252935,4,1,0,55,0,0
360857,-76.3662250663967,4,1,0,55,0,0
361252,-75.9027345540815,4,1,0,55,0,0
361647,-75.4420571106959,4,1,0,55,0,0
362041,-74.9853313403965,4,1,0,55,0,0
362485,-74.4739582123567,4,1,0,55,0,0
362880,-74.0219524596044,4,1,0,55,0,0
363275,-73.5726900711828,4,1,0,55,0,0
363620,-73.1825277404515,4,1,0,55,0,0
363818,-72.9044657074485,4,1,0,55,0,0
364064,-72.6834490878733,4,1,0,55,0,0
364262,-72.4619856957492,4,1,0,55,0,0
364459,-72.2423104951868,4,1,0,55,0,0
364558,-84.2020103202027,4,1,0,55,0,0
364657,-72.0221912336778,4,1,0,55,0,0
364805,-71.8580957847513,4,1,0,55,0,0
365002,-71.6402513322154,4,1,0,55,0,0
365068,-71.5674157021131,4,1,0,55,0,0
365134,-71.4946541229656,4,1,0,55,0,0
365199,394.736842105263,4,1,0,55,1,0
365199,-71.4285714285714,4,1,0,55,0,0
365297,-91.1161731207289,4,1,0,55,0,0
368258,-80.1603206412826,4,1,0,55,0,0
368455,-91.1161731207289,4,1,0,55,0,0
369934,-58.9101620029455,4,1,0,55,0,0
370000,-58.6316763156105,4,1,0,55,0,0
370066,-58.2291573669378,4,1,0,55,0,0
370132,-57.7657081090532,4,1,0,55,0,0
370198,-57.2612060742914,4,1,0,55,0,0
370263,-56.7351081862082,4,1,0,55,0,0
370329,-56.1786028433344,4,1,0,55,0,0
370395,-55.6050305357763,4,1,0,55,0,0
370461,-55.0185762913164,4,1,0,55,0,0
370526,-54.4316554502052,4,1,0,55,0,0
370592,-53.8288889853177,4,1,0,55,0,0
370658,-53.2214932726851,4,1,0,55,0,0
370724,-52.6121955069185,4,1,0,55,0,0
371020,-57.4159551243862,4,1,0,55,0,0
371119,-59.1060564520951,4,1,0,55,0,0
371316,-62.5978090766823,4,1,0,55,0,0
371465,-62.5978090766823,4,1,0,70,0,0
371514,-45.5062571103527,4,1,0,70,0,0
380987,-45.5062571103527,4,1,0,70,0,0
381184,-45.8534393952303,4,1,0,70,0,0
381283,-46.029919447641,4,1,0,70,0,0
381382,-46.207763216435,4,1,0,70,0,0
381431,-46.2962962962963,4,1,0,70,0,0
381480,-46.3851692823619,4,1,0,70,0,0
381579,-46.5657741559954,4,1,0,70,0,0
381776,-46.9293760454074,4,1,0,70,0,0
381875,-47.1142520612485,4,1,0,70,0,0
381974,-47.3005904583843,4,1,0,70,0,0
382023,-47.39336492891,4,1,0,70,0,0
382073,-47.4884086570085,4,1,0,70,0,0
382171,-47.6758045292014,4,1,0,70,0,0
382369,-48.0589696546573,4,1,0,70,0,0
382467,-48.2509047044632,4,1,0,70,0,0
382566,-48.4463612036302,4,1,0,70,0,0
382763,-48.8400488400488,4,1,0,70,0,0
382862,-49.0403174366494,4,1,0,70,0,0
382961,-49.2422351982166,4,1,0,70,0,0
383010,-49.3427907015512,4,1,0,70,0,0
383059,-49.4437577255871,4,1,0,70,0,0
383109,-49.5472121323714,4,1,0,70,0,0
383158,-49.6490183416222,4,1,0,70,0,0
383257,-49.8559902982938,4,1,0,70,0,0
383355,-48.8400488400488,4,1,0,70,0,0
383651,-52.878659703358,4,1,0,70,0,0
383750,-54.2939105910383,4,1,0,70,0,0
383947,-57.2094641462185,4,1,0,70,0,0
384144,-45.511368229855,4,1,0,70,0,0
384145,-45.5062571103527,4,1,0,70,0,0
391443,-45.5062571103527,4,1,0,70,0,0
391492,-45.4234052626836,4,1,0,70,0,0
391542,-45.3372458744962,4,1,0,70,0,0
391591,-45.252952665804,4,1,0,70,0,0
391640,-45.1688008232356,4,1,0,70,0,0
391690,-45.0830771324046,4,1,0,70,0,0
391739,-44.9992103578772,4,1,0,70,0,0
391789,-44.9137771779512,4,1,0,70,0,0
391838,-44.8301947367901,4,1,0,70,0,0
391888,-44.7450513181711,4,1,0,70,0,0
391937,-44.6617524758427,4,1,0,70,0,0
391986,-44.5785937289113,4,1,0,70,0,0
392036,-44.4938820912124,4,1,0,70,0,0
392097,-45.5062571103527,4,1,0,70,0,0
393022,-45.5062571103527,4,1,0,70,0,0
393072,-45.4201014637226,4,1,0,70,0,0
393121,-45.3358116177669,4,1,0,70,0,0
393170,-45.2516628379191,4,1,0,70,0,0
393220,-45.1659419639797,4,1,0,70,0,0
393269,-45.0820776487495,4,1,0,70,0,0
393319,-44.9966466718391,4,1,0,70,0,0
393368,-44.9130660901992,4,1,0,70,0,0
393417,-44.8296256719442,4,1,0,70,0,0
393467,-44.744626685493,4,1,0,70,0,0
393516,-44.6614689082317,4,1,0,70,0,0
393615,-44.4938820912124,4,1,0,70,0,0
393618,-45.5062571103527,4,1,0,70,0,0
393619,-44.4955720427962,4,1,0,70,0,0
393815,-45.8516636718508,4,1,0,70,0,0
393914,-46.0281300294674,4,1,0,70,0,0
394013,-46.205959944428,4,1,0,70,0,0
394062,-46.2944861077441,4,1,0,70,0,0
394111,-46.383352137395,4,1,0,70,0,0
394210,-46.5639428333215,4,1,0,70,0,0
394407,-46.9275160124295,4,1,0,70,0,0
394506,-47.1123773446764,4,1,0,70,0,0
394605,-47.2987008836548,4,1,0,70,0,0
394654,-47.3914679347087,4,1,0,70,0,0
394704,-47.4865040467806,4,1,0,70,0,0
394802,-47.6738848579044,4,1,0,70,0,0
395000,-48.0570190036287,4,1,0,70,0,0
395098,-48.2489384418527,4,1,0,70,0,0
395197,-48.4443789790675,4,1,0,70,0,0
395198,-48.4463612036302,4,1,0,70,0,0
395394,-48.8380342691206,4,1,0,70,0,0
395493,-49.0382863106973,4,1,0,70,0,0
395592,-49.2401873123342,4,1,0,70,0,0
395641,-49.3407344434999,4,1,0,70,0,0
395690,-49.4416930439212,4,1,0,70,0,0
395740,-49.5451388017107,4,1,0,70,0,0
395789,-49.646936482112,4,1,0,70,0,0
395855,-49.7847147470398,4,1,0,70,0,0
395921,-49.9232598539407,4,1,0,70,0,0
395987,-48.8400488400488,4,1,0,70,0,0
396283,-52.8857248557686,4,1,0,70,0,0
396382,-54.3035610584995,4,1,0,70,0,0
396579,-57.2246065808298,4,1,0,70,0,0
396776,-45.5062571103527,4,1,0,70,0,0
403093,-42.5985090521831,4,1,0,70,0,1
407830,-42.5985090521831,4,1,0,70,0,0
407879,-47.3087277752704,4,1,0,70,0,0
408125,-48.0946687131428,4,1,0,70,0,0
408224,-48.8922757623146,4,1,0,70,0,0
408323,-49.701675700086,4,1,0,70,0,0
408421,-50.5146389542761,4,1,0,70,0,0
408520,-51.3478818998716,4,1,0,70,0,0
408619,-48.8400488400488,4,1,0,70,0,0
408915,-52.8857248557686,4,1,0,70,0,0
409014,-54.3035610584995,4,1,0,70,0,0
409211,-57.2246065808298,4,1,0,70,0,0
409408,-45.5062571103527,4,1,0,70,0,0
415675,-44.1014332965822,4,1,0,70,0,0
419079,-44.1014332965822,4,1,0,70,0,0
419276,-46.8202790979197,4,1,0,70,0,0
419375,-47.4858425284502,4,1,0,70,0,0
419474,-48.1546933147518,4,1,0,70,0,0
419523,-48.4869088450719,4,1,0,70,0,0
419573,-48.8266749614201,4,1,0,70,0,0
419671,-49.4947957925266,4,1,0,70,0,0
419869,-50.8529081663437,4,1,0,70,0,0
419967,-51.52885380313,4,1,0,70,0,0
420066,-52.2139920106898,4,1,0,70,0,0
420115,-52.5539012777245,4,1,0,70,0,0
420165,-52.9012644445118,4,1,0,70,0,0
420263,-53.5835245686274,4,1,0,70,0,0
420461,-54.9671195069863,4,1,0,70,0,0
420559,-55.6541249275841,4,1,0,70,0,0
420658,-56.3493759070782,4,1,0,70,0,0
420855,-57.7358219849309,4,1,0,70,0,0
420954,-58.4336862249417,4,1,0,70,0,0
421053,-59.1320532388523,4,1,0,70,0,0
421151,-59.8236775109488,4,1,0,70,0,0
421250,-55.6328233657858,4,1,0,70,0,0
421546,-59.6970664128243,4,1,0,70,0,0
421645,-61.0212396933888,4,1,0,70,0,0
421842,-63.5926745338957,4,1,0,70,0,0
422041,300,5,1,0,70,1,0
422041,-59.5238095238095,5,1,0,70,0,0
422191,-113.636363636364,5,1,0,40,0,0
423466,-113.636363636364,5,1,0,40,0,0
423616,-100,5,1,0,40,0,0
426466,-113.636363636364,5,1,0,40,0,0
426616,-100,5,1,0,40,0,0
429466,-113.636363636364,5,1,0,40,0,0
429616,-100,5,1,0,40,0,0
432466,-113.636363636364,5,1,0,40,0,0
432616,-100,5,1,0,40,0,0
433966,-76.9230769230769,5,1,0,70,0,0
435240,-111.111111111111,5,1,0,70,0,0
435540,-106.382978723404,5,1,0,70,0,0
435990,-100,5,1,0,70,0,0
436440,-94.3396226415094,5,1,0,70,0,0
436740,-90.9090909090909,5,1,0,70,0,0
436891,-76.9230769230769,5,1,0,70,0,0
437940,-111.111111111111,5,1,0,70,0,0
438240,-105.263157894737,5,1,0,70,0,0
438540,-90.9090909090909,5,1,0,70,0,0
438840,-96.3855421686747,5,1,0,70,0,0
438990,-99.3788819875776,5,1,0,70,0,0
439290,-105.960264900662,5,1,0,70,0,0
439440,-109.58904109589,5,1,0,70,0,0
439740,-117.647058823529,5,1,0,70,0,0
439966,-76.9230769230769,5,1,0,70,0,0
441016,-80,5,1,0,70,0,0
441166,-76.9230769230769,5,1,0,70,0,0
441466,-86.9565217391304,5,1,0,70,0,0
441840,-100,5,1,0,70,0,0
441915,-98.159509202454,5,1,0,70,0,0
441990,-96.3855421686747,5,1,0,70,0,0
442065,-94.6745562130178,5,1,0,70,0,0
442140,-93.0232558139535,5,1,0,70,0,0
442215,-91.4285714285714,5,1,0,70,0,0
442290,-89.8876404494382,5,1,0,70,0,0
442365,-88.3977900552486,5,1,0,70,0,0
442440,-86.9565217391304,5,1,0,70,0,0
442515,-85.5614973262032,5,1,0,70,0,0
442590,-84.2105263157895,5,1,0,70,0,0
442665,-82.9015544041451,5,1,0,70,0,0
442740,-81.6326530612245,5,1,0,70,0,0
442815,-80.4020100502513,5,1,0,70,0,0
442890,-79.2079207920792,5,1,0,70,0,0
442965,-78.0487804878049,5,1,0,70,0,0
443040,-75.7575757575758,5,1,0,70,0,0
444540,-133.333333333333,5,1,0,70,0,0
445065,-127.090647681825,5,1,0,70,0,0
445515,-115.025114279306,5,1,0,70,0,0
445815,-106.197848867391,5,1,0,70,0,0
446040,-100,5,1,0,70,0,0
446041,300,4,1,0,70,1,8
446303,-100,4,1,0,35,0,8
446341,300,14,1,0,35,1,0
446341,-125,7,1,0,35,0,0
446566,-122.872744410482,7,1,0,35,0,0
446936,-121.662488365047,7,1,0,35,0,0
447236,-118.766853166716,7,1,0,35,0,0
447466,-113.594473796672,7,1,0,35,0,0
448140,-107.842634950855,7,1,0,35,0,0
448432,-103.855214998997,7,1,0,35,0,0
448703,-103.855214998997,7,1,0,70,0,0
448732,-99.8327800457938,7,1,0,70,0,0
448932,-97.1600137093372,7,1,0,70,0,0
449007,-188.679245283019,7,1,0,70,0,0
449132,-94.5101442819494,7,1,0,70,0,0
449332,-91.8940814916683,7,1,0,70,0,0
449532,-89.3207087527521,7,1,0,70,0,0
449732,-86.7971462008717,7,1,0,70,0,0
449932,-84.3289877607905,7,1,0,70,0,0
450132,-81.9205137943116,7,1,0,70,0,0
450332,-79.574880789271,7,1,0,70,0,0
450521,279.06976744186,5,1,0,70,1,0
450521,-83.3333272775711,5,1,0,70,0,0
461399,-81.9672131147541,5,1,0,70,0,0
461446,-80.6819380362697,5,1,0,70,0,0
461492,-79.443526348379,5,1,0,70,0,0
461539,-78.1978235767166,5,1,0,70,0,0
461609,-76.3786387736839,5,1,0,70,0,0
461678,-74.6268656716418,5,1,0,70,0,0
461747,-83.3333333333333,5,1,0,70,0,0
468659,-76.9230769230769,5,1,0,70,0,0
468938,-75.0194470416675,5,1,0,70,0,0
469217,-72.3994878824982,5,1,0,70,0,0
469496,-69.5605132522896,5,1,0,70,0,0
469566,-68.8353881726048,5,1,0,70,0,0
469636,-68.1087521830433,5,1,0,70,0,0
469706,-67.3819927519433,5,1,0,70,0,0
469776,279.06976744186,4,1,0,70,1,0
469776,-66.6666666666667,4,1,0,70,0,0
478706,1000,4,1,0,70,1,0
478706,-18.6046511627907,4,1,0,70,0,0
478956,-100,4,1,0,40,0,0
492581,-83.3333333333334,4,1,0,70,0,0
493370,279.06976744186,4,1,0,70,1,8
493513,-82.5688073394496,4,1,0,70,0,0
493514,279.06976744186,4,1,0,70,1,8
493514,-82.5688073394496,4,1,0,70,0,0
493582,-71.1462450592886,4,1,0,70,0,0
493653,279.06976744186,4,1,0,70,1,0
493653,-62.5,4,1,0,70,0,0
504814,-62.111801242236,4,1,0,70,0,0
504815,279.06976744186,4,1,0,70,1,8
504815,-62.111801242236,4,1,0,70,0,0
504880,-61.2527168543766,4,1,0,70,0,0
504950,-60.417072695381,4,1,0,70,0,0
505020,-59.6039223226303,4,1,0,70,0,0
505093,-58.8235294117647,4,1,0,70,0,0
505094,279.06976744186,4,1,0,70,1,0
505094,-58.8235294117647,4,1,0,70,0,0
511513,-59.5238095238095,3,1,0,70,0,0
511581,-59.6776475385606,3,1,0,70,0,0
511651,-59.9076490290323,3,1,0,70,0,0
511721,-60.1790239717785,3,1,0,70,0,0
511791,-60.4824662185204,3,1,0,70,0,0
511861,-60.9756097560976,3,1,0,70,0,0
511930,-61.1635301644167,3,1,0,70,0,0
512070,-61.9412313962392,3,1,0,70,0,0
512139,-62.3556703730049,3,1,0,70,0,0
512209,-62.7963511111769,3,1,0,70,0,0
512350,-63.7377456444145,6,1,0,70,0,0
512488,-64.7511449516065,6,1,0,70,0,0
512628,-65.8520166585818,6,1,0,70,0,0
512697,-66.4248148337903,6,1,0,70,0,0
512767,-67.0267822544835,6,1,0,70,0,0
512837,-67.6502041215136,6,1,0,70,0,0
512907,-68.2955791165125,6,1,0,70,0,0
513046,-69.6444400983132,6,1,0,70,0,0
513186,-71.0979045754437,6,1,0,70,0,0
513255,-71.851118795953,6,1,0,70,0,0
513325,-72.6412317803688,6,1,0,70,0,0
513465,-74.3037125075332,6,1,0,70,0,0
513604,-76.0696949466767,6,1,0,70,0,0
513674,-77.0054410906631,6,1,0,70,0,0
513744,-77.9739755505686,6,1,0,70,0,0
513814,-78.9766946599451,6,1,0,70,0,0
513883,-80,6,1,0,70,0,0
514023,-68.9832092982915,6,1,0,70,0,0
514024,279.06976744186,4,1,0,70,1,8
514025,279.06976744186,5,1,0,70,1,0
514025,-65.7894736842106,5,1,0,70,0,0
514094,-71.4285714285714,5,1,0,70,0,0
515135,-71.4285714285714,5,1,0,70,0,0
515205,-70.4465269658594,5,1,0,70,0,0
515275,-69.036544673581,5,1,0,70,0,0
515345,-67.45680512936,5,1,0,70,0,0
515414,-66.687370832399,5,1,0,70,0,0
515415,-65.7894736842106,5,1,0,70,0,0
515490,-71.4285714285714,5,1,0,70,0,0
516531,-71.4285714285714,5,1,0,70,0,0
516601,-70.4282442698704,5,1,0,70,0,0
516671,-69.0149058748395,5,1,0,70,0,0
516740,-67.45680512936,5,1,0,70,0,0
516810,-65.7894736842106,5,1,0,70,0,0
516885,-71.4285714285714,5,1,0,70,0,0
517926,-70.9219858156029,5,1,0,70,0,0
517996,-70.0209878359343,5,1,0,70,0,0
518066,-68.743930341479,5,1,0,70,0,0
518136,-67.3093150394529,5,1,0,70,0,0
518211,279.06976744186,3,1,0,70,1,0
518211,-65.7894736842106,3,1,0,70,0,0
518349,-71.3695850466327,3,1,0,70,0,0
518419,-71.3153751536214,3,1,0,70,0,0
518489,-71.2490316860179,3,1,0,70,0,0
518628,-71.0865256413332,3,1,0,70,0,0
518698,-70.9909589831682,3,1,0,70,0,0
518768,-70.8870736578421,3,1,0,70,0,0
518837,-70.7770400036072,3,1,0,70,0,0
518907,-70.6581126915005,3,1,0,70,0,0
519047,-70.3997342284471,3,1,0,70,0,0
519117,-70.2609538964353,3,1,0,70,0,0
519186,-70.118286015251,3,1,0,70,0,0
519256,-69.9678607725159,3,1,0,70,0,0
519326,-69.8119534357462,3,1,0,70,0,0
519465,-69.4870214960289,3,1,0,70,0,0
519535,-69.3160830659007,3,1,0,70,0,0
519605,-69.1405174590449,3,1,0,70,0,0
519744,-68.7789077264126,3,1,0,70,0,0
519814,-68.5906095895373,3,1,0,70,0,0
519884,-68.3983841250641,3,1,0,70,0,0
520024,-68.0027776891015,3,1,0,70,0,0
520163,-67.5962569173382,3,1,0,70,0,0
520233,-67.3866998827447,3,1,0,70,0,0
520303,-67.1740823408641,3,1,0,70,0,0
520372,-66.9616322300487,3,1,0,70,0,0
520442,-66.7433148085434,3,1,0,70,0,0
520582,-66.2987336112043,3,1,0,70,0,0
520722,306.122448979592,3,1,0,70,1,0
520722,-60.7353633145299,3,1,0,70,0,0
521027,-59.780738266326,3,1,0,70,0,0
521333,-58.7942976464463,3,1,0,70,0,0
521486,-58.2913584938483,3,1,0,70,0,0
521640,300,4,1,0,70,1,0
521640,-58.8235256400097,4,1,0,70,0,0
521715,-71.4285714285714,4,1,0,70,0,0
522235,-69.1764114273756,4,1,0,70,0,0
522385,-67.6950653666492,4,1,0,70,0,0
522535,-66.1275152040338,4,1,0,70,0,0
522685,-64.5161290322581,4,1,0,70,0,0
522835,-71.4285714285714,4,1,0,70,0,0
522985,-70.919577758377,4,1,0,70,0,0
523135,-70.188206775668,4,1,0,70,0,0
523435,-68.4500679436786,4,1,0,70,0,0
523585,-67.5027656276019,4,1,0,70,0,0
523735,-66.5248397044632,4,1,0,70,0,0
524035,-64.5161290322581,4,1,0,70,0,0
524335,-71.4285714285714,4,1,0,70,0,0
524635,-69.9111835598748,4,1,0,70,0,0
524735,-69.2440672482677,4,1,0,70,0,0
524835,-68.538631877958,4,1,0,70,0,0
524935,-67.8048903728031,4,1,0,70,0,0
525085,-66.6666666666667,4,1,0,70,0,0
525235,-71.4285714285714,4,1,0,70,0,0
525385,-70.919577758377,4,1,0,70,0,0
525535,-70.188206775668,4,1,0,70,0,0
525835,-68.4500679436786,4,1,0,70,0,0
525985,-67.5027656276019,4,1,0,70,0,0
526135,-66.5248397044632,4,1,0,70,0,0
526435,-64.5161290322581,4,1,0,70,0,0
526735,-71.4285714285714,4,1,0,70,0,0
527035,-69.9111835598748,4,1,0,70,0,0
527185,-68.895432434944,4,1,0,70,0,0
527335,-67.8048903728031,4,1,0,70,0,0
527485,-66.6666666666667,4,1,0,70,0,0
527635,-71.4285714285714,4,1,0,70,0,0
527785,-70.919577758377,4,1,0,70,0,0
527935,-70.188206775668,4,1,0,70,0,0
528235,-68.4500679436786,4,1,0,70,0,0
528385,-67.5027656276019,4,1,0,70,0,0
528535,-66.5248397044632,4,1,0,70,0,0
528835,-64.5161290322581,4,1,0,70,0,0
529135,-71.4285714285714,4,1,0,70,0,0
529435,-69.9111835598748,4,1,0,70,0,0
529585,-68.895432434944,4,1,0,70,0,0
529735,-67.8048903728031,4,1,0,70,0,0
529885,-66.6666666666667,4,1,0,70,0,0
530035,-71.4285714285714,4,1,0,70,0,0
530185,-70.4177868495198,4,1,0,70,0,0
530335,-68.990184960162,4,1,0,70,0,0
530635,-65.7116572479958,4,1,0,70,0,0
530785,-63.4559430861257,4,1,0,70,0,0
530935,-61.2776618576673,4,1,0,70,0,0
531010,-60.2167243432898,4,1,0,70,0,0
531085,-59.1741554868423,4,1,0,70,0,0
531160,-58.1496372605526,4,1,0,70,0,0
531235,-57.1428571428571,4,1,0,70,0,0
531535,-61.7813129107735,4,1,0,70,0,0
531835,-64.8659537784019,4,1,0,70,0,0
531985,-66.4568594539013,4,1,0,70,0,0
532135,-68.080678942713,4,1,0,70,0,0
532285,-69.7377929274491,4,1,0,70,0,0
532435,-71.4285714285714,4,1,0,70,0,0
532585,-70.919577758377,4,1,0,70,0,0
532735,-70.188206775668,4,1,0,70,0,0
533035,-68.4500679436786,4,1,0,70,0,0
533185,-67.5027656276019,4,1,0,70,0,0
533335,-66.5248397044632,4,1,0,70,0,0
533635,-64.5161290322581,4,1,0,70,0,0
533935,-71.4285714285714,4,1,0,70,0,0
534235,-69.9111835598748,4,1,0,70,0,0
534385,-68.895432434944,4,1,0,70,0,0
534535,-67.8048903728031,4,1,0,70,0,0
534685,-66.6666666666667,4,1,0,70,0,0
534835,-71.4285714285714,4,1,0,70,0,0
534985,-70.919577758377,4,1,0,70,0,0
535060,-70.5705690409085,4,1,0,70,0,0
535135,-70.188206775668,4,1,0,70,0,0
535285,-69.3523899923594,4,1,0,70,0,0
535585,-67.5027656276019,4,1,0,70,0,0
535735,-66.5248397044632,4,1,0,70,0,0
536035,-64.5161290322581,4,1,0,70,0,0
536335,-62.5,4,1,0,70,0,0
536410,-63.2059003709305,4,1,0,70,0,0
536485,-63.9186086546037,4,1,0,70,0,0
536560,-64.6381641566326,4,1,0,70,0,0
536635,-65.364605800752,4,1,0,70,0,0
536785,-66.8383012000958,4,1,0,70,0,0
536935,-68.3399979629437,4,1,0,70,0,0
537085,-69.8699919946865,4,1,0,70,0,0
537235,-71.4285714285714,4,1,0,70,0,0
537385,-70.919577758377,4,1,0,70,0,0
537535,-70.188206775668,4,1,0,70,0,0
537835,-68.4500679436786,4,1,0,70,0,0
537985,-67.5027656276019,4,1,0,70,0,0
538135,-66.5248397044632,4,1,0,70,0,0
538435,-64.5161290322581,4,1,0,70,0,0
538735,-71.4285714285714,4,1,0,70,0,0
539035,-70.2259962323324,4,1,0,70,0,0
539185,-69.4149132281283,4,1,0,70,0,0
539335,-68.538631877958,4,1,0,70,0,0
539485,-67.6179289098795,4,1,0,70,0,0
539635,-71.4285714285714,4,1,0,70,0,0
539935,-70.8239052995258,4,1,0,70,0,0
540235,-68.9723450306771,4,1,0,70,0,0
540385,-67.913225120695,4,1,0,70,0,0
540535,-66.8067105839268,4,1,0,70,0,0
540835,-58.8235294117647,4,1,0,70,0,0
540985,-61.7252807676131,4,1,0,70,0,0
541135,-64.7491665475155,4,1,0,70,0,0
541285,-67.89824089467,4,1,0,70,0,0
541435,-71.1754253445005,4,1,0,70,0,0
541585,-74.5834844221657,4,1,0,70,0,0
541735,-78.125,4,1,0,70,0,0
541810,-77.2935819136364,4,1,0,70,0,0
541885,-76.1091785459888,4,1,0,70,0,0
541960,-74.7702327273649,4,1,0,70,0,0
541990,-72.463768115942,4,1,0,70,0,0
542185,-78.125,4,1,0,70,0,0
542260,-78.082334163431,4,1,0,70,0,0
542335,-77.9958047001621,4,1,0,70,0,0
542410,-77.8782043985406,4,1,0,70,0,0
542485,-77.734664373389,4,1,0,70,0,0
542560,-77.5683731291377,4,1,0,70,0,0
542635,-77.3816260635662,4,1,0,70,0,0
542710,-77.1762149840686,4,1,0,70,0,0
542785,-76.9536128082874,4,1,0,70,0,0
542860,-76.7150743758891,4,1,0,70,0,0
542935,-76.4616968511042,4,1,0,70,0,0
543010,-76.1944584163769,4,1,0,70,0,0
543085,-75.9142443427328,4,1,0,70,0,0
543160,-75.6218652638347,4,1,0,70,0,0
543235,-75.3180704007017,4,1,0,70,0,0
543310,-75.0035573882613,4,1,0,70,0,0
543385,-74.6789797415291,4,1,0,70,0,0
543460,-74.3449526383709,4,1,0,70,0,0
543535,-74.0020574744929,4,1,0,70,0,0
543610,-73.6508455056889,4,1,0,70,0,0
543685,-73.2918408002588,4,1,0,70,0,0
543760,-72.9255426625454,4,1,0,70,0,0
543835,-72.5524276458728,4,1,0,70,0,0
543910,-72.1729512431753,4,1,0,70,0,0
543985,-71.7875493221335,4,1,0,70,0,0
544060,-71.3966393560059,4,1,0,70,0,0
544135,-71.0006214897952,4,1,0,70,0,0
544210,-70.5998794727472,4,1,0,70,0,0
544285,-70.1947814816274,4,1,0,70,0,0
544360,-69.7856808542012,4,1,0,70,0,0
544435,-69.3729167484612,4,1,0,70,0,0
544510,-68.9568147401097,4,1,0,70,0,0
544585,-68.5376873684176,4,1,0,70,0,0
544660,-68.1158346386868,4,1,0,70,0,0
544735,-67.6915444880297,4,1,0,70,0,0
544810,-67.265093219964,4,1,0,70,0,0
544885,-66.8367459123395,4,1,0,70,0,0
544960,-66.4067568023151,4,1,0,70,0,0
545035,-65.9753696514578,4,1,0,70,0,0
545110,-65.542818093498,4,1,0,70,0,0
545185,-65.1093259668444,4,1,0,70,0,0
545260,-64.6751076335987,4,1,0,70,0,0
545335,-64.2403682865153,4,1,0,70,0,0
545410,-63.8053042451057,4,1,0,70,0,0
545485,-63.3701032418826,4,1,0,70,0,0
545560,-62.9349446995748,4,1,0,70,0,0
545635,-60.6060606060606,4,1,0,70,0,0
545785,-62.5349078468486,4,1,0,70,0,0
545935,-64.5161290322581,4,1,0,70,0,0
546085,-62.5,4,1,0,70,0,0
546235,-64.554705411416,4,1,0,70,0,0
546385,-66.6666666666667,4,1,0,70,0,0
546535,-64.5161290322581,4,1,0,70,0,0
546685,-66.709444957612,4,1,0,70,0,0
546835,-64.5161290322581,4,1,0,70,0,0
546985,-68.9655172413793,4,1,0,70,0,0
547060,-68.939537917521,4,1,0,70,0,0
547135,-68.8868228784349,4,1,0,70,0,0
547285,-68.7275122386864,4,1,0,70,0,0
547435,-68.5116115174572,4,1,0,70,0,0
547510,-68.3857125616897,4,1,0,70,0,0
547585,-68.2490439148452,4,1,0,70,0,0
547660,-68.1023212676983,4,1,0,70,0,0
547735,-67.9461646693774,4,1,0,70,0,0
547885,-67.6076867838922,4,1,0,70,0,0
547960,-67.4263060688951,4,1,0,70,0,0
548035,-67.23739208189,4,1,0,70,0,0
548110,-67.041326636097,4,1,0,70,0,0
548185,-66.8384661444271,4,1,0,70,0,0
548260,-66.6291452464597,4,1,0,70,0,0
548335,-66.4136796719401,4,1,0,70,0,0
548410,-66.1923685340106,4,1,0,70,0,0
548485,-65.9654961891155,4,1,0,70,0,0
548560,-65.7333337626568,4,1,0,70,0,0
548635,-65.4961404133838,4,1,0,70,0,0
548710,-65.2541643911632,4,1,0,70,0,0
548785,-65.0076439296273,4,1,0,70,0,0
548860,-64.7568080056292,4,1,0,70,0,0
548935,-64.5018769903545,4,1,0,70,0,0
549010,-64.2430632116356,4,1,0,70,0,0
549085,-63.9805714429854,4,1,0,70,0,0
549160,-63.7145993317836,4,1,0,70,0,0
549235,-63.4453377766449,4,1,0,70,0,0
549385,-62.8976781574627,4,1,0,70,0,0
549535,-62.3389966614107,4,1,0,70,0,0
549610,-62.0559367200098,4,1,0,70,0,0
549685,-61.770607509692,4,1,0,70,0,0
549835,-61.1937418556133,4,1,0,70,0,0
549985,-60.6095535047062,4,1,0,70,0,0
550135,-60.0191238379402,4,1,0,70,0,0
550285,-59.4234661313141,4,1,0,70,0,0
550360,-59.1239757460391,4,1,0,70,0,0
550435,-58.8235294117647,4,1,0,70,0,0
550585,-60.2867705899421,4,1,0,70,0,0
550735,-61.7813129107735,4,1,0,70,0,0
550885,-59.8802395209581,4,1,0,70,0,0
551035,-63.0960241353012,4,1,0,70,0,0
551185,-66.4584302518774,4,1,0,70,0,0
551335,-64.5161290322581,4,1,0,70,0,0
551485,-67.89824089467,4,1,0,70,0,0
551635,-65.7894736842106,4,1,0,70,0,0
551935,-76.9230769230769,4,1,0,70,0,0
552035,-76.1820791759603,4,1,0,70,0,0
552135,-75.1238704063895,4,1,0,70,0,0
552235,-73.9238702514821,4,1,0,70,0,0
552335,-72.6394224050689,4,1,0,70,0,0
552435,-71.303112577611,4,1,0,70,0,0
552535,-69.93649794113,4,1,0,70,0,0
552635,-68.5549143164341,4,1,0,70,0,0
552735,-67.1697107871744,4,1,0,70,0,0
552835,-65.7894736842106,4,1,0,70,0,0
553365,-95.238095238095,4,1,0,70,0,0
554040,-83.3333333333334,4,1,0,70,0,1
554110,-83.2384978149141,4,1,0,70,0,1
554185,-83.0465088882953,4,1,0,70,0,1
554260,-82.7863181709756,4,1,0,70,0,1
554335,-82.4698814423322,4,1,0,70,0,1
554410,-82.1048546299726,4,1,0,70,0,1
554485,-81.6969145934691,4,1,0,70,0,1
554560,-81.2506160773719,4,1,0,70,0,1
554635,-80.7697953864365,4,1,0,70,0,1
554710,-80.2577889771511,4,1,0,70,0,1
554785,-79.7175632776725,4,1,0,70,0,1
554860,-79.1517970974914,4,1,0,70,0,1
554935,-78.5629366838532,4,1,0,70,0,1
555010,-77.9532340537732,4,1,0,70,0,1
555085,-77.3247746297273,4,1,0,70,0,1
555160,-76.6794977856513,4,1,0,70,0,1
555235,-76.019212556012,4,1,0,70,0,1
555310,-75.3456099653375,4,1,0,70,0,1
555385,-74.6602729486728,4,1,0,70,0,1
555460,-73.9646845247937,4,1,0,70,0,1
555535,-73.2602346825271,4,1,0,70,0,1
555610,-72.5482263056252,4,1,0,70,0,1
555685,-71.8298803693568,4,1,0,70,0,1
555760,-71.1063405776631,4,1,0,70,0,1
555835,-70.3786775642173,4,1,0,70,0,1
555910,-69.6478927480714,4,1,0,70,0,1
555985,-68.9149219109219,4,1,0,70,0,1
556060,-68.1806385457121,4,1,0,70,0,1
556135,-67.4458570135561,4,1,0,70,0,1
556210,-66.7113355365444,4,1,0,70,0,1
556285,-65.9777790470048,4,1,0,70,0,1
556360,-65.2458419086034,4,1,0,70,0,1
556440,333.333333333333,5,1,0,70,1,0
556440,-58.8235283117944,5,1,0,70,0,0
556773,-64.8739766840525,5,1,0,70,0,1
556883,-67.1363987749961,5,1,0,70,0,1
556994,-69.5250213553817,5,1,0,70,0,1
557106,375,5,1,0,70,1,9
557106,-65.0774538129728,5,1,0,70,0,1
557230,-67.8167158686364,5,1,0,70,0,1
557355,-70.7006804639651,5,1,0,70,0,1
557481,400,5,1,0,70,1,9
557481,-69.756409234399,5,1,0,70,0,1
557613,-72.9561779678891,5,1,0,70,0,1
557746,-76.270570221755,5,1,0,70,0,1
557881,428.571428571429,5,1,0,70,1,0
557881,-75.1814246221676,5,1,0,70,0,0
558309,461.538461538462,5,1,0,70,1,8
558514,-85.9744027499269,5,1,0,70,0,0
558539,-85.9744027499269,5,1,0,70,0,1
558616,-87.8880401674901,5,1,0,70,0,1
558770,500,5,1,0,70,1,9
558770,-83.8833323918677,5,1,0,70,0,1
559020,600,5,1,0,70,1,9
559020,-74.5654579527799,5,1,0,70,0,1
559320,535.714285714286,5,1,0,70,1,9
559320,-83.3333330278202,5,1,0,70,0,1
559855,238.095238095238,4,1,0,70,1,0
560564,-95.238095238095,4,1,0,70,0,0
560802,-92.5196311714685,4,1,0,70,0,0
561040,-88.812645853917,4,1,0,70,0,0
561278,-84.840123618125,4,1,0,70,0,0
561516,-80.8374965400159,4,1,0,70,0,0
561754,-76.9230769230769,4,1,0,70,0,0
562469,-95.238095238095,4,1,0,70,0,0
562707,-92.5196311714685,4,1,0,70,0,0
562945,-88.812645853917,4,1,0,70,0,0
563183,-84.840123618125,4,1,0,70,0,0
563421,-80.8374965400159,4,1,0,70,0,0
563657,-76.9230769230769,4,1,0,70,0,0
563776,-79.0137668020264,4,1,0,70,0,0
563895,-81.1503802956081,4,1,0,70,0,0
564014,-83.3333333333334,4,1,0,70,0,0
564133,-78.125,4,1,0,70,0,0
564252,-80.2837915110081,4,1,0,70,0,0
564371,-82.4905717783151,4,1,0,70,0,0
564490,-84.7457627118647,4,1,0,70,0,0
564609,-79.3650793650794,4,1,0,70,0,0
564728,-81.5890662946511,4,1,0,70,0,0
564847,-83.8629492115776,4,1,0,70,0,0
564966,-86.1871511200441,4,1,0,70,0,0
565085,-80.6451612903226,4,1,0,70,0,0
565204,-82.9309748628489,4,1,0,70,0,0
565323,-85.2884344872824,4,1,0,70,0,0
565442,-87.6988175599433,4,1,0,70,0,0
565562,-81.9672131147541,4,1,0,70,0,0
565681,-83.7503757958627,4,1,0,70,0,0
565800,-85.564390367875,4,1,0,70,0,0
565919,-87.4094452320181,4,1,0,70,0,0
566038,-89.2857142857143,4,1,0,70,0,0
566157,-86.9800496162226,4,1,0,70,0,0
566276,-83.8150803668832,4,1,0,70,0,0
566395,-80.3963545503989,4,1,0,70,0,0
566514,-76.9230769230769,4,1,0,70,0,0
566754,-90.9090909090909,4,1,0,70,0,0
566873,-89.3305690278755,4,1,0,70,0,0
566992,-87.1185587767377,4,1,0,70,0,0
567111,-84.6684426021986,4,1,0,70,0,0
567230,-82.1120723588082,4,1,0,70,0,0
567350,-79.5005586610947,4,1,0,70,0,0
567469,-76.9230769230769,4,1,0,70,0,0
568183,-95.238095238095,4,1,0,70,0,0
568421,-92.5196311714685,4,1,0,70,0,0
568659,-88.812645853917,4,1,0,70,0,0
568897,-84.840123618125,4,1,0,70,0,0
569135,-80.8374965400159,4,1,0,70,0,0
569373,-76.9230769230769,4,1,0,70,0,0
570088,-95.238095238095,4,1,0,70,0,0
570326,-92.5196311714685,4,1,0,70,0,0
570564,-88.812645853917,4,1,0,70,0,0
570802,-84.840123618125,4,1,0,70,0,0
571040,-80.8374965400159,4,1,0,70,0,0
571276,-76.9230769230769,4,1,0,70,0,0
571395,-79.0137668020264,4,1,0,70,0,0
571514,-81.1503802956081,4,1,0,70,0,0
571633,-83.3333333333334,4,1,0,70,0,0
571752,-78.125,4,1,0,70,0,0
571871,-80.2837915110081,4,1,0,70,0,0
571990,-82.4905717783151,4,1,0,70,0,0
572109,-84.7457627118647,4,1,0,70,0,0
572228,-79.3650793650794,4,1,0,70,0,0
572347,-81.5890662946511,4,1,0,70,0,0
572466,-83.8629492115776,4,1,0,70,0,0
572585,-86.1871511200441,4,1,0,70,0,0
572704,-80.6451612903226,4,1,0,70,0,0
572823,-82.9309748628489,4,1,0,70,0,0
572942,-85.2884344872824,4,1,0,70,0,0
573061,-87.6988175599433,4,1,0,70,0,0
573181,-81.9672131147541,4,1,0,70,0,0
573300,-83.7503757958627,4,1,0,70,0,0
573419,-85.564390367875,4,1,0,70,0,0
573538,-87.4094452320181,4,1,0,70,0,0
573657,-89.2857142857143,4,1,0,70,0,0
573776,-86.9800496162226,4,1,0,70,0,0
573895,-83.8150803668832,4,1,0,70,0,0
574014,-80.3963545503989,4,1,0,70,0,0
574133,-76.9230769230769,4,1,0,70,0,0
574373,-90.9090909090909,4,1,0,70,0,0
574492,-88.5616879355353,4,1,0,70,0,0
574611,-85.3394090302686,4,1,0,70,0,0
574691,-83.0126689371822,4,1,0,70,0,0
574770,-80.6698110402713,4,1,0,70,0,0
574849,-78.3225454882003,4,1,0,70,0,0
574929,-75.9686805031958,4,1,0,70,0,0
575008,-73.6856642207421,4,1,0,70,0,0
575088,-71.4285714285714,4,1,0,70,0,0
575152,-74.3811684614885,4,1,0,70,0,0
575266,-74.6841683869106,4,1,0,70,0,0
575326,-74.9933467480371,4,1,0,70,0,0
575445,-75.6096683827228,4,1,0,70,0,0
575564,-76.2301466686319,4,1,0,70,0,0
575623,-76.5393241236809,4,1,0,70,0,0
575683,-76.8547947003442,4,1,0,70,0,0
575802,-77.4836253592619,4,1,0,70,0,0
575921,-78.116651308911,4,1,0,70,0,0
576040,-78.7538849902184,4,1,0,70,0,0
576100,-79.0767787745085,4,1,0,70,0,0
576159,-79.3953386167623,4,1,0,70,0,0
576219,-79.7203646627631,4,1,0,70,0,0
576278,-80.0410241700014,4,1,0,70,0,0
576338,-80.3681884292448,4,1,0,70,0,0
576397,-80.6909533944788,4,1,0,70,0,0
576457,-81.020261697219,4,1,0,70,0,0
576516,-81.3451377930065,4,1,0,70,0,0
576576,-81.6765958457833,4,1,0,70,0,0
576635,-82.0035886218284,4,1,0,70,0,0
576695,-82.337202005021,4,1,0,70,0,0
576754,-82.6663168857637,4,1,0,70,0,0
576873,-83.3333333333334,4,1,0,70,0,0
576992,-74.0740740740741,4,1,0,70,0,0
577111,-74.6636054240166,4,1,0,70,0,0
577171,-74.9623122016261,4,1,0,70,0,0
577230,-75.2569996501211,4,1,0,70,0,0
577350,-75.8593043831152,4,1,0,70,0,0
577469,-76.4604932236255,4,1,0,70,0,0
577528,-76.7600066036968,4,1,0,70,0,0
577588,-77.0655808240901,4,1,0,70,0,0
577707,-77.6745787419531,4,1,0,70,0,0
577826,-78.2874983432367,4,1,0,70,0,0
577945,-78.9043507985524,4,1,0,70,0,0
578004,-79.2116469318816,4,1,0,70,0,0
578064,-79.5251470790925,4,1,0,70,0,0
578123,-79.8344025599328,4,1,0,70,0,0
578183,-80.1498979526026,4,1,0,70,0,0
578242,-80.4611180428973,4,1,0,70,0,0
578302,-80.7786139793359,4,1,0,70,0,0
578361,-81.0918038366483,4,1,0,70,0,0
578421,-81.4113055079899,4,1,0,70,0,0
578480,-81.7264701834824,4,1,0,70,0,0
578540,-82.0479826716267,4,1,0,70,0,0
578600,-82.370510908942,4,1,0,70,0,0
578659,-82.6886553835775,4,1,0,70,0,0
578778,-83.3333333333334,4,1,0,70,0,0
578897,-74.0740740740741,4,1,0,70,0,0
579016,-74.6446934779082,4,1,0,70,0,0
579076,-74.9337725642359,4,1,0,70,0,0
579135,-75.2189322868103,4,1,0,70,0,0
579254,-75.7968014930449,4,1,0,70,0,0
579373,-76.3783119314347,4,1,0,70,0,0
579433,-76.6728946504549,4,1,0,70,0,0
579492,-76.963474276026,4,1,0,70,0,0
579611,-77.5522990367369,4,1,0,70,0,0
579730,-78.1447965559868,4,1,0,70,0,0
579850,-78.746002558067,4,1,0,70,0,0
579909,-79.0429719670833,4,1,0,70,0,0
579969,-79.3459070095663,4,1,0,70,0,0
580028,-79.6447110588262,4,1,0,70,0,0
580088,-79.949514289673,4,1,0,70,0,0
580147,-80.2501577799728,4,1,0,70,0,0
580207,-80.5568340352425,4,1,0,70,0,0
580266,-80.8593216762754,4,1,0,70,0,0
580326,-81.1678756985084,4,1,0,70,0,0
580385,-81.4722121071487,4,1,0,70,0,0
580445,-81.782648543619,4,1,0,70,0,0
580504,-82.0888382422011,4,1,0,70,0,0
580564,-82.4011616431618,4,1,0,70,0,0
580623,-82.7092090577511,4,1,0,70,0,0
580683,-83.023423874674,4,1,0,70,0,0
580742,-83.3333333333334,4,1,0,70,0,0
580802,-80,4,1,0,70,0,0
580921,-79.1516733696705,4,1,0,70,0,0
580980,-78.5785166439222,4,1,0,70,0,0
581040,-77.9430700495927,4,1,0,70,0,0
581159,-76.5766070613762,4,1,0,70,0,0
581278,-75.1187680511312,4,1,0,70,0,0
581397,-73.6072922978473,4,1,0,70,0,0
581457,-72.8330535724993,4,1,0,70,0,0
581516,-72.0670227995398,4,1,0,70,0,0
581576,-71.2852510254132,4,1,0,70,0,0
581635,-70.5154884425199,4,1,0,70,0,0
581754,-68.9655172413793,4,1,0,70,0,0
581992,-80,4,1,0,70,0,0
582111,-79.2196066129164,4,1,0,70,0,0
582230,-78.1054706096102,4,1,0,70,0,0
582290,-77.482583437094,4,1,0,70,0,0
582350,-76.8314762846649,4,1,0,70,0,0
582409,-76.1697321161775,4,1,0,70,0,0
582469,-75.4796347072715,4,1,0,70,0,0
582588,-74.0740740740741,4,1,0,70,0,0
582707,-71.4285714285714,4,1,0,70,0,0
582826,-71.9753322371037,4,1,0,70,0,0
582885,-72.2477039209629,4,1,0,70,0,0
582945,-72.5255700522241,4,1,0,70,0,0
583064,-73.079296135862,4,1,0,70,0,0
583183,-73.6365216150052,4,1,0,70,0,0
583242,-73.9140940673214,4,1,0,70,0,0
583302,-74.1972574786568,4,1,0,70,0,0
583421,-74.7615145747738,4,1,0,70,0,0
583480,-75.0425813005363,4,1,0,70,0,0
583540,-75.3293036071859,4,1,0,70,0,0
583659,-75.9006351324965,4,1,0,70,0,0
583719,-76.1900480982908,4,1,0,70,0,0
583778,-76.4755195569657,4,1,0,70,0,0
583838,-76.7667277981917,4,1,0,70,0,0
583897,-77.0539671333755,4,1,0,70,0,0
583957,-77.3469757603055,4,1,0,70,0,0
584016,-77.6359879578781,4,1,0,70,0,0
584076,-77.9308020006117,4,1,0,70,0,0
584135,-78.2215919668288,4,1,0,70,0,0
584195,-78.518216373689,4,1,0,70,0,0
584254,-78.8107889336019,4,1,0,70,0,0
584314,-79.1092285695243,4,1,0,70,0,0
584373,-79.4035884653918,4,1,0,70,0,0
584492,-80,4,1,0,70,0,0
584611,-71.4285714285714,4,1,0,70,0,0
584730,-71.9750251282289,4,1,0,70,0,0
584790,-72.2518643332172,4,1,0,70,0,0
584850,-72.5295879167964,4,1,0,70,0,0
584969,-73.0830284025664,4,1,0,70,0,0
585088,-73.6399644404705,4,1,0,70,0,0
585147,-73.9173919571783,4,1,0,70,0,0
585207,-74.2004070001672,4,1,0,70,0,0
585326,-74.7643669105656,4,1,0,70,0,0
585385,-75.0452848469687,4,1,0,70,0,0
585445,-75.3318548567528,4,1,0,70,0,0
585564,-75.9028813769034,4,1,0,70,0,0
585623,-76.1873107049241,4,1,0,70,0,0
585683,-76.477456859171,4,1,0,70,0,0
585742,-76.7636495615244,4,1,0,70,0,0
585802,-77.0555915385623,4,1,0,70,0,0
585861,-77.343552631991,4,1,0,70,0,0
585921,-77.6372954937945,4,1,0,70,0,0
585980,-77.9270299163822,4,1,0,70,0,0
586040,-78.2225786441361,4,1,0,70,0,0
586100,-78.5190397554376,4,1,0,70,0,0
586159,-78.8114507462325,4,1,0,70,0,0
586219,-79.109725060502,4,1,0,70,0,0
586278,-79.4039213909157,4,1,0,70,0,0
586397,-80,4,1,0,70,0,0
586516,-71.4285714285714,4,1,0,70,0,0
586635,-72.4555146498987,4,1,0,70,0,0
586695,-72.9779352865794,4,1,0,70,0,0
586754,-73.4946905031353,4,1,0,70,0,0
586873,-74.5461718196658,4,1,0,70,0,0
586992,-75.610029704395,4,1,0,70,0,0
587052,-76.151143973615,4,1,0,70,0,0
587111,-76.686333464655,4,1,0,70,0,0
587230,-77.7751505383284,4,1,0,70,0,0
587350,-78.8858553266074,4,1,0,70,0,0
587469,-80,4,1,0,70,0,0
587528,-79.6570555224297,4,1,0,70,0,0
587588,-79.1516733696705,4,1,0,70,0,0
587647,-78.5785166439222,4,1,0,70,0,0
587706,-77.9540111324406,4,1,0,70,0,0
587766,-77.280160061182,4,1,0,70,0,0
587825,-76.5885365832151,4,1,0,70,0,0
587885,-75.8624781074399,4,1,0,70,0,0
587944,-75.131283883042,4,1,0,70,0,0
588004,-74.3743218133631,4,1,0,70,0,0
588063,-73.6201424525933,4,1,0,70,0,0
588182,-72.0800339309834,4,1,0,70,0,0
588242,-71.2982935667879,4,1,0,70,0,0
588301,-70.5285354216061,4,1,0,70,0,0
588361,-69.74615947054,4,1,0,70,0,0
588421,-68.9655172413793,4,1,0,70,0,0
588902,-166.666666666667,4,1,0,70,0,0
589616,-125,4,1,0,70,0,0
590256,-66.6666666666667,4,1,0,70,0,0
590420,-71.4285714285714,4,1,0,70,0,0
592156,-66.6666666666667,4,1,0,70,0,0
592315,-74.0740740740741,4,1,0,70,0,0
594061,-68.9655172413793,4,1,0,70,0,0
594220,-76.9230769230769,4,1,0,70,0,0
595966,-71.4285714285714,4,1,0,70,0,0
596124,-80,4,1,0,70,0,0
597870,-74.0740740740741,4,1,0,70,0,0
598029,-83.3333333333333,4,1,0,70,0,0
599775,-76.9230769230769,4,1,0,70,0,0
599974,-86.9565217391304,4,1,0,70,0,0
601700,-66.6666666666667,4,1,0,70,0,0
601819,-87.3607193754725,4,1,0,70,0,0
602469,-89.761970825239,4,1,0,70,0,0
602707,-92.2187613392823,4,1,0,70,0,0
603064,-96.0305999873385,4,1,0,70,0,0
603421,-100,4,1,0,70,0,0
603545,-83.3333333333333,4,1,0,70,0,0
604140,-166.666666666667,4,1,0,70,0,0
604855,-125,4,1,0,70,0,0
605331,-66.6666666666667,4,1,0,70,0,0
611278,-66.6666666666667,4,1,0,70,0,0
611397,-67.1297476628577,4,1,0,70,0,0
611457,-67.4578411516785,4,1,0,70,0,0
611516,-67.8186065115407,4,1,0,70,0,0
611635,-68.6417616982578,4,1,0,70,0,0
611754,-69.5766006697285,4,1,0,70,0,0
611814,-70.0871172335049,4,1,0,70,0,0
611873,-70.6139033537277,4,1,0,70,0,0
611933,-71.1745128395157,4,1,0,70,0,0
611992,-71.7501497354743,4,1,0,70,0,0
612111,-72.9850075578598,4,1,0,70,0,0
612230,-74.3202750279442,4,1,0,70,0,0
612290,-75.0326250823655,4,1,0,70,0,0
612350,-75.7719289080731,4,1,0,70,0,0
612469,-77.3206405407652,4,1,0,70,0,0
612588,-78.9842018888874,4,1,0,70,0,0
612707,-80.7700434388055,4,1,0,70,0,0
612766,-81.7034567197068,4,1,0,70,0,0
612826,-82.6869462349195,4,1,0,70,0,0
612945,-84.7451517826675,4,1,0,70,0,0
613004,-85.8215934890781,4,1,0,70,0,0
613064,-86.9565217391304,4,1,0,70,0,0
613183,-76.9230769230769,4,1,0,70,0,0
613302,-77.5540283320748,4,1,0,70,0,0
613361,-77.868769379558,4,1,0,70,0,0
613421,-78.1901550369194,4,1,0,70,0,0
613480,-78.5074777063986,4,1,0,70,0,0
613540,-78.8314994872934,4,1,0,70,0,0
613600,-79.1568585944858,4,1,0,70,0,0
613659,-79.4781044810674,4,1,0,70,0,0
613719,-79.8061323034923,4,1,0,70,0,0
613778,-80.1300131671559,4,1,0,70,0,0
613838,-80.4607315945986,4,1,0,70,0,0
613897,-80.7872690483968,4,1,0,70,0,0
614016,-81.4499159844541,4,1,0,70,0,0
614135,-82.117998194745,4,1,0,70,0,0
614195,-82.456921578809,4,1,0,70,0,0
614254,-82.7915602613908,4,1,0,70,0,0
614314,-83.1332636198821,4,1,0,70,0,0
614373,-83.4706471321916,4,1,0,70,0,0
614433,-83.8151532674844,4,1,0,70,0,0
614492,-84.1553041236258,4,1,0,70,0,0
614611,-84.8455769238746,4,1,0,70,0,0
614671,-85.1957577695609,4,1,0,70,0,0
614730,-85.5415115958703,4,1,0,70,0,0
614850,-86.2490750585024,4,1,0,70,0,0
614909,-86.5991036103674,4,1,0,70,0,0
614969,-86.9565217391304,4,1,0,70,0,0
615088,-76.9230769230769,4,1,0,70,0,0
615147,-77.2158732620409,4,1,0,70,0,0
615207,-77.5147752558963,4,1,0,70,0,0
615266,-77.8098238072334,4,1,0,70,0,0
615326,-78.1110249786376,4,1,0,70,0,0
615385,-78.4083430665417,4,1,0,70,0,0
615445,-78.7118611009483,4,1,0,70,0,0
615504,-79.0114661828725,4,1,0,70,0,0
615564,-79.3173189017734,4,1,0,70,0,0
615623,-79.6192285694548,4,1,0,70,0,0
615683,-79.9274339314259,4,1,0,70,0,0
615742,-80.2316659119187,4,1,0,70,0,0
615802,-80.5422420136748,4,1,0,70,0,0
615861,-80.848814170391,4,1,0,70,0,0
615921,-81.1617792478482,4,1,0,70,0,0
616040,-81.7860820109531,4,1,0,70,0,0
616159,-82.4151869598113,4,1,0,70,0,0
616219,-82.7342154531194,4,1,0,70,0,0
616278,-83.0491310332119,4,1,0,70,0,0
616397,-83.6879514540798,4,1,0,70,0,0
616516,-84.3316857316617,4,1,0,70,0,0
616576,-84.6581329755443,4,1,0,70,0,0
616635,-84.9803716637282,4,1,0,70,0,0
616695,-85.3093299653803,4,1,0,70,0,0
616754,-85.6340473387937,4,1,0,70,0,0
616814,-85.9655360134682,4,1,0,70,0,0
616873,-86.2927511383519,4,1,0,70,0,0
616933,-86.6267896498765,4,1,0,70,0,0
616992,-86.9565217391304,4,1,0,70,0,0
617111,-86.6492618553766,4,1,0,70,0,0
617230,-86.2038482102896,4,1,0,70,0,0
617290,-85.951296189503,4,1,0,70,0,0
617350,-85.6845415227964,4,1,0,70,0,0
617409,-85.4104913144058,4,1,0,70,0,0
617469,-85.1214921747551,4,1,0,70,0,0
617528,-84.8284526838233,4,1,0,70,0,0
617588,-84.5225110930785,4,1,0,70,0,0
617647,-84.2147469258316,4,1,0,70,0,0
617707,-83.8954996477972,4,1,0,70,0,0
617826,-83.2462109786964,4,1,0,70,0,0
617945,-82.579076352495,4,1,0,70,0,0
618004,-82.2428148129305,4,1,0,70,0,0
618064,-81.897639718216,4,1,0,70,0,0
618183,-81.2048115218453,4,1,0,70,0,0
618242,-80.857851399574,4,1,0,70,0,0
618302,-80.5030286605101,4,1,0,70,0,0
618361,-80.1524161334383,4,1,0,70,0,0
618421,-79.7943613065117,4,1,0,70,0,0
618540,-79.0805876035045,4,1,0,70,0,0
618600,-78.7192610411179,4,1,0,70,0,0
618659,-78.3632478874166,4,1,0,70,0,0
618778,-77.6436852857077,4,1,0,70,0,0
618897,-76.9230769230769,4,1,0,70,0,0
619016,-83.3333333333333,4,1,0,70,0,0
619076,-83.165088963185,4,1,0,70,0,0
619135,-82.9247336799084,4,1,0,70,0,0
619254,-82.3344051756196,4,1,0,70,0,0
619373,-81.6550904892101,4,1,0,70,0,0
619492,-80.9160553308523,4,1,0,70,0,0
619552,-80.5262546549682,4,1,0,70,0,0
619611,-80.1337715716415,4,1,0,70,0,0
619730,-79.31922581719,4,1,0,70,0,0
619850,-78.473285323231,4,1,0,70,0,0
619909,-78.0502888223149,4,1,0,70,0,0
619969,-77.6162283833996,4,1,0,70,0,0
620028,-77.1861403196854,4,1,0,70,0,0
620088,-76.7459694256059,4,1,0,70,0,0
620207,-75.8664727650222,4,1,0,70,0,0
620326,-74.981018118196,4,1,0,70,0,0
620385,-74.5406665817337,4,1,0,70,0,0
620445,-74.09235115872,4,1,0,70,0,0
620564,-73.2027900586673,4,1,0,70,0,0
620747,-73.2027900586673,4,1,0,100,0,0
620807,-66.6666666666667,4,1,0,70,0,1
620921,-67.857417630598,4,1,0,70,0,1
621040,-69.0694369124009,4,1,0,70,0,1
621159,-70.3031043911255,4,1,0,70,0,1
621397,-72.8369375023317,4,1,0,70,0,1
621516,-74.1378973054423,4,1,0,70,0,1
621576,-74.802629219964,4,1,0,70,0,1
621635,-75.4620938956468,4,1,0,70,0,1
621754,-76.8099423113446,4,1,0,70,0,1
621814,-77.4986321968504,4,1,0,70,0,1
621873,-78.1818650040458,4,1,0,70,0,1
621992,-79.5782919707786,4,1,0,70,0,1
622111,-80.9996608888618,4,1,0,70,0,1
622350,-83.9315000732912,4,1,0,70,0,1
622409,-84.6714454475727,4,1,0,70,0,1
622469,-85.4306227925384,4,1,0,70,0,1
622588,-86.9565217391304,4,1,0,70,0,1
622712,-83.3333333333333,4,1,0,70,0,0
622826,-82.8862742516163,4,1,0,70,0,0
622945,-82.2411129517594,4,1,0,70,0,0
623004,-81.8830638060975,4,1,0,70,0,0
623064,-81.4997683404629,4,1,0,70,0,0
623183,-80.6945455071385,4,1,0,70,0,0
623242,-80.277531550252,4,1,0,70,0,0
623302,-79.8436679241703,4,1,0,70,0,0
623421,-78.959298760432,4,1,0,70,0,0
623540,-78.0502888223149,4,1,0,70,0,0
623659,-77.1234196414641,4,1,0,70,0,0
623719,-76.6510621430795,4,1,0,70,0,0
623778,-76.1840633501321,4,1,0,70,0,0
623838,-75.7071133754075,4,1,0,70,0,0
623897,-75.2365725895175,4,1,0,70,0,0
623957,-74.7569205834579,4,1,0,70,0,0
624016,-74.2845295451657,4,1,0,70,0,0
624135,-73.3309147379353,4,1,0,70,0,0
624195,-72.8503117788316,4,1,0,70,0,0
624254,-72.3782269075553,4,1,0,70,0,0
624373,-71.4285714285714,4,1,0,70,0,0
624616,-66.6666666666667,4,1,0,70,0,1
624730,-67.857417630598,4,1,0,70,0,1
624850,-69.0797131348094,4,1,0,70,0,1
624969,-70.3135641598601,4,1,0,70,0,1
625207,-72.8477742573827,4,1,0,70,0,1
625266,-73.4900048089798,4,1,0,70,0,1
625326,-74.1489276186411,4,1,0,70,0,1
625445,-75.4733212241867,4,1,0,70,0,1
625504,-76.1386987626881,4,1,0,70,0,1
625564,-76.8213701741687,4,1,0,70,0,1
625683,-78.19349698295,4,1,0,70,0,1
625802,-79.5901317115342,4,1,0,70,0,1
625921,-81.0117121023582,4,1,0,70,0,1
625980,-81.7259164425691,4,1,0,70,0,1
626040,-82.4586837164924,4,1,0,70,0,1
626100,-83.1980210957274,4,1,0,70,0,1
626159,-83.9315000732912,4,1,0,70,0,1
626278,-85.4306227925384,4,1,0,70,0,1
626397,-86.9565217391304,4,1,0,70,0,1
626521,-83.3333333333333,4,1,0,70,0,0
626635,-82.8866209878836,4,1,0,70,0,0
626695,-82.5766767568253,4,1,0,70,0,0
626754,-82.24195348251,4,1,0,70,0,0
626873,-81.5011666716596,4,1,0,70,0,0
626992,-80.696538057413,4,1,0,70,0,0
627052,-80.2726778457428,4,1,0,70,0,0
627111,-79.8462752083082,4,1,0,70,0,0
627171,-79.4042614836918,4,1,0,70,0,0
627230,-78.9625306252166,4,1,0,70,0,0
627350,-78.0464299058127,4,1,0,70,0,0
627469,-77.1200581463882,4,1,0,70,0,0
627528,-76.6558552745683,4,1,0,70,0,0
627588,-76.1812316459038,4,1,0,70,0,0
627707,-75.2342922906769,4,1,0,70,0,0
627766,-74.7629204535083,4,1,0,70,0,0
627826,-74.2828139779282,4,1,0,70,0,0
627885,-73.8103268324113,4,1,0,70,0,0
627945,-73.3297707284805,4,1,0,70,0,0
628064,-72.3776561262136,4,1,0,70,0,0
628183,-71.4285714285714,4,1,0,70,0,0
628426,-66.6666666666667,4,1,0,70,0,1
628540,-67.857417630598,4,1,0,70,0,1
628600,-68.4658377878389,4,1,0,70,0,1
628659,-69.0694369124009,4,1,0,70,0,1
628778,-70.3031043911255,4,1,0,70,0,1
628897,-71.558806730942,4,1,0,70,0,1
629016,-72.8369375023317,4,1,0,70,0,1
629076,-73.4900048089798,4,1,0,70,0,1
629135,-74.1378973054423,4,1,0,70,0,1
629195,-74.802629219964,4,1,0,70,0,1
629254,-75.4620938956468,4,1,0,70,0,1
629373,-76.8099423113446,4,1,0,70,0,1
629433,-77.4986321968504,4,1,0,70,0,1
629492,-78.1818650040458,4,1,0,70,0,1
629611,-79.5782919707786,4,1,0,70,0,1
629730,-80.9996608888618,4,1,0,70,0,1
629790,-81.7259164425691,4,1,0,70,0,1
629850,-82.4586837164924,4,1,0,70,0,1
629909,-83.1856446493016,4,1,0,70,0,1
629969,-83.9315000732912,4,1,0,70,0,1
630088,-85.4306227925384,4,1,0,70,0,1
630207,-86.9565217391304,4,1,0,70,0,1
630331,-71.4285714285714,4,1,0,70,0,0
631040,-125,4,1,0,70,0,0
631159,-124.484598435393,4,1,0,70,0,0
631278,-123.450572670839,4,1,0,70,0,0
631516,-120.418381926632,4,1,0,70,0,0
631635,-118.553886998347,4,1,0,70,0,0
631754,-116.518603231927,4,1,0,70,0,0
631992,-112.073604782911,4,1,0,70,0,0
632111,-109.720600049014,4,1,0,70,0,0
632230,-107.312011561425,4,1,0,70,0,0
632468,-102.403767337482,4,1,0,70,0,0
632587,-99.9354899509592,4,1,0,70,0,0
632706,-97.4749563489951,4,1,0,70,0,0
632945,-92.597075423963,4,1,0,70,0,0
633064,-90.2162410611589,4,1,0,70,0,0
633183,-87.8756417465553,4,1,0,70,0,0
633421,-83.3333333333333,4,1,0,70,0,0
633659,-100,4,1,0,70,0,0
633738,-97.0193978180275,4,1,0,70,0,0
633818,-94.0915888683915,4,1,0,70,0,0
633897,-91.2870929175277,4,1,0,70,0,0
633976,-88.5661878341686,4,1,0,70,0,0
634056,-85.8934761578667,4,1,0,70,0,0
634135,-83.3333333333333,4,1,0,70,0,0
643897,-100,4,1,0,70,0,0
644016,-97.00701154458,4,1,0,70,0,0
644135,-94.1036028881028,4,1,0,70,0,0
644254,-91.2870929175277,4,1,0,70,0,0
644373,-88.5548807652176,4,1,0,70,0,0
644492,-85.9044434072037,4,1,0,70,0,0
644611,-83.3333333333333,4,1,0,70,0,0
644850,-100,4,1,0,70,0,0
645088,-93.2504808240314,4,1,0,70,0,0
645167,-91.1123563647484,4,1,0,70,0,0
645246,-89.0232565985607,4,1,0,70,0,0
645326,-86.9565217391304,4,1,0,70,0,0
645539,-86.9565217391304,4,1,0,100,0,0
645564,-83.3333333333333,4,1,0,100,0,0
645643,-84.9534320080121,4,1,0,100,0,0
645723,-86.6261380786128,4,1,0,100,0,0
645802,-88.3102527765372,4,1,0,100,0,0
645921,-90.9090909090909,4,1,0,100,0,0
646040,-83.3333333333333,4,1,0,100,0,0
646119,-84.9534320080121,4,1,0,100,0,0
646199,-86.6261380786128,4,1,0,100,0,0
646278,-88.3102527765372,4,1,0,100,0,0
646397,-90.9090909090909,4,1,0,100,0,0
646516,-83.3333333333333,4,1,0,100,0,0
646596,-84.7056264420626,4,1,0,100,0,0
646675,-86.0829406802335,4,1,0,100,0,0
646754,-87.4826500601482,4,1,0,100,0,0
646834,-88.9232721138792,4,1,0,100,0,0
646913,-90.3691653081284,4,1,0,100,0,0
646992,-91.8385687385562,4,1,0,100,0,0
647072,-93.3509219585019,4,1,0,100,0,0
647151,-94.8688087785442,4,1,0,100,0,0
647230,-96.4113764517598,4,1,0,100,0,0
647310,-97.999032461854,4,1,0,100,0,0
647389,-99.592497599958,4,1,0,100,0,0
647469,-95.2380952380952,4,1,0,100,0,0
647588,-94.7521948347957,4,1,0,100,0,0
647707,-93.7802303741971,4,1,0,100,0,0
647826,-92.4874486922527,4,1,0,100,0,0
647885,-91.7527078002873,4,1,0,100,0,0
647945,-90.9519584974634,4,1,0,100,0,0
648004,-90.1181963433727,4,1,0,100,0,0
648064,-89.2289102099209,4,1,0,100,0,0
648123,-88.3188216055737,4,1,0,100,0,0
648183,-87.3618071863633,4,1,0,100,0,0
648302,-85.3865509084463,4,1,0,100,0,0
648421,-83.3333333333333,4,1,0,100,0,0
648500,-84.9534320080121,4,1,0,100,0,0
648580,-86.6261380786128,4,1,0,100,0,0
648659,-88.3102527765372,4,1,0,100,0,0
648778,-90.9090909090909,4,1,0,100,0,0
648897,-81.9672131147541,4,1,0,100,0,0
648957,-83.1974972844409,4,1,0,100,0,0
649016,-84.4252820486024,4,1,0,100,0,0
649076,-85.6924605225164,4,1,0,100,0,0
649135,-86.95706463763,4,1,0,100,0,0
649215,-88.7016424581976,4,1,0,100,0,0
649294,-90.4587572987949,4,1,0,100,0,0
649373,-80.6451612903226,4,1,0,100,0,0
649611,-85.0960161910819,4,1,0,100,0,0
649691,-86.6466054220757,4,1,0,100,0,0
649770,-88.2055369152275,4,1,0,100,0,0
649850,-89.8127867228762,4,1,0,100,0,0
649929,-91.4286836299505,4,1,0,100,0,0
650008,-93.0736534887678,4,1,0,100,0,0
650088,-94.769608378887,4,1,0,100,0,0
650167,-96.4746876070442,4,1,0,100,0,0
650246,-98.2104443406172,4,1,0,100,0,0
650326,-100,4,1,0,100,0,0
650445,-105.263157894737,4,1,0,100,0,0
650504,-104.558570062544,4,1,0,100,0,0
650564,-103.526436306121,4,1,0,100,0,0
650683,-101.087587915217,4,1,0,100,0,0
650802,-98.3791755444874,4,1,0,100,0,0
650861,-96.9839447562081,4,1,0,100,0,0
650921,-95.5453871021838,4,1,0,100,0,0
650980,-94.1199669794079,4,1,0,100,0,0
651040,-92.6663118312553,4,1,0,100,0,0
651159,-89.7922920120915,4,1,0,100,0,0
651278,-86.9565217391304,4,1,0,100,0,0
651516,-83.3333333333333,4,1,0,100,0,0
651596,-84.9741401760388,4,1,0,100,0,0
651675,-86.6261380786128,4,1,0,100,0,0
651754,-88.3102527765372,4,1,0,100,0,0
651873,-90.9090909090909,4,1,0,100,0,0
651992,-83.3333333333333,4,1,0,100,0,0
652072,-84.7325640720804,4,1,0,100,0,0
652151,-86.1373583003115,4,1,0,100,0,0
652230,-87.5654428283853,4,1,0,100,0,0
652310,-89.0357339394749,4,1,0,100,0,0
652389,-90.5118710836088,4,1,0,100,0,0
652469,-92.0316349905091,4,1,0,100,0,0
652588,-98.0392156862745,4,1,0,100,0,0
652707,-97.0993942851212,4,1,0,100,0,0
652766,-96.4633253514648,4,1,0,100,0,0
652826,-95.7570941858252,4,1,0,100,0,0
652885,-95.0191776594924,4,1,0,100,0,0
652945,-94.2347175649583,4,1,0,100,0,0
653064,-92.6049484369356,4,1,0,100,0,0
653183,-90.9090909090909,4,1,0,100,0,0
653302,-95.2380952380952,4,1,0,100,0,0
653361,-94.5816044451653,4,1,0,100,0,0
653421,-93.6204029929191,4,1,0,100,0,0
653540,-91.3514076316543,4,1,0,100,0,0
653659,-88.8353139094742,4,1,0,100,0,0
653778,-86.2068965517241,4,1,0,100,0,0
653897,-92.5925925925926,4,1,0,100,0,0
653957,-92.470521830308,4,1,0,100,0,0
654016,-92.2284208382175,4,1,0,100,0,0
654135,-91.4973807262825,4,1,0,100,0,0
654195,-91.0312334967771,4,1,0,100,0,0
654254,-90.5196916025881,4,1,0,100,0,0
654314,-89.95144790265,4,1,0,100,0,0
654373,-89.3504348404182,4,1,0,100,0,0
654433,-88.7007325190636,4,1,0,100,0,0
654492,-88.0278770309582,4,1,0,100,0,0
654552,-87.3126454547017,4,1,0,100,0,0
654611,-86.5820801315322,4,1,0,100,0,0
654730,-85.0379945874515,4,1,0,100,0,0
654850,-83.4029923187106,4,1,0,100,0,0
654969,-81.722800335392,4,1,0,100,0,0
655088,-80,4,1,0,100,0,0
655326,-86.9565217391304,4,1,0,100,0,0
655445,-88.2439201792322,4,1,0,100,0,0
655564,-89.550378658885,4,1,0,100,0,0
655683,-90.8761793635387,4,1,0,100,0,0
655802,-86.9565217391304,4,1,0,100,0,0
655861,-87.8765710884489,4,1,0,100,0,0
655921,-88.8221986232472,4,1,0,100,0,0
655980,-89.7619878928032,4,1,0,100,0,0
656040,-90.7279041350772,4,1,0,100,0,0
656159,-92.6744971002027,4,1,0,100,0,0
656278,-88.495575221239,4,1,0,100,0,0
656318,-89.5338846799353,4,1,0,100,0,0
656357,-90.5579646044062,4,1,0,100,0,0
656397,-91.6204718650684,4,1,0,100,0,0
656457,-93.2376526875217,4,1,0,100,0,0
656516,-94.855712771989,4,1,0,100,0,0
656576,-96.5299984034897,4,1,0,100,0,0
656635,-98.2051943449173,4,1,0,100,0,0
656695,-99.9386012323408,4,1,0,100,0,0
656754,-101.672950573947,4,1,0,100,0,0
656814,-103.467566367594,4,1,0,100,0,0
656873,-105.263157894737,4,1,0,100,0,0
656938,-91.3362853878863,4,1,0,100,0,0
657230,-93.0800234003219,4,1,0,100,0,0
657350,-93.9718035602586,4,1,0,100,0,0
657469,-94.8645894505015,4,1,0,100,0,0
657528,-95.3103713678124,4,1,0,100,0,0
657588,-95.7658573174184,4,1,0,100,0,0
657707,-96.6756877446398,4,1,0,100,0,0
657826,-97.594162081387,4,1,0,100,0,0
657945,-98.521362449745,4,1,0,100,0,0
658004,-98.9843280526462,4,1,0,100,0,0
658064,-99.4573717520059,4,1,0,100,0,0
658123,-99.9247357929734,4,1,0,100,0,0
658183,-100.402273678081,4,1,0,100,0,0
658302,-101.356152712983,4,1,0,100,0,0
658421,-102.319094144382,4,1,0,100,0,0
658480,-102.799905817414,4,1,0,100,0,0
658540,-103.291184070228,4,1,0,100,0,0
658600,-103.784810129879,4,1,0,100,0,0
658659,-104.272509406453,4,1,0,100,0,0
658778,-105.263157894737,4,1,0,100,0,0
658897,-83.3333333333333,4,1,0,100,0,0
659016,-84.3518375908838,4,1,0,100,0,0
659135,-85.3827900595061,4,1,0,100,0,0
659195,-85.9073666058482,4,1,0,100,0,0
659254,-86.4263428818718,4,1,0,100,0,0
659314,-86.9573308295642,4,1,0,100,0,0
659373,-87.4826500601482,4,1,0,100,0,0
659433,-88.0201277696659,4,1,0,100,0,0
659492,-88.5518674787249,4,1,0,100,0,0
659611,-89.6341529272184,4,1,0,100,0,0
659730,-90.7296661237581,4,1,0,100,0,0
659850,-86.9565217391304,4,1,0,100,0,0
659929,-88.1167797759679,4,1,0,100,0,0
660008,-89.2925190979938,4,1,0,100,0,0
660088,-90.4991290722652,4,1,0,100,0,0
660207,-92.3241929148065,4,1,0,100,0,0
660326,-94.1860621726429,4,1,0,100,0,0
660445,-96.0854790875325,4,1,0,100,0,0
660504,-97.0413627402276,4,1,0,100,0,0
660564,-98.0232008697597,4,1,0,100,0,0
660683,-100,4,1,0,100,0,0
660747,-86.9565217391304,4,1,0,100,0,0
661040,-100,4,1,0,100,0,0
661100,-98.4795632308936,4,1,0,100,0,0
661159,-97.00701154458,4,1,0,100,0,0
661219,-95.532081272445,4,1,0,100,0,0
661278,-94.1036028881028,4,1,0,100,0,0
661318,-93.1473120891779,4,1,0,100,0,0
661357,-92.2242858977616,4,1,0,100,0,0
661397,-91.2870929175277,4,1,0,100,0,0
661457,-89.8991303913613,4,1,0,100,0,0
661516,-88.5548807652176,4,1,0,100,0,0
661576,-87.2084597972249,4,1,0,100,0,0
661635,-85.9044434072037,4,1,0,100,0,0
661695,-84.5983206633444,4,1,0,100,0,0
661754,-83.3333333333333,4,1,0,100,0,0
661873,-84.9363089907058,4,1,0,100,0,0
661992,-86.5701190195757,4,1,0,100,0,0
662052,-87.4057688010507,4,1,0,100,0,0
662111,-88.2353565409063,4,1,0,100,0,0
662171,-89.0870806374748,4,1,0,100,0,0
662230,-89.9326260847621,4,1,0,100,0,0
662350,-91.6772210364328,4,1,0,100,0,0
662469,-93.4406972803162,4,1,0,100,0,0
662528,-94.3275638788327,4,1,0,100,0,0
662588,-95.2380952380952,4,1,0,100,0,0
662707,-86.9565217391304,4,1,0,100,0,0
662945,-89.2463193687136,4,1,0,100,0,0
663064,-90.4137310995955,4,1,0,100,0,0
663183,-91.5964134899179,4,1,0,100,0,0
663242,-92.1885094206585,4,1,0,100,0,0
663302,-92.7945662918622,4,1,0,100,0,0
663421,-94.0083918705246,4,1,0,100,0,0
663540,-95.2380952380952,4,1,0,100,0,0
663659,-90.9090909090909,4,1,0,100,0,0
663719,-91.4931243420679,4,1,0,100,0,0
663778,-92.0710825196608,4,1,0,100,0,0
663838,-92.6625810140812,4,1,0,100,0,0
663897,-93.247926599764,4,1,0,100,0,0
663957,-93.8469855733545,4,1,0,100,0,0
664016,-94.4398129922956,4,1,0,100,0,0
664135,-95.6469339667048,4,1,0,100,0,0
664195,-96.261405045886,4,1,0,100,0,0
664254,-96.8694842500112,4,1,0,100,0,0
664373,-98.1076610582174,4,1,0,100,0,0
664453,-98.9489325144718,4,1,0,100,0,0
664532,-99.7867670161649,4,1,0,100,0,0
664557,-86.9565217391304,4,1,0,100,0,0
664850,-100,4,1,0,100,0,0
664909,-99.2238493832117,4,1,0,100,0,0
664969,-98.0898932812713,4,1,0,100,0,0
665028,-96.8178279375384,4,1,0,100,0,0
665088,-95.4245633575219,4,1,0,100,0,0
665127,-94.4818391141948,4,1,0,100,0,0
665167,-93.4930329168023,4,1,0,100,0,0
665207,-92.4876670782309,4,1,0,100,0,0
665266,-90.9840987239597,4,1,0,100,0,0
665326,-89.4404516623132,4,1,0,100,0,0
665385,-87.9174813306867,4,1,0,100,0,0
665445,-86.3710452071275,4,1,0,100,0,0
665504,-84.858504645304,4,1,0,100,0,0
665564,-83.3333333333333,4,1,0,100,0,0
665683,-84.9382517439316,4,1,0,100,0,0
665742,-85.7453920989084,4,1,0,100,0,0
665802,-86.5740793117861,4,1,0,100,0,0
665861,-87.3967643997505,4,1,0,100,0,0
665921,-88.2414113170031,4,1,0,100,0,0
666040,-89.9408545042011,4,1,0,100,0,0
666100,-90.8100888061091,4,1,0,100,0,0
666159,-91.6730273033059,4,1,0,100,0,0
666278,-93.4385600545982,4,1,0,100,0,0
666338,-94.3415979673251,4,1,0,100,0,0
666397,-95.2380952380952,4,1,0,100,0,0
666516,-86.9565217391304,4,1,0,100,0,0
666754,-89.198837947412,4,1,0,100,0,0
666873,-90.3415869241791,4,1,0,100,0,0
666933,-90.9233028403086,4,1,0,100,0,0
666992,-91.4989759484396,4,1,0,100,0,0
667052,-92.0881443749742,4,1,0,100,0,0
667111,-92.6711925775617,4,1,0,100,0,0
667230,-93.8584267717586,4,1,0,100,0,0
667350,-95.0710404929903,4,1,0,100,0,0
667469,-96.2890197485901,4,1,0,100,0,0
667528,-96.8986654339753,4,1,0,100,0,0
667588,-97.5226028459,4,1,0,100,0,0
667707,-98.7719896897008,4,1,0,100,0,0
667766,-99.397356086705,4,1,0,100,0,0
667826,-100.037382745804,4,1,0,100,0,0
667945,-101.318987073863,4,1,0,100,0,0
668004,-101.960479566761,4,1,0,100,0,0
668064,-102.617010360602,4,1,0,100,0,0
668123,-103.266721176817,4,1,0,100,0,0
668183,-103.931662953471,4,1,0,100,0,0
668302,-105.263157894737,4,1,0,100,0,0
668421,-83.3333333333333,4,1,0,100,0,0
668540,-85.7857082000149,4,1,0,100,0,0
668600,-87.0494355825488,4,1,0,100,0,0
668659,-88.3102527765372,4,1,0,100,0,0
668778,-90.9090909090909,4,1,0,100,0,0
668897,-83.3333333333333,4,1,0,100,0,0
668957,-84.5609342638475,4,1,0,100,0,0
669016,-85.7857082000149,4,1,0,100,0,0
669076,-87.0494355825488,4,1,0,100,0,0
669135,-88.3102527765372,4,1,0,100,0,0
669254,-90.9090909090909,4,1,0,100,0,0
669373,-83.3333333333333,4,1,0,100,0,0
669433,-84.5609342638475,4,1,0,100,0,0
669492,-85.7857082000149,4,1,0,100,0,0
669611,-88.3102527765372,4,1,0,100,0,0
669730,-90.9090909090909,4,1,0,100,0,0
669850,-83.3333333333333,4,1,0,100,0,0
669909,-84.3680845601608,4,1,0,100,0,0
669969,-85.4335518890286,4,1,0,100,0,0
670088,-87.5867014605041,4,1,0,100,0,0
670147,-88.6742668219845,4,1,0,100,0,0
670207,-89.794116048178,4,1,0,100,0,0
670266,-90.9090909090909,4,1,0,100,0,0
670287,-83.3333333333333,4,1,0,100,0,0
670564,-87.719298245614,4,1,0,100,0,0
670683,-90.0484245386941,4,1,0,100,0,0
670802,-92.4393938856702,4,1,0,100,0,0
670921,-94.893848345767,4,1,0,100,0,0
671040,-97.4134735782309,4,1,0,100,0,0
671159,-100,4,1,0,100,0,0
671278,-87.719298245614,4,1,0,100,0,0
671338,-88.5510953144977,4,1,0,100,0,0
671397,-89.3767201071058,4,1,0,100,0,0
671516,-91.0654583069848,4,1,0,100,0,0
671635,-92.7861045552271,4,1,0,100,0,0
671754,-94.5392617419376,4,1,0,100,0,0
671814,-95.4357290231871,4,1,0,100,0,0
671873,-96.3255441485939,4,1,0,100,0,0
671933,-97.2389498288021,4,1,0,100,0,0
671992,-98.1455776632824,4,1,0,100,0,0
672111,-100,4,1,0,100,0,0
672230,-87.719298245614,4,1,0,100,0,0
672350,-89.2247539988364,4,1,0,100,0,0
672469,-90.7431779379344,4,1,0,100,0,0
672528,-91.5055645811806,4,1,0,100,0,0
672588,-92.2874423658597,4,1,0,100,0,0
672707,-93.8579870352042,4,1,0,100,0,0
672826,-95.455259182255,4,1,0,100,0,0
672945,-97.0797136543517,4,1,0,100,0,0
673004,-97.8953372494485,4,1,0,100,0,0
673064,-98.731813039411,4,1,0,100,0,0
673123,-99.561316890116,4,1,0,100,0,0
673183,-100.412027797656,4,1,0,100,0,0
673302,-102.120836395585,4,1,0,100,0,0
673421,-103.858725442225,4,1,0,100,0,0
673540,-105.6261898277,4,1,0,100,0,0
673659,-107.423732864156,4,1,0,100,0,0
673719,-108.341624914308,4,1,0,100,0,0
673778,-109.251866429089,4,1,0,100,0,0
673897,-111.111111111111,4,1,0,100,0,0
674135,-100,4,1,0,100,0,0
674195,-98.7310642932824,4,1,0,100,0,0
674254,-97.4989802907167,4,1,0,100,0,0
674314,-96.2617809161223,4,1,0,100,0,0
674373,-95.0605115772956,4,1,0,100,0,0
674453,-93.4555803259234,4,1,0,100,0,0
674532,-91.8973031221248,4,1,0,100,0,0
674611,-90.3650086133714,4,1,0,100,0,0
674671,-89.218334752698,4,1,0,100,0,0
674730,-88.1049619376554,4,1,0,100,0,0
674790,-86.9869666162386,4,1,0,100,0,0
674850,-85.8831579366547,4,1,0,100,0,0
674929,-84.451143211197,4,1,0,100,0,0
675008,-83.0430058817642,4,1,0,100,0,0
675088,-81.6409692933207,4,1,0,100,0,0
675147,-80.6221558839821,4,1,0,100,0,0
675207,-79.5991125604448,4,1,0,100,0,0
675266,-78.6057798752746,4,1,0,100,0,0
675326,-77.6083230668934,4,1,0,100,0,0
675405,-76.3142828368888,4,1,0,100,0,0
675484,-75.0418194178588,4,1,0,100,0,0
675564,-73.7748689339492,4,1,0,100,0,0
675623,-72.8542181088462,4,1,0,100,0,0
675683,-71.9297449214132,4,1,0,100,0,0
675742,-71.0321197548997,4,1,0,100,0,0
675802,-70.1307678240914,4,1,0,100,0,0
675881,-68.9614082587872,4,1,0,100,0,0
675961,-67.7971149321816,4,1,0,100,0,0
676045,-66.6666666666667,4,1,0,100,0,1
676159,-67.857417630598,4,1,0,100,0,1
676278,-69.0694369124009,4,1,0,100,0,1
676397,-70.3031043911255,4,1,0,100,0,1
676457,-70.9334529561272,4,1,0,100,0,1
676516,-71.558806730942,4,1,0,100,0,1
676576,-72.2004141183645,4,1,0,100,0,1
676635,-72.8369375023317,4,1,0,100,0,1
676754,-74.1378973054423,4,1,0,100,0,1
676814,-74.802629219964,4,1,0,100,0,1
676873,-75.4620938956468,4,1,0,100,0,1
676992,-76.8099423113446,4,1,0,100,0,1
677052,-77.4986321968504,4,1,0,100,0,1
677111,-78.1818650040458,4,1,0,100,0,1
677230,-79.5782919707786,4,1,0,100,0,1
677290,-80.2918033097658,4,1,0,100,0,1
677349,-80.9996608888618,4,1,0,100,0,1
677409,-81.7259164425691,4,1,0,100,0,1
677469,-82.4586837164924,4,1,0,100,0,1
677528,-83.1856446493016,4,1,0,100,0,1
677588,-83.9315000732912,4,1,0,100,0,1
677647,-84.6714454475727,4,1,0,100,0,1
677707,-85.4306227925384,4,1,0,100,0,1
677826,-86.9565217391304,4,1,0,100,0,1
677950,-83.3333333333333,4,1,0,100,0,0
678064,-82.8862742516163,4,1,0,100,0,0
678183,-82.2411129517594,4,1,0,100,0,0
678242,-81.8830638060975,4,1,0,100,0,0
678302,-81.4997683404629,4,1,0,100,0,0
678421,-80.6945455071385,4,1,0,100,0,0
678480,-80.277531550252,4,1,0,100,0,0
678540,-79.8436679241703,4,1,0,100,0,0
678659,-78.959298760432,4,1,0,100,0,0
678778,-78.0502888223149,4,1,0,100,0,0
678897,-77.1234196414641,4,1,0,100,0,0
678957,-76.6510621430795,4,1,0,100,0,0
679016,-76.1840633501321,4,1,0,100,0,0
679076,-75.7071133754075,4,1,0,100,0,0
679135,-75.2365725895175,4,1,0,100,0,0
679195,-74.7569205834579,4,1,0,100,0,0
679254,-74.2845295451657,4,1,0,100,0,0
679373,-73.3309147379353,4,1,0,100,0,0
679433,-72.8503117788316,4,1,0,100,0,0
679492,-72.3782269075553,4,1,0,100,0,0
679611,-71.4285714285714,4,1,0,100,0,0
679825,-66.6666666666667,4,1,0,100,0,0
679855,-66.6666666666667,4,1,0,100,0,1
679968,-67.8479904937219,4,1,0,100,0,1
680088,-69.0708069870601,4,1,0,100,0,1
680207,-70.3051962203863,4,1,0,100,0,1
680445,-72.8405495748853,4,1,0,100,0,1
680504,-73.4830777726419,4,1,0,100,0,1
680564,-74.1423092338053,4,1,0,100,0,1
680683,-75.4673331077742,4,1,0,100,0,1
680742,-76.133032224739,4,1,0,100,0,1
680802,-76.8160369599463,4,1,0,100,0,1
680921,-78.1888439837286,4,1,0,100,0,1
681040,-79.5861849355698,4,1,0,100,0,1
681159,-81.008498270122,4,1,0,100,0,1
681218,-81.7230761350647,4,1,0,100,0,1
681278,-82.4562302778182,4,1,0,100,0,1
681338,-83.1959616937539,4,1,0,100,0,1
681397,-83.9298352249078,4,1,0,100,0,1
681516,-85.4297754959963,4,1,0,100,0,1
681635,-86.9565217391304,4,1,0,100,0,1
681759,-83.3333333333333,4,1,0,100,0,0
681873,-82.8866209878836,4,1,0,100,0,0
681933,-82.5766767568253,4,1,0,100,0,0
681992,-82.24195348251,4,1,0,100,0,0
682111,-81.5011666716596,4,1,0,100,0,0
682230,-80.696538057413,4,1,0,100,0,0
682290,-80.2726778457428,4,1,0,100,0,0
682349,-79.8462752083082,4,1,0,100,0,0
682409,-79.4042614836918,4,1,0,100,0,0
682468,-78.9625306252166,4,1,0,100,0,0
682588,-78.0464299058127,4,1,0,100,0,0
682707,-77.1200581463882,4,1,0,100,0,0
682766,-76.6558552745683,4,1,0,100,0,0
682826,-76.1812316459038,4,1,0,100,0,0
682945,-75.2342922906769,4,1,0,100,0,0
683004,-74.7629204535083,4,1,0,100,0,0
683064,-74.2828139779282,4,1,0,100,0,0
683123,-73.8103268324113,4,1,0,100,0,0
683183,-73.3297707284805,4,1,0,100,0,0
683302,-72.3776561262136,4,1,0,100,0,0
683421,-71.4285714285714,4,1,0,100,0,0
683664,-66.6666666666667,4,1,0,100,0,1
683778,-67.857417630598,4,1,0,100,0,1
683838,-68.4658377878389,4,1,0,100,0,1
683897,-69.0694369124009,4,1,0,100,0,1
684016,-70.3031043911255,4,1,0,100,0,1
684135,-71.558806730942,4,1,0,100,0,1
684254,-72.8369375023317,4,1,0,100,0,1
684314,-73.4900048089798,4,1,0,100,0,1
684373,-74.1378973054423,4,1,0,100,0,1
684433,-74.802629219964,4,1,0,100,0,1
684492,-75.4620938956468,4,1,0,100,0,1
684611,-76.8099423113446,4,1,0,100,0,1
684671,-77.4986321968504,4,1,0,100,0,1
684730,-78.1818650040458,4,1,0,100,0,1
684849,-79.5782919707786,4,1,0,100,0,1
684968,-80.9996608888618,4,1,0,100,0,1
685028,-81.7259164425691,4,1,0,100,0,1
685088,-82.4586837164924,4,1,0,100,0,1
685147,-83.1856446493016,4,1,0,100,0,1
685207,-83.9315000732912,4,1,0,100,0,1
685326,-85.4306227925384,4,1,0,100,0,1
685445,-86.9565217391304,4,1,0,100,0,1
685569,-83.3333333333333,4,1,0,100,0,0
686278,-125,4,1,0,100,0,0
686397,-124.440732553832,4,1,0,100,0,0
686516,-123.319888524468,4,1,0,100,0,0
686754,-120.042222904927,4,1,0,100,0,0
686873,-118.033505568223,4,1,0,100,0,0
686992,-115.846603260167,4,1,0,100,0,0
687230,-111.091457398483,4,1,0,100,0,0
687349,-108.58585544513,4,1,0,100,0,0
687468,-106.029317798865,4,1,0,100,0,0
687469,-106.007681012795,4,1,0,100,0,0
687706,-100.845255594622,4,1,0,100,0,0
687825,-98.2512045924961,4,1,0,100,0,0
687944,-95.6738480461922,4,1,0,100,0,0
688183,-90.589460329242,4,1,0,100,0,0
688302,-88.1198663483338,4,1,0,100,0,0
688421,-85.6996532761602,4,1,0,100,0,0
688540,-83.3333333333333,4,1,0,100,0,0
688778,-100,4,1,0,100,0,0
688897,-96.4192504002627,4,1,0,100,0,0
688976,-94.1132152083438,4,1,0,100,0,0
689056,-91.8341884860588,4,1,0,100,0,0
689135,-89.6378130777142,4,1,0,100,0,0
689215,-87.4671617947986,4,1,0,100,0,0
689294,-85.3752314759178,4,1,0,100,0,0
689373,-83.3333333333333,4,1,0,100,0,0
689438,-90.9090909090909,4,1,0,100,0,0
689676,-83.3333333333333,4,1,0,100,0,0
689795,-90.9090909090909,4,1,0,100,0,0
690033,-83.3333333333333,4,1,0,100,0,0
690152,-90.9090909090909,4,1,0,100,0,0
690271,-83.3333333333333,4,1,0,100,0,0
690390,-90.9090909090909,4,1,0,100,0,0
690628,-83.3333333333333,4,1,0,100,0,0
690747,-90.9090909090909,4,1,0,100,0,0
690985,-83.3333333333333,4,1,0,100,0,0
691105,-90.9090909090909,4,1,0,100,0,0
691224,-83.3333333333333,4,1,0,100,0,0
692230,-100.677516747852,4,1,0,100,0,0
692350,-99.0195405213871,4,1,0,100,0,0
692469,-97.3718895587749,4,1,0,100,0,0
692588,-95.7278483890466,4,1,0,100,0,0
692707,-94.093080110825,4,1,0,100,0,0
692766,-93.2874459349964,4,1,0,100,0,0
692826,-92.4721426365737,4,1,0,100,0,0
692945,-90.8687054723532,4,1,0,100,0,0
693004,-90.0811464251456,4,1,0,100,0,0
693064,-89.2857142857143,4,1,0,100,0,0
693188,-76.9230769230769,4,1,0,100,0,1
693302,-78.1110249786376,4,1,0,100,0,1
693361,-78.7067928518652,4,1,0,100,0,1
693421,-79.3173189017734,4,1,0,100,0,1
693540,-80.5422420136748,4,1,0,100,0,1
693659,-81.7860820109531,4,1,0,100,0,1
693719,-82.4204940074067,4,1,0,100,0,1
693778,-83.0491310332119,4,1,0,100,0,1
693897,-84.3316857316617,4,1,0,100,0,1
693957,-84.9858438939534,4,1,0,100,0,1
694016,-85.6340473387937,4,1,0,100,0,1
694076,-86.2983078780054,4,1,0,100,0,1
694135,-86.9565217391304,4,1,0,100,0,1
694373,-76.9230769230769,4,1,0,100,0,1
694492,-78.8293385519456,4,1,0,100,0,1
694552,-79.8083200155223,4,1,0,100,0,1
694611,-80.7828400149843,4,1,0,100,0,1
694730,-82.784751981475,4,1,0,100,0,1
694850,-84.8537274772966,4,1,0,100,0,1
694969,-86.9565217391304,4,1,0,100,0,1
695088,-74.0740740740741,4,1,0,100,0,1
695207,-75.7904038542829,4,1,0,100,0,1
695266,-76.6560466537091,4,1,0,100,0,1
695326,-77.5465017713366,4,1,0,100,0,1
695445,-79.3432892709422,4,1,0,100,0,1
695504,-80.2495114778093,4,1,0,100,0,1
695564,-81.1817091491207,4,1,0,100,0,1
695623,-82.1089289341631,4,1,0,100,0,1
695683,-83.0627260469027,4,1,0,100,0,1
695802,-84.9873269564876,4,1,0,100,0,1
695861,-85.9580127409809,4,1,0,100,0,1
695921,-86.9565217391304,4,1,0,100,0,1
695985,-76.9230769230769,4,1,0,100,0,1
696278,-83.3333333333333,4,1,0,100,0,1
696397,-80.0640769025435,4,1,0,100,0,1
696521,-76.9230769230769,4,1,0,100,0,0
696754,-83.3333333333333,4,1,0,100,0,0
696873,-80.0640769025435,4,1,0,100,0,0
696997,-76.9230769230769,4,1,0,100,0,1
697111,-78.1097688773728,4,1,0,100,0,1
697170,-78.7048996547155,4,1,0,100,0,1
697230,-79.3147679229957,4,1,0,100,0,1
697290,-79.9293619365126,4,1,0,100,0,1
697349,-80.5383564833595,4,1,0,100,0,1
697468,-81.7808213388226,4,1,0,100,0,1
697528,-82.4145242989591,4,1,0,100,0,1
697587,-83.042453693903,4,1,0,100,0,1
697706,-84.323549245529,4,1,0,100,0,1
697766,-84.9769552873284,4,1,0,100,0,1
697825,-85.6244082523444,4,1,0,100,0,1
697885,-86.2878943861488,4,1,0,100,0,1
697944,-86.9453356050816,4,1,0,100,0,1
697945,-86.9565217391304,4,1,0,100,0,1
698182,-76.9230769230769,4,1,0,100,0,1
698301,-78.8163396723207,4,1,0,100,0,1
698361,-79.7968149687462,4,1,0,100,0,1
698420,-80.7728420701068,4,1,0,100,0,1
698539,-82.7779118290321,4,1,0,100,0,1
698659,-84.8502365209121,4,1,0,100,0,1
698778,-86.9565217391304,4,1,0,100,0,1
698897,-76.9230769230769,4,1,0,100,0,1
699016,-78.1097688773728,4,1,0,100,0,1
699075,-78.7048996547155,4,1,0,100,0,1
699135,-79.3147679229957,4,1,0,100,0,1
699254,-80.5383564833595,4,1,0,100,0,1
699313,-81.1519910567135,4,1,0,100,0,1
699373,-81.7808213388226,4,1,0,100,0,1
699432,-82.4039224499207,4,1,0,100,0,1
699492,-83.042453693903,4,1,0,100,0,1
699611,-84.323549245529,4,1,0,100,0,1
699670,-84.9660238057799,4,1,0,100,0,1
699730,-85.6244082523444,4,1,0,100,0,1
699849,-86.9453356050816,4,1,0,100,0,1
699850,-86.9565217391304,4,1,0,100,0,1
700088,-81.7860820109531,4,1,0,100,0,1
700325,-76.9428923905397,4,1,0,100,0,1
700331,-76.9230769230769,4,1,0,100,0,0
700450,-80.6451612903226,4,1,0,100,0,0
700623,-78.7190976018243,4,1,0,100,0,0
700698,-76.7384178083948,4,1,0,100,0,0
700807,-74.0740740740741,4,1,0,100,0,1
704140,-74.0740740740741,4,1,0,100,0,0
704254,-72.1484256611331,4,1,0,100,0,0
704373,-70.2728368926307,4,1,0,100,0,0
704492,-68.4460064053561,4,1,0,100,0,0
704616,-66.6666666666667,4,1,0,100,0,1
704730,-68.4922739697786,4,1,0,100,0,1
704789,-69.4158601767101,4,1,0,100,0,1
704849,-70.3678739032682,4,1,0,100,0,1
704909,-71.3329441580209,4,1,0,100,0,1
704968,-72.2948354708022,4,1,0,100,0,1
705087,-74.2745651649938,4,1,0,100,0,1
705147,-75.2932142949073,4,1,0,100,0,1
705206,-76.3085079940039,4,1,0,100,0,1
705325,-78.3981485362553,4,1,0,100,0,1
705385,-79.4733511391368,4,1,0,100,0,1
705444,-80.545012024029,4,1,0,100,0,1
705504,-81.6496580927726,4,1,0,100,0,1
705563,-82.7506654567336,4,1,0,100,0,1
705564,-82.7694539877628,4,1,0,100,0,1
705801,-87.3448258840643,4,1,0,100,0,1
705920,-89.7366861644092,4,1,0,100,0,1
705980,-90.9673927606665,4,1,0,100,0,1
706039,-92.1940454086913,4,1,0,100,0,1
706045,-92.5925925925926,4,1,0,100,0,0
706105,-94.7186972477144,4,1,0,100,0,0
706278,-97.3345792199607,4,1,0,100,0,0
706397,-100,4,1,0,100,0,0
706521,-90.9090909090909,4,1,0,100,0,1
706635,-95.2380952380952,4,1,0,100,0,1
706694,-93.1143394505727,4,1,0,100,0,1
706759,-91.003151038658,4,1,0,100,0,0
706814,-88.939829760172,4,1,0,100,0,0
706878,-86.9565217391304,4,1,0,100,0,1
706992,-90.9090909090909,4,1,0,100,0,1
707052,-88.936654126202,4,1,0,100,0,1
707116,-87.0388279778489,4,1,0,100,0,0
707235,-83.3333333333333,4,1,0,100,0,1
707355,-86.9565217391304,4,1,0,100,0,0
707468,-80.0538176925664,4,1,0,100,0,0
707474,-80,4,1,0,100,0,1
707593,-100,4,1,0,100,0,1
707950,-100,4,1,0,100,0,0
708426,-76.9230769230769,4,1,0,100,0,1
708540,-78.1110249786376,4,1,0,100,0,1
708599,-78.7067928518652,4,1,0,100,0,1
708659,-79.3173189017734,4,1,0,100,0,1
708778,-80.5422420136748,4,1,0,100,0,1
708897,-81.7860820109531,4,1,0,100,0,1
708957,-82.4204940074067,4,1,0,100,0,1
709016,-83.0491310332119,4,1,0,100,0,1
709135,-84.3316857316617,4,1,0,100,0,1
709195,-84.9858438939534,4,1,0,100,0,1
709254,-85.6340473387937,4,1,0,100,0,1
709314,-86.2983078780054,4,1,0,100,0,1
709373,-86.9565217391304,4,1,0,100,0,1
709611,-76.9230769230769,4,1,0,100,0,1
709730,-78.8293385519456,4,1,0,100,0,1
709790,-79.8083200155223,4,1,0,100,0,1
709849,-80.7828400149843,4,1,0,100,0,1
709968,-82.784751981475,4,1,0,100,0,1
710088,-84.8537274772966,4,1,0,100,0,1
710207,-86.9565217391304,4,1,0,100,0,1
710326,-76.9230769230769,4,1,0,100,0,1
710445,-78.2822229044527,4,1,0,100,0,1
710504,-78.9649637180891,4,1,0,100,0,1
710564,-79.6653834972115,4,1,0,100,0,1
710683,-81.0729830130665,4,1,0,100,0,1
710742,-81.7800635267845,4,1,0,100,0,1
710802,-82.5054532608512,4,1,0,100,0,1
710861,-83.2250271078727,4,1,0,100,0,1
710921,-83.9632336789852,4,1,0,100,0,1
711040,-85.4467714702806,4,1,0,100,0,1
711099,-86.1919981144885,4,1,0,100,0,1
711159,-86.9565217391304,4,1,0,100,0,1
711224,-76.9230769230769,4,1,0,100,0,1
711516,-86.9565217391304,4,1,0,100,0,1
711635,-89.4214540956707,4,1,0,100,0,1
711695,-90.690650782566,4,1,0,100,0,1
711759,-91.9562592047177,4,1,0,100,0,0
711873,-94.5629177297691,4,1,0,100,0,0
711992,-97.2434664796402,4,1,0,100,0,0
712111,-100,4,1,0,100,0,0
712235,-76.9230769230769,4,1,0,100,0,1
712349,-78.1097688773728,4,1,0,100,0,1
712408,-78.7048996547155,4,1,0,100,0,1
712468,-79.3147679229957,4,1,0,100,0,1
712528,-79.9293619365126,4,1,0,100,0,1
712587,-80.5383564833595,4,1,0,100,0,1
712706,-81.7808213388226,4,1,0,100,0,1
712766,-82.4145242989591,4,1,0,100,0,1
712825,-83.042453693903,4,1,0,100,0,1
712944,-84.323549245529,4,1,0,100,0,1
713004,-84.9769552873284,4,1,0,100,0,1
713063,-85.6244082523444,4,1,0,100,0,1
713123,-86.2878943861488,4,1,0,100,0,1
713182,-86.9453356050816,4,1,0,100,0,1
713183,-86.9565217391304,4,1,0,100,0,1
713420,-76.9230769230769,4,1,0,100,0,1
713539,-78.8163396723207,4,1,0,100,0,1
713599,-79.7968149687462,4,1,0,100,0,1
713658,-80.7728420701068,4,1,0,100,0,1
713777,-82.7779118290321,4,1,0,100,0,1
713897,-84.8502365209121,4,1,0,100,0,1
714016,-86.9565217391304,4,1,0,100,0,1
714135,-76.9230769230769,4,1,0,100,0,1
714254,-78.1097688773728,4,1,0,100,0,1
714313,-78.7048996547155,4,1,0,100,0,1
714373,-79.3147679229957,4,1,0,100,0,1
714492,-80.5383564833595,4,1,0,100,0,1
714551,-81.1519910567135,4,1,0,100,0,1
714611,-81.7808213388226,4,1,0,100,0,1
714670,-82.4039224499207,4,1,0,100,0,1
714730,-83.042453693903,4,1,0,100,0,1
714849,-84.323549245529,4,1,0,100,0,1
714908,-84.9660238057799,4,1,0,100,0,1
714968,-85.6244082523444,4,1,0,100,0,1
715087,-86.9453356050816,4,1,0,100,0,1
715088,-86.9565217391304,4,1,0,100,0,1
715326,-93.2504808240314,4,1,0,100,0,1
715563,-76.9428923905397,4,1,0,100,0,1
715569,-100,4,1,0,100,0,0
715643,-96.4545648911558,4,1,0,100,0,0
715723,-92.9923294252552,4,1,0,100,0,0
715802,-89.6953467292802,4,1,0,100,0,0
715881,-86.5152564153408,4,1,0,100,0,0
715961,-83.4097923096171,4,1,0,100,0,0
716045,-74.0740740740741,4,1,0,100,0,1
719378,-74.0740740740741,4,1,0,100,0,0
719492,-72.1644150274117,4,1,0,100,0,0
719611,-70.3039877493551,4,1,0,100,0,0
719730,-68.4915230253582,4,1,0,100,0,0
719854,-66.7257843617299,4,1,0,100,0,1
719968,-68.533224653348,4,1,0,100,0,1
720027,-69.4558937292348,4,1,0,100,0,1
720087,-70.4069418053258,4,1,0,100,0,1
720147,-71.3710124255736,4,1,0,100,0,1
720206,-72.3318868979613,4,1,0,100,0,1
720325,-74.3094605171973,4,1,0,100,0,1
720385,-75.3269676813229,4,1,0,100,0,1
720444,-76.3411015413803,4,1,0,100,0,1
720563,-78.4282881881855,4,1,0,100,0,1
720623,-79.5021937790237,4,1,0,100,0,1
720682,-80.5725390901645,4,1,0,100,0,1
720742,-81.675805554292,4,1,0,100,0,1
720801,-82.7754143996991,4,1,0,100,0,1
720802,-82.7941788638114,4,1,0,100,0,1
721039,-76.9049605523037,4,1,0,100,0,1
721045,-76.9230769230769,4,1,0,100,0,0
721075,-79.3650793650794,4,1,0,100,0,0
721218,-80.2167335420291,4,1,0,100,0,0
721277,-81.3392787761617,4,1,0,100,0,0
721396,-83.6514164219877,4,1,0,100,0,0
721427,-84.264454163864,4,1,0,100,0,0
721516,-86.049544302577,4,1,0,100,0,0
721635,-88.495575221239,4,1,0,100,0,0
721759,-83.3333333333333,4,1,0,100,0,1
721873,-86.9565217391304,4,1,0,100,0,1
721933,-85.1477233597393,4,1,0,100,0,1
721997,-83.4057656228299,4,1,0,100,0,0
722052,-81.6708271653897,4,1,0,100,0,0
722116,-80,4,1,0,100,0,1
722230,-83.3333333333333,4,1,0,100,0,1
722290,-81.6755119492398,4,1,0,100,0,1
722354,-80.0774850240893,4,1,0,100,0,0
722474,-76.9230769230769,4,1,0,100,0,1
722593,-80,4,1,0,100,0,0
722712,-74.0740740740741,4,1,0,100,0,1
722950,-100,4,1,0,100,0,0
723004,-99.0182950081981,4,1,0,100,0,0
723064,-97.5913141777981,4,1,0,100,0,0
723123,-96.0007498612702,4,1,0,100,0,0
723183,-94.2709095151966,4,1,0,100,0,0
723302,-90.6659360737553,4,1,0,100,0,0
723421,-86.9837702257041,4,1,0,100,0,0
723540,-83.3333333333333,4,1,0,100,0,0
723664,-66.6666666666667,4,1,0,100,0,1
723778,-67.5735609736558,4,1,0,100,0,1
723897,-68.4927921399058,4,1,0,100,0,1
724016,-69.4245279888279,4,1,0,100,0,1
724135,-70.3689386268051,4,1,0,100,0,1
724195,-70.8499729571906,4,1,0,100,0,1
724254,-71.3261964742479,4,1,0,100,0,1
724373,-72.2964762970732,4,1,0,100,0,1
724492,-73.2799552386111,4,1,0,100,0,1
724611,-74.2768128519458,4,1,0,100,0,1
724730,-75.2872311326968,4,1,0,100,0,1
724849,-76.3113945522451,4,1,0,100,0,1
724909,-76.8330508582171,4,1,0,100,0,1
724969,-77.3582731493628,4,1,0,100,0,1
725028,-77.878242704396,4,1,0,100,0,1
725088,-78.4106098121279,4,1,0,100,0,1
725207,-79.4772618468204,4,1,0,100,0,1
725326,-80.55842399138,4,1,0,100,0,1
725445,-81.654293632847,4,1,0,100,0,1
725504,-82.2031392184361,4,1,0,100,0,1
725564,-82.7650708433998,4,1,0,100,0,1
725623,-83.3213826030437,4,1,0,100,0,1
725683,-83.8909584168813,4,1,0,100,0,1
725802,-85.0321619058234,4,1,0,100,0,1
725921,-86.188889658974,4,1,0,100,0,1
725980,-86.7682148788926,4,1,0,100,0,1
726040,-87.3613528593356,4,1,0,100,0,1
726099,-87.9485588804118,4,1,0,100,0,1
726159,-88.5497655627207,4,1,0,100,0,1
726278,-89.7543447368315,4,1,0,100,0,1
726338,-90.3678955727856,4,1,0,100,0,1
726397,-90.9753103008722,4,1,0,100,0,1
726516,-92.2128851656987,4,1,0,100,0,1
726635,-93.467295274516,4,1,0,100,0,1
726754,-86.9565217391304,4,1,0,100,0,1
726873,-89.9201439208078,4,1,0,100,0,1
726992,-92.9847712514961,4,1,0,100,0,1
727111,-96.1538461538461,4,1,0,100,0,1
727230,-83.3333333333333,4,1,0,100,0,1
727235,-83.3333333333333,4,1,0,100,0,0
727469,-66.6666666666667,4,1,0,100,0,0
727474,-66.6666666666667,4,1,0,100,0,1
727588,-67.8519114110605,4,1,0,100,0,1
727707,-69.0582282320161,4,1,0,100,0,1
727826,-70.2859917630533,4,1,0,100,0,1
727945,-71.5355832981784,4,1,0,100,0,1
728004,-72.1633421094864,4,1,0,100,0,1
728064,-72.8073909102981,4,1,0,100,0,1
728183,-74.10180957174,4,1,0,100,0,1
728302,-75.4192412769147,4,1,0,100,0,1
728421,-76.7600951671592,4,1,0,100,0,1
728540,-78.1247876578,4,1,0,100,0,1
728659,-79.5137425674744,4,1,0,100,0,1
728719,-80.2233927728506,4,1,0,100,0,1
728779,-80.9393765175338,4,1,0,100,0,1
728838,-81.6496580927726,4,1,0,100,0,1
728898,-82.3783710770126,4,1,0,100,0,1
729017,-83.842949047574,4,1,0,100,0,1
729136,-85.3335652682707,4,1,0,100,0,1
729255,-86.8506826645899,4,1,0,100,0,1
729314,-87.6128387664498,4,1,0,100,0,1
729373,-88.3816831510702,4,1,0,100,0,1
729374,-88.3947723922182,4,1,0,100,0,1
729433,-89.1704786167902,4,1,0,100,0,1
729493,-89.9663139833648,4,1,0,100,0,1
729612,-91.5657954956839,4,1,0,100,0,1
729731,-93.1937136638464,4,1,0,100,0,1
729790,-94.0115328835086,4,1,0,100,0,1
729850,-94.8505740538057,4,1,0,100,0,1
729909,-95.6829330124474,4,1,0,100,0,1
729969,-96.5368912198059,4,1,0,100,0,1
730088,-98.2531888641819,4,1,0,100,0,1
730148,-99.1300862834823,4,1,0,100,0,1
730207,-100,4,1,0,100,0,1
730331,-95.2380952380952,4,1,0,100,0,0
730445,-93.7951180354953,4,1,0,100,0,0
730564,-90.9944214087629,4,1,0,100,0,0
730683,-87.436787069287,4,1,0,100,0,0
730802,-83.4414846255851,4,1,0,100,0,0
730921,-79.230575287326,4,1,0,100,0,0
731040,-74.9628055441053,4,1,0,100,0,0
731159,-70.7496842448611,4,1,0,100,0,0
731283,-66.6666666666667,4,1,0,100,0,1
731343,-71.4285714285714,4,1,0,100,0,1
733183,-71.4285714285714,4,1,0,100,0,1
733302,-72.2194003137802,4,1,0,100,0,1
733361,-72.6147326222509,4,1,0,100,0,1
733421,-73.0189849435485,4,1,0,100,0,1
733540,-73.8274222580163,4,1,0,100,0,1
733599,-74.2315569523352,4,1,0,100,0,1
733659,-74.6448102706064,4,1,0,100,0,1
733718,-75.0534193843822,4,1,0,100,0,1
733778,-75.4712480799073,4,1,0,100,0,1
733897,-76.3068358816882,4,1,0,100,0,1
733957,-76.7316424522297,4,1,0,100,0,1
734016,-77.1516749810459,4,1,0,100,0,1
734135,-78.0058678046875,4,1,0,100,0,1
734254,-78.8695179133476,4,1,0,100,0,1
734373,-79.7427300143448,4,1,0,100,0,1
734492,-80.6256099742753,4,1,0,100,0,1
734611,-81.5182648318486,4,1,0,100,0,1
734730,-82.4208028108643,4,1,0,100,0,1
734849,-83.3333333333333,4,1,0,100,0,1
734854,-83.3333333333333,4,1,0,100,0,0
735033,-66.6666666666667,4,1,0,100,0,0
735093,-66.6666666666667,4,1,0,100,0,1
735152,-71.4285714285714,4,1,0,100,0,1
736521,-71.4182191068861,4,1,0,100,0,0
736596,-70.6051091031398,4,1,0,100,0,0
736675,-69.8012565113882,4,1,0,100,0,0
736755,-68.9965546413194,4,1,0,100,0,0
736834,-68.2110157479606,4,1,0,100,0,0
736913,-67.4344203642623,4,1,0,100,0,0
736997,-66.6666666666667,4,1,0,100,0,1
737111,-68.9655172413793,4,1,0,100,0,1
737171,-67.8156963677786,4,1,0,100,0,1
737235,-66.703734596507,4,1,0,100,0,0
737290,-65.5916230739073,4,1,0,100,0,0
737354,-64.5161290322581,4,1,0,100,0,1
737469,-66.6666666666667,4,1,0,100,0,1
737528,-65.6085506495898,4,1,0,100,0,1
737593,-64.5497224367903,4,1,0,100,0,0
737712,-62.5,4,1,0,100,0,1
737826,-64.5161290322581,4,1,0,100,0,1
737831,-64.5161290322581,4,1,0,100,0,0
737950,-60.6060606060606,4,1,0,100,0,1
738426,-93.4579439252336,4,1,0,100,0,1
738902,-71.4285714285714,4,1,0,100,0,0
739611,-117.647058823529,4,1,0,100,0,0
739849,-113.530828713445,4,1,0,100,0,0
739969,-110.81602707739,4,1,0,100,0,0
740087,-108.005022091103,4,1,0,100,0,0
740207,-105.081490007367,4,1,0,100,0,0
740325,-102.1923182394,4,1,0,100,0,0
740445,-99.2737960017821,4,1,0,100,0,0
740563,-96.446380372826,4,1,0,100,0,0
740801,-90.9316457233168,4,1,0,100,0,0
740802,-90.9090909090909,4,1,0,100,0,0
741516,-117.647058823529,4,1,0,100,0,0
741754,-113.530828713445,4,1,0,100,0,0
741873,-110.839387330693,4,1,0,100,0,0
741992,-108.005022091103,4,1,0,100,0,0
742111,-105.105970277062,4,1,0,100,0,0
742230,-102.1923182394,4,1,0,100,0,0
742349,-99.2979642248241,4,1,0,100,0,0
742468,-96.446380372826,4,1,0,100,0,0
742706,-90.9287731485301,4,1,0,100,0,0
742825,-92.5179989585454,4,1,0,100,0,0
742944,-94.1693806792998,4,1,0,100,0,0
743063,-95.850238411407,4,1,0,100,0,0
743182,-91.7175983616901,4,1,0,100,0,0
743301,-94.8049898458433,4,1,0,100,0,0
743421,-98.0235768782735,4,1,0,100,0,0
743480,-99.6458905470573,4,1,0,100,0,0
743540,-101.323239777282,4,1,0,100,0,0
743599,-103.000163657139,4,1,0,100,0,0
743659,-104.733975701718,4,1,0,100,0,0
743777,-99.9338637751045,4,1,0,100,0,0
743896,-103.094523039372,4,1,0,100,0,0
744015,-106.35514608576,4,1,0,100,0,0
744134,-100.057162589477,4,1,0,100,0,0
744254,-108.748471526191,4,1,0,100,0,0
744314,-111.1345017592,4,1,0,100,0,0
744372,-113.490748550249,4,1,0,100,0,0
744433,-116.022789121323,4,1,0,100,0,0
744491,-118.482676197148,4,1,0,100,0,0
744611,-120.65436728681,4,1,0,100,0,0
744730,-122.80796354818,4,1,0,100,0,0
744849,-125,4,1,0,100,0,0
744968,-119.20723622093,4,1,0,100,0,0
745087,-111.641770256701,4,1,0,100,0,0
745206,-103.933338838295,4,1,0,100,0,0
745325,-96.5534812539225,4,1,0,100,0,0
745444,-89.6847195278696,4,1,0,100,0,0
745563,-83.3838583997397,4,1,0,100,0,0
745564,-83.3333333333333,4,1,0,100,0,0
745802,-100,4,1,0,100,0,0
746040,-94.1036028881028,4,1,0,100,0,0
746278,-88.5548807652176,4,1,0,100,0,0
746516,-83.3333333333333,4,1,0,100,0,0
746754,-111.111111111111,4,1,0,100,0,0
746834,-111.06376943513,4,1,0,100,0,0
746913,-110.924395592487,4,1,0,100,0,0
746992,-110.693841326213,4,1,0,100,0,0
747072,-110.36889714039,4,1,0,100,0,0
747151,-109.959655823365,4,1,0,100,0,0
747230,-109.465075606217,4,1,0,100,0,0
747310,-108.880262301675,4,1,0,100,0,0
747389,-108.223225034257,4,1,0,100,0,0
747469,-107.481169645577,4,1,0,100,0,0
747549,-106.666139621199,4,1,0,100,0,0
747628,-105.794099803063,4,1,0,100,0,0
747707,-104.85988011183,4,1,0,100,0,0
747786,-103.868227740412,4,1,0,100,0,0
747865,-102.824008002282,4,1,0,100,0,0
747945,-101.718048711605,4,1,0,100,0,0
748024,-100.583003315734,4,1,0,100,0,0
748103,-99.4102644117303,4,1,0,100,0,0
748183,-98.1892414387378,4,1,0,100,0,0
748262,-96.9552659992482,4,1,0,100,0,0
748341,-95.6978920582228,4,1,0,100,0,0
748421,-94.4053170915937,4,1,0,100,0,0
748500,-93.1141694847423,4,1,0,100,0,0
748579,-91.8124653594372,4,1,0,100,0,0
748659,-90.4874591223133,4,1,0,100,0,0
748739,-89.1593208462152,4,1,0,100,0,0
748818,-87.8481358787807,4,1,0,100,0,0
748897,-86.540448069894,4,1,0,100,0,0
748977,-85.2227324965303,4,1,0,100,0,0
749056,-83.9306162920035,4,1,0,100,0,0
749135,-82.6500039674965,4,1,0,100,0,0
749215,-81.3671518179034,4,1,0,100,0,0
749294,-80.1161295029027,4,1,0,100,0,0
749373,-87.932932396368,4,1,0,100,0,0
749374,-78.8670820467742,4,1,0,100,0,0
749454,-77.6375779996008,4,1,0,100,0,0
749533,-76.4440202812533,4,1,0,100,0,0
749612,-75.2721169419317,4,1,0,100,0,0
749691,-74.1229038543331,4,1,0,100,0,0
749770,-72.9972635861551,4,1,0,100,0,0
749850,-71.8821545215414,4,1,0,100,0,0
749929,-70.8060699446596,4,1,0,100,0,0
750008,-69.7554042171873,4,1,0,100,0,0
750088,-68.7177302704548,4,1,0,100,0,0
750167,-67.7192723764443,4,1,0,100,0,0
750246,-66.7470849155133,4,1,0,100,0,0
750326,-65.7894736842105,4,1,0,100,0,0
751278,-51.2989176042577,4,1,0,100,0,0
752230,-40,4,1,0,100,0,0

[HitObjects]
251,197,193094,5,4,0:0:0:0:
310,242,193390,1,0,0:0:0:0:
310,242,193489,1,8,0:0:0:0:
252,192,194179,1,8,0:0:0:0:
252,192,194278,1,0,0:0:0:0:
250,204,194574,1,0,0:0:0:0:
250,204,194672,1,8,0:0:0:0:
260,234,194969,1,0,0:0:0:0:
260,234,195067,1,0,0:0:0:0:
197,209,195363,1,0,0:0:0:0:
211,210,195462,1,8,0:0:0:0:
211,210,195758,1,0,0:0:0:0:
211,210,195857,1,0,0:0:0:0:
211,210,196153,1,0,0:0:0:0:
211,210,196251,1,8,0:0:0:0:
258,196,196547,1,0,0:0:0:0:
258,196,196646,1,0,0:0:0:0:
258,196,196942,1,8,0:0:0:0:
258,196,197041,1,4,0:0:0:0:
265,198,197830,1,12,0:0:0:0:
259,193,198620,1,8,0:0:0:0:
259,193,198686,1,8,0:0:0:0:
259,193,198751,1,0,0:0:0:0:
259,193,198817,1,8,0:0:0:0:
259,193,198883,1,0,0:0:0:0:
259,193,198949,1,0,0:0:0:0:
259,193,199015,1,8,0:0:0:0:
259,193,199080,1,8,0:0:0:0:
259,193,199146,1,8,0:0:0:0:
259,193,199212,1,0,0:0:0:0:
259,193,199278,1,0,0:0:0:0:
259,193,199344,1,0,0:0:0:0:
259,193,199409,1,12,0:0:0:0:
260,213,199607,1,8,0:0:0:0:
252,211,199706,1,0,0:0:0:0:
264,211,199755,1,0,0:0:0:0:
264,211,199804,1,8,0:0:0:0:
264,211,199903,1,0,0:0:0:0:
264,211,200002,1,8,0:0:0:0:
264,211,200051,1,8,0:0:0:0:
264,211,200100,1,0,0:0:0:0:
264,211,200150,1,0,0:0:0:0:
264,211,200199,1,8,0:0:0:0:
264,211,200298,1,0,0:0:0:0:
264,211,200396,1,8,0:0:0:0:
264,211,200446,1,8,0:0:0:0:
264,211,200495,1,0,0:0:0:0:
264,211,200594,1,8,0:0:0:0:
264,211,200693,1,0,0:0:0:0:
234,191,200742,1,0,0:0:0:0:
264,211,200791,1,8,0:0:0:0:
264,211,200841,1,0,0:0:0:0:
264,211,200890,1,0,0:0:0:0:
264,211,200989,1,8,0:0:0:0:
264,211,201087,1,0,0:0:0:0:
264,211,201137,1,0,0:0:0:0:
264,211,201186,1,8,0:0:0:0:
264,211,201285,1,0,0:0:0:0:
264,211,201383,1,8,0:0:0:0:
264,211,201433,1,8,0:0:0:0:
264,211,201482,1,0,0:0:0:0:
264,211,201581,1,8,0:0:0:0:
264,211,201679,1,0,0:0:0:0:
268,219,201778,1,8,0:0:0:0:
268,219,201827,1,8,0:0:0:0:
268,219,201876,1,0,0:0:0:0:
268,219,201975,1,8,0:0:0:0:
268,219,202074,1,0,0:0:0:0:
282,226,202172,1,8,0:0:0:0:
252,205,202370,1,4,0:0:0:0:
252,205,202567,1,12,0:0:0:0:
277,233,202765,1,8,0:0:0:0:
277,233,202863,1,0,0:0:0:0:
277,233,202913,1,0,0:0:0:0:
277,233,202962,1,8,0:0:0:0:
277,233,203061,1,0,0:0:0:0:
277,233,203159,1,8,0:0:0:0:
277,233,203209,1,8,0:0:0:0:
277,233,203258,1,0,0:0:0:0:
277,233,203307,1,0,0:0:0:0:
277,233,203357,1,8,0:0:0:0:
277,233,203455,1,0,0:0:0:0:
294,252,203554,1,8,0:0:0:0:
294,252,203603,1,8,0:0:0:0:
294,252,203653,1,0,0:0:0:0:
293,252,203751,1,8,0:0:0:0:
293,252,203850,1,0,0:0:0:0:
235,222,203899,1,0,0:0:0:0:
293,252,203949,1,8,0:0:0:0:
293,252,204146,1,8,0:0:0:0:
271,246,204195,1,0,0:0:0:0:
293,252,204245,1,0,0:0:0:0:
280,251,204344,1,12,0:0:0:0:
271,239,204442,1,0,0:0:0:0:
293,252,204541,1,8,0:0:0:0:
271,246,204590,1,0,0:0:0:0:
293,252,204640,1,0,0:0:0:0:
280,251,204739,1,12,0:0:0:0:
271,239,204837,1,0,0:0:0:0:
293,252,204936,1,8,0:0:0:0:
271,246,204985,1,0,0:0:0:0:
293,252,205035,1,0,0:0:0:0:
280,251,205134,1,12,0:0:0:0:
271,239,205232,1,0,0:0:0:0:
293,252,205330,1,8,0:0:0:0:
271,246,205379,1,8,0:0:0:0:
293,252,205429,1,0,0:0:0:0:
280,251,205528,1,0,0:0:0:0:
271,239,205626,1,0,0:0:0:0:
281,210,205725,5,12,0:0:0:0:
297,160,205824,1,0,0:0:0:0:
302,171,205922,1,0,0:0:0:0:
298,207,206120,1,8,0:0:0:0:
298,207,206219,1,0,0:0:0:0:
298,207,206317,1,0,0:0:0:0:
298,207,206416,1,0,0:0:0:0:
298,207,206515,1,8,0:0:0:0:
298,207,206613,1,8,0:0:0:0:
298,207,206712,1,0,0:0:0:0:
298,207,206909,1,8,0:0:0:0:
298,207,207008,1,0,0:0:0:0:
313,227,207107,1,8,0:0:0:0:
313,227,207205,1,0,0:0:0:0:
313,227,207304,1,8,0:0:0:0:
310,216,207353,1,8,0:0:0:0:
313,227,207403,1,0,0:0:0:0:
236,226,207452,1,0,0:0:0:0:
313,227,207501,1,0,0:0:0:0:
310,216,207600,1,0,0:0:0:0:
310,216,207699,1,8,0:0:0:0:
310,216,207797,1,8,0:0:0:0:
310,216,207896,1,0,0:0:0:0:
316,198,208094,1,8,0:0:0:0:
322,222,208143,1,8,0:0:0:0:
316,198,208192,1,0,0:0:0:0:
316,198,208291,1,8,0:0:0:0:
316,198,208390,1,0,0:0:0:0:
316,198,208488,1,8,0:0:0:0:
322,222,208538,1,8,0:0:0:0:
316,198,208587,1,0,0:0:0:0:
316,198,208686,1,8,0:0:0:0:
316,198,208784,1,0,0:0:0:0:
316,198,208883,1,12,0:0:0:0:
307,219,208982,1,0,0:0:0:0:
307,219,209080,1,0,0:0:0:0:
268,191,209278,1,8,0:0:0:0:
268,191,209376,1,0,0:0:0:0:
268,191,209475,1,0,0:0:0:0:
268,191,209574,1,0,0:0:0:0:
268,191,209672,1,8,0:0:0:0:
268,191,209771,1,8,0:0:0:0:
268,191,209870,1,0,0:0:0:0:
274,195,209969,1,0,0:0:0:0:
274,195,210067,1,8,0:0:0:0:
274,195,210166,1,0,0:0:0:0:
265,197,210265,1,0,0:0:0:0:
265,197,210363,1,0,0:0:0:0:
265,197,210462,1,8,0:0:0:0:
292,226,210511,1,0,0:0:0:0:
290,217,210561,1,0,0:0:0:0:
290,217,210659,1,8,0:0:0:0:
290,217,210758,1,0,0:0:0:0:
290,217,210857,1,8,0:0:0:0:
290,217,210955,1,0,0:0:0:0:
290,217,211054,1,0,0:0:0:0:
290,217,211153,1,0,0:0:0:0:
290,217,211251,1,8,0:0:0:0:
314,226,211350,1,0,0:0:0:0:
314,226,211449,1,0,0:0:0:0:
311,232,211646,1,12,0:0:0:0:
311,232,211745,1,0,0:0:0:0:
320,240,211844,1,8,0:0:0:0:
311,232,211942,1,8,0:0:0:0:
311,232,212041,1,4,0:0:0:0:
166,196,212238,1,8,0:0:0:0:
233,191,212337,1,0,0:0:0:0:
233,192,212436,1,8,0:0:0:0:
314,240,212534,1,0,0:0:0:0:
314,240,212633,1,0,0:0:0:0:
314,240,212732,1,0,0:0:0:0:
314,240,212830,1,8,0:0:0:0:
300,239,212929,1,8,0:0:0:0:
300,239,213028,1,8,0:0:0:0:
300,239,213126,1,0,0:0:0:0:
300,239,213225,1,8,0:0:0:0:
300,239,213324,1,0,0:0:0:0:
300,239,213422,1,0,0:0:0:0:
270,250,213521,1,0,0:0:0:0:
286,250,213620,1,8,0:0:0:0:
311,250,213669,1,0,0:0:0:0:
286,250,213719,1,0,0:0:0:0:
286,250,213817,1,8,0:0:0:0:
286,250,213916,1,0,0:0:0:0:
300,239,214015,1,8,0:0:0:0:
300,239,214113,1,0,0:0:0:0:
300,239,214212,1,0,0:0:0:0:
300,239,214311,1,0,0:0:0:0:
301,276,214409,1,8,0:0:0:0:
301,276,214508,1,8,0:0:0:0:
316,263,214607,1,0,0:0:0:0:
319,264,214705,1,0,0:0:0:0:
319,265,214804,1,8,0:0:0:0:
319,265,214903,1,8,0:0:0:0:
319,265,215001,1,0,0:0:0:0:
319,265,215100,1,8,0:0:0:0:
319,265,215199,1,0,0:0:0:0:
279,258,215396,1,0,0:0:0:0:
279,258,215594,1,12,0:0:0:0:
349,259,215791,1,0,0:0:0:0:
349,259,215890,1,0,0:0:0:0:
349,259,215988,1,0,0:0:0:0:
349,259,216186,1,0,0:0:0:0:
293,225,216284,1,0,0:0:0:0:
349,259,216383,1,12,0:0:0:0:
318,218,216580,1,8,0:0:0:0:
318,218,216679,1,8,0:0:0:0:
318,218,216778,1,4,0:0:0:0:
273,221,216975,1,8,0:0:0:0:
351,248,217074,1,0,0:0:0:0:
358,246,217123,1,0,0:0:0:0:
351,248,217172,1,8,0:0:0:0:
351,248,217271,1,0,0:0:0:0:
351,248,217370,1,8,0:0:0:0:
351,248,217419,1,8,0:0:0:0:
351,248,217469,1,0,0:0:0:0:
351,248,217567,1,12,0:0:0:0:
312,222,217765,1,8,0:0:0:0:
312,222,217863,1,0,0:0:0:0:
229,200,217913,1,0,0:0:0:0:
312,222,217962,1,8,0:0:0:0:
312,222,218061,1,0,0:0:0:0:
312,222,218159,1,0,0:0:0:0:
312,222,218258,1,0,0:0:0:0:
312,222,218357,1,12,0:0:0:0:
331,259,218554,1,8,0:0:0:0:
314,245,218653,1,0,0:0:0:0:
283,206,218702,1,0,0:0:0:0:
323,264,218751,1,8,0:0:0:0:
314,245,218850,1,0,0:0:0:0:
314,245,218949,1,8,0:0:0:0:
314,245,218998,1,8,0:0:0:0:
314,245,219047,1,0,0:0:0:0:
288,211,219097,1,8,0:0:0:0:
314,245,219146,1,0,0:0:0:0:
314,245,219245,1,0,0:0:0:0:
314,245,219344,1,8,0:0:0:0:
314,245,219442,1,0,0:0:0:0:
330,238,219492,1,0,0:0:0:0:
314,245,219541,1,8,0:0:0:0:
314,245,219640,1,0,0:0:0:0:
314,245,219738,1,8,0:0:0:0:
245,216,219837,1,0,0:0:0:0:
305,236,219936,1,8,0:0:0:0:
206,177,219985,1,8,0:0:0:0:
305,236,220034,1,0,0:0:0:0:
252,223,220133,1,8,0:0:0:0:
252,223,220232,1,0,0:0:0:0:
224,200,220281,1,0,0:0:0:0:
252,223,220330,1,8,0:0:0:0:
415,240,220380,1,8,0:0:0:0:
314,245,220429,1,0,0:0:0:0:
299,239,220528,1,8,0:0:0:0:
299,239,220626,1,0,0:0:0:0:
299,239,220725,1,8,0:0:0:0:
299,239,220774,1,0,0:0:0:0:
299,239,220824,1,8,0:0:0:0:
299,239,220873,1,0,0:0:0:0:
299,239,220922,1,8,0:0:0:0:
299,239,221021,1,0,0:0:0:0:
299,239,221120,1,8,0:0:0:0:
212,185,221169,1,8,0:0:0:0:
303,244,221219,1,0,0:0:0:0:
303,244,221268,1,0,0:0:0:0:
303,244,221317,1,8,0:0:0:0:
200,210,221367,1,8,0:0:0:0:
303,244,221416,1,0,0:0:0:0:
303,244,221515,1,12,0:0:0:0:
268,232,221712,1,8,0:0:0:0:
268,232,221811,1,0,0:0:0:0:
311,238,221860,1,0,0:0:0:0:
268,232,221909,1,8,0:0:0:0:
268,232,222008,1,0,0:0:0:0:
268,232,222107,1,8,0:0:0:0:
268,232,222205,1,8,0:0:0:0:
268,232,222304,1,0,0:0:0:0:
264,213,222353,1,8,0:0:0:0:
261,239,222403,1,0,0:0:0:0:
260,214,222452,1,0,0:0:0:0:
259,238,222501,1,8,0:0:0:0:
259,238,222600,1,0,0:0:0:0:
243,233,222699,1,8,0:0:0:0:
250,234,222748,1,0,0:0:0:0:
271,240,222797,1,0,0:0:0:0:
261,234,222896,1,8,0:0:0:0:
263,226,222995,1,0,0:0:0:0:
263,226,223094,1,8,0:0:0:0:
287,238,223192,1,0,0:0:0:0:
299,253,223242,1,0,0:0:0:0:
287,238,223291,1,8,0:0:0:0:
309,258,223340,1,8,0:0:0:0:
274,234,223390,1,0,0:0:0:0:
274,234,223488,1,8,0:0:0:0:
316,256,223538,1,0,0:0:0:0:
289,248,223587,1,0,0:0:0:0:
289,248,223686,1,8,0:0:0:0:
292,254,223784,1,0,0:0:0:0:
298,259,223883,1,8,0:0:0:0:
298,259,223932,1,8,0:0:0:0:
298,259,223982,1,0,0:0:0:0:
300,262,224080,1,8,0:0:0:0:
300,262,224179,1,0,0:0:0:0:
301,266,224278,1,8,0:0:0:0:
301,266,224327,1,8,0:0:0:0:
301,266,224376,1,0,0:0:0:0:
291,266,224426,1,0,0:0:0:0:
301,266,224475,1,8,0:0:0:0:
301,266,224574,1,0,0:0:0:0:
301,266,224672,1,12,0:0:0:0:
275,228,224870,1,8,0:0:0:0:
264,241,224969,1,0,0:0:0:0:
267,233,225018,1,0,0:0:0:0:
267,231,225067,1,8,0:0:0:0:
267,231,225166,1,0,0:0:0:0:
298,256,225265,1,8,0:0:0:0:
288,245,225314,1,8,0:0:0:0:
298,256,225363,1,0,0:0:0:0:
293,232,225413,1,0,0:0:0:0:
298,256,225462,1,0,0:0:0:0:
222,211,225561,1,0,0:0:0:0:
231,197,225659,1,8,0:0:0:0:
231,197,225758,1,0,0:0:0:0:
269,198,225807,1,0,0:0:0:0:
259,212,225857,1,8,0:0:0:0:
278,233,225955,1,0,0:0:0:0:
278,232,226054,1,8,0:0:0:0:
237,191,226251,1,8,0:0:0:0:
237,191,226301,1,0,0:0:0:0:
237,191,226350,1,0,0:0:0:0:
237,191,226449,1,12,0:0:0:0:
293,242,226547,1,0,0:0:0:0:
228,188,226646,1,8,0:0:0:0:
228,188,226695,1,0,0:0:0:0:
229,188,226745,1,0,0:0:0:0:
233,199,226844,1,12,0:0:0:0:
247,222,226942,1,0,0:0:0:0:
234,199,227041,1,8,0:0:0:0:
234,199,227090,1,0,0:0:0:0:
234,199,227140,1,0,0:0:0:0:
234,199,227238,1,12,0:0:0:0:
255,213,227337,1,0,0:0:0:0:
253,202,227436,1,8,0:0:0:0:
253,202,227501,1,8,0:0:0:0:
253,202,227567,1,8,0:0:0:0:
253,202,227633,1,0,0:0:0:0:
253,202,227699,1,0,0:0:0:0:
253,202,227765,1,0,0:0:0:0:
253,202,227830,1,12,0:0:0:0:
226,204,230791,1,4,0:0:0:0:
226,204,230988,1,12,0:0:0:0:
239,191,232962,1,8,0:0:0:0:
262,208,233357,1,8,0:0:0:0:
289,221,233422,1,8,0:0:0:0:
282,218,233488,1,0,0:0:0:0:
282,218,233554,1,0,0:0:0:0:
282,218,233620,1,0,0:0:0:0:
282,218,233686,1,0,0:0:0:0:
282,218,233751,1,8,0:0:0:0:
282,218,233817,1,0,0:0:0:0:
282,218,233883,1,0,0:0:0:0:
282,218,233949,1,8,0:0:0:0:
282,218,234015,1,8,0:0:0:0:
282,218,234080,1,8,0:0:0:0:
282,218,234146,1,4,0:0:0:0:
265,217,234278,1,8,0:0:0:0:
276,217,234409,1,8,0:0:0:0:
276,217,234541,1,8,0:0:0:0:
406,255,234672,1,0,0:0:0:0:
282,228,234804,1,0,0:0:0:0:
282,228,234936,1,12,0:0:0:0:
299,249,235067,1,0,0:0:0:0:
299,249,235199,1,8,0:0:0:0:
299,249,235330,1,8,0:0:0:0:
299,249,235462,1,0,0:0:0:0:
299,249,235594,1,0,0:0:0:0:
299,249,235725,1,12,0:0:0:0:
299,249,235857,1,0,0:0:0:0:
299,249,235988,1,8,0:0:0:0:
299,249,236120,1,8,0:0:0:0:
299,249,236251,1,0,0:0:0:0:
301,266,236383,1,0,0:0:0:0:
302,256,236515,1,8,0:0:0:0:
302,256,236580,1,0,0:0:0:0:
302,256,236646,1,8,0:0:0:0:
302,256,236712,1,8,0:0:0:0:
313,251,236778,1,0,0:0:0:0:
299,215,236844,1,0,0:0:0:0:
302,256,236909,1,8,0:0:0:0:
308,262,236975,1,8,0:0:0:0:
308,262,237041,1,8,0:0:0:0:
308,262,237107,1,0,0:0:0:0:
207,186,237172,1,0,0:0:0:0:
335,245,237238,1,0,0:0:0:0:
322,263,237304,1,12,0:0:0:0:
294,225,237699,1,0,0:0:0:0:
298,237,238094,1,0,0:0:0:0:
298,237,238291,1,0,0:0:0:0:
298,237,238488,1,8,0:0:0:0:
288,260,238686,1,0,0:0:0:0:
288,260,238883,1,8,0:0:0:0:
287,248,239080,1,0,0:0:0:0:
263,206,239278,1,8,0:0:0:0:
263,206,239475,1,0,0:0:0:0:
263,206,239672,1,8,0:0:0:0:
263,206,239870,1,8,0:0:0:0:
263,206,240067,1,0,0:0:0:0:
263,206,240265,1,0,0:0:0:0:
263,206,240462,1,8,0:0:0:0:
322,239,240857,1,0,0:0:0:0:
305,230,241054,1,8,0:0:0:0:
322,239,241251,1,0,0:0:0:0:
485,269,241646,1,8,0:0:0:0:
299,243,242041,1,8,0:0:0:0:
299,243,242238,1,8,0:0:0:0:
299,243,242436,1,8,0:0:0:0:
299,243,242633,1,8,0:0:0:0:
299,243,242830,1,0,0:0:0:0:
320,241,243225,1,0,0:0:0:0:
320,241,243620,1,8,0:0:0:0:
320,241,243817,1,0,0:0:0:0:
311,249,244015,1,8,0:0:0:0:
311,249,244212,1,0,0:0:0:0:
311,249,244409,1,8,0:0:0:0:
311,249,244804,1,0,0:0:0:0:
316,256,245001,1,0,0:0:0:0:
316,256,245199,1,8,0:0:0:0:
270,226,245396,1,8,0:0:0:0:
293,208,245593,1,0,0:0:0:0:
297,214,245988,1,0,0:0:0:0:
297,214,246383,1,0,0:0:0:0:
293,225,246778,1,8,0:0:0:0:
236,202,246975,1,0,0:0:0:0:
236,202,247172,1,8,0:0:0:0:
236,202,247370,1,0,0:0:0:0:
236,202,247567,1,8,0:0:0:0:
270,208,247962,1,0,0:0:0:0:
236,202,248159,1,0,0:0:0:0:
236,202,248357,1,8,0:0:0:0:
277,218,248751,1,0,0:0:0:0:
277,218,249146,1,8,0:0:0:0:
277,218,249343,1,0,0:0:0:0:
274,222,249541,1,8,0:0:0:0:
281,234,249936,1,8,0:0:0:0:
281,234,250133,1,8,0:0:0:0:
281,234,250330,1,0,0:0:0:0:
281,234,250528,1,0,0:0:0:0:
281,234,250725,1,8,0:0:0:0:
281,234,250922,1,0,0:0:0:0:
281,234,251120,1,0,0:0:0:0:
281,234,251515,1,8,0:0:0:0:
338,288,251712,1,8,0:0:0:0:
338,288,251909,1,0,0:0:0:0:
338,288,252107,1,8,0:0:0:0:
338,288,252304,1,0,0:0:0:0:
323,258,252699,1,0,0:0:0:0:
306,259,253093,1,8,0:0:0:0:
306,259,253291,1,8,0:0:0:0:
306,259,253488,1,8,0:0:0:0:
306,259,253883,1,0,0:0:0:0:
229,219,254278,1,8,0:0:0:0:
271,222,254672,1,0,0:0:0:0:
271,222,254870,1,0,0:0:0:0:
271,222,255067,1,0,0:0:0:0:
302,234,255462,1,8,0:0:0:0:
333,253,255857,1,0,0:0:0:0:
333,253,256251,1,8,0:0:0:0:
333,253,256449,1,0,0:0:0:0:
333,253,256646,1,8,0:0:0:0:
333,253,256843,1,0,0:0:0:0:
333,253,257041,1,8,0:0:0:0:
313,218,257436,1,8,0:0:0:0:
313,218,257830,1,0,0:0:0:0:
323,235,258028,1,0,0:0:0:0:
323,235,258225,1,0,0:0:0:0:
266,173,258620,1,8,0:0:0:0:
223,200,258817,1,8,0:0:0:0:
266,173,259015,1,0,0:0:0:0:
266,173,259212,1,0,0:0:0:0:
266,173,259409,1,8,0:0:0:0:
151,219,259607,1,0,0:0:0:0:
166,219,259804,1,0,0:0:0:0:
327,255,260199,1,8,0:0:0:0:
311,254,260593,1,8,0:0:0:0:
311,254,260988,1,0,0:0:0:0:
299,248,261186,1,0,0:0:0:0:
280,161,261383,1,0,0:0:0:0:
299,254,261580,1,8,0:0:0:0:
306,222,261778,1,8,0:0:0:0:
306,222,262172,1,0,0:0:0:0:
306,222,262567,1,12,0:0:0:0:
320,247,262765,1,0,0:0:0:0:
326,242,262962,1,0,0:0:0:0:
315,219,263159,1,8,0:0:0:0:
315,219,263258,1,0,0:0:0:0:
315,219,263357,1,0,0:0:0:0:
244,186,263554,1,8,0:0:0:0:
244,186,263751,1,0,0:0:0:0:
244,186,263949,1,8,0:0:0:0:
244,186,264047,1,8,0:0:0:0:
244,186,264146,1,0,0:0:0:0:
292,239,264344,1,0,0:0:0:0:
292,239,264541,1,8,0:0:0:0:
294,228,264738,1,0,0:0:0:0:
286,196,264936,1,8,0:0:0:0:
286,196,264985,1,8,0:0:0:0:
286,196,265034,1,0,0:0:0:0:
315,202,265084,1,0,0:0:0:0:
315,202,265133,1,8,0:0:0:0:
271,175,265182,1,8,0:0:0:0:
315,202,265232,1,8,0:0:0:0:
315,202,265281,1,8,0:0:0:0:
315,202,265330,1,0,0:0:0:0:
302,193,265396,1,0,0:0:0:0:
302,193,265462,1,8,0:0:0:0:
302,193,265528,1,8,0:0:0:0:
302,193,265594,1,8,0:0:0:0:
302,193,265659,1,8,0:0:0:0:
302,193,265725,1,4,0:0:0:0:
298,194,265922,1,8,0:0:0:0:
298,194,266021,1,0,0:0:0:0:
255,181,266070,1,0,0:0:0:0:
298,194,266120,1,8,0:0:0:0:
298,194,266219,1,0,0:0:0:0:
312,227,266317,1,8,0:0:0:0:
312,227,266416,1,8,0:0:0:0:
335,280,266515,1,0,0:0:0:0:
335,280,266613,1,0,0:0:0:0:
282,193,266712,1,8,0:0:0:0:
282,193,266811,1,0,0:0:0:0:
303,222,266909,1,8,0:0:0:0:
319,220,266959,1,0,0:0:0:0:
303,222,267008,1,0,0:0:0:0:
303,222,267107,1,8,0:0:0:0:
303,222,267156,1,8,0:0:0:0:
303,222,267205,1,0,0:0:0:0:
142,234,267255,1,0,0:0:0:0:
303,222,267304,1,8,0:0:0:0:
305,241,267403,1,0,0:0:0:0:
313,249,267501,1,8,0:0:0:0:
296,244,267551,1,8,0:0:0:0:
289,216,267600,1,0,0:0:0:0:
289,216,267699,1,8,0:0:0:0:
289,216,267797,1,0,0:0:0:0:
280,220,267847,1,0,0:0:0:0:
289,216,267896,1,8,0:0:0:0:
270,183,267945,1,8,0:0:0:0:
310,234,267995,1,0,0:0:0:0:
310,234,268094,1,8,0:0:0:0:
338,270,268192,1,0,0:0:0:0:
330,251,268291,1,8,0:0:0:0:
264,204,268340,1,0,0:0:0:0:
346,282,268390,1,0,0:0:0:0:
348,280,268488,1,8,0:0:0:0:
279,209,268538,1,0,0:0:0:0:
348,280,268587,1,0,0:0:0:0:
272,182,268636,1,8,0:0:0:0:
268,173,268686,1,8,0:0:0:0:
356,274,268784,1,0,0:0:0:0:
356,274,268883,1,12,0:0:0:0:
356,274,269080,1,8,0:0:0:0:
356,274,269179,1,0,0:0:0:0:
356,274,269228,1,0,0:0:0:0:
356,274,269278,1,8,0:0:0:0:
210,210,269376,1,0,0:0:0:0:
210,210,269475,1,8,0:0:0:0:
298,214,269524,1,8,0:0:0:0:
307,235,269574,1,0,0:0:0:0:
307,235,269672,1,8,0:0:0:0:
260,214,269771,1,0,0:0:0:0:
313,248,269870,1,8,0:0:0:0:
313,248,269969,1,0,0:0:0:0:
241,202,270018,1,0,0:0:0:0:
313,248,270067,1,8,0:0:0:0:
297,250,270117,1,0,0:0:0:0:
220,223,270166,1,8,0:0:0:0:
316,254,270265,1,8,0:0:0:0:
316,254,270363,1,0,0:0:0:0:
316,254,270462,1,8,0:0:0:0:
239,221,270511,1,0,0:0:0:0:
232,213,270561,1,0,0:0:0:0:
232,213,270659,1,8,0:0:0:0:
150,179,270709,1,8,0:0:0:0:
232,213,270758,1,0,0:0:0:0:
304,238,270857,1,8,0:0:0:0:
304,238,270955,1,0,0:0:0:0:
304,238,271054,1,8,0:0:0:0:
304,238,271153,1,0,0:0:0:0:
304,238,271202,1,0,0:0:0:0:
304,238,271251,1,8,0:0:0:0:
194,208,271301,1,8,0:0:0:0:
328,266,271350,1,0,0:0:0:0:
328,266,271449,1,8,0:0:0:0:
328,266,271547,1,0,0:0:0:0:
240,230,271597,1,0,0:0:0:0:
341,267,271646,1,8,0:0:0:0:
341,267,271745,1,8,0:0:0:0:
341,267,271844,1,8,0:0:0:0:
341,267,271942,1,0,0:0:0:0:
285,210,272041,1,12,0:0:0:0:
247,183,272238,1,8,0:0:0:0:
247,183,272337,1,0,0:0:0:0:
265,230,272386,1,0,0:0:0:0:
247,183,272436,1,8,0:0:0:0:
285,210,272534,1,0,0:0:0:0:
327,263,272633,1,8,0:0:0:0:
327,263,272732,1,8,0:0:0:0:
327,263,272830,1,0,0:0:0:0:
327,263,272929,1,0,0:0:0:0:
327,263,273028,1,8,0:0:0:0:
327,263,273126,1,0,0:0:0:0:
327,263,273225,1,8,0:0:0:0:
327,263,273274,1,0,0:0:0:0:
327,263,273324,1,0,0:0:0:0:
327,263,273422,1,8,0:0:0:0:
309,246,273472,1,8,0:0:0:0:
327,263,273521,1,0,0:0:0:0:
327,263,273620,1,8,0:0:0:0:
327,263,273719,1,0,0:0:0:0:
327,263,273817,1,8,0:0:0:0:
327,263,273916,1,0,0:0:0:0:
327,263,273965,1,0,0:0:0:0:
327,263,274015,1,8,0:0:0:0:
241,198,274064,1,8,0:0:0:0:
327,263,274113,1,0,0:0:0:0:
327,263,274212,1,8,0:0:0:0:
329,238,274311,1,0,0:0:0:0:
276,205,274360,1,0,0:0:0:0:
332,248,274409,1,8,0:0:0:0:
326,268,274508,1,0,0:0:0:0:
332,248,274607,1,8,0:0:0:0:
224,195,274656,1,8,0:0:0:0:
322,270,274705,1,0,0:0:0:0:
322,270,274755,1,8,0:0:0:0:
322,270,274804,1,0,0:0:0:0:
322,270,274903,1,0,0:0:0:0:
327,274,275001,1,8,0:0:0:0:
327,274,275051,1,8,0:0:0:0:
327,274,275100,1,0,0:0:0:0:
327,274,275199,1,12,0:0:0:0:
326,268,275396,1,8,0:0:0:0:
328,274,275495,1,0,0:0:0:0:
328,274,275544,1,0,0:0:0:0:
328,274,275594,1,8,0:0:0:0:
328,274,275692,1,0,0:0:0:0:
328,274,275791,1,8,0:0:0:0:
328,274,275840,1,8,0:0:0:0:
327,274,275890,1,0,0:0:0:0:
327,274,275939,1,0,0:0:0:0:
327,274,275988,1,8,0:0:0:0:
327,274,276087,1,0,0:0:0:0:
326,268,276186,1,8,0:0:0:0:
326,268,276284,1,0,0:0:0:0:
328,274,276383,1,8,0:0:0:0:
328,274,276432,1,0,0:0:0:0:
343,283,276482,1,0,0:0:0:0:
326,268,276531,1,0,0:0:0:0:
343,283,276580,1,8,0:0:0:0:
344,284,276679,1,0,0:0:0:0:
344,284,276778,1,8,0:0:0:0:
344,284,276876,1,0,0:0:0:0:
344,284,276926,1,0,0:0:0:0:
344,284,276975,1,8,0:0:0:0:
346,289,277074,1,0,0:0:0:0:
346,289,277172,1,8,0:0:0:0:
346,289,277222,1,8,0:0:0:0:
346,289,277271,1,0,0:0:0:0:
346,289,277320,1,0,0:0:0:0:
343,283,277370,1,8,0:0:0:0:
354,296,277469,1,0,0:0:0:0:
354,296,277567,1,12,0:0:0:0:
343,283,277765,1,8,0:0:0:0:
344,284,277863,1,0,0:0:0:0:
346,289,277962,1,8,0:0:0:0:
346,289,278011,1,8,0:0:0:0:
346,289,278061,1,0,0:0:0:0:
346,289,278159,1,0,0:0:0:0:
346,289,278258,1,0,0:0:0:0:
341,283,278357,1,12,0:0:0:0:
250,236,278554,1,8,0:0:0:0:
250,236,278653,1,0,0:0:0:0:
250,236,278702,1,0,0:0:0:0:
250,236,278751,1,8,0:0:0:0:
250,236,278850,1,0,0:0:0:0:
250,236,278949,1,8,0:0:0:0:
250,236,279047,1,8,0:0:0:0:
250,236,279146,1,0,0:0:0:0:
253,275,279245,1,0,0:0:0:0:
253,264,279344,1,8,0:0:0:0:
304,265,279442,1,0,0:0:0:0:
304,265,279492,1,0,0:0:0:0:
304,265,279541,1,8,0:0:0:0:
322,277,279640,1,0,0:0:0:0:
322,277,279738,1,8,0:0:0:0:
322,277,279788,1,8,0:0:0:0:
322,277,279837,1,0,0:0:0:0:
319,268,279936,1,8,0:0:0:0:
319,268,279985,1,8,0:0:0:0:
319,268,280034,1,0,0:0:0:0:
319,268,280084,1,0,0:0:0:0:
319,268,280133,1,8,0:0:0:0:
319,268,280182,1,0,0:0:0:0:
319,268,280232,1,0,0:0:0:0:
319,268,280330,1,8,0:0:0:0:
319,268,280429,1,0,0:0:0:0:
136,183,280478,1,0,0:0:0:0:
319,268,280528,1,8,0:0:0:0:
320,224,280626,1,0,0:0:0:0:
330,264,280725,1,8,0:0:0:0:
292,219,280824,1,0,0:0:0:0:
326,249,280922,1,8,0:0:0:0:
326,249,281021,1,0,0:0:0:0:
326,249,281120,1,8,0:0:0:0:
326,249,281169,1,8,0:0:0:0:
320,256,281219,1,0,0:0:0:0:
320,256,281268,1,0,0:0:0:0:
320,256,281317,1,8,0:0:0:0:
320,256,281416,1,0,0:0:0:0:
320,256,281515,1,12,0:0:0:0:
320,256,281712,1,8,0:0:0:0:
320,256,281811,1,0,0:0:0:0:
320,256,281860,1,0,0:0:0:0:
320,256,281909,1,8,0:0:0:0:
320,256,282008,1,0,0:0:0:0:
320,272,282107,1,8,0:0:0:0:
320,272,282205,1,8,0:0:0:0:
320,272,282304,1,0,0:0:0:0:
320,272,282353,1,8,0:0:0:0:
320,272,282403,1,8,0:0:0:0:
320,272,282452,1,0,0:0:0:0:
320,272,282501,1,8,0:0:0:0:
320,272,282600,1,0,0:0:0:0:
193,230,282649,1,0,0:0:0:0:
320,272,282699,1,8,0:0:0:0:
320,272,282797,1,0,0:0:0:0:
320,272,282896,1,8,0:0:0:0:
320,256,282995,1,0,0:0:0:0:
336,288,283094,1,8,0:0:0:0:
336,288,283143,1,8,0:0:0:0:
336,288,283192,1,0,0:0:0:0:
336,288,283242,1,0,0:0:0:0:
336,288,283291,1,8,0:0:0:0:
336,288,283390,1,0,0:0:0:0:
336,288,283488,1,8,0:0:0:0:
352,304,283587,1,0,0:0:0:0:
352,304,283686,1,8,0:0:0:0:
336,288,283784,1,0,0:0:0:0:
352,288,283883,1,8,0:0:0:0:
352,288,283932,1,0,0:0:0:0:
352,288,283982,1,0,0:0:0:0:
336,304,284080,1,8,0:0:0:0:
336,304,284179,1,0,0:0:0:0:
336,304,284228,1,0,0:0:0:0:
336,304,284278,1,8,0:0:0:0:
336,304,284327,1,8,0:0:0:0:
336,304,284376,1,0,0:0:0:0:
64,64,284475,1,8,0:0:0:0:
336,304,284574,1,0,0:0:0:0:
240,192,284672,1,12,0:0:0:0:
240,208,284870,1,8,0:0:0:0:
288,256,285166,1,0,0:0:0:0:
288,256,285265,1,8,0:0:0:0:
320,272,285363,1,8,0:0:0:0:
304,256,285462,1,0,0:0:0:0:
304,256,285659,1,8,0:0:0:0:
304,256,285758,1,0,0:0:0:0:
304,256,285955,1,0,0:0:0:0:
304,256,286054,1,8,0:0:0:0:
320,256,286153,1,0,0:0:0:0:
320,256,286251,1,0,0:0:0:0:
320,256,286449,1,8,0:0:0:0:
320,256,286646,1,8,0:0:0:0:
304,256,286745,1,0,0:0:0:0:
304,256,286844,1,0,0:0:0:0:
320,256,286942,1,8,0:0:0:0:
304,256,287041,1,0,0:0:0:0:
304,256,287238,1,8,0:0:0:0:
304,256,287337,1,0,0:0:0:0:
304,256,287534,1,0,0:0:0:0:
304,256,287633,1,8,0:0:0:0:
304,256,287830,1,12,0:0:0:0:
320,256,288028,1,8,0:0:0:0:
256,176,288225,1,8,0:0:0:0:
320,256,288324,1,0,0:0:0:0:
320,256,288422,1,8,0:0:0:0:
202,183,288472,1,0,0:0:0:0:
320,256,288521,1,0,0:0:0:0:
320,256,288620,1,8,0:0:0:0:
336,272,288817,1,8,0:0:0:0:
304,224,288916,1,0,0:0:0:0:
336,272,289015,1,8,0:0:0:0:
341,289,289064,1,8,0:0:0:0:
336,272,289113,1,0,0:0:0:0:
336,272,289212,1,8,0:0:0:0:
336,272,289311,1,8,0:0:0:0:
336,272,289409,1,0,0:0:0:0:
320,256,289508,1,0,0:0:0:0:
336,272,289607,1,8,0:0:0:0:
336,272,289804,1,0,0:0:0:0:
336,272,289903,1,8,0:0:0:0:
320,256,290100,1,0,0:0:0:0:
320,256,290199,1,12,0:0:0:0:
320,256,290396,1,8,0:0:0:0:
320,256,290495,1,8,0:0:0:0:
320,256,290593,1,0,0:0:0:0:
320,256,290692,1,0,0:0:0:0:
320,256,290791,1,8,0:0:0:0:
320,256,290890,1,0,0:0:0:0:
302,193,290988,1,12,0:0:0:0:
298,194,291185,1,8,0:0:0:0:
298,194,291284,1,0,0:0:0:0:
261,219,291334,1,0,0:0:0:0:
298,194,291383,1,8,0:0:0:0:
298,194,291482,1,0,0:0:0:0:
312,227,291580,1,8,0:0:0:0:
312,227,291679,1,8,0:0:0:0:
335,280,291778,1,0,0:0:0:0:
335,280,291876,1,0,0:0:0:0:
282,193,291975,1,8,0:0:0:0:
282,193,292074,1,0,0:0:0:0:
303,222,292172,1,8,0:0:0:0:
303,222,292271,1,0,0:0:0:0:
303,222,292370,1,8,0:0:0:0:
303,222,292419,1,8,0:0:0:0:
303,222,292468,1,0,0:0:0:0:
303,222,292567,1,8,0:0:0:0:
305,241,292666,1,0,0:0:0:0:
393,206,292715,1,0,0:0:0:0:
313,249,292764,1,8,0:0:0:0:
289,216,292863,1,0,0:0:0:0:
284,203,292913,1,0,0:0:0:0:
289,216,292962,1,8,0:0:0:0:
278,208,293011,1,8,0:0:0:0:
289,216,293060,1,0,0:0:0:0:
270,183,293159,1,8,0:0:0:0:
310,234,293258,1,0,0:0:0:0:
310,234,293357,1,8,0:0:0:0:
338,270,293455,1,0,0:0:0:0:
330,251,293554,1,8,0:0:0:0:
261,212,293603,1,8,0:0:0:0:
346,282,293653,1,0,0:0:0:0:
348,280,293751,1,8,0:0:0:0:
348,280,293850,1,0,0:0:0:0:
356,274,293949,1,8,0:0:0:0:
329,219,293998,1,0,0:0:0:0:
356,274,294047,1,0,0:0:0:0:
356,274,294146,1,12,0:0:0:0:
356,274,294343,1,8,0:0:0:0:
356,274,294442,1,0,0:0:0:0:
356,274,294491,1,0,0:0:0:0:
356,274,294541,1,8,0:0:0:0:
210,210,294639,1,0,0:0:0:0:
210,210,294738,1,8,0:0:0:0:
298,214,294787,1,8,0:0:0:0:
307,235,294837,1,8,0:0:0:0:
307,235,294935,1,0,0:0:0:0:
260,214,295034,1,0,0:0:0:0:
313,248,295133,1,8,0:0:0:0:
231,211,295182,1,8,0:0:0:0:
313,248,295232,1,0,0:0:0:0:
256,224,295281,1,8,0:0:0:0:
313,248,295330,1,0,0:0:0:0:
240,208,295380,1,0,0:0:0:0:
215,152,295429,1,8,0:0:0:0:
311,257,295528,1,8,0:0:0:0:
316,254,295626,1,0,0:0:0:0:
316,254,295725,1,8,0:0:0:0:
150,179,295774,1,8,0:0:0:0:
232,213,295824,1,0,0:0:0:0:
232,213,295922,1,8,0:0:0:0:
232,213,296021,1,0,0:0:0:0:
304,238,296120,1,8,0:0:0:0:
304,238,296169,1,8,0:0:0:0:
304,238,296218,1,0,0:0:0:0:
304,238,296268,1,0,0:0:0:0:
304,238,296317,1,8,0:0:0:0:
304,238,296416,1,0,0:0:0:0:
304,238,296514,1,8,0:0:0:0:
304,238,296564,1,8,0:0:0:0:
328,266,296613,1,0,0:0:0:0:
328,266,296712,1,8,0:0:0:0:
328,266,296810,1,0,0:0:0:0:
233,214,296860,1,0,0:0:0:0:
341,267,296909,1,8,0:0:0:0:
341,267,297008,1,0,0:0:0:0:
341,267,297107,1,8,0:0:0:0:
341,267,297205,1,0,0:0:0:0:
285,210,297304,1,12,0:0:0:0:
247,183,297501,1,8,0:0:0:0:
247,183,297600,1,0,0:0:0:0:
253,200,297649,1,0,0:0:0:0:
247,183,297699,1,8,0:0:0:0:
327,263,297797,1,0,0:0:0:0:
327,263,297896,1,8,0:0:0:0:
327,263,297995,1,8,0:0:0:0:
327,263,298093,1,0,0:0:0:0:
327,263,298192,1,0,0:0:0:0:
327,263,298291,1,8,0:0:0:0:
327,263,298389,1,0,0:0:0:0:
327,263,298488,1,8,0:0:0:0:
269,208,298538,1,8,0:0:0:0:
327,263,298587,1,0,0:0:0:0:
327,263,298685,1,8,0:0:0:0:
327,263,298784,1,0,0:0:0:0:
151,192,298834,1,0,0:0:0:0:
327,263,298883,1,8,0:0:0:0:
178,183,298932,1,8,0:0:0:0:
327,263,298982,1,0,0:0:0:0:
178,183,299031,1,0,0:0:0:0:
327,263,299080,1,8,0:0:0:0:
327,263,299179,1,0,0:0:0:0:
327,263,299278,1,8,0:0:0:0:
327,263,299376,1,0,0:0:0:0:
327,263,299475,1,8,0:0:0:0:
256,211,299524,1,0,0:0:0:0:
217,189,299574,1,8,0:0:0:0:
332,248,299672,1,0,0:0:0:0:
326,268,299771,1,0,0:0:0:0:
332,248,299870,1,8,0:0:0:0:
322,270,299968,1,0,0:0:0:0:
322,270,300018,1,0,0:0:0:0:
322,270,300067,1,8,0:0:0:0:
322,270,300166,1,0,0:0:0:0:
327,274,300264,1,8,0:0:0:0:
327,274,300314,1,8,0:0:0:0:
327,274,300363,1,0,0:0:0:0:
327,274,300462,1,12,0:0:0:0:
326,268,300659,1,8,0:0:0:0:
328,274,300758,1,0,0:0:0:0:
328,274,300807,1,0,0:0:0:0:
328,274,300857,1,8,0:0:0:0:
328,274,300955,1,0,0:0:0:0:
328,274,301054,1,8,0:0:0:0:
294,259,301103,1,8,0:0:0:0:
327,274,301153,1,0,0:0:0:0:
327,274,301202,1,8,0:0:0:0:
327,274,301251,1,0,0:0:0:0:
327,274,301350,1,0,0:0:0:0:
326,268,301449,1,8,0:0:0:0:
326,268,301547,1,0,0:0:0:0:
328,274,301646,1,8,0:0:0:0:
284,233,301695,1,8,0:0:0:0:
343,283,301745,1,0,0:0:0:0:
343,283,301843,1,8,0:0:0:0:
344,284,301942,1,0,0:0:0:0:
344,284,302041,1,8,0:0:0:0:
344,284,302090,1,8,0:0:0:0:
344,284,302139,1,0,0:0:0:0:
344,284,302238,1,12,0:0:0:0:
346,289,302337,1,0,0:0:0:0:
346,289,302435,1,8,0:0:0:0:
346,289,302485,1,0,0:0:0:0:
346,289,302534,1,0,0:0:0:0:
346,289,302583,1,0,0:0:0:0:
343,283,302633,1,8,0:0:0:0:
354,296,302732,1,0,0:0:0:0:
354,296,302830,1,12,0:0:0:0:
343,283,303028,1,8,0:0:0:0:
344,284,303126,1,0,0:0:0:0:
346,289,303225,1,8,0:0:0:0:
346,289,303274,1,8,0:0:0:0:
346,289,303324,1,0,0:0:0:0:
346,289,303422,1,0,0:0:0:0:
346,289,303521,1,0,0:0:0:0:
341,283,303620,1,12,0:0:0:0:
250,236,303817,1,8,0:0:0:0:
250,236,303916,1,0,0:0:0:0:
240,208,303965,1,0,0:0:0:0:
250,236,304014,1,8,0:0:0:0:
250,236,304113,1,0,0:0:0:0:
250,236,304212,1,8,0:0:0:0:
250,236,304310,1,0,0:0:0:0:
250,236,304409,1,8,0:0:0:0:
273,266,304459,1,8,0:0:0:0:
253,275,304508,1,0,0:0:0:0:
253,264,304607,1,8,0:0:0:0:
192,224,304656,1,0,0:0:0:0:
304,265,304705,1,0,0:0:0:0:
304,265,304804,1,8,0:0:0:0:
322,277,304903,1,0,0:0:0:0:
322,277,305001,1,8,0:0:0:0:
322,277,305051,1,8,0:0:0:0:
322,277,305100,1,0,0:0:0:0:
319,268,305199,1,8,0:0:0:0:
319,268,305248,1,8,0:0:0:0:
319,268,305297,1,0,0:0:0:0:
319,268,305347,1,0,0:0:0:0:
319,268,305396,1,8,0:0:0:0:
319,268,305445,1,0,0:0:0:0:
319,268,305495,1,0,0:0:0:0:
295,262,305544,1,0,0:0:0:0:
319,268,305593,1,8,0:0:0:0:
319,268,305692,1,0,0:0:0:0:
319,268,305791,1,8,0:0:0:0:
222,225,305840,1,8,0:0:0:0:
304,240,305890,1,0,0:0:0:0:
330,264,305988,1,8,0:0:0:0:
292,219,306087,1,0,0:0:0:0:
326,249,306185,1,8,0:0:0:0:
326,249,306284,1,0,0:0:0:0:
326,249,306383,1,8,0:0:0:0:
326,249,306432,1,8,0:0:0:0:
320,256,306482,1,0,0:0:0:0:
320,256,306531,1,0,0:0:0:0:
320,256,306580,1,8,0:0:0:0:
320,256,306679,1,0,0:0:0:0:
320,256,306778,1,12,0:0:0:0:
320,256,306975,1,8,0:0:0:0:
304,256,307074,1,0,0:0:0:0:
304,272,307123,1,0,0:0:0:0:
320,256,307172,1,8,0:0:0:0:
320,256,307271,1,0,0:0:0:0:
320,272,307370,1,8,0:0:0:0:
320,272,307468,1,0,0:0:0:0:
320,272,307567,1,8,0:0:0:0:
320,272,307617,1,8,0:0:0:0:
320,272,307666,1,0,0:0:0:0:
320,272,307764,1,8,0:0:0:0:
320,272,307814,1,0,0:0:0:0:
320,272,307863,1,0,0:0:0:0:
320,288,307913,1,0,0:0:0:0:
320,272,307962,1,8,0:0:0:0:
320,272,308060,1,0,0:0:0:0:
320,272,308159,1,8,0:0:0:0:
320,256,308258,1,0,0:0:0:0:
336,288,308357,1,8,0:0:0:0:
320,272,308406,1,8,0:0:0:0:
336,288,308455,1,0,0:0:0:0:
336,288,308554,1,8,0:0:0:0:
336,288,308653,1,0,0:0:0:0:
336,288,308751,1,8,0:0:0:0:
336,288,308801,1,0,0:0:0:0:
352,304,308850,1,0,0:0:0:0:
352,304,308949,1,8,0:0:0:0:
336,288,309047,1,0,0:0:0:0:
352,288,309146,1,8,0:0:0:0:
352,288,309245,1,0,0:0:0:0:
336,304,309344,1,8,0:0:0:0:
336,304,309393,1,8,0:0:0:0:
336,304,309442,1,0,0:0:0:0:
240,192,309492,1,0,0:0:0:0:
336,304,309541,1,8,0:0:0:0:
251,189,309640,1,8,0:0:0:0:
251,189,309738,1,0,0:0:0:0:
336,304,309837,1,0,0:0:0:0:
240,192,309935,1,12,0:0:0:0:
240,208,310133,1,8,0:0:0:0:
265,242,310232,1,0,0:0:0:0:
208,208,310281,1,0,0:0:0:0:
268,230,310330,1,8,0:0:0:0:
288,256,310429,1,0,0:0:0:0:
288,256,310528,1,8,0:0:0:0:
272,224,310626,1,8,0:0:0:0:
304,256,310725,1,0,0:0:0:0:
304,256,310922,1,8,0:0:0:0:
304,256,311021,1,0,0:0:0:0:
304,256,311218,1,0,0:0:0:0:
304,256,311317,1,8,0:0:0:0:
272,224,311416,1,0,0:0:0:0:
320,256,311514,1,0,0:0:0:0:
320,256,311712,1,8,0:0:0:0:
304,256,311909,1,8,0:0:0:0:
304,256,312008,1,0,0:0:0:0:
304,256,312107,1,0,0:0:0:0:
288,256,312205,1,8,0:0:0:0:
304,256,312304,1,0,0:0:0:0:
304,256,312501,1,8,0:0:0:0:
304,256,312600,1,0,0:0:0:0:
304,256,312797,1,0,0:0:0:0:
304,256,312896,1,8,0:0:0:0:
304,256,313093,1,12,0:0:0:0:
320,256,313291,1,8,0:0:0:0:
256,176,313488,1,8,0:0:0:0:
320,256,313587,1,0,0:0:0:0:
256,208,313636,1,0,0:0:0:0:
320,256,313685,1,8,0:0:0:0:
320,256,313784,1,8,0:0:0:0:
320,256,313883,1,0,0:0:0:0:
336,272,314080,1,8,0:0:0:0:
304,224,314179,1,0,0:0:0:0:
336,272,314278,1,8,0:0:0:0:
336,272,314376,1,0,0:0:0:0:
336,272,314475,1,8,0:0:0:0:
336,272,314574,1,8,0:0:0:0:
336,272,314672,1,0,0:0:0:0:
320,256,314771,1,0,0:0:0:0:
336,272,314870,1,12,0:0:0:0:
336,272,315067,1,0,0:0:0:0:
336,272,315166,1,12,0:0:0:0:
320,256,315363,1,0,0:0:0:0:
320,256,315462,1,12,0:0:0:0:
320,256,315659,1,8,0:0:0:0:
320,256,315758,1,0,0:0:0:0:
320,256,315856,1,8,0:0:0:0:
320,256,315955,1,0,0:0:0:0:
320,256,316054,1,8,0:0:0:0:
320,160,316103,1,8,0:0:0:0:
320,256,316153,1,0,0:0:0:0:
224,208,316251,1,12,0:0:0:0:
208,176,316383,1,0,0:0:0:0:
224,176,316515,1,0,0:0:0:0:
224,176,316646,1,8,0:0:0:0:
272,192,316778,1,0,0:0:0:0:
272,192,316909,1,0,0:0:0:0:
272,192,317041,1,8,0:0:0:0:
272,192,317172,1,0,0:0:0:0:
272,192,317304,1,0,0:0:0:0:
272,192,317436,1,8,0:0:0:0:
272,192,317567,1,0,0:0:0:0:
272,192,317699,1,0,0:0:0:0:
272,192,317830,1,12,0:0:0:0:
272,192,317962,1,0,0:0:0:0:
272,192,318093,1,0,0:0:0:0:
272,192,318225,1,8,0:0:0:0:
272,192,318357,1,8,0:0:0:0:
272,192,318488,1,0,0:0:0:0:
272,192,318620,1,8,0:0:0:0:
272,192,318751,1,0,0:0:0:0:
272,192,318883,1,8,0:0:0:0:
272,192,319015,1,8,0:0:0:0:
272,192,319146,1,0,0:0:0:0:
272,192,319278,1,0,0:0:0:0:
272,192,319409,1,12,0:0:0:0:
240,192,319541,1,0,0:0:0:0:
240,192,319672,1,0,0:0:0:0:
240,192,319804,1,8,0:0:0:0:
240,192,319936,1,8,0:0:0:0:
240,192,320067,1,8,0:0:0:0:
240,192,320199,1,4,0:0:0:0:
272,224,320330,1,8,0:0:0:0:
272,224,320462,1,8,0:0:0:0:
272,224,320593,1,0,0:0:0:0:
272,208,320725,1,0,0:0:0:0:
272,208,320857,1,0,0:0:0:0:
272,208,320988,1,12,0:0:0:0:
304,224,321284,1,8,0:0:0:0:
304,224,321383,1,8,0:0:0:0:
304,224,321515,1,0,0:0:0:0:
304,224,321646,1,0,0:0:0:0:
272,160,321778,1,8,0:0:0:0:
272,160,321843,1,8,0:0:0:0:
288,208,321909,1,0,0:0:0:0:
272,160,321975,1,8,0:0:0:0:
272,160,322041,1,0,0:0:0:0:
288,208,322107,1,0,0:0:0:0:
304,208,322172,1,8,0:0:0:0:
304,208,322238,1,8,0:0:0:0:
304,192,322304,1,0,0:0:0:0:
304,208,322370,1,8,0:0:0:0:
304,208,322436,1,8,0:0:0:0:
256,176,322501,1,8,0:0:0:0:
304,208,322568,1,4,0:0:0:0:
256,192,328889,5,0,0:0:0:0:
256,192,329333,1,8,0:0:0:0:
378,307,330073,1,8,0:0:0:0:
300,194,330270,1,8,0:0:0:0:
256,103,330467,1,0,0:0:0:0:
84,199,330731,1,0,0:0:0:0:
291,248,330862,1,8,0:0:0:0:
238,242,331306,1,8,0:0:0:0:
226,233,331701,1,0,0:0:0:0:
291,254,332096,1,0,0:0:0:0:
188,221,332540,1,8,0:0:0:0:
342,293,332737,1,8,0:0:0:0:
218,178,333083,1,0,0:0:0:0:
378,307,333231,1,8,0:0:0:0:
386,326,333428,1,8,0:0:0:0:
256,103,333625,1,0,0:0:0:0:
254,203,334069,1,8,0:0:0:0:
284,230,334464,1,0,0:0:0:0:
254,203,334859,1,8,0:0:0:0:
204,220,335204,1,0,0:0:0:0:
272,182,335599,1,8,0:0:0:0:
270,211,336389,1,0,0:0:0:0:
337,205,336783,1,8,0:0:0:0:
362,287,337770,1,0,0:0:0:0:
378,307,337967,1,0,0:0:0:0:
386,326,338165,1,8,0:0:0:0:
256,103,338362,1,0,0:0:0:0:
255,222,338823,1,8,0:0:0:0:
297,218,339546,1,0,0:0:0:0:
297,218,339941,1,8,0:0:0:0:
378,307,340928,1,8,0:0:0:0:
386,326,341125,1,8,0:0:0:0:
198,150,341323,1,8,0:0:0:0:
256,103,341520,1,0,0:0:0:0:
305,237,341979,1,8,0:0:0:0:
306,197,342703,1,0,0:0:0:0:
277,204,343099,1,8,0:0:0:0:
410,243,344142,1,0,0:0:0:0:
378,307,344350,1,8,0:0:0:0:
386,326,344559,1,0,0:0:0:0:
256,103,344767,1,8,0:0:0:0:
386,209,345164,1,0,0:0:0:0:
314,221,345960,1,0,0:0:0:0:
182,203,346358,1,8,0:0:0:0:
351,273,347296,1,8,0:0:0:0:
351,273,347484,1,8,0:0:0:0:
372,289,347672,1,8,0:0:0:0:
292,206,347859,1,0,0:0:0:0:
333,249,348267,1,8,0:0:0:0:
119,207,349032,1,0,0:0:0:0:
215,170,349491,1,8,0:0:0:0:
362,287,350446,1,0,0:0:0:0:
378,307,350637,1,8,0:0:0:0:
386,326,350828,1,8,0:0:0:0:
256,103,351019,1,0,0:0:0:0:
110,188,351419,1,8,0:0:0:0:
350,311,352219,1,0,0:0:0:0:
350,311,352619,1,8,0:0:0:0:
362,287,353605,1,8,0:0:0:0:
378,307,353803,1,0,0:0:0:0:
386,326,354000,1,8,0:0:0:0:
256,103,354197,1,0,0:0:0:0:
329,226,354576,1,8,0:0:0:0:
318,270,355336,1,0,0:0:0:0:
318,270,355715,1,8,0:0:0:0:
362,287,356742,1,8,0:0:0:0:
378,307,356947,1,0,0:0:0:0:
386,326,357153,1,8,0:0:0:0:
256,103,357358,1,0,0:0:0:0:
331,256,357740,1,8,0:0:0:0:
174,212,358506,1,0,0:0:0:0:
250,196,358889,1,8,0:0:0:0:
209,192,360467,1,8,0:0:0:0:
187,183,360862,1,0,0:0:0:0:
346,274,361257,1,8,0:0:0:0:
196,178,361652,1,0,0:0:0:0:
249,191,362046,1,8,0:0:0:0:
307,145,362490,1,0,0:0:0:0:
299,240,362885,1,8,0:0:0:0:
310,266,363280,1,0,0:0:0:0:
333,244,363872,1,0,0:0:0:0:
333,244,364069,1,8,0:0:0:0:
248,228,364267,1,8,0:0:0:0:
248,228,364464,1,0,0:0:0:0:
239,174,364662,1,0,0:0:0:0:
276,219,364810,1,8,0:0:0:0:
204,182,365007,1,0,0:0:0:0:
204,182,365073,1,0,0:0:0:0:
204,182,365139,1,0,0:0:0:0:
208,192,365199,5,12,0:0:0:0:
255,193,365988,1,8,0:0:0:0:
255,193,367567,1,8,0:0:0:0:
255,193,368356,1,12,0:0:0:0:
254,203,369146,1,8,0:0:0:0:
277,216,369935,1,8,0:0:0:0:
277,216,370001,1,8,0:0:0:0:
277,216,370067,1,0,0:0:0:0:
277,216,370133,1,0,0:0:0:0:
277,216,370199,1,8,0:0:0:0:
277,216,370264,1,0,0:0:0:0:
277,216,370330,1,8,0:0:0:0:
277,216,370396,1,8,0:0:0:0:
277,216,370462,1,8,0:0:0:0:
277,216,370527,1,0,0:0:0:0:
277,216,370593,1,0,0:0:0:0:
277,216,370659,1,0,0:0:0:0:
277,216,370725,1,12,0:0:0:0:
315,218,371021,1,4,0:0:0:0:
307,218,371120,1,8,0:0:0:0:
307,218,371317,1,4,0:0:0:0:
307,218,371514,1,12,0:0:0:0:
209,213,371613,1,0,0:0:0:0:
209,213,371662,1,0,0:0:0:0:
209,213,371712,1,8,0:0:0:0:
209,213,371810,1,0,0:0:0:0:
209,213,371909,1,8,0:0:0:0:
209,213,371958,1,8,0:0:0:0:
209,213,372008,1,0,0:0:0:0:
209,213,372057,1,0,0:0:0:0:
209,213,372106,1,8,0:0:0:0:
209,213,372205,1,0,0:0:0:0:
209,213,372304,1,8,0:0:0:0:
209,213,372353,1,8,0:0:0:0:
209,213,372402,1,0,0:0:0:0:
209,213,372501,1,8,0:0:0:0:
209,213,372600,1,0,0:0:0:0:
209,213,372699,1,8,0:0:0:0:
209,213,372797,1,0,0:0:0:0:
209,213,372847,1,0,0:0:0:0:
209,213,372896,1,8,0:0:0:0:
209,213,372995,1,0,0:0:0:0:
209,213,373093,1,8,0:0:0:0:
209,213,373143,1,8,0:0:0:0:
209,213,373192,1,0,0:0:0:0:
209,213,373241,1,8,0:0:0:0:
209,213,373291,1,8,0:0:0:0:
209,213,373389,1,0,0:0:0:0:
209,213,373488,1,8,0:0:0:0:
209,213,373537,1,8,0:0:0:0:
209,213,373587,1,0,0:0:0:0:
209,213,373685,1,8,0:0:0:0:
209,213,373784,1,0,0:0:0:0:
209,213,373883,1,8,0:0:0:0:
227,214,373932,1,8,0:0:0:0:
209,213,373981,1,0,0:0:0:0:
209,213,374031,1,0,0:0:0:0:
209,213,374080,1,8,0:0:0:0:
209,213,374129,1,0,0:0:0:0:
209,213,374179,1,0,0:0:0:0:
209,213,374277,1,8,0:0:0:0:
209,213,374376,1,0,0:0:0:0:
209,213,374475,1,8,0:0:0:0:
209,213,374524,1,8,0:0:0:0:
209,213,374574,1,0,0:0:0:0:
209,213,374672,1,12,0:0:0:0:
209,213,374870,1,8,0:0:0:0:
209,213,374968,1,0,0:0:0:0:
209,213,375067,1,8,0:0:0:0:
209,213,375116,1,0,0:0:0:0:
202,207,375166,1,0,0:0:0:0:
201,207,375215,1,8,0:0:0:0:
201,207,375264,1,8,0:0:0:0:
201,207,375363,1,0,0:0:0:0:
201,207,375462,1,8,0:0:0:0:
201,207,375511,1,8,0:0:0:0:
201,207,375560,1,0,0:0:0:0:
201,207,375659,1,8,0:0:0:0:
201,207,375758,1,0,0:0:0:0:
201,207,375856,1,8,0:0:0:0:
202,207,375955,1,0,0:0:0:0:
201,207,376004,1,0,0:0:0:0:
201,207,376054,1,8,0:0:0:0:
201,207,376152,1,0,0:0:0:0:
201,207,376251,1,8,0:0:0:0:
201,207,376300,1,0,0:0:0:0:
201,207,376350,1,0,0:0:0:0:
201,207,376399,1,0,0:0:0:0:
201,207,376449,1,8,0:0:0:0:
201,207,376547,1,0,0:0:0:0:
201,207,376646,1,8,0:0:0:0:
202,207,376695,1,8,0:0:0:0:
202,207,376745,1,0,0:0:0:0:
206,167,376794,1,0,0:0:0:0:
201,207,376843,1,8,0:0:0:0:
212,190,376942,1,0,0:0:0:0:
212,190,377041,1,8,0:0:0:0:
227,192,377090,1,0,0:0:0:0:
251,191,377139,1,0,0:0:0:0:
251,191,377238,1,8,0:0:0:0:
251,191,377337,1,0,0:0:0:0:
251,191,377435,1,8,0:0:0:0:
251,191,377485,1,8,0:0:0:0:
251,191,377534,1,0,0:0:0:0:
240,200,377583,1,0,0:0:0:0:
251,191,377633,1,8,0:0:0:0:
251,191,377731,1,0,0:0:0:0:
251,191,377830,1,12,0:0:0:0:
260,194,378027,1,8,0:0:0:0:
255,182,378126,1,0,0:0:0:0:
255,182,378225,1,8,0:0:0:0:
255,182,378274,1,8,0:0:0:0:
255,182,378324,1,0,0:0:0:0:
255,182,378373,1,0,0:0:0:0:
255,182,378422,1,8,0:0:0:0:
255,182,378472,1,0,0:0:0:0:
255,182,378521,1,8,0:0:0:0:
255,182,378620,1,0,0:0:0:0:
255,182,378718,1,0,0:0:0:0:
246,192,378817,1,8,0:0:0:0:
248,176,378866,1,8,0:0:0:0:
248,176,378916,1,0,0:0:0:0:
248,176,378965,1,0,0:0:0:0:
248,176,379014,1,8,0:0:0:0:
248,176,379113,1,0,0:0:0:0:
247,176,379212,1,8,0:0:0:0:
255,182,379311,1,0,0:0:0:0:
255,182,379410,1,8,0:0:0:0:
255,182,379458,1,0,0:0:0:0:
247,179,379508,1,0,0:0:0:0:
248,176,379607,1,8,0:0:0:0:
248,176,379656,1,8,0:0:0:0:
247,224,379705,1,0,0:0:0:0:
253,223,379754,1,0,0:0:0:0:
253,223,379804,1,8,0:0:0:0:
253,223,379853,1,0,0:0:0:0:
253,223,379902,1,0,0:0:0:0:
253,223,380001,1,8,0:0:0:0:
253,223,380100,1,0,0:0:0:0:
253,223,380199,1,8,0:0:0:0:
247,224,380248,1,8,0:0:0:0:
247,224,380297,1,0,0:0:0:0:
247,224,380347,1,8,0:0:0:0:
247,224,380396,1,8,0:0:0:0:
278,261,380495,1,0,0:0:0:0:
278,261,380593,1,8,0:0:0:0:
278,261,380643,1,8,0:0:0:0:
278,261,380692,1,0,0:0:0:0:
278,261,380741,1,8,0:0:0:0:
278,261,380791,1,8,0:0:0:0:
278,261,380840,1,0,0:0:0:0:
278,261,380889,1,0,0:0:0:0:
278,261,380988,1,12,0:0:0:0:
278,261,381185,1,8,0:0:0:0:
278,261,381284,1,0,0:0:0:0:
278,261,381383,1,8,0:0:0:0:
278,261,381432,1,8,0:0:0:0:
278,261,381481,1,0,0:0:0:0:
278,261,381580,1,12,0:0:0:0:
296,195,381777,1,0,0:0:0:0:
296,195,381876,1,8,0:0:0:0:
296,195,381975,1,0,0:0:0:0:
296,195,382024,1,0,0:0:0:0:
296,195,382074,1,8,0:0:0:0:
296,195,382172,1,4,0:0:0:0:
310,228,382370,1,8,0:0:0:0:
310,228,382468,1,8,0:0:0:0:
310,228,382567,1,4,0:0:0:0:
311,236,382764,1,0,0:0:0:0:
311,236,382863,1,0,0:0:0:0:
311,236,382962,1,8,0:0:0:0:
296,244,383011,1,8,0:0:0:0:
311,236,383060,1,0,0:0:0:0:
296,244,383110,1,0,0:0:0:0:
311,236,383159,1,8,0:0:0:0:
311,236,383258,1,0,0:0:0:0:
277,216,383356,1,12,0:0:0:0:
315,218,383652,1,4,0:0:0:0:
307,218,383751,1,8,0:0:0:0:
307,218,383948,1,4,0:0:0:0:
307,218,384145,1,12,0:0:0:0:
209,213,384244,1,0,0:0:0:0:
209,213,384293,1,0,0:0:0:0:
209,213,384343,1,8,0:0:0:0:
209,213,384441,1,0,0:0:0:0:
209,213,384540,1,8,0:0:0:0:
209,213,384589,1,8,0:0:0:0:
209,213,384639,1,0,0:0:0:0:
209,213,384737,1,8,0:0:0:0:
209,213,384787,1,0,0:0:0:0:
209,213,384836,1,0,0:0:0:0:
191,187,384886,1,0,0:0:0:0:
209,213,384935,1,8,0:0:0:0:
209,213,384984,1,8,0:0:0:0:
209,213,385033,1,0,0:0:0:0:
209,213,385132,1,8,0:0:0:0:
209,213,385231,1,0,0:0:0:0:
209,213,385330,1,8,0:0:0:0:
209,213,385428,1,0,0:0:0:0:
209,213,385478,1,0,0:0:0:0:
209,213,385527,1,8,0:0:0:0:
209,213,385626,1,0,0:0:0:0:
209,213,385724,1,8,0:0:0:0:
209,213,385774,1,8,0:0:0:0:
209,213,385823,1,0,0:0:0:0:
209,213,385872,1,8,0:0:0:0:
209,213,385922,1,8,0:0:0:0:
209,213,386020,1,0,0:0:0:0:
209,213,386119,1,8,0:0:0:0:
209,213,386168,1,8,0:0:0:0:
209,213,386218,1,0,0:0:0:0:
209,213,386316,1,8,0:0:0:0:
209,213,386415,1,0,0:0:0:0:
209,213,386514,1,8,0:0:0:0:
227,214,386563,1,8,0:0:0:0:
209,213,386612,1,0,0:0:0:0:
191,216,386662,1,0,0:0:0:0:
209,213,386711,1,8,0:0:0:0:
209,213,386810,1,0,0:0:0:0:
209,213,386908,1,8,0:0:0:0:
209,213,386958,1,0,0:0:0:0:
209,213,387007,1,8,0:0:0:0:
211,225,387057,1,0,0:0:0:0:
209,213,387106,1,8,0:0:0:0:
209,213,387155,1,8,0:0:0:0:
209,213,387205,1,0,0:0:0:0:
209,213,387303,1,12,0:0:0:0:
209,213,387501,1,8,0:0:0:0:
209,213,387599,1,0,0:0:0:0:
209,213,387698,1,8,0:0:0:0:
209,213,387747,1,0,0:0:0:0:
202,207,387797,1,0,0:0:0:0:
201,207,387895,1,8,0:0:0:0:
201,207,387945,1,8,0:0:0:0:
201,207,387994,1,0,0:0:0:0:
209,213,388044,1,0,0:0:0:0:
201,207,388093,1,8,0:0:0:0:
201,207,388142,1,8,0:0:0:0:
201,207,388191,1,0,0:0:0:0:
201,207,388290,1,8,0:0:0:0:
201,207,388389,1,0,0:0:0:0:
201,207,388487,1,8,0:0:0:0:
202,207,388586,1,0,0:0:0:0:
201,207,388635,1,0,0:0:0:0:
201,207,388685,1,8,0:0:0:0:
201,207,388783,1,0,0:0:0:0:
201,207,388882,1,8,0:0:0:0:
201,207,388931,1,0,0:0:0:0:
201,207,388981,1,0,0:0:0:0:
201,207,389030,1,0,0:0:0:0:
201,207,389080,1,8,0:0:0:0:
201,207,389178,1,0,0:0:0:0:
201,207,389277,1,8,0:0:0:0:
202,207,389326,1,8,0:0:0:0:
202,207,389376,1,0,0:0:0:0:
206,167,389425,1,0,0:0:0:0:
201,207,389474,1,8,0:0:0:0:
212,190,389573,1,0,0:0:0:0:
212,190,389672,1,8,0:0:0:0:
256,196,389722,1,8,0:0:0:0:
251,191,389770,1,0,0:0:0:0:
251,191,389869,1,12,0:0:0:0:
251,191,389968,1,0,0:0:0:0:
251,191,390066,1,8,0:0:0:0:
251,191,390116,1,8,0:0:0:0:
251,191,390165,1,0,0:0:0:0:
251,191,390264,1,8,0:0:0:0:
251,191,390362,1,0,0:0:0:0:
251,191,390461,1,12,0:0:0:0:
260,194,390658,1,8,0:0:0:0:
255,182,390757,1,0,0:0:0:0:
255,182,390856,1,8,0:0:0:0:
255,182,390905,1,8,0:0:0:0:
255,182,390955,1,0,0:0:0:0:
255,182,391053,1,8,0:0:0:0:
255,182,391103,1,8,0:0:0:0:
255,182,391152,1,0,0:0:0:0:
255,182,391202,1,0,0:0:0:0:
255,182,391251,1,8,0:0:0:0:
255,182,391349,1,0,0:0:0:0:
246,192,391448,1,8,0:0:0:0:
248,176,391497,1,8,0:0:0:0:
248,176,391547,1,0,0:0:0:0:
248,176,391596,1,0,0:0:0:0:
248,176,391645,1,8,0:0:0:0:
259,197,391695,1,0,0:0:0:0:
248,176,391744,1,8,0:0:0:0:
259,192,391794,1,0,0:0:0:0:
247,176,391843,1,8,0:0:0:0:
259,192,391893,1,8,0:0:0:0:
255,182,391942,1,0,0:0:0:0:
255,182,391991,1,0,0:0:0:0:
255,182,392041,1,8,0:0:0:0:
247,179,392139,1,0,0:0:0:0:
248,176,392238,1,8,0:0:0:0:
248,176,392287,1,8,0:0:0:0:
247,224,392336,1,0,0:0:0:0:
253,223,392435,1,8,0:0:0:0:
253,223,392484,1,8,0:0:0:0:
253,223,392533,1,0,0:0:0:0:
231,198,392583,1,0,0:0:0:0:
253,223,392632,1,8,0:0:0:0:
292,216,392682,1,0,0:0:0:0:
253,223,392731,1,0,0:0:0:0:
253,223,392830,1,8,0:0:0:0:
247,224,392928,1,0,0:0:0:0:
247,224,393027,1,8,0:0:0:0:
247,224,393077,1,0,0:0:0:0:
278,261,393126,1,8,0:0:0:0:
283,193,393175,1,0,0:0:0:0:
278,261,393225,1,8,0:0:0:0:
278,261,393274,1,8,0:0:0:0:
278,261,393324,1,0,0:0:0:0:
278,261,393373,1,0,0:0:0:0:
278,261,393422,1,8,0:0:0:0:
278,261,393472,1,8,0:0:0:0:
278,261,393521,1,0,0:0:0:0:
278,261,393619,1,12,0:0:0:0:
278,261,393816,1,8,0:0:0:0:
278,261,393915,1,0,0:0:0:0:
278,261,394014,1,8,0:0:0:0:
278,261,394063,1,8,0:0:0:0:
278,261,394112,1,0,0:0:0:0:
278,261,394211,1,12,0:0:0:0:
296,195,394408,1,0,0:0:0:0:
296,195,394507,1,8,0:0:0:0:
296,195,394606,1,0,0:0:0:0:
296,195,394655,1,0,0:0:0:0:
296,195,394705,1,8,0:0:0:0:
296,195,394803,1,4,0:0:0:0:
310,228,395001,1,8,0:0:0:0:
310,228,395099,1,8,0:0:0:0:
310,228,395198,1,4,0:0:0:0:
311,236,395395,1,0,0:0:0:0:
311,236,395494,1,0,0:0:0:0:
311,236,395593,1,8,0:0:0:0:
296,244,395642,1,8,0:0:0:0:
311,236,395691,1,8,0:0:0:0:
296,244,395741,1,8,0:0:0:0:
311,236,395790,1,0,0:0:0:0:
311,236,395856,1,0,0:0:0:0:
279,212,395922,1,0,0:0:0:0:
277,216,395988,1,12,0:0:0:0:
315,218,396284,1,4,0:0:0:0:
307,218,396383,1,8,0:0:0:0:
307,218,396580,1,4,0:0:0:0:
307,218,396777,1,12,0:0:0:0:
209,213,396876,1,0,0:0:0:0:
209,213,396925,1,0,0:0:0:0:
209,213,396975,1,8,0:0:0:0:
209,213,397073,1,0,0:0:0:0:
209,213,397172,1,8,0:0:0:0:
209,213,397221,1,8,0:0:0:0:
209,213,397271,1,0,0:0:0:0:
209,213,397320,1,0,0:0:0:0:
209,213,397369,1,8,0:0:0:0:
209,213,397468,1,0,0:0:0:0:
209,213,397567,1,8,0:0:0:0:
209,213,397616,1,8,0:0:0:0:
209,213,397665,1,0,0:0:0:0:
209,213,397764,1,8,0:0:0:0:
209,213,397863,1,0,0:0:0:0:
209,213,397962,1,8,0:0:0:0:
209,213,398060,1,0,0:0:0:0:
209,213,398110,1,0,0:0:0:0:
209,213,398159,1,8,0:0:0:0:
209,213,398258,1,0,0:0:0:0:
209,213,398356,1,8,0:0:0:0:
209,213,398406,1,8,0:0:0:0:
209,213,398455,1,0,0:0:0:0:
209,213,398504,1,8,0:0:0:0:
209,213,398554,1,8,0:0:0:0:
209,213,398652,1,0,0:0:0:0:
209,213,398751,1,8,0:0:0:0:
209,213,398800,1,8,0:0:0:0:
209,213,398850,1,0,0:0:0:0:
209,213,398948,1,8,0:0:0:0:
209,213,399047,1,0,0:0:0:0:
209,213,399146,1,8,0:0:0:0:
227,214,399195,1,8,0:0:0:0:
209,213,399244,1,0,0:0:0:0:
209,213,399294,1,0,0:0:0:0:
209,213,399343,1,8,0:0:0:0:
209,213,399392,1,0,0:0:0:0:
209,213,399442,1,0,0:0:0:0:
209,213,399540,1,8,0:0:0:0:
209,213,399639,1,0,0:0:0:0:
209,213,399738,1,8,0:0:0:0:
209,213,399787,1,8,0:0:0:0:
209,213,399837,1,0,0:0:0:0:
209,213,399935,1,12,0:0:0:0:
209,213,400133,1,8,0:0:0:0:
209,213,400231,1,0,0:0:0:0:
209,213,400330,1,8,0:0:0:0:
209,213,400379,1,0,0:0:0:0:
202,207,400429,1,0,0:0:0:0:
201,207,400478,1,8,0:0:0:0:
201,207,400527,1,8,0:0:0:0:
201,207,400626,1,0,0:0:0:0:
201,207,400725,1,8,0:0:0:0:
201,207,400774,1,8,0:0:0:0:
201,207,400823,1,0,0:0:0:0:
201,207,400922,1,8,0:0:0:0:
201,207,401021,1,0,0:0:0:0:
201,207,401119,1,8,0:0:0:0:
202,207,401218,1,0,0:0:0:0:
201,207,401267,1,0,0:0:0:0:
201,207,401317,1,8,0:0:0:0:
201,207,401415,1,0,0:0:0:0:
201,207,401514,1,8,0:0:0:0:
201,207,401563,1,0,0:0:0:0:
201,207,401613,1,0,0:0:0:0:
201,207,401662,1,0,0:0:0:0:
201,207,401712,1,8,0:0:0:0:
201,207,401810,1,0,0:0:0:0:
201,207,401909,1,8,0:0:0:0:
202,207,401958,1,8,0:0:0:0:
202,207,402008,1,0,0:0:0:0:
206,167,402057,1,0,0:0:0:0:
201,207,402106,1,8,0:0:0:0:
212,190,402205,1,0,0:0:0:0:
212,190,402304,1,8,0:0:0:0:
227,192,402353,1,0,0:0:0:0:
251,191,402402,1,0,0:0:0:0:
251,191,402501,1,8,0:0:0:0:
251,191,402600,1,0,0:0:0:0:
251,191,402698,5,8,0:0:0:0:
251,191,402748,1,8,0:0:0:0:
251,191,402797,1,0,0:0:0:0:
240,200,402846,1,0,0:0:0:0:
251,191,402896,1,8,0:0:0:0:
251,191,402994,1,0,0:0:0:0:
251,191,403093,1,12,0:0:0:0:
257,220,403192,1,0,0:0:0:0:
256,220,403241,1,0,0:0:0:0:
256,220,403291,1,8,0:0:0:0:
256,220,403340,1,8,0:0:0:0:
256,220,403389,1,0,0:0:0:0:
256,220,403488,1,8,0:0:0:0:
256,220,403537,1,8,0:0:0:0:
256,220,403587,1,0,0:0:0:0:
241,206,403636,1,0,0:0:0:0:
256,220,403685,1,8,0:0:0:0:
256,220,403735,1,0,0:0:0:0:
256,220,403784,1,0,0:0:0:0:
256,220,403833,1,0,0:0:0:0:
256,220,403883,1,8,0:0:0:0:
257,220,403981,1,0,0:0:0:0:
256,220,404080,1,8,0:0:0:0:
256,220,404129,1,8,0:0:0:0:
256,220,404179,1,0,0:0:0:0:
256,220,404277,1,8,0:0:0:0:
256,220,404327,1,8,0:0:0:0:
256,220,404376,1,0,0:0:0:0:
256,220,404425,1,0,0:0:0:0:
256,220,404475,1,8,0:0:0:0:
256,220,404574,1,0,0:0:0:0:
256,220,404672,1,8,0:0:0:0:
257,220,404722,1,8,0:0:0:0:
257,220,404771,1,0,0:0:0:0:
256,220,404820,1,0,0:0:0:0:
256,220,404870,1,8,0:0:0:0:
256,220,404919,1,0,0:0:0:0:
256,220,404968,1,0,0:0:0:0:
256,220,405067,1,8,0:0:0:0:
256,220,405116,1,8,0:0:0:0:
256,220,405166,1,0,0:0:0:0:
267,218,405215,1,0,0:0:0:0:
254,231,405264,1,8,0:0:0:0:
252,231,405314,1,0,0:0:0:0:
252,231,405363,1,8,0:0:0:0:
252,231,405412,1,0,0:0:0:0:
252,231,405462,1,8,0:0:0:0:
252,231,405511,1,8,0:0:0:0:
252,231,405560,1,0,0:0:0:0:
252,231,405610,1,0,0:0:0:0:
252,231,405659,1,8,0:0:0:0:
252,231,405708,1,8,0:0:0:0:
252,231,405758,1,8,0:0:0:0:
252,231,405807,1,8,0:0:0:0:
252,231,405856,1,0,0:0:0:0:
256,220,405955,1,0,0:0:0:0:
254,231,406054,1,8,0:0:0:0:
252,231,406103,1,8,0:0:0:0:
252,231,406152,1,0,0:0:0:0:
252,231,406251,1,12,0:0:0:0:
288,236,406350,1,0,0:0:0:0:
273,234,406399,1,0,0:0:0:0:
273,234,406449,1,8,0:0:0:0:
273,234,406498,1,0,0:0:0:0:
273,234,406547,1,8,0:0:0:0:
257,198,406597,1,8,0:0:0:0:
257,198,406646,1,0,0:0:0:0:
285,232,406745,1,0,0:0:0:0:
285,232,406843,1,8,0:0:0:0:
285,232,406893,1,8,0:0:0:0:
285,232,406942,1,0,0:0:0:0:
282,219,407041,1,8,0:0:0:0:
282,219,407090,1,8,0:0:0:0:
282,219,407139,1,0,0:0:0:0:
282,219,407189,1,0,0:0:0:0:
282,219,407238,1,8,0:0:0:0:
282,219,407287,1,0,0:0:0:0:
282,219,407337,1,0,0:0:0:0:
285,232,407435,1,8,0:0:0:0:
285,232,407534,1,0,0:0:0:0:
285,232,407583,1,0,0:0:0:0:
272,223,407633,1,8,0:0:0:0:
272,223,407682,1,8,0:0:0:0:
272,223,407731,1,0,0:0:0:0:
241,190,407830,1,12,0:0:0:0:
308,239,408027,1,0,0:0:0:0:
308,239,408126,1,0,0:0:0:0:
308,239,408225,1,0,0:0:0:0:
308,239,408324,1,0,0:0:0:0:
308,239,408422,1,0,0:0:0:0:
308,239,408521,1,0,0:0:0:0:
277,216,408620,1,12,0:0:0:0:
315,218,408916,1,4,0:0:0:0:
307,218,409015,1,8,0:0:0:0:
307,218,409212,1,4,0:0:0:0:
307,218,409409,1,12,0:0:0:0:
209,213,409508,1,0,0:0:0:0:
209,213,409557,1,0,0:0:0:0:
209,213,409607,1,8,0:0:0:0:
209,213,409705,1,0,0:0:0:0:
209,213,409804,1,8,0:0:0:0:
209,213,409853,1,8,0:0:0:0:
209,213,409903,1,0,0:0:0:0:
209,213,410001,1,8,0:0:0:0:
209,213,410051,1,0,0:0:0:0:
209,213,410100,1,0,0:0:0:0:
191,187,410150,1,0,0:0:0:0:
209,213,410199,1,8,0:0:0:0:
209,213,410248,1,8,0:0:0:0:
209,213,410297,1,0,0:0:0:0:
209,213,410396,1,8,0:0:0:0:
209,213,410495,1,0,0:0:0:0:
209,213,410594,1,8,0:0:0:0:
209,213,410692,1,0,0:0:0:0:
209,213,410742,1,0,0:0:0:0:
209,213,410791,1,8,0:0:0:0:
209,213,410890,1,0,0:0:0:0:
209,213,410988,1,8,0:0:0:0:
209,213,411038,1,0,0:0:0:0:
209,213,411087,1,0,0:0:0:0:
209,213,411136,1,8,0:0:0:0:
209,213,411186,1,8,0:0:0:0:
209,213,411284,1,0,0:0:0:0:
209,213,411383,1,8,0:0:0:0:
209,213,411432,1,8,0:0:0:0:
209,213,411482,1,0,0:0:0:0:
209,213,411580,1,8,0:0:0:0:
209,213,411679,1,0,0:0:0:0:
209,213,411778,1,8,0:0:0:0:
227,214,411827,1,8,0:0:0:0:
209,213,411876,1,0,0:0:0:0:
209,213,411975,1,8,0:0:0:0:
209,213,412074,1,0,0:0:0:0:
209,213,412172,1,8,0:0:0:0:
209,213,412222,1,0,0:0:0:0:
209,213,412271,1,8,0:0:0:0:
207,221,412320,1,0,0:0:0:0:
209,213,412370,1,8,0:0:0:0:
209,213,412419,1,8,0:0:0:0:
209,213,412469,1,0,0:0:0:0:
209,213,412567,1,12,0:0:0:0:
209,213,412765,1,8,0:0:0:0:
209,213,412863,1,0,0:0:0:0:
209,213,412962,1,8,0:0:0:0:
209,213,413011,1,0,0:0:0:0:
202,207,413061,1,0,0:0:0:0:
201,207,413159,1,8,0:0:0:0:
201,207,413258,1,0,0:0:0:0:
201,207,413357,1,8,0:0:0:0:
201,207,413406,1,8,0:0:0:0:
201,207,413455,1,0,0:0:0:0:
216,219,413504,1,0,0:0:0:0:
201,207,413554,1,8,0:0:0:0:
201,207,413653,1,0,0:0:0:0:
201,207,413751,1,8,0:0:0:0:
202,207,413850,1,0,0:0:0:0:
201,207,413899,1,0,0:0:0:0:
201,207,413949,1,8,0:0:0:0:
201,207,414047,1,0,0:0:0:0:
201,207,414146,1,8,0:0:0:0:
201,207,414195,1,0,0:0:0:0:
201,207,414245,1,0,0:0:0:0:
201,207,414294,1,0,0:0:0:0:
201,207,414344,1,8,0:0:0:0:
201,207,414442,1,0,0:0:0:0:
201,207,414541,1,8,0:0:0:0:
202,207,414590,1,8,0:0:0:0:
202,207,414640,1,0,0:0:0:0:
206,167,414689,1,0,0:0:0:0:
201,207,414738,1,8,0:0:0:0:
212,190,414837,1,0,0:0:0:0:
212,190,414936,1,8,0:0:0:0:
256,196,414986,1,8,0:0:0:0:
251,191,415034,1,0,0:0:0:0:
251,191,415133,1,12,0:0:0:0:
251,191,415232,1,0,0:0:0:0:
251,191,415330,1,8,0:0:0:0:
251,191,415379,1,0,0:0:0:0:
251,191,415429,1,0,0:0:0:0:
251,191,415528,1,8,0:0:0:0:
251,191,415626,1,0,0:0:0:0:
251,191,415725,1,12,0:0:0:0:
251,191,415824,1,0,0:0:0:0:
251,191,415873,1,0,0:0:0:0:
251,191,415922,1,8,0:0:0:0:
311,240,416021,1,0,0:0:0:0:
311,249,416120,1,8,0:0:0:0:
311,249,416169,1,0,0:0:0:0:
311,249,416218,1,0,0:0:0:0:
325,235,416317,1,8,0:0:0:0:
325,235,416366,1,8,0:0:0:0:
325,235,416416,1,0,0:0:0:0:
316,229,416465,1,8,0:0:0:0:
316,229,416514,1,0,0:0:0:0:
327,271,416613,1,0,0:0:0:0:
316,229,416712,1,8,0:0:0:0:
316,229,416761,1,8,0:0:0:0:
316,229,416810,1,0,0:0:0:0:
316,229,416860,1,0,0:0:0:0:
316,229,416909,1,8,0:0:0:0:
163,207,417008,1,0,0:0:0:0:
185,210,417106,1,8,0:0:0:0:
289,240,417205,1,0,0:0:0:0:
294,229,417304,1,8,0:0:0:0:
294,229,417353,1,8,0:0:0:0:
294,229,417402,1,0,0:0:0:0:
245,201,417501,1,8,0:0:0:0:
245,201,417600,1,0,0:0:0:0:
293,227,417699,1,8,0:0:0:0:
293,227,417748,1,0,0:0:0:0:
293,227,417797,1,0,0:0:0:0:
293,227,417847,1,0,0:0:0:0:
293,227,417896,1,8,0:0:0:0:
293,227,417995,1,0,0:0:0:0:
294,229,418093,1,8,0:0:0:0:
294,229,418143,1,8,0:0:0:0:
294,229,418192,1,0,0:0:0:0:
293,227,418241,1,0,0:0:0:0:
293,227,418291,1,8,0:0:0:0:
293,227,418340,1,0,0:0:0:0:
293,227,418389,1,0,0:0:0:0:
297,246,418488,1,8,0:0:0:0:
297,246,418537,1,8,0:0:0:0:
297,246,418587,1,0,0:0:0:0:
297,246,418685,1,8,0:0:0:0:
297,246,418784,1,0,0:0:0:0:
278,261,418883,1,8,0:0:0:0:
287,275,418932,1,0,0:0:0:0:
287,275,418981,1,0,0:0:0:0:
273,209,419080,1,12,0:0:0:0:
276,232,419277,1,0,0:0:0:0:
276,232,419376,1,0,0:0:0:0:
276,232,419475,1,8,0:0:0:0:
276,232,419524,1,8,0:0:0:0:
276,232,419574,1,0,0:0:0:0:
264,197,419672,1,12,0:0:0:0:
289,239,419870,1,8,0:0:0:0:
289,239,419968,1,8,0:0:0:0:
289,239,420067,1,0,0:0:0:0:
289,239,420116,1,0,0:0:0:0:
289,239,420166,1,8,0:0:0:0:
281,228,420264,1,4,0:0:0:0:
308,263,420462,1,8,0:0:0:0:
308,263,420560,1,0,0:0:0:0:
258,186,420659,1,12,0:0:0:0:
309,263,420856,1,0,0:0:0:0:
309,263,420955,1,0,0:0:0:0:
308,263,421054,1,8,0:0:0:0:
308,263,421152,1,8,0:0:0:0:
258,186,421251,1,4,0:0:0:0:
258,186,421547,1,12,0:0:0:0:
318,221,421646,1,0,0:0:0:0:
258,186,421843,1,12,0:0:0:0:
258,186,422041,1,4,0:0:0:0:
251,178,434041,5,12,0:0:0:0:
302,239,435241,1,8,0:0:0:0:
302,239,435541,1,0,0:0:0:0:
302,239,435991,1,0,0:0:0:0:
302,239,436441,1,0,0:0:0:0:
266,233,436741,1,0,0:0:0:0:
274,235,437041,1,12,0:0:0:0:
299,210,437941,1,0,0:0:0:0:
299,210,438241,1,8,0:0:0:0:
299,210,438541,1,4,0:0:0:0:
272,233,438841,1,8,0:0:0:0:
272,233,438991,1,0,0:0:0:0:
272,233,439291,1,0,0:0:0:0:
272,233,439441,1,0,0:0:0:0:
272,233,439741,1,0,0:0:0:0:
272,233,440041,1,12,0:0:0:0:
274,204,441091,1,0,0:0:0:0:
274,204,441241,1,12,0:0:0:0:
219,212,441541,1,0,0:0:0:0:
274,249,441841,1,8,0:0:0:0:
274,249,441916,1,8,0:0:0:0:
274,249,441991,1,0,0:0:0:0:
274,249,442066,1,0,0:0:0:0:
308,242,442141,1,8,0:0:0:0:
308,242,442216,1,0,0:0:0:0:
308,242,442291,1,0,0:0:0:0:
308,242,442366,1,0,0:0:0:0:
317,257,442441,1,8,0:0:0:0:
317,257,442516,1,8,0:0:0:0:
349,248,442591,1,0,0:0:0:0:
348,247,442666,1,0,0:0:0:0:
348,247,442741,1,0,0:0:0:0:
348,247,442816,1,0,0:0:0:0:
348,247,442891,1,0,0:0:0:0:
348,247,442966,1,0,0:0:0:0:
284,222,443041,1,12,0:0:0:0:
329,255,444541,1,0,0:0:0:0:
329,255,445066,1,0,0:0:0:0:
348,271,445516,1,0,0:0:0:0:
337,265,445816,1,0,0:0:0:0:
329,255,446041,1,8,0:0:0:0:
255,199,446341,1,0,0:0:0:0:
255,199,446791,1,8,0:0:0:0:
265,207,447241,1,0,0:0:0:0:
223,189,447691,1,0,0:0:0:0:
237,196,448141,5,8,0:0:0:0:
330,198,448441,5,0,0:0:0:0:
330,198,448741,1,8,0:0:0:0:
330,198,448941,1,0,0:0:0:0:
376,206,449141,1,8,0:0:0:0:
376,206,449341,1,0,0:0:0:0:
376,206,449541,1,8,0:0:0:0:
376,206,449741,1,0,0:0:0:0:
376,206,449941,1,8,0:0:0:0:
376,206,450141,1,0,0:0:0:0:
376,206,450341,1,0,0:0:0:0:
247,178,450521,1,12,0:0:0:0:
301,179,450660,1,0,0:0:0:0:
301,179,450729,1,0,0:0:0:0:
301,179,450799,1,8,0:0:0:0:
301,179,450939,1,0,0:0:0:0:
301,179,451078,1,8,0:0:0:0:
301,179,451148,1,0,0:0:0:0:
301,179,451218,1,0,0:0:0:0:
301,179,451357,1,8,0:0:0:0:
301,179,451497,1,0,0:0:0:0:
301,179,451636,1,8,0:0:0:0:
301,179,451706,1,8,0:0:0:0:
301,179,451776,1,0,0:0:0:0:
301,179,451846,1,0,0:0:0:0:
301,179,451915,1,12,0:0:0:0:
273,180,452055,1,0,0:0:0:0:
273,180,452125,1,0,0:0:0:0:
273,180,452195,1,8,0:0:0:0:
273,180,452334,1,0,0:0:0:0:
273,180,452404,1,0,0:0:0:0:
273,180,452474,1,8,0:0:0:0:
273,180,452544,1,0,0:0:0:0:
273,180,452614,1,0,0:0:0:0:
283,205,452753,1,8,0:0:0:0:
283,205,452893,1,0,0:0:0:0:
283,205,453032,1,0,0:0:0:0:
283,205,453102,1,0,0:0:0:0:
283,205,453172,1,0,0:0:0:0:
283,205,453241,1,0,0:0:0:0:
283,205,453311,1,12,0:0:0:0:
291,222,453451,1,0,0:0:0:0:
291,222,453521,1,0,0:0:0:0:
291,222,453590,1,8,0:0:0:0:
291,222,453730,1,0,0:0:0:0:
291,222,453869,1,8,0:0:0:0:
291,222,453939,1,8,0:0:0:0:
291,222,454009,1,0,0:0:0:0:
291,222,454148,1,8,0:0:0:0:
291,222,454288,1,0,0:0:0:0:
291,222,454427,1,8,0:0:0:0:
291,222,454497,1,0,0:0:0:0:
291,222,454567,1,0,0:0:0:0:
291,222,454637,1,0,0:0:0:0:
291,222,454707,1,12,0:0:0:0:
291,222,454846,1,0,0:0:0:0:
291,222,454916,1,0,0:0:0:0:
291,222,454986,1,8,0:0:0:0:
291,222,455125,1,0,0:0:0:0:
291,222,455195,1,0,0:0:0:0:
291,222,455265,1,8,0:0:0:0:
291,222,455334,1,8,0:0:0:0:
291,222,455404,1,0,0:0:0:0:
257,200,455544,1,8,0:0:0:0:
257,200,455614,1,0,0:0:0:0:
257,200,455683,1,0,0:0:0:0:
208,218,455753,1,0,0:0:0:0:
221,218,455823,1,8,0:0:0:0:
221,218,455893,1,8,0:0:0:0:
221,218,455962,1,0,0:0:0:0:
221,218,456032,1,0,0:0:0:0:
221,218,456102,1,12,0:0:0:0:
253,226,456241,1,0,0:0:0:0:
253,226,456311,1,0,0:0:0:0:
253,226,456381,1,8,0:0:0:0:
253,226,456521,1,8,0:0:0:0:
253,226,456590,1,8,0:0:0:0:
253,226,456660,1,0,0:0:0:0:
253,226,456730,1,0,0:0:0:0:
253,226,456800,1,8,0:0:0:0:
253,226,456939,1,8,0:0:0:0:
253,226,457079,1,0,0:0:0:0:
240,231,457218,1,0,0:0:0:0:
240,231,457288,1,0,0:0:0:0:
240,231,457358,1,0,0:0:0:0:
240,231,457427,1,0,0:0:0:0:
240,231,457497,1,12,0:0:0:0:
317,271,457637,1,0,0:0:0:0:
317,271,457707,1,0,0:0:0:0:
317,271,457776,1,8,0:0:0:0:
306,256,457916,1,0,0:0:0:0:
306,256,458055,1,8,0:0:0:0:
306,256,458125,1,8,0:0:0:0:
305,254,458195,1,0,0:0:0:0:
305,254,458265,1,0,0:0:0:0:
292,234,458334,1,8,0:0:0:0:
292,234,458404,1,0,0:0:0:0:
292,234,458474,1,0,0:0:0:0:
292,234,458614,1,8,0:0:0:0:
292,234,458683,1,8,0:0:0:0:
292,234,458753,1,0,0:0:0:0:
292,234,458823,1,0,0:0:0:0:
292,234,458893,1,12,0:0:0:0:
277,244,459032,1,0,0:0:0:0:
277,244,459102,1,0,0:0:0:0:
277,244,459172,1,8,0:0:0:0:
277,244,459241,1,0,0:0:0:0:
277,244,459311,1,0,0:0:0:0:
277,244,459451,1,8,0:0:0:0:
277,244,459521,1,8,0:0:0:0:
277,244,459590,1,0,0:0:0:0:
294,246,459730,1,8,0:0:0:0:
294,246,459869,1,0,0:0:0:0:
294,246,460009,1,0,0:0:0:0:
294,246,460079,1,8,0:0:0:0:
294,246,460148,1,0,0:0:0:0:
294,246,460218,1,0,0:0:0:0:
294,246,460288,1,12,0:0:0:0:
314,257,460427,1,0,0:0:0:0:
314,257,460497,1,0,0:0:0:0:
314,257,460567,1,8,0:0:0:0:
314,257,460707,1,0,0:0:0:0:
314,257,460846,1,8,0:0:0:0:
314,257,460916,1,0,0:0:0:0:
314,258,460986,1,8,0:0:0:0:
314,258,461125,1,8,0:0:0:0:
314,258,461195,1,0,0:0:0:0:
314,258,461265,1,0,0:0:0:0:
308,246,461404,1,8,0:0:0:0:
234,192,461451,1,8,0:0:0:0:
314,257,461497,1,8,0:0:0:0:
314,257,461544,1,0,0:0:0:0:
314,257,461614,1,0,0:0:0:0:
314,257,461683,1,12,0:0:0:0:
215,185,461823,1,0,0:0:0:0:
212,185,461893,1,0,0:0:0:0:
212,185,461962,1,8,0:0:0:0:
212,185,462102,1,0,0:0:0:0:
212,185,462241,1,8,0:0:0:0:
212,185,462311,1,0,0:0:0:0:
212,185,462381,1,0,0:0:0:0:
215,185,462521,1,8,0:0:0:0:
215,185,462660,1,0,0:0:0:0:
212,185,462800,1,8,0:0:0:0:
212,185,462869,1,8,0:0:0:0:
212,185,462939,1,0,0:0:0:0:
212,185,463009,1,0,0:0:0:0:
212,185,463079,1,12,0:0:0:0:
286,200,463218,1,0,0:0:0:0:
286,200,463288,1,0,0:0:0:0:
286,200,463358,1,8,0:0:0:0:
286,200,463497,1,0,0:0:0:0:
286,200,463567,1,0,0:0:0:0:
286,200,463637,1,8,0:0:0:0:
286,200,463707,1,8,0:0:0:0:
286,200,463776,1,0,0:0:0:0:
286,200,463916,1,8,0:0:0:0:
286,200,464055,1,0,0:0:0:0:
286,200,464195,1,0,0:0:0:0:
286,200,464265,1,0,0:0:0:0:
286,200,464334,1,0,0:0:0:0:
286,200,464404,1,0,0:0:0:0:
286,200,464474,1,12,0:0:0:0:
296,231,464614,1,0,0:0:0:0:
296,231,464683,1,0,0:0:0:0:
296,231,464753,1,8,0:0:0:0:
296,231,464823,1,8,0:0:0:0:
296,231,464893,1,0,0:0:0:0:
296,231,465032,1,8,0:0:0:0:
296,231,465102,1,0,0:0:0:0:
296,231,465172,1,8,0:0:0:0:
299,234,465311,1,8,0:0:0:0:
296,231,465451,1,0,0:0:0:0:
296,231,465590,1,8,0:0:0:0:
296,231,465660,1,0,0:0:0:0:
296,231,465730,1,0,0:0:0:0:
296,231,465800,1,0,0:0:0:0:
296,231,465869,1,12,0:0:0:0:
306,233,466009,1,0,0:0:0:0:
306,233,466079,1,0,0:0:0:0:
299,234,466148,1,8,0:0:0:0:
306,233,466288,1,0,0:0:0:0:
306,233,466358,1,8,0:0:0:0:
306,233,466427,1,8,0:0:0:0:
306,233,466497,1,0,0:0:0:0:
306,233,466567,1,0,0:0:0:0:
305,225,466707,1,8,0:0:0:0:
305,225,466776,1,0,0:0:0:0:
305,225,466846,1,8,0:0:0:0:
305,225,466916,1,0,0:0:0:0:
305,225,466986,1,8,0:0:0:0:
329,220,467055,1,8,0:0:0:0:
329,220,467125,1,0,0:0:0:0:
329,220,467195,1,0,0:0:0:0:
329,220,467265,1,12,0:0:0:0:
277,212,467404,1,0,0:0:0:0:
277,212,467474,1,0,0:0:0:0:
276,212,467544,1,8,0:0:0:0:
276,212,467683,1,0,0:0:0:0:
276,212,467753,1,8,0:0:0:0:
276,212,467823,1,8,0:0:0:0:
276,212,467893,1,8,0:0:0:0:
277,212,467962,1,0,0:0:0:0:
277,212,468102,1,8,0:0:0:0:
277,212,468172,1,8,0:0:0:0:
277,212,468241,1,0,0:0:0:0:
277,212,468311,1,0,0:0:0:0:
277,212,468381,1,8,0:0:0:0:
276,212,468451,1,0,0:0:0:0:
276,212,468521,1,0,0:0:0:0:
276,212,468590,1,0,0:0:0:0:
263,186,468660,1,12,0:0:0:0:
263,186,468939,1,4,0:0:0:0:
263,186,469218,1,12,0:0:0:0:
263,186,469497,1,0,0:0:0:0:
247,195,469567,1,0,0:0:0:0:
247,195,469637,1,0,0:0:0:0:
247,195,469707,1,0,0:0:0:0:
263,186,469776,1,12,0:0:0:0:
184,183,469915,1,0,0:0:0:0:
238,196,469985,1,0,0:0:0:0:
238,196,470055,1,8,0:0:0:0:
238,196,470194,1,0,0:0:0:0:
238,196,470334,1,8,0:0:0:0:
238,196,470403,1,8,0:0:0:0:
238,196,470473,1,0,0:0:0:0:
238,196,470543,1,0,0:0:0:0:
238,196,470613,1,8,0:0:0:0:
264,225,470682,1,0,0:0:0:0:
238,196,470752,1,0,0:0:0:0:
264,225,470822,1,0,0:0:0:0:
264,225,470892,1,8,0:0:0:0:
253,217,471031,1,0,0:0:0:0:
253,217,471101,1,0,0:0:0:0:
253,217,471171,1,8,0:0:0:0:
267,226,471310,1,0,0:0:0:0:
272,224,471450,1,8,0:0:0:0:
272,224,471520,1,8,0:0:0:0:
272,224,471589,1,8,0:0:0:0:
272,224,471659,1,0,0:0:0:0:
272,224,471729,1,8,0:0:0:0:
272,224,471799,1,0,0:0:0:0:
272,224,471869,1,0,0:0:0:0:
272,224,471938,1,0,0:0:0:0:
272,224,472008,1,8,0:0:0:0:
272,240,472148,1,0,0:0:0:0:
272,240,472287,1,8,0:0:0:0:
272,240,472357,1,0,0:0:0:0:
272,240,472427,1,0,0:0:0:0:
272,240,472566,1,8,0:0:0:0:
272,240,472636,1,8,0:0:0:0:
272,240,472706,1,0,0:0:0:0:
272,240,472845,1,8,0:0:0:0:
272,240,472985,1,0,0:0:0:0:
272,240,473124,1,8,0:0:0:0:
272,240,473194,1,0,0:0:0:0:
272,240,473264,1,8,0:0:0:0:
272,240,473334,1,8,0:0:0:0:
272,240,473403,1,0,0:0:0:0:
272,240,473473,1,0,0:0:0:0:
272,240,473543,1,8,0:0:0:0:
272,240,473613,1,0,0:0:0:0:
272,240,473682,1,8,0:0:0:0:
272,240,473752,1,0,0:0:0:0:
272,240,473822,1,8,0:0:0:0:
272,208,473892,1,8,0:0:0:0:
272,208,473962,1,0,0:0:0:0:
256,224,474031,1,0,0:0:0:0:
256,224,474101,1,8,0:0:0:0:
256,224,474241,1,12,0:0:0:0:
272,224,474380,1,0,0:0:0:0:
272,224,474520,1,8,0:0:0:0:
256,240,474589,1,0,0:0:0:0:
256,240,474659,1,0,0:0:0:0:
272,240,474799,1,8,0:0:0:0:
272,240,474869,1,8,0:0:0:0:
272,240,474938,1,0,0:0:0:0:
272,240,475078,1,8,0:0:0:0:
272,240,475148,1,8,0:0:0:0:
272,240,475217,1,0,0:0:0:0:
272,240,475287,1,0,0:0:0:0:
272,240,475357,1,8,0:0:0:0:
272,240,475427,1,0,0:0:0:0:
272,240,475496,1,0,0:0:0:0:
272,240,475566,1,0,0:0:0:0:
272,240,475636,1,8,0:0:0:0:
288,240,475776,1,0,0:0:0:0:
288,240,475845,1,8,0:0:0:0:
288,240,475915,1,8,0:0:0:0:
288,240,475985,1,0,0:0:0:0:
288,240,476055,1,0,0:0:0:0:
288,240,476194,1,8,0:0:0:0:
288,240,476264,1,0,0:0:0:0:
288,240,476334,1,0,0:0:0:0:
336,256,476403,1,0,0:0:0:0:
336,256,476473,1,8,0:0:0:0:
304,240,476613,1,0,0:0:0:0:
304,240,476752,1,8,0:0:0:0:
304,240,476822,1,0,0:0:0:0:
304,240,476892,1,0,0:0:0:0:
256,192,477031,1,8,0:0:0:0:
256,192,477101,1,8,0:0:0:0:
224,192,477171,1,0,0:0:0:0:
224,192,477241,1,0,0:0:0:0:
240,192,477310,1,8,0:0:0:0:
272,208,477450,1,0,0:0:0:0:
272,208,477589,1,8,0:0:0:0:
272,208,477659,1,0,0:0:0:0:
272,208,477729,1,0,0:0:0:0:
272,208,477869,1,8,0:0:0:0:
272,208,478008,1,0,0:0:0:0:
256,176,478148,1,8,0:0:0:0:
256,176,478217,1,0,0:0:0:0:
256,176,478287,1,0,0:0:0:0:
256,176,478357,1,8,0:0:0:0:
256,176,478427,1,8,0:0:0:0:
272,208,478496,1,8,0:0:0:0:
256,176,478566,1,0,0:0:0:0:
272,208,478706,1,12,0:0:0:0:
256,192,492706,12,8,493370,0:0:0:0:
256,208,493514,5,0,0:0:0:0:
272,224,493583,1,0,0:0:0:0:
256,208,493653,1,12,0:0:0:0:
304,224,493792,1,8,0:0:0:0:
304,240,493862,1,0,0:0:0:0:
304,256,493932,1,0,0:0:0:0:
304,240,494071,1,8,0:0:0:0:
304,240,494211,1,0,0:0:0:0:
304,240,494280,1,0,0:0:0:0:
304,240,494350,1,8,0:0:0:0:
304,240,494420,1,8,0:0:0:0:
304,240,494490,1,0,0:0:0:0:
336,272,494629,1,0,0:0:0:0:
336,272,494769,1,8,0:0:0:0:
336,272,494839,1,0,0:0:0:0:
336,272,494908,1,0,0:0:0:0:
336,272,494978,1,0,0:0:0:0:
336,272,495048,1,8,0:0:0:0:
336,272,495118,1,8,0:0:0:0:
336,272,495187,1,8,0:0:0:0:
336,272,495257,1,8,0:0:0:0:
336,272,495327,1,0,0:0:0:0:
352,272,495466,1,0,0:0:0:0:
352,272,495606,1,8,0:0:0:0:
352,272,495676,1,8,0:0:0:0:
352,272,495746,1,0,0:0:0:0:
256,192,495885,1,8,0:0:0:0:
256,192,495955,1,8,0:0:0:0:
256,192,496025,1,8,0:0:0:0:
256,192,496094,1,8,0:0:0:0:
256,192,496164,1,0,0:0:0:0:
256,192,496234,1,0,0:0:0:0:
256,192,496304,1,0,0:0:0:0:
256,192,496443,1,8,0:0:0:0:
272,192,496513,1,0,0:0:0:0:
272,192,496583,1,0,0:0:0:0:
272,192,496722,1,8,0:0:0:0:
272,192,496792,1,8,0:0:0:0:
272,192,496862,1,0,0:0:0:0:
272,192,496932,1,0,0:0:0:0:
272,192,497001,1,8,0:0:0:0:
288,224,497141,1,0,0:0:0:0:
288,224,497280,1,8,0:0:0:0:
288,224,497350,1,0,0:0:0:0:
288,224,497420,1,0,0:0:0:0:
288,224,497559,1,8,0:0:0:0:
288,224,497629,1,8,0:0:0:0:
288,224,497699,1,0,0:0:0:0:
288,224,497839,1,8,0:0:0:0:
288,224,497908,1,0,0:0:0:0:
288,224,497978,1,8,0:0:0:0:
288,224,498048,1,8,0:0:0:0:
288,224,498118,1,0,0:0:0:0:
288,236,498257,1,0,0:0:0:0:
288,236,498397,1,8,0:0:0:0:
288,236,498466,1,0,0:0:0:0:
288,236,498536,1,0,0:0:0:0:
320,240,498676,1,8,0:0:0:0:
320,240,498746,1,8,0:0:0:0:
320,240,498815,1,0,0:0:0:0:
320,240,498885,1,0,0:0:0:0:
320,240,498955,1,8,0:0:0:0:
320,240,499025,1,0,0:0:0:0:
320,240,499094,1,0,0:0:0:0:
320,240,499164,1,0,0:0:0:0:
320,240,499234,1,12,0:0:0:0:
323,246,499373,1,0,0:0:0:0:
323,246,499443,1,0,0:0:0:0:
320,240,499513,1,8,0:0:0:0:
320,240,499583,1,8,0:0:0:0:
320,240,499653,1,0,0:0:0:0:
320,240,499722,1,0,0:0:0:0:
320,240,499792,1,8,0:0:0:0:
320,240,499862,1,0,0:0:0:0:
320,240,499932,1,0,0:0:0:0:
320,240,500001,1,0,0:0:0:0:
320,240,500071,1,8,0:0:0:0:
320,240,500141,1,8,0:0:0:0:
323,246,500211,1,8,0:0:0:0:
323,246,500280,1,0,0:0:0:0:
323,246,500350,1,8,0:0:0:0:
320,240,500420,1,8,0:0:0:0:
320,240,500490,1,0,0:0:0:0:
320,240,500559,1,0,0:0:0:0:
320,240,500629,1,8,0:0:0:0:
320,240,500769,1,0,0:0:0:0:
320,240,500839,1,0,0:0:0:0:
320,240,500908,1,8,0:0:0:0:
320,240,500978,1,0,0:0:0:0:
320,240,501048,1,8,0:0:0:0:
323,246,501118,1,0,0:0:0:0:
323,246,501187,1,8,0:0:0:0:
323,246,501257,1,8,0:0:0:0:
320,240,501327,1,0,0:0:0:0:
320,240,501466,1,8,0:0:0:0:
320,224,501536,1,0,0:0:0:0:
320,224,501606,1,8,0:0:0:0:
320,224,501676,1,0,0:0:0:0:
320,224,501746,1,8,0:0:0:0:
320,224,501815,1,8,0:0:0:0:
320,224,501885,1,8,0:0:0:0:
320,224,501955,1,8,0:0:0:0:
304,224,502025,1,0,0:0:0:0:
304,224,502164,1,8,0:0:0:0:
304,224,502234,1,8,0:0:0:0:
304,224,502304,1,0,0:0:0:0:
304,224,502443,1,8,0:0:0:0:
304,224,502513,1,8,0:0:0:0:
304,224,502583,1,0,0:0:0:0:
304,224,502653,1,0,0:0:0:0:
304,224,502722,1,8,0:0:0:0:
304,224,502862,1,8,0:0:0:0:
256,224,502932,1,0,0:0:0:0:
304,224,503001,1,0,0:0:0:0:
304,224,503141,1,8,0:0:0:0:
304,224,503211,1,8,0:0:0:0:
304,224,503280,1,0,0:0:0:0:
304,224,503350,1,0,0:0:0:0:
304,224,503420,1,8,0:0:0:0:
304,224,503490,1,0,0:0:0:0:
304,224,503559,1,0,0:0:0:0:
304,240,503699,1,8,0:0:0:0:
304,240,503769,1,8,0:0:0:0:
304,240,503839,1,0,0:0:0:0:
304,240,503908,1,0,0:0:0:0:
304,240,503978,1,8,0:0:0:0:
304,240,504048,1,0,0:0:0:0:
304,240,504118,1,0,0:0:0:0:
304,240,504257,1,8,0:0:0:0:
304,240,504327,1,0,0:0:0:0:
304,240,504397,1,8,0:0:0:0:
304,240,504466,1,0,0:0:0:0:
304,240,504536,1,8,0:0:0:0:
304,240,504676,1,0,0:0:0:0:
272,208,504815,1,8,0:0:0:0:
272,208,504885,1,8,0:0:0:0:
272,208,504955,1,8,0:0:0:0:
272,208,505025,1,8,0:0:0:0:
272,208,505094,1,4,0:0:0:0:
304,208,505234,1,8,0:0:0:0:
272,208,505373,1,8,0:0:0:0:
288,208,505443,1,0,0:0:0:0:
288,208,505513,1,0,0:0:0:0:
288,208,505583,1,0,0:0:0:0:
288,208,505653,1,8,0:0:0:0:
288,208,505722,1,8,0:0:0:0:
288,208,505792,1,8,0:0:0:0:
288,208,505862,1,8,0:0:0:0:
288,208,505932,1,0,0:0:0:0:
288,208,506071,1,0,0:0:0:0:
288,208,506211,1,8,0:0:0:0:
288,208,506280,1,0,0:0:0:0:
288,208,506350,1,0,0:0:0:0:
288,208,506490,1,8,0:0:0:0:
288,208,506629,1,0,0:0:0:0:
288,208,506699,1,0,0:0:0:0:
288,208,506769,1,8,0:0:0:0:
288,208,506839,1,0,0:0:0:0:
288,208,506908,1,8,0:0:0:0:
288,208,506978,1,8,0:0:0:0:
288,208,507048,1,0,0:0:0:0:
304,224,507187,1,8,0:0:0:0:
304,224,507327,1,0,0:0:0:0:
304,224,507466,1,8,0:0:0:0:
304,224,507606,1,0,0:0:0:0:
304,224,507676,1,0,0:0:0:0:
304,224,507746,1,0,0:0:0:0:
304,224,507815,1,0,0:0:0:0:
304,224,507885,1,8,0:0:0:0:
304,224,507955,1,0,0:0:0:0:
304,224,508025,1,8,0:0:0:0:
304,224,508094,1,8,0:0:0:0:
304,224,508164,1,0,0:0:0:0:
304,224,508304,1,8,0:0:0:0:
304,224,508443,1,8,0:0:0:0:
304,224,508513,1,0,0:0:0:0:
304,224,508583,1,8,0:0:0:0:
304,224,508653,1,8,0:0:0:0:
304,224,508722,1,0,0:0:0:0:
304,224,508862,1,8,0:0:0:0:
304,224,508932,1,0,0:0:0:0:
304,224,509001,1,8,0:0:0:0:
304,224,509071,1,8,0:0:0:0:
304,304,509141,1,8,0:0:0:0:
304,288,509211,1,8,0:0:0:0:
304,288,509280,1,0,0:0:0:0:
304,240,509420,1,0,0:0:0:0:
304,240,509559,1,12,0:0:0:0:
288,224,509699,1,0,0:0:0:0:
288,224,509769,1,0,0:0:0:0:
288,224,509839,1,8,0:0:0:0:
288,224,509908,1,8,0:0:0:0:
288,224,509978,1,0,0:0:0:0:
288,224,510048,1,0,0:0:0:0:
288,224,510118,1,8,0:0:0:0:
288,224,510187,1,0,0:0:0:0:
288,224,510257,1,0,0:0:0:0:
288,224,510327,1,0,0:0:0:0:
288,224,510397,1,8,0:0:0:0:
240,224,510536,1,0,0:0:0:0:
256,224,510675,1,8,0:0:0:0:
256,224,510745,1,8,0:0:0:0:
256,224,510814,1,8,0:0:0:0:
256,224,510884,1,8,0:0:0:0:
256,224,510954,1,0,0:0:0:0:
256,224,511094,1,0,0:0:0:0:
272,240,511164,1,0,0:0:0:0:
256,224,511234,1,8,0:0:0:0:
256,224,511373,1,0,0:0:0:0:
288,208,511513,5,8,0:0:0:0:
288,208,511582,1,8,0:0:0:0:
288,208,511652,1,0,0:0:0:0:
288,208,511722,1,0,0:0:0:0:
288,208,511792,1,8,0:0:0:0:
264,211,511861,1,0,0:0:0:0:
288,208,511931,1,0,0:0:0:0:
288,208,512071,1,8,0:0:0:0:
288,208,512140,1,8,0:0:0:0:
288,208,512210,1,0,0:0:0:0:
272,192,512350,5,12,0:0:0:0:
288,208,512489,1,0,0:0:0:0:
288,208,512629,1,8,0:0:0:0:
288,208,512698,1,8,0:0:0:0:
288,208,512768,1,0,0:0:0:0:
272,224,512838,1,0,0:0:0:0:
288,208,512908,1,8,0:0:0:0:
288,208,513047,1,0,0:0:0:0:
288,208,513187,1,8,0:0:0:0:
288,208,513256,1,8,0:0:0:0:
288,208,513326,1,0,0:0:0:0:
288,208,513466,1,8,0:0:0:0:
288,208,513605,1,0,0:0:0:0:
272,224,513675,1,0,0:0:0:0:
288,208,513745,1,8,0:0:0:0:
288,208,513815,1,8,0:0:0:0:
288,208,513884,1,0,0:0:0:0:
256,192,514025,5,12,0:0:0:0:
301,179,514164,5,0,0:0:0:0:
301,179,514233,1,0,0:0:0:0:
301,179,514303,1,8,0:0:0:0:
301,179,514443,1,0,0:0:0:0:
301,179,514582,1,8,0:0:0:0:
301,179,514652,1,0,0:0:0:0:
301,179,514722,1,0,0:0:0:0:
301,179,514861,1,8,0:0:0:0:
301,179,515001,1,0,0:0:0:0:
301,179,515140,1,8,0:0:0:0:
301,179,515210,1,8,0:0:0:0:
301,179,515280,1,0,0:0:0:0:
301,179,515350,1,0,0:0:0:0:
301,179,515419,1,12,0:0:0:0:
273,180,515559,1,0,0:0:0:0:
273,180,515629,1,0,0:0:0:0:
273,180,515699,1,8,0:0:0:0:
273,180,515838,1,0,0:0:0:0:
273,180,515908,1,0,0:0:0:0:
273,180,515978,1,8,0:0:0:0:
273,180,516048,1,0,0:0:0:0:
273,180,516118,1,0,0:0:0:0:
283,205,516257,1,8,0:0:0:0:
283,205,516397,1,0,0:0:0:0:
283,205,516536,1,0,0:0:0:0:
283,205,516606,1,0,0:0:0:0:
283,205,516676,1,0,0:0:0:0:
283,205,516745,1,0,0:0:0:0:
283,205,516815,1,12,0:0:0:0:
291,222,516955,1,0,0:0:0:0:
291,222,517025,1,0,0:0:0:0:
291,222,517094,1,8,0:0:0:0:
291,222,517234,1,0,0:0:0:0:
291,222,517373,1,8,0:0:0:0:
291,222,517443,1,8,0:0:0:0:
291,222,517513,1,0,0:0:0:0:
291,222,517652,1,8,0:0:0:0:
291,222,517792,1,0,0:0:0:0:
291,222,517931,1,8,0:0:0:0:
291,222,518001,1,0,0:0:0:0:
291,222,518071,1,0,0:0:0:0:
291,222,518141,1,0,0:0:0:0:
291,222,518211,1,12,0:0:0:0:
291,222,518350,1,8,0:0:0:0:
291,222,518420,1,0,0:0:0:0:
291,222,518490,1,0,0:0:0:0:
291,222,518629,1,8,0:0:0:0:
291,222,518699,1,0,0:0:0:0:
291,222,518769,1,8,0:0:0:0:
291,222,518838,1,8,0:0:0:0:
291,222,518908,1,0,0:0:0:0:
257,200,519048,1,8,0:0:0:0:
257,200,519118,1,8,0:0:0:0:
257,200,519187,1,0,0:0:0:0:
208,218,519257,1,0,0:0:0:0:
221,218,519327,1,8,0:0:0:0:
221,218,519466,1,8,0:0:0:0:
221,218,519536,1,8,0:0:0:0:
221,218,519606,1,0,0:0:0:0:
253,226,519745,1,0,0:0:0:0:
253,226,519815,1,0,0:0:0:0:
253,226,519885,1,12,0:0:0:0:
253,226,520025,1,0,0:0:0:0:
253,226,520164,1,8,0:0:0:0:
272,224,520234,1,0,0:0:0:0:
253,226,520304,1,8,0:0:0:0:
272,208,520373,1,8,0:0:0:0:
253,226,520443,1,0,0:0:0:0:
253,226,520583,1,8,0:0:0:0:
256,208,520722,1,4,0:0:0:0:
256,224,521028,1,4,0:0:0:0:
256,224,521334,1,12,0:0:0:0:
256,224,521487,1,0,0:0:0:0:
256,224,521640,1,12,0:0:0:0:
231,221,521940,1,8,0:0:0:0:
317,270,522240,1,0,0:0:0:0:
317,270,522390,1,0,0:0:0:0:
317,270,522540,1,8,0:0:0:0:
301,263,522690,1,4,0:0:0:0:
297,282,522990,1,0,0:0:0:0:
307,276,523140,1,8,0:0:0:0:
296,276,523440,1,0,0:0:0:0:
296,276,523590,1,0,0:0:0:0:
297,282,523740,1,8,0:0:0:0:
296,276,524040,1,4,0:0:0:0:
258,219,524340,1,8,0:0:0:0:
258,219,524640,1,0,0:0:0:0:
258,219,524740,1,0,0:0:0:0:
258,219,524840,1,0,0:0:0:0:
258,219,524940,1,8,0:0:0:0:
248,213,525090,1,0,0:0:0:0:
247,213,525390,1,0,0:0:0:0:
293,251,525540,1,8,0:0:0:0:
299,230,525840,1,0,0:0:0:0:
299,230,525990,1,0,0:0:0:0:
299,230,526140,1,12,0:0:0:0:
299,230,526440,1,4,0:0:0:0:
300,247,526740,1,8,0:0:0:0:
291,220,527040,1,0,0:0:0:0:
291,220,527190,1,0,0:0:0:0:
291,220,527340,1,8,0:0:0:0:
291,220,527490,1,8,0:0:0:0:
291,220,527790,1,0,0:0:0:0:
291,220,527940,1,8,0:0:0:0:
291,220,528240,1,0,0:0:0:0:
291,220,528390,1,0,0:0:0:0:
291,220,528540,1,8,0:0:0:0:
295,232,528840,1,4,0:0:0:0:
300,231,529140,1,8,0:0:0:0:
308,235,529440,1,0,0:0:0:0:
308,235,529590,1,0,0:0:0:0:
308,235,529740,1,8,0:0:0:0:
308,235,529890,1,0,0:0:0:0:
308,235,530190,1,0,0:0:0:0:
308,235,530340,1,8,0:0:0:0:
308,235,530640,1,12,0:0:0:0:
308,235,530790,1,0,0:0:0:0:
308,235,530940,1,8,0:0:0:0:
306,207,531015,1,0,0:0:0:0:
308,235,531090,1,8,0:0:0:0:
313,209,531165,1,8,0:0:0:0:
308,235,531240,1,4,0:0:0:0:
290,238,531540,1,8,0:0:0:0:
291,237,531840,1,8,0:0:0:0:
291,237,531990,1,8,0:0:0:0:
291,237,532140,1,8,0:0:0:0:
290,238,532290,1,4,0:0:0:0:
209,214,532590,1,0,0:0:0:0:
230,218,532740,1,8,0:0:0:0:
274,240,533040,1,0,0:0:0:0:
274,240,533190,1,0,0:0:0:0:
274,240,533340,1,8,0:0:0:0:
274,240,533640,1,4,0:0:0:0:
288,249,533940,1,8,0:0:0:0:
288,247,534240,1,0,0:0:0:0:
300,243,534390,1,8,0:0:0:0:
300,243,534540,1,8,0:0:0:0:
299,240,534690,1,0,0:0:0:0:
302,242,534990,1,0,0:0:0:0:
288,247,535065,1,0,0:0:0:0:
300,243,535140,1,8,0:0:0:0:
313,274,535290,1,0,0:0:0:0:
312,252,535590,1,0,0:0:0:0:
312,253,535740,1,8,0:0:0:0:
313,250,536040,1,4,0:0:0:0:
288,249,536340,1,8,0:0:0:0:
431,152,536415,1,8,0:0:0:0:
312,252,536490,1,0,0:0:0:0:
312,252,536565,1,0,0:0:0:0:
288,249,536640,1,8,0:0:0:0:
307,263,536790,1,0,0:0:0:0:
265,191,536940,1,8,0:0:0:0:
305,258,537090,1,0,0:0:0:0:
301,225,537390,1,0,0:0:0:0:
305,235,537540,1,8,0:0:0:0:
301,235,537840,1,0,0:0:0:0:
42,83,537990,1,0,0:0:0:0:
301,235,538140,1,8,0:0:0:0:
298,248,538440,1,4,0:0:0:0:
291,260,538740,1,8,0:0:0:0:
305,268,539040,1,0,0:0:0:0:
305,268,539190,1,0,0:0:0:0:
305,268,539340,1,8,0:0:0:0:
305,268,539490,1,0,0:0:0:0:
296,217,539790,1,0,0:0:0:0:
296,217,539940,1,8,0:0:0:0:
296,217,540240,1,0,0:0:0:0:
296,217,540390,1,0,0:0:0:0:
296,217,540540,1,8,0:0:0:0:
300,241,540840,1,12,0:0:0:0:
286,197,540990,1,0,0:0:0:0:
286,197,541140,1,12,0:0:0:0:
286,197,541290,1,0,0:0:0:0:
286,197,541440,1,12,0:0:0:0:
286,197,541590,1,0,0:0:0:0:
286,197,541740,1,8,0:0:0:0:
286,197,541815,1,8,0:0:0:0:
286,197,541890,1,0,0:0:0:0:
286,197,541965,1,0,0:0:0:0:
286,197,542040,1,12,0:0:0:0:
286,197,542190,1,0,0:0:0:0:
336,271,542265,1,0,0:0:0:0:
286,197,542340,1,8,0:0:0:0:
291,204,542415,1,0,0:0:0:0:
291,204,542490,1,0,0:0:0:0:
291,204,542565,1,0,0:0:0:0:
303,223,542640,1,8,0:0:0:0:
291,204,542715,1,8,0:0:0:0:
291,204,542790,1,0,0:0:0:0:
291,204,542865,1,0,0:0:0:0:
303,223,542940,1,8,0:0:0:0:
291,204,543015,1,0,0:0:0:0:
291,204,543090,1,0,0:0:0:0:
291,204,543165,1,0,0:0:0:0:
314,240,543240,1,8,0:0:0:0:
314,240,543315,1,8,0:0:0:0:
314,240,543390,1,8,0:0:0:0:
306,221,543465,1,0,0:0:0:0:
314,240,543540,1,8,0:0:0:0:
314,240,543615,1,8,0:0:0:0:
314,240,543690,1,0,0:0:0:0:
306,221,543765,1,0,0:0:0:0:
314,240,543840,1,8,0:0:0:0:
314,240,543915,1,8,0:0:0:0:
314,240,543990,1,8,0:0:0:0:
306,221,544065,1,0,0:0:0:0:
314,240,544140,1,8,0:0:0:0:
314,240,544215,1,8,0:0:0:0:
314,240,544290,1,0,0:0:0:0:
306,221,544365,1,0,0:0:0:0:
306,221,544440,1,8,0:0:0:0:
306,221,544515,1,8,0:0:0:0:
306,221,544590,1,8,0:0:0:0:
306,221,544665,1,0,0:0:0:0:
306,221,544740,1,8,0:0:0:0:
306,221,544815,1,0,0:0:0:0:
306,221,544890,1,0,0:0:0:0:
306,221,544965,1,0,0:0:0:0:
306,221,545040,1,8,0:0:0:0:
306,221,545115,1,8,0:0:0:0:
306,221,545190,1,8,0:0:0:0:
306,221,545265,1,0,0:0:0:0:
306,221,545340,1,8,0:0:0:0:
306,221,545415,1,0,0:0:0:0:
306,221,545490,1,0,0:0:0:0:
306,221,545565,1,0,0:0:0:0:
309,246,545640,1,12,0:0:0:0:
309,246,545790,1,0,0:0:0:0:
309,246,545940,1,0,0:0:0:0:
309,246,546090,1,12,0:0:0:0:
309,246,546240,1,0,0:0:0:0:
309,246,546390,1,0,0:0:0:0:
309,246,546540,1,12,0:0:0:0:
309,246,546690,1,0,0:0:0:0:
309,246,546840,1,12,0:0:0:0:
309,246,546990,1,0,0:0:0:0:
309,246,547065,1,0,0:0:0:0:
316,268,547140,1,8,0:0:0:0:
320,292,547290,1,0,0:0:0:0:
261,223,547440,1,8,0:0:0:0:
261,223,547515,1,8,0:0:0:0:
261,223,547590,1,0,0:0:0:0:
261,223,547665,1,0,0:0:0:0:
261,223,547740,1,8,0:0:0:0:
289,236,547890,1,0,0:0:0:0:
289,236,547965,1,0,0:0:0:0:
289,236,548040,1,8,0:0:0:0:
257,258,548115,1,8,0:0:0:0:
257,258,548190,1,0,0:0:0:0:
257,258,548265,1,0,0:0:0:0:
299,262,548340,1,8,0:0:0:0:
257,258,548415,1,0,0:0:0:0:
257,258,548490,1,0,0:0:0:0:
257,258,548565,1,0,0:0:0:0:
299,262,548640,1,8,0:0:0:0:
257,258,548715,1,8,0:0:0:0:
257,258,548790,1,0,0:0:0:0:
257,258,548865,1,0,0:0:0:0:
299,262,548940,1,8,0:0:0:0:
257,258,549015,1,0,0:0:0:0:
257,258,549090,1,0,0:0:0:0:
254,257,549165,1,0,0:0:0:0:
299,262,549240,1,12,0:0:0:0:
363,255,549390,1,0,0:0:0:0:
308,263,549540,1,8,0:0:0:0:
308,263,549615,1,0,0:0:0:0:
308,263,549690,1,0,0:0:0:0:
261,194,549840,1,8,0:0:0:0:
194,202,549990,1,0,0:0:0:0:
269,239,550140,1,8,0:0:0:0:
269,239,550290,1,0,0:0:0:0:
269,239,550365,1,0,0:0:0:0:
269,239,550440,1,12,0:0:0:0:
245,221,550590,1,0,0:0:0:0:
245,221,550740,1,0,0:0:0:0:
245,221,550890,1,12,0:0:0:0:
245,221,551040,1,0,0:0:0:0:
245,221,551190,1,0,0:0:0:0:
245,221,551340,1,12,0:0:0:0:
245,221,551490,1,0,0:0:0:0:
245,221,551640,1,12,0:0:0:0:
265,203,551940,1,0,0:0:0:0:
265,203,552040,1,0,0:0:0:0:
265,203,552140,1,0,0:0:0:0:
265,203,552240,1,0,0:0:0:0:
265,203,552340,1,0,0:0:0:0:
265,203,552440,1,0,0:0:0:0:
265,203,552540,1,0,0:0:0:0:
265,203,552640,1,0,0:0:0:0:
265,203,552740,1,0,0:0:0:0:
265,203,552840,1,12,0:0:0:0:
288,212,553440,1,8,0:0:0:0:
288,212,553740,1,8,0:0:0:0:
288,212,554040,1,8,0:0:0:0:
288,212,554115,1,0,0:0:0:0:
288,212,554190,1,8,0:0:0:0:
288,212,554265,1,0,0:0:0:0:
288,212,554340,1,8,0:0:0:0:
288,212,554415,1,8,0:0:0:0:
288,212,554490,1,0,0:0:0:0:
288,212,554565,1,0,0:0:0:0:
288,212,554640,1,8,0:0:0:0:
288,212,554715,1,0,0:0:0:0:
288,212,554790,1,8,0:0:0:0:
288,212,554865,1,0,0:0:0:0:
288,212,554940,1,8,0:0:0:0:
288,212,555015,1,8,0:0:0:0:
288,212,555090,1,0,0:0:0:0:
288,212,555165,1,0,0:0:0:0:
288,212,555240,1,8,0:0:0:0:
288,212,555315,1,8,0:0:0:0:
288,212,555390,1,8,0:0:0:0:
288,212,555465,1,0,0:0:0:0:
291,224,555540,1,8,0:0:0:0:
289,224,555615,1,0,0:0:0:0:
289,224,555690,1,0,0:0:0:0:
289,224,555765,1,0,0:0:0:0:
289,224,555840,1,8,0:0:0:0:
289,224,555915,1,8,0:0:0:0:
289,224,555990,1,8,0:0:0:0:
289,224,556065,1,8,0:0:0:0:
289,224,556140,1,0,0:0:0:0:
299,227,556215,1,0,0:0:0:0:
299,227,556290,1,0,0:0:0:0:
299,227,556365,1,0,0:0:0:0:
272,199,556440,5,12,0:0:0:0:
256,187,556773,1,8,0:0:0:0:
256,187,556884,1,8,0:0:0:0:
256,187,556995,1,0,0:0:0:0:
256,187,557106,1,8,0:0:0:0:
256,187,557231,1,0,0:0:0:0:
256,187,557356,1,0,0:0:0:0:
256,187,557481,1,8,0:0:0:0:
256,187,557614,1,8,0:0:0:0:
256,187,557747,1,8,0:0:0:0:
223,182,557881,1,4,0:0:0:0:
263,270,558539,1,0,0:0:0:0:
263,270,558655,1,0,0:0:0:0:
263,270,558770,1,0,0:0:0:0:
272,204,559020,1,8,0:0:0:0:
234,185,559320,1,4,0:0:0:0:
257,185,559855,1,12,0:0:0:0:
288,237,560569,1,8,0:0:0:0:
288,237,560807,1,8,0:0:0:0:
288,237,561045,1,0,0:0:0:0:
288,237,561283,1,8,0:0:0:0:
254,200,561521,1,4,0:0:0:0:
254,200,561759,1,12,0:0:0:0:
297,233,562474,1,8,0:0:0:0:
297,233,562712,1,8,0:0:0:0:
297,233,562950,1,0,0:0:0:0:
297,233,563188,1,8,0:0:0:0:
297,233,563426,1,4,0:0:0:0:
297,233,563664,1,12,0:0:0:0:
305,240,563783,1,0,0:0:0:0:
297,233,563902,1,8,0:0:0:0:
305,240,564021,1,8,0:0:0:0:
284,219,564140,1,4,0:0:0:0:
312,250,564259,1,8,0:0:0:0:
312,250,564378,1,0,0:0:0:0:
312,250,564497,1,0,0:0:0:0:
297,233,564616,1,12,0:0:0:0:
305,240,564735,1,0,0:0:0:0:
297,233,564854,1,8,0:0:0:0:
305,240,564973,1,8,0:0:0:0:
284,219,565092,1,4,0:0:0:0:
312,250,565211,1,8,0:0:0:0:
312,250,565330,1,0,0:0:0:0:
312,250,565449,1,0,0:0:0:0:
280,197,565569,1,12,0:0:0:0:
292,230,565688,1,0,0:0:0:0:
297,233,565807,1,8,0:0:0:0:
292,230,565926,1,0,0:0:0:0:
292,230,566045,1,8,0:0:0:0:
292,230,566164,1,0,0:0:0:0:
292,230,566283,1,8,0:0:0:0:
292,230,566402,1,0,0:0:0:0:
301,224,566521,1,12,0:0:0:0:
311,260,566759,1,0,0:0:0:0:
311,260,566878,1,0,0:0:0:0:
311,260,566997,1,8,0:0:0:0:
250,242,567116,1,8,0:0:0:0:
311,260,567235,1,0,0:0:0:0:
311,260,567355,1,0,0:0:0:0:
311,260,567474,1,12,0:0:0:0:
288,237,568188,1,8,0:0:0:0:
288,237,568426,1,8,0:0:0:0:
288,237,568664,1,0,0:0:0:0:
288,237,568902,1,12,0:0:0:0:
254,200,569140,1,0,0:0:0:0:
254,200,569378,1,12,0:0:0:0:
297,233,570093,1,8,0:0:0:0:
297,233,570331,1,8,0:0:0:0:
297,233,570569,1,0,0:0:0:0:
297,233,570807,1,8,0:0:0:0:
297,233,571045,1,4,0:0:0:0:
297,233,571283,1,12,0:0:0:0:
305,240,571402,1,0,0:0:0:0:
297,233,571521,1,8,0:0:0:0:
305,240,571640,1,8,0:0:0:0:
284,219,571759,1,4,0:0:0:0:
312,250,571878,1,8,0:0:0:0:
312,250,571997,1,0,0:0:0:0:
312,250,572116,1,0,0:0:0:0:
297,233,572235,1,12,0:0:0:0:
305,240,572354,1,0,0:0:0:0:
297,233,572473,1,8,0:0:0:0:
305,240,572592,1,8,0:0:0:0:
284,219,572711,1,4,0:0:0:0:
312,250,572830,1,8,0:0:0:0:
312,250,572949,1,0,0:0:0:0:
312,250,573068,1,0,0:0:0:0:
280,197,573188,1,12,0:0:0:0:
292,230,573307,1,0,0:0:0:0:
297,233,573426,1,8,0:0:0:0:
292,230,573545,1,0,0:0:0:0:
292,230,573664,1,8,0:0:0:0:
292,230,573783,1,0,0:0:0:0:
292,230,573902,1,8,0:0:0:0:
292,230,574021,1,0,0:0:0:0:
301,224,574140,1,12,0:0:0:0:
311,260,574378,1,8,0:0:0:0:
311,260,574497,1,0,0:0:0:0:
311,260,574616,1,8,0:0:0:0:
311,260,574696,1,8,0:0:0:0:
298,253,574775,1,0,0:0:0:0:
311,260,574854,1,8,0:0:0:0:
311,260,574934,1,0,0:0:0:0:
220,228,575013,1,0,0:0:0:0:
311,260,575093,1,12,0:0:0:0:
233,236,575212,1,0,0:0:0:0:
236,236,575271,1,0,0:0:0:0:
236,236,575331,1,8,0:0:0:0:
237,237,575450,1,0,0:0:0:0:
237,237,575569,1,8,0:0:0:0:
237,237,575628,1,0,0:0:0:0:
237,237,575688,1,0,0:0:0:0:
237,237,575807,1,8,0:0:0:0:
237,237,575926,1,0,0:0:0:0:
237,237,576045,1,8,0:0:0:0:
233,236,576105,1,8,0:0:0:0:
233,236,576164,1,0,0:0:0:0:
233,236,576224,1,0,0:0:0:0:
236,236,576283,1,8,0:0:0:0:
220,226,576343,1,0,0:0:0:0:
227,228,576402,1,0,0:0:0:0:
227,228,576462,1,0,0:0:0:0:
227,228,576521,1,8,0:0:0:0:
227,228,576581,1,8,0:0:0:0:
227,228,576640,1,0,0:0:0:0:
227,228,576700,1,0,0:0:0:0:
227,228,576759,1,8,0:0:0:0:
237,237,576878,1,0,0:0:0:0:
237,237,576997,1,12,0:0:0:0:
254,229,577116,1,0,0:0:0:0:
254,229,577176,1,0,0:0:0:0:
254,229,577235,1,8,0:0:0:0:
254,229,577355,1,0,0:0:0:0:
254,229,577474,1,8,0:0:0:0:
254,229,577533,1,8,0:0:0:0:
254,229,577593,1,0,0:0:0:0:
254,229,577712,1,8,0:0:0:0:
249,226,577831,1,0,0:0:0:0:
264,242,577950,1,8,0:0:0:0:
264,242,578009,1,8,0:0:0:0:
264,242,578069,1,8,0:0:0:0:
264,242,578128,1,0,0:0:0:0:
264,242,578188,1,8,0:0:0:0:
264,242,578247,1,0,0:0:0:0:
264,242,578307,1,0,0:0:0:0:
264,242,578366,1,0,0:0:0:0:
264,242,578426,1,8,0:0:0:0:
264,242,578485,1,8,0:0:0:0:
264,242,578545,1,0,0:0:0:0:
264,242,578605,1,0,0:0:0:0:
264,242,578664,1,8,0:0:0:0:
264,242,578783,1,0,0:0:0:0:
264,242,578902,1,12,0:0:0:0:
264,242,579021,1,0,0:0:0:0:
264,242,579081,1,0,0:0:0:0:
264,242,579140,1,8,0:0:0:0:
264,242,579259,1,0,0:0:0:0:
264,242,579378,1,8,0:0:0:0:
264,242,579438,1,0,0:0:0:0:
264,242,579497,1,0,0:0:0:0:
264,242,579616,1,8,0:0:0:0:
264,242,579735,1,0,0:0:0:0:
264,242,579855,1,8,0:0:0:0:
264,242,579914,1,8,0:0:0:0:
264,242,579974,1,0,0:0:0:0:
264,242,580033,1,0,0:0:0:0:
264,242,580093,1,8,0:0:0:0:
264,242,580152,1,0,0:0:0:0:
264,242,580212,1,0,0:0:0:0:
264,242,580271,1,0,0:0:0:0:
264,242,580331,1,8,0:0:0:0:
264,242,580390,1,8,0:0:0:0:
264,242,580450,1,8,0:0:0:0:
264,242,580509,1,0,0:0:0:0:
264,242,580569,1,8,0:0:0:0:
264,242,580628,1,0,0:0:0:0:
264,242,580688,1,0,0:0:0:0:
264,242,580747,1,0,0:0:0:0:
264,242,580807,1,12,0:0:0:0:
264,242,580926,1,0,0:0:0:0:
264,242,580985,1,0,0:0:0:0:
264,242,581045,1,8,0:0:0:0:
264,242,581164,1,0,0:0:0:0:
264,242,581283,1,12,0:0:0:0:
264,242,581402,1,0,0:0:0:0:
264,242,581462,1,0,0:0:0:0:
264,242,581521,1,8,0:0:0:0:
264,242,581581,1,8,0:0:0:0:
264,242,581640,1,0,0:0:0:0:
264,242,581759,1,12,0:0:0:0:
281,249,581997,1,0,0:0:0:0:
281,249,582116,1,0,0:0:0:0:
281,249,582235,1,8,0:0:0:0:
325,291,582295,1,8,0:0:0:0:
253,284,582355,1,0,0:0:0:0:
270,284,582414,1,0,0:0:0:0:
315,274,582474,1,0,0:0:0:0:
325,291,582593,1,0,0:0:0:0:
314,274,582712,1,12,0:0:0:0:
381,288,582831,1,0,0:0:0:0:
362,285,582890,1,0,0:0:0:0:
362,285,582950,1,8,0:0:0:0:
361,285,583069,1,0,0:0:0:0:
361,285,583188,1,8,0:0:0:0:
361,285,583247,1,0,0:0:0:0:
360,285,583307,1,0,0:0:0:0:
277,221,583426,1,8,0:0:0:0:
277,221,583485,1,8,0:0:0:0:
277,221,583545,1,0,0:0:0:0:
277,221,583664,1,8,0:0:0:0:
277,221,583724,1,8,0:0:0:0:
277,221,583783,1,8,0:0:0:0:
277,221,583843,1,0,0:0:0:0:
277,221,583902,1,8,0:0:0:0:
277,221,583962,1,0,0:0:0:0:
277,221,584021,1,0,0:0:0:0:
277,221,584081,1,0,0:0:0:0:
277,221,584140,1,8,0:0:0:0:
277,221,584200,1,8,0:0:0:0:
277,221,584259,1,8,0:0:0:0:
277,221,584319,1,8,0:0:0:0:
277,221,584378,1,0,0:0:0:0:
291,245,584497,1,0,0:0:0:0:
291,245,584616,1,12,0:0:0:0:
287,241,584735,1,0,0:0:0:0:
287,241,584795,1,0,0:0:0:0:
287,241,584855,1,8,0:0:0:0:
302,256,584974,1,0,0:0:0:0:
302,256,585093,1,8,0:0:0:0:
302,256,585152,1,0,0:0:0:0:
302,256,585212,1,0,0:0:0:0:
302,256,585331,1,8,0:0:0:0:
302,256,585390,1,8,0:0:0:0:
302,256,585450,1,0,0:0:0:0:
302,256,585569,1,8,0:0:0:0:
302,256,585628,1,8,0:0:0:0:
302,256,585688,1,0,0:0:0:0:
302,256,585747,1,0,0:0:0:0:
302,256,585807,1,8,0:0:0:0:
302,256,585866,1,0,0:0:0:0:
302,256,585926,1,8,0:0:0:0:
302,256,585985,1,0,0:0:0:0:
302,256,586045,1,8,0:0:0:0:
302,256,586105,1,8,0:0:0:0:
302,256,586164,1,8,0:0:0:0:
302,256,586224,1,8,0:0:0:0:
302,256,586283,1,0,0:0:0:0:
302,256,586402,1,0,0:0:0:0:
302,256,586521,1,12,0:0:0:0:
284,249,586640,1,0,0:0:0:0:
284,249,586700,1,0,0:0:0:0:
284,249,586759,1,8,0:0:0:0:
284,249,586878,1,0,0:0:0:0:
289,260,586997,1,8,0:0:0:0:
289,260,587057,1,8,0:0:0:0:
289,260,587116,1,0,0:0:0:0:
295,263,587235,1,8,0:0:0:0:
295,263,587355,1,0,0:0:0:0:
294,263,587474,1,8,0:0:0:0:
294,263,587533,1,8,0:0:0:0:
294,263,587593,1,0,0:0:0:0:
216,183,587652,1,0,0:0:0:0:
216,183,587711,1,8,0:0:0:0:
216,183,587771,1,0,0:0:0:0:
252,220,587830,1,8,0:0:0:0:
216,183,587890,1,8,0:0:0:0:
216,183,587949,1,0,0:0:0:0:
252,220,588009,1,0,0:0:0:0:
252,220,588068,1,8,0:0:0:0:
252,220,588187,1,0,0:0:0:0:
216,183,588247,1,0,0:0:0:0:
252,220,588306,1,8,0:0:0:0:
252,220,588366,1,8,0:0:0:0:
237,243,588426,1,0,0:0:0:0:
251,253,589855,1,0,0:0:0:0:
292,245,590331,1,12,0:0:0:0:
278,236,590569,1,0,0:0:0:0:
278,236,590688,1,8,0:0:0:0:
278,236,590807,1,0,0:0:0:0:
266,233,590926,1,8,0:0:0:0:
266,233,590985,1,8,0:0:0:0:
264,232,591045,1,0,0:0:0:0:
272,240,591164,1,0,0:0:0:0:
266,226,591283,1,8,0:0:0:0:
267,226,591343,1,0,0:0:0:0:
266,233,591402,1,0,0:0:0:0:
266,233,591462,1,0,0:0:0:0:
266,233,591521,1,8,0:0:0:0:
266,233,591640,1,0,0:0:0:0:
266,233,591700,1,0,0:0:0:0:
266,233,591759,1,8,0:0:0:0:
272,240,591878,1,0,0:0:0:0:
266,233,591997,1,8,0:0:0:0:
272,236,592057,1,8,0:0:0:0:
272,236,592116,1,0,0:0:0:0:
227,173,592235,1,12,0:0:0:0:
282,199,592474,1,8,0:0:0:0:
282,199,592593,1,8,0:0:0:0:
282,199,592712,1,0,0:0:0:0:
274,211,592831,1,0,0:0:0:0:
274,211,592950,1,8,0:0:0:0:
274,211,593069,1,0,0:0:0:0:
267,201,593188,1,8,0:0:0:0:
267,201,593247,1,8,0:0:0:0:
267,201,593307,1,0,0:0:0:0:
287,226,593426,1,8,0:0:0:0:
286,213,593545,1,0,0:0:0:0:
286,213,593605,1,0,0:0:0:0:
286,213,593664,1,8,0:0:0:0:
286,213,593724,1,8,0:0:0:0:
286,213,593783,1,0,0:0:0:0:
301,240,593902,1,8,0:0:0:0:
301,240,593962,1,8,0:0:0:0:
301,240,594021,1,0,0:0:0:0:
287,226,594140,1,12,0:0:0:0:
294,222,594378,1,8,0:0:0:0:
294,222,594497,1,8,0:0:0:0:
294,222,594616,1,0,0:0:0:0:
292,222,594735,1,0,0:0:0:0:
292,222,594795,1,0,0:0:0:0:
292,222,594855,1,8,0:0:0:0:
292,222,594974,1,0,0:0:0:0:
238,188,595093,1,8,0:0:0:0:
238,188,595212,1,0,0:0:0:0:
238,188,595331,1,8,0:0:0:0:
292,239,595450,1,0,0:0:0:0:
292,239,595509,1,0,0:0:0:0:
292,239,595569,1,8,0:0:0:0:
253,208,595628,1,8,0:0:0:0:
294,233,595688,1,0,0:0:0:0:
321,239,595807,1,8,0:0:0:0:
321,239,595866,1,8,0:0:0:0:
320,237,595926,1,0,0:0:0:0:
313,254,596045,1,12,0:0:0:0:
236,226,596283,1,8,0:0:0:0:
236,226,596402,1,8,0:0:0:0:
236,226,596521,1,0,0:0:0:0:
241,202,596640,1,0,0:0:0:0:
241,202,596700,1,0,0:0:0:0:
232,227,596759,1,8,0:0:0:0:
100,187,596819,1,8,0:0:0:0:
241,202,596878,1,0,0:0:0:0:
247,221,596997,1,8,0:0:0:0:
247,221,597116,1,0,0:0:0:0:
247,221,597235,1,8,0:0:0:0:
247,221,597355,1,0,0:0:0:0:
252,231,597474,1,8,0:0:0:0:
252,231,597533,1,0,0:0:0:0:
252,231,597593,1,0,0:0:0:0:
250,240,597712,1,8,0:0:0:0:
250,240,597831,1,0,0:0:0:0:
250,240,597950,1,12,0:0:0:0:
256,233,598188,1,8,0:0:0:0:
252,231,598307,1,0,0:0:0:0:
252,231,598426,1,0,0:0:0:0:
256,233,598545,1,8,0:0:0:0:
256,233,598605,1,0,0:0:0:0:
256,233,598664,1,0,0:0:0:0:
256,233,598783,1,0,0:0:0:0:
256,233,598902,1,8,0:0:0:0:
256,233,599021,1,8,0:0:0:0:
252,231,599140,1,0,0:0:0:0:
252,231,599259,1,0,0:0:0:0:
256,233,599378,1,8,0:0:0:0:
256,233,599497,1,0,0:0:0:0:
256,233,599616,1,0,0:0:0:0:
256,233,599735,1,0,0:0:0:0:
256,233,599855,1,12,0:0:0:0:
289,259,600093,1,8,0:0:0:0:
299,257,600212,1,8,0:0:0:0:
299,257,600331,1,0,0:0:0:0:
299,257,600450,1,0,0:0:0:0:
299,257,600569,1,8,0:0:0:0:
299,257,600688,1,0,0:0:0:0:
295,228,600807,1,8,0:0:0:0:
295,228,600866,1,8,0:0:0:0:
295,228,600926,1,0,0:0:0:0:
301,246,601045,1,8,0:0:0:0:
301,246,601164,1,0,0:0:0:0:
301,246,601224,1,0,0:0:0:0:
301,246,601283,1,8,0:0:0:0:
301,246,601402,1,0,0:0:0:0:
301,246,601521,1,8,0:0:0:0:
309,223,601640,1,8,0:0:0:0:
304,224,601759,1,4,0:0:0:0:
309,254,602235,1,0,0:0:0:0:
306,256,602474,1,8,0:0:0:0:
295,263,602712,1,4,0:0:0:0:
295,263,603069,1,4,0:0:0:0:
295,263,603426,1,4,0:0:0:0:
295,263,603664,1,12,0:0:0:0:
363,262,605093,1,0,0:0:0:0:
283,201,605569,1,12,0:0:0:0:
315,221,605688,1,0,0:0:0:0:
315,221,605747,1,0,0:0:0:0:
315,221,605807,1,8,0:0:0:0:
315,221,605926,1,0,0:0:0:0:
315,221,606045,1,8,0:0:0:0:
315,221,606105,1,0,0:0:0:0:
315,221,606164,1,0,0:0:0:0:
315,221,606224,1,0,0:0:0:0:
315,221,606283,1,8,0:0:0:0:
315,221,606402,1,0,0:0:0:0:
315,221,606521,1,8,0:0:0:0:
315,221,606581,1,8,0:0:0:0:
315,221,606640,1,0,0:0:0:0:
315,221,606759,1,8,0:0:0:0:
315,221,606819,1,8,0:0:0:0:
315,221,606878,1,0,0:0:0:0:
315,221,606938,1,0,0:0:0:0:
315,221,606997,1,8,0:0:0:0:
315,221,607057,1,0,0:0:0:0:
315,221,607116,1,0,0:0:0:0:
315,221,607235,1,8,0:0:0:0:
321,228,607355,1,0,0:0:0:0:
315,221,607474,1,8,0:0:0:0:
315,221,607533,1,8,0:0:0:0:
315,221,607593,1,0,0:0:0:0:
327,230,607652,1,0,0:0:0:0:
327,230,607711,1,8,0:0:0:0:
327,230,607771,1,0,0:0:0:0:
327,230,607831,1,0,0:0:0:0:
327,230,607890,1,0,0:0:0:0:
327,230,607950,1,8,0:0:0:0:
321,228,608069,1,0,0:0:0:0:
278,223,608188,1,8,0:0:0:0:
278,223,608247,1,0,0:0:0:0:
327,230,608307,1,0,0:0:0:0:
315,245,608426,1,8,0:0:0:0:
296,243,608485,1,8,0:0:0:0:
296,243,608545,1,0,0:0:0:0:
296,243,608605,1,0,0:0:0:0:
296,243,608664,1,0,0:0:0:0:
296,243,608783,1,0,0:0:0:0:
296,243,608902,1,8,0:0:0:0:
296,243,608962,1,8,0:0:0:0:
296,243,609021,1,0,0:0:0:0:
296,243,609081,1,0,0:0:0:0:
296,243,609140,1,8,0:0:0:0:
296,243,609259,1,0,0:0:0:0:
296,243,609378,1,12,0:0:0:0:
313,246,609497,1,0,0:0:0:0:
312,246,609557,1,0,0:0:0:0:
312,246,609616,1,8,0:0:0:0:
312,246,609735,1,0,0:0:0:0:
312,246,609855,1,8,0:0:0:0:
312,246,609974,1,0,0:0:0:0:
312,246,610093,1,8,0:0:0:0:
312,246,610152,1,8,0:0:0:0:
339,258,610212,1,0,0:0:0:0:
312,246,610331,1,8,0:0:0:0:
312,246,610390,1,8,0:0:0:0:
194,236,610450,1,0,0:0:0:0:
194,236,610509,1,0,0:0:0:0:
194,236,610569,1,8,0:0:0:0:
194,236,610688,1,8,0:0:0:0:
194,236,610747,1,8,0:0:0:0:
194,236,610807,1,0,0:0:0:0:
194,236,610866,1,8,0:0:0:0:
194,236,610926,1,0,0:0:0:0:
194,236,610985,1,0,0:0:0:0:
194,236,611045,1,8,0:0:0:0:
194,236,611105,1,8,0:0:0:0:
194,236,611164,1,0,0:0:0:0:
194,236,611224,1,0,0:0:0:0:
194,236,611283,1,8,0:0:0:0:
210,240,611402,1,0,0:0:0:0:
210,240,611462,1,0,0:0:0:0:
210,240,611521,1,8,0:0:0:0:
210,240,611640,1,0,0:0:0:0:
279,247,611759,1,8,0:0:0:0:
279,247,611819,1,8,0:0:0:0:
279,247,611878,1,0,0:0:0:0:
279,247,611938,1,0,0:0:0:0:
279,247,611997,1,8,0:0:0:0:
279,247,612116,1,0,0:0:0:0:
273,228,612235,1,8,0:0:0:0:
273,228,612295,1,8,0:0:0:0:
273,228,612355,1,0,0:0:0:0:
296,244,612474,1,8,0:0:0:0:
296,244,612593,1,0,0:0:0:0:
296,244,612712,1,8,0:0:0:0:
296,244,612771,1,0,0:0:0:0:
296,244,612831,1,0,0:0:0:0:
296,244,612950,1,8,0:0:0:0:
296,244,613009,1,8,0:0:0:0:
296,244,613069,1,0,0:0:0:0:
296,244,613188,1,12,0:0:0:0:
255,230,613307,1,0,0:0:0:0:
259,232,613366,1,0,0:0:0:0:
269,240,613426,1,8,0:0:0:0:
265,236,613485,1,8,0:0:0:0:
269,240,613545,1,0,0:0:0:0:
265,236,613605,1,0,0:0:0:0:
269,240,613664,1,8,0:0:0:0:
269,240,613724,1,0,0:0:0:0:
269,240,613783,1,0,0:0:0:0:
269,240,613843,1,0,0:0:0:0:
269,240,613902,1,8,0:0:0:0:
269,240,614021,1,0,0:0:0:0:
269,240,614140,1,8,0:0:0:0:
269,240,614200,1,8,0:0:0:0:
265,236,614259,1,0,0:0:0:0:
269,240,614319,1,0,0:0:0:0:
265,236,614378,1,8,0:0:0:0:
269,240,614438,1,0,0:0:0:0:
269,240,614497,1,0,0:0:0:0:
269,240,614616,1,8,0:0:0:0:
269,240,614676,1,8,0:3:0:0:
269,240,614735,1,0,0:0:0:0:
269,240,614855,1,8,0:0:0:0:
269,240,614914,1,8,0:3:0:0:
265,236,614974,1,0,0:0:0:0:
269,240,615093,1,8,0:0:0:0:
366,226,615152,1,8,0:0:0:0:
366,226,615212,1,8,0:0:0:0:
366,226,615271,1,0,0:0:0:0:
366,226,615331,1,8,0:0:0:0:
366,226,615390,1,8,0:0:0:0:
366,226,615450,1,0,0:0:0:0:
366,226,615509,1,0,0:0:0:0:
366,226,615569,1,8,0:0:0:0:
366,226,615628,1,0,0:0:0:0:
366,226,615688,1,0,0:0:0:0:
366,226,615747,1,0,0:0:0:0:
366,226,615807,1,8,0:0:0:0:
366,226,615866,1,8,0:0:0:0:
366,226,615926,1,0,0:0:0:0:
366,226,616045,1,8,0:0:0:0:
363,240,616164,1,0,0:0:0:0:
363,240,616224,1,0,0:0:0:0:
363,240,616283,1,8,0:0:0:0:
363,240,616402,1,0,0:0:0:0:
338,238,616521,1,8,0:0:0:0:
338,238,616581,1,0,0:0:0:0:
338,238,616640,1,8,0:0:0:0:
338,238,616700,1,0,0:0:0:0:
338,238,616759,1,8,0:0:0:0:
338,238,616819,1,8,0:0:0:0:
338,238,616878,1,0,0:0:0:0:
338,238,616938,1,0,0:0:0:0:
338,238,616997,1,8,0:0:0:0:
280,215,617116,1,0,0:0:0:0:
280,215,617235,1,8,0:0:0:0:
280,215,617295,1,8,0:0:0:0:
280,215,617355,1,0,0:0:0:0:
280,215,617414,1,0,0:0:0:0:
280,215,617474,1,8,0:0:0:0:
280,215,617533,1,0,0:0:0:0:
280,215,617593,1,0,0:0:0:0:
209,215,617652,1,0,0:0:0:0:
280,215,617712,1,8,0:0:0:0:
280,215,617831,1,0,0:0:0:0:
293,217,617950,1,8,0:0:0:0:
293,217,618009,1,0,0:0:0:0:
293,217,618069,1,0,0:0:0:0:
296,228,618188,1,8,0:0:0:0:
296,228,618247,1,8,0:0:0:0:
296,228,618307,1,0,0:0:0:0:
296,228,618366,1,0,0:0:0:0:
296,228,618426,1,0,0:0:0:0:
296,228,618545,1,8,0:0:0:0:
296,228,618605,1,0,0:0:0:0:
296,228,618664,1,8,0:0:0:0:
296,228,618783,1,0,0:0:0:0:
282,190,618902,1,12,0:0:0:0:
311,229,619021,1,0,0:0:0:0:
311,229,619081,1,0,0:0:0:0:
311,229,619140,1,8,0:0:0:0:
311,229,619259,1,0,0:0:0:0:
307,228,619378,1,8,0:0:0:0:
307,228,619497,1,0,0:0:0:0:
307,228,619557,1,0,0:0:0:0:
311,229,619616,1,8,0:0:0:0:
311,229,619735,1,0,0:0:0:0:
311,229,619855,1,8,0:0:0:0:
311,229,619914,1,8,0:0:0:0:
311,229,619974,1,0,0:0:0:0:
311,229,620033,1,0,0:0:0:0:
307,228,620093,1,8,0:0:0:0:
307,228,620212,1,0,0:0:0:0:
307,228,620331,1,8,0:0:0:0:
311,229,620390,1,0,0:0:0:0:
311,229,620450,1,0,0:0:0:0:
224,185,620569,1,12,0:0:0:0:
224,185,620807,1,4,0:0:0:0:
224,185,620926,1,0,0:0:0:0:
224,185,621045,1,8,0:0:0:0:
224,185,621164,1,0,0:0:0:0:
224,185,621402,1,0,0:0:0:0:
224,185,621521,1,8,0:0:0:0:
224,185,621581,1,8,0:0:0:0:
224,185,621640,1,0,0:0:0:0:
224,185,621759,1,0,0:0:0:0:
213,205,621819,1,0,0:0:0:0:
220,205,621878,1,8,0:0:0:0:
228,192,621997,1,8,0:0:0:0:
228,192,622116,1,0,0:0:0:0:
265,201,622355,1,0,0:0:0:0:
265,202,622414,1,0,0:0:0:0:
228,192,622474,1,8,0:0:0:0:
253,235,622593,1,0,0:0:0:0:
228,192,622712,1,12,0:0:0:0:
226,213,622831,1,0,0:0:0:0:
226,213,622950,1,8,0:0:0:0:
242,220,623009,1,0,0:0:0:0:
242,220,623069,1,0,0:0:0:0:
242,220,623188,1,8,0:0:0:0:
242,220,623247,1,8,0:0:0:0:
242,220,623307,1,0,0:0:0:0:
242,220,623426,1,8,0:0:0:0:
242,220,623545,1,0,0:0:0:0:
258,224,623664,1,8,0:0:0:0:
258,224,623724,1,0,0:0:0:0:
258,224,623783,1,0,0:0:0:0:
258,224,623843,1,0,0:0:0:0:
258,224,623902,1,8,0:0:0:0:
258,224,623962,1,0,0:0:0:0:
258,224,624021,1,8,0:0:0:0:
258,224,624140,1,8,0:0:0:0:
258,224,624200,1,8,0:0:0:0:
258,224,624259,1,0,0:0:0:0:
258,224,624378,1,12,0:0:0:0:
258,224,624616,1,4,0:0:0:0:
238,214,624735,1,0,0:0:0:0:
258,224,624855,1,8,0:0:0:0:
258,224,624974,1,0,0:0:0:0:
269,224,625212,1,0,0:0:0:0:
269,224,625271,1,0,0:0:0:0:
269,224,625331,1,8,0:0:0:0:
272,237,625450,1,8,0:0:0:0:
272,237,625509,1,0,0:0:0:0:
272,237,625569,1,8,0:0:0:0:
296,245,625688,1,0,0:0:0:0:
296,245,625807,1,8,0:0:0:0:
299,257,625926,1,8,0:0:0:0:
299,257,625985,1,0,0:0:0:0:
299,257,626045,1,8,0:0:0:0:
367,243,626105,1,0,0:0:0:0:
299,257,626164,1,0,0:0:0:0:
285,223,626283,1,8,0:0:0:0:
285,223,626402,1,0,0:0:0:0:
285,223,626521,1,12,0:0:0:0:
299,257,626640,1,0,0:0:0:0:
299,257,626700,1,0,0:0:0:0:
299,257,626759,1,8,0:0:0:0:
299,257,626878,1,0,0:0:0:0:
301,250,626997,1,8,0:0:0:0:
301,250,627057,1,0,0:0:0:0:
301,250,627116,1,0,0:0:0:0:
301,250,627176,1,8,0:0:0:0:
301,250,627235,1,8,0:0:0:0:
299,257,627355,1,0,0:0:0:0:
308,258,627474,1,8,0:0:0:0:
310,258,627533,1,0,0:0:0:0:
310,258,627593,1,0,0:0:0:0:
310,258,627712,1,8,0:0:0:0:
310,258,627771,1,8,0:0:0:0:
310,258,627831,1,8,0:0:0:0:
310,258,627890,1,0,0:0:0:0:
310,258,627950,1,0,0:0:0:0:
310,258,628069,1,0,0:0:0:0:
308,258,628188,1,12,0:0:0:0:
310,258,628426,1,4,0:0:0:0:
203,247,628545,1,0,0:0:0:0:
218,234,628605,1,0,0:0:0:0:
219,230,628664,1,8,0:0:0:0:
218,234,628783,1,0,0:0:0:0:
271,219,628902,1,8,0:0:0:0:
269,237,629021,1,0,0:0:0:0:
269,237,629081,1,8,0:0:0:0:
269,237,629140,1,8,0:0:0:0:
269,237,629200,1,0,0:0:0:0:
269,237,629259,1,0,0:0:0:0:
273,243,629378,1,0,0:0:0:0:
272,243,629438,1,8,0:0:0:0:
271,243,629497,1,0,0:0:0:0:
271,243,629616,1,8,0:0:0:0:
279,240,629735,1,8,0:0:0:0:
279,240,629795,1,0,0:0:0:0:
279,240,629855,1,0,0:0:0:0:
279,240,629914,1,8,0:0:0:0:
279,240,629974,1,8,0:0:0:0:
273,243,630093,1,8,0:0:0:0:
272,243,630212,1,0,0:0:0:0:
271,243,630331,1,12,0:0:0:0:
297,239,631045,1,0,0:0:0:0:
297,239,631164,1,8,0:0:0:0:
297,239,631283,1,0,0:0:0:0:
294,252,631521,1,8,0:0:0:0:
294,252,631640,1,0,0:0:0:0:
294,252,631759,1,8,0:0:0:0:
297,239,631997,1,0,0:0:0:0:
297,239,632116,1,8,0:0:0:0:
297,239,632235,1,0,0:0:0:0:
294,252,632473,1,8,0:0:0:0:
294,252,632592,1,0,0:0:0:0:
294,252,632711,1,8,0:0:0:0:
297,239,632950,1,0,0:0:0:0:
297,239,633069,1,8,0:0:0:0:
297,239,633188,1,0,0:0:0:0:
294,252,633426,1,12,0:0:0:0:
294,252,633664,1,8,0:0:0:0:
289,248,633743,1,8,0:0:0:0:
289,248,633823,1,8,0:0:0:0:
289,248,633902,1,0,0:0:0:0:
289,248,633981,1,0,0:0:0:0:
294,252,634061,1,0,0:0:0:0:
294,252,634140,1,12,0:0:0:0:
290,237,634259,1,0,0:0:0:0:
284,247,634319,1,8,0:0:0:0:
284,247,634378,1,8,0:0:0:0:
289,248,634497,1,0,0:0:0:0:
289,248,634616,1,8,0:0:0:0:
284,247,634676,1,0,0:0:0:0:
289,248,634735,1,0,0:0:0:0:
284,247,634855,1,8,0:0:0:0:
284,247,634914,1,8,0:0:0:0:
284,247,634974,1,0,0:0:0:0:
284,247,635093,1,8,0:0:0:0:
284,247,635152,1,8,0:0:0:0:
289,248,635212,1,8,0:0:0:0:
289,248,635271,1,0,0:0:0:0:
289,248,635331,1,8,0:0:0:0:
311,237,635390,1,0,0:0:0:0:
289,248,635450,1,0,0:0:0:0:
289,248,635509,1,8,0:0:0:0:
284,247,635569,1,0,0:0:0:0:
284,247,635628,1,0,0:0:0:0:
284,247,635688,1,0,0:0:0:0:
284,247,635807,1,8,0:0:0:0:
284,247,635866,1,0,0:0:0:0:
284,247,635926,1,0,0:0:0:0:
289,248,636045,1,12,0:0:0:0:
289,248,636164,1,0,0:0:0:0:
283,235,636224,1,8,0:0:0:0:
283,235,636283,1,8,0:0:0:0:
310,247,636402,1,0,0:0:0:0:
307,246,636521,1,8,0:0:0:0:
307,246,636581,1,0,0:0:0:0:
307,246,636640,1,0,0:0:0:0:
310,258,636759,1,8,0:0:0:0:
310,258,636819,1,8,0:0:0:0:
310,258,636878,1,0,0:0:0:0:
314,268,636997,1,8,0:0:0:0:
314,268,637057,1,0,0:0:0:0:
314,268,637116,1,8,0:0:0:0:
326,288,637235,1,8,0:0:0:0:
326,288,637295,1,8,0:0:0:0:
326,288,637355,1,8,0:0:0:0:
326,288,637414,1,0,0:0:0:0:
326,288,637474,1,8,0:0:0:0:
326,288,637533,1,0,0:0:0:0:
326,288,637593,1,0,0:0:0:0:
326,288,637652,1,0,0:0:0:0:
326,288,637712,1,8,0:0:0:0:
338,294,637831,1,0,0:0:0:0:
338,294,637950,1,12,0:0:0:0:
204,214,638069,1,0,0:0:0:0:
204,214,638128,1,8,0:0:0:0:
204,214,638188,1,8,0:0:0:0:
347,285,638307,1,0,0:0:0:0:
347,285,638426,1,8,0:0:0:0:
347,285,638485,1,8,0:0:0:0:
347,285,638545,1,0,0:0:0:0:
347,285,638664,1,8,0:0:0:0:
347,285,638724,1,8,0:0:0:0:
347,285,638783,1,8,0:0:0:0:
347,285,638902,1,8,0:0:0:0:
347,285,638962,1,0,0:0:0:0:
347,285,639021,1,0,0:0:0:0:
347,285,639081,1,0,0:0:0:0:
347,285,639140,1,8,0:0:0:0:
347,285,639200,1,8,0:0:0:0:
347,285,639259,1,0,0:0:0:0:
347,285,639319,1,8,0:0:0:0:
347,285,639378,1,0,0:0:0:0:
267,201,639497,1,0,0:0:0:0:
267,201,639616,1,8,0:0:0:0:
267,201,639676,1,0,0:0:0:0:
267,201,639735,1,0,0:0:0:0:
267,201,639855,1,12,0:0:0:0:
301,224,639974,1,0,0:0:0:0:
301,224,640033,1,8,0:0:0:0:
301,224,640093,1,8,0:0:0:0:
301,224,640212,1,0,0:0:0:0:
301,224,640331,1,8,0:0:0:0:
301,224,640390,1,0,0:0:0:0:
301,224,640450,1,0,0:0:0:0:
301,224,640569,1,8,0:0:0:0:
301,224,640628,1,8,0:0:0:0:
301,224,640688,1,0,0:0:0:0:
301,224,640807,1,8,0:0:0:0:
301,224,640866,1,8,0:0:0:0:
301,224,640926,1,8,0:0:0:0:
301,224,640985,1,0,0:0:0:0:
301,224,641045,1,8,0:0:0:0:
301,224,641105,1,8,0:0:0:0:
301,224,641164,1,0,0:0:0:0:
301,224,641224,1,0,0:0:0:0:
301,224,641283,1,8,0:0:0:0:
234,193,641402,1,0,0:0:0:0:
234,193,641521,1,8,0:0:0:0:
234,193,641581,1,0,0:0:0:0:
234,193,641640,1,0,0:0:0:0:
234,193,641759,1,12,0:0:0:0:
204,207,641878,1,0,0:0:0:0:
227,205,641938,1,8,0:0:0:0:
227,205,641997,1,8,0:0:0:0:
239,221,642116,1,0,0:0:0:0:
269,228,642235,1,8,0:0:0:0:
269,228,642295,1,0,0:0:0:0:
269,228,642355,1,8,0:0:0:0:
269,228,642414,1,0,0:0:0:0:
269,228,642474,1,8,0:0:0:0:
299,243,642593,1,8,0:0:0:0:
299,243,642712,1,0,0:0:0:0:
286,229,642831,1,0,0:0:0:0:
284,240,642950,1,8,0:0:0:0:
284,240,643009,1,0,0:0:0:0:
284,240,643069,1,0,0:0:0:0:
284,240,643188,1,8,0:0:0:0:
284,240,643247,1,8,0:0:0:0:
284,240,643307,1,0,0:0:0:0:
288,256,643426,1,8,0:0:0:0:
288,256,643485,1,8,0:0:0:0:
288,256,643545,1,8,0:0:0:0:
288,256,643664,1,12,0:0:0:0:
192,224,643902,1,0,0:0:0:0:
224,224,644021,1,0,0:0:0:0:
224,224,644140,1,8,0:0:0:0:
288,256,644259,1,4,0:0:0:0:
272,256,644378,1,8,0:0:0:0:
192,208,644497,1,8,0:0:0:0:
288,256,644616,1,4,0:0:0:0:
288,256,644855,1,8,0:0:0:0:
288,256,645093,1,0,0:0:0:0:
288,256,645172,1,0,0:0:0:0:
288,256,645251,1,0,0:0:0:0:
288,256,645331,1,8,0:0:0:0:
266,196,645569,5,8,0:0:0:0:
266,196,645648,1,8,0:0:0:0:
266,196,645728,1,8,0:0:0:0:
266,196,645807,1,0,0:0:0:0:
279,184,645926,1,0,0:0:0:0:
284,216,646045,1,8,0:0:0:0:
283,215,646124,1,8,0:0:0:0:
283,215,646204,1,0,0:0:0:0:
283,215,646283,1,8,0:0:0:0:
279,184,646402,1,0,0:0:0:0:
302,224,646521,1,8,0:0:0:0:
302,224,646601,1,8,0:0:0:0:
302,224,646680,1,8,0:0:0:0:
302,224,646759,1,0,0:0:0:0:
302,224,646839,1,0,0:0:0:0:
302,224,646918,1,0,0:0:0:0:
302,224,646997,1,8,0:0:0:0:
302,224,647077,1,8,0:0:0:0:
302,224,647156,1,0,0:0:0:0:
302,224,647235,1,8,0:0:0:0:
325,229,647315,1,0,0:0:0:0:
323,229,647394,1,0,0:0:0:0:
323,227,647474,1,12,0:0:0:0:
302,224,647593,1,0,0:0:0:0:
302,224,647712,1,8,0:0:0:0:
302,224,647831,1,0,0:0:0:0:
192,192,647890,1,0,0:0:0:0:
310,215,647950,1,8,0:0:0:0:
285,212,648009,1,8,0:0:0:0:
198,184,648069,1,0,0:0:0:0:
176,160,648128,1,0,0:0:0:0:
310,215,648188,1,8,0:0:0:0:
291,228,648307,1,0,0:0:0:0:
310,215,648426,1,8,0:0:0:0:
302,224,648505,1,8,0:0:0:0:
302,224,648585,1,0,0:0:0:0:
302,224,648664,1,8,0:0:0:0:
293,225,648783,1,0,0:0:0:0:
271,205,648902,1,8,0:0:0:0:
271,205,648962,1,8,0:0:0:0:
261,214,649021,1,0,0:0:0:0:
271,205,649081,1,0,0:0:0:0:
271,205,649140,1,8,0:0:0:0:
271,205,649220,1,0,0:0:0:0:
271,205,649299,1,0,0:0:0:0:
271,205,649378,1,12,0:0:0:0:
267,205,649616,1,8,0:0:0:0:
267,205,649696,1,0,0:0:0:0:
267,205,649775,1,0,0:0:0:0:
271,205,649855,1,8,0:0:0:0:
271,205,649934,1,8,0:0:0:0:
267,205,650013,1,0,0:0:0:0:
271,205,650093,1,8,0:0:0:0:
271,205,650172,1,0,0:0:0:0:
271,205,650251,1,0,0:0:0:0:
271,205,650331,1,8,0:0:0:0:
281,215,650450,1,0,0:0:0:0:
281,215,650509,1,0,0:0:0:0:
281,215,650569,1,8,0:0:0:0:
281,215,650688,1,0,0:0:0:0:
290,225,650807,1,8,0:0:0:0:
290,225,650866,1,8,0:0:0:0:
290,227,650926,1,0,0:0:0:0:
290,226,650985,1,0,0:0:0:0:
290,226,651045,1,8,0:0:0:0:
300,233,651164,1,0,0:0:0:0:
299,236,651283,1,12,0:0:0:0:
304,240,651521,1,8,0:0:0:0:
304,240,651601,1,0,0:0:0:0:
304,240,651680,1,8,0:0:0:0:
304,240,651759,1,0,0:0:0:0:
300,233,651878,1,0,0:0:0:0:
299,236,651997,1,8,0:0:0:0:
299,236,652077,1,8,0:0:0:0:
304,240,652156,1,0,0:0:0:0:
304,240,652235,1,8,0:0:0:0:
320,256,652315,1,0,0:0:0:0:
176,192,652394,1,0,0:0:0:0:
304,256,652474,1,8,0:0:0:0:
256,224,652593,1,0,0:0:0:0:
304,256,652712,1,8,0:0:0:0:
288,224,652771,1,8,0:0:0:0:
304,240,652831,1,0,0:0:0:0:
288,224,652890,1,0,0:0:0:0:
304,240,652950,1,8,0:0:0:0:
304,240,653069,1,0,0:0:0:0:
304,240,653188,1,12,0:0:0:0:
288,240,653307,1,0,0:0:0:0:
288,240,653366,1,0,0:0:0:0:
288,240,653426,1,8,0:0:0:0:
288,240,653545,1,8,0:0:0:0:
288,240,653664,1,8,0:0:0:0:
288,240,653783,1,8,0:0:0:0:
288,240,653902,1,0,0:0:0:0:
288,240,653962,1,0,0:0:0:0:
288,240,654021,1,8,0:0:0:0:
288,240,654140,1,8,0:0:0:0:
304,256,654200,1,8,0:0:0:0:
288,240,654259,1,0,0:0:0:0:
304,256,654319,1,0,0:0:0:0:
288,240,654378,1,8,0:0:0:0:
288,240,654438,1,0,0:0:0:0:
272,208,654497,1,0,0:0:0:0:
224,176,654557,1,0,0:0:0:0:
288,240,654616,1,8,0:0:0:0:
288,240,654735,1,0,0:0:0:0:
288,240,654855,1,8,0:0:0:0:
304,224,654974,1,0,0:0:0:0:
288,240,655093,1,12,0:0:0:0:
320,256,655331,1,0,0:0:0:0:
320,256,655450,1,0,0:0:0:0:
320,256,655569,1,8,0:0:0:0:
272,224,655688,1,0,0:0:0:0:
304,208,655807,1,8,0:0:0:0:
304,208,655866,1,0,0:0:0:0:
304,208,655926,1,8,0:0:0:0:
304,208,655985,1,8,0:0:0:0:
304,208,656045,1,0,0:0:0:0:
304,224,656164,1,0,0:0:0:0:
304,224,656283,1,8,0:0:0:0:
304,224,656323,1,8,0:0:0:0:
224,176,656362,1,8,0:0:0:0:
304,224,656402,1,0,0:0:0:0:
304,224,656462,1,0,0:0:0:0:
304,224,656521,1,8,0:0:0:0:
304,224,656581,1,8,0:0:0:0:
304,224,656640,1,0,0:0:0:0:
304,192,656700,1,0,0:0:0:0:
304,224,656759,1,8,0:0:0:0:
256,192,656819,1,0,0:0:0:0:
304,224,656878,1,8,0:0:0:0:
304,224,656997,1,4,0:0:0:0:
208,208,657235,1,8,0:0:0:0:
224,208,657355,1,0,0:0:0:0:
224,208,657474,1,8,0:0:0:0:
256,224,657533,1,8,0:0:0:0:
256,224,657593,1,0,0:0:0:0:
256,224,657712,1,8,0:0:0:0:
256,224,657831,1,8,0:0:0:0:
256,224,657950,1,0,0:0:0:0:
256,224,658009,1,0,0:0:0:0:
256,224,658069,1,8,0:0:0:0:
256,224,658128,1,8,0:0:0:0:
256,224,658188,1,0,0:0:0:0:
256,224,658307,1,0,0:0:0:0:
256,224,658426,1,8,0:0:0:0:
256,224,658485,1,8,0:0:0:0:
256,224,658545,1,0,0:0:0:0:
256,224,658605,1,0,0:0:0:0:
256,224,658664,1,8,0:0:0:0:
256,224,658783,1,0,0:0:0:0:
256,224,658902,1,12,0:0:0:0:
288,224,659021,1,0,0:0:0:0:
288,224,659140,1,8,0:0:0:0:
288,224,659200,1,0,0:0:0:0:
224,240,659259,1,0,0:0:0:0:
256,224,659319,1,8,0:0:0:0:
288,224,659378,1,8,0:0:0:0:
288,224,659438,1,0,0:0:0:0:
288,224,659497,1,0,0:0:0:0:
288,224,659616,1,8,0:0:0:0:
304,224,659735,1,0,0:0:0:0:
304,208,659855,1,8,0:0:0:0:
304,208,659934,1,8,0:0:0:0:
304,208,660013,1,0,0:0:0:0:
304,208,660093,1,8,0:0:0:0:
304,192,660212,1,0,0:0:0:0:
304,208,660331,1,8,0:0:0:0:
304,208,660450,1,0,0:0:0:0:
304,208,660509,1,0,0:0:0:0:
304,208,660569,1,8,0:0:0:0:
304,192,660688,1,0,0:0:0:0:
304,224,660807,1,12,0:0:0:0:
304,224,661045,1,0,0:0:0:0:
320,240,661105,1,0,0:0:0:0:
304,224,661164,1,8,0:0:0:0:
304,224,661224,1,0,0:0:0:0:
304,224,661283,1,8,0:0:0:0:
297,215,661323,1,8,0:0:0:0:
208,192,661362,1,8,0:0:0:0:
304,240,661402,1,0,0:0:0:0:
208,192,661462,1,0,0:0:0:0:
304,224,661521,1,8,0:0:0:0:
304,224,661581,1,8,0:0:0:0:
304,224,661640,1,0,0:0:0:0:
304,224,661700,1,0,0:0:0:0:
304,240,661759,1,8,0:0:0:0:
304,240,661878,1,0,0:0:0:0:
304,240,661997,1,8,0:0:0:0:
304,240,662057,1,8,0:0:0:0:
304,240,662116,1,0,0:0:0:0:
304,240,662176,1,0,0:0:0:0:
304,240,662235,1,8,0:0:0:0:
304,240,662355,1,0,0:0:0:0:
304,256,662474,1,8,0:0:0:0:
304,256,662533,1,0,0:0:0:0:
304,256,662593,1,0,0:0:0:0:
304,256,662712,1,12,0:0:0:0:
304,256,662950,1,8,0:0:0:0:
352,304,663069,1,0,0:0:0:0:
336,272,663188,1,8,0:0:0:0:
336,272,663247,1,8,0:0:0:0:
336,272,663307,1,0,0:0:0:0:
336,272,663426,1,8,0:0:0:0:
288,224,663545,1,0,0:0:0:0:
288,224,663664,1,8,0:0:0:0:
288,224,663724,1,8,0:0:0:0:
288,224,663783,1,0,0:0:0:0:
288,224,663843,1,0,0:0:0:0:
288,224,663902,1,8,0:0:0:0:
272,224,663962,1,0,0:0:0:0:
288,224,664021,1,0,0:0:0:0:
288,224,664140,1,8,0:0:0:0:
288,224,664200,1,0,0:0:0:0:
288,224,664259,1,0,0:0:0:0:
224,192,664378,1,8,0:0:0:0:
288,176,664458,1,0,0:0:0:0:
288,176,664537,1,0,0:0:0:0:
288,176,664616,1,12,0:0:0:0:
256,192,664855,1,8,0:0:0:0:
258,218,664914,1,8,0:0:0:0:
256,192,664974,1,0,0:0:0:0:
258,218,665033,1,0,0:0:0:0:
256,192,665093,1,8,0:0:0:0:
256,192,665132,1,8,0:0:0:0:
256,192,665172,1,0,0:0:0:0:
256,192,665212,1,8,0:0:0:0:
135,182,665271,1,0,0:0:0:0:
256,208,665331,1,8,0:0:0:0:
256,208,665390,1,8,0:0:0:0:
256,208,665450,1,0,0:0:0:0:
240,192,665509,1,8,0:0:0:0:
272,192,665569,1,0,0:0:0:0:
448,64,665688,1,8,0:0:0:0:
64,64,665747,1,0,0:0:0:0:
448,64,665807,1,8,0:0:0:0:
448,64,665866,1,8,0:0:0:0:
272,208,665926,1,0,0:0:0:0:
272,208,666045,1,8,0:0:0:0:
272,208,666105,1,0,0:0:0:0:
272,208,666164,1,0,0:0:0:0:
272,208,666283,1,8,0:0:0:0:
272,208,666343,1,8,0:0:0:0:
272,208,666402,1,0,0:0:0:0:
272,208,666521,1,12,0:0:0:0:
304,224,666759,1,8,0:0:0:0:
304,224,666878,1,0,0:0:0:0:
304,224,666938,1,0,0:0:0:0:
304,224,666997,1,8,0:0:0:0:
304,224,667057,1,8,0:0:0:0:
224,224,667116,1,0,0:0:0:0:
304,224,667235,1,8,0:0:0:0:
304,224,667355,1,0,0:0:0:0:
304,224,667474,1,8,0:0:0:0:
304,224,667533,1,0,0:0:0:0:
304,224,667593,1,0,0:0:0:0:
304,224,667712,1,8,0:0:0:0:
304,224,667771,1,8,0:0:0:0:
304,224,667831,1,0,0:0:0:0:
304,224,667950,1,8,0:0:0:0:
304,224,668009,1,8,0:0:0:0:
304,224,668069,1,0,0:0:0:0:
320,240,668128,1,0,0:0:0:0:
304,224,668188,1,8,0:0:0:0:
304,224,668307,1,0,0:0:0:0:
240,176,668426,1,12,0:0:0:0:
240,176,668545,1,0,0:0:0:0:
240,176,668605,1,0,0:0:0:0:
240,176,668664,1,8,0:0:0:0:
240,176,668783,1,0,0:0:0:0:
240,176,668902,1,8,0:0:0:0:
240,176,668962,1,8,0:0:0:0:
240,176,669021,1,0,0:0:0:0:
240,176,669081,1,0,0:0:0:0:
240,176,669140,1,8,0:0:0:0:
240,176,669259,1,0,0:0:0:0:
240,176,669378,1,8,0:0:0:0:
240,176,669438,1,8,0:0:0:0:
240,176,669497,1,0,0:0:0:0:
240,176,669616,1,8,0:0:0:0:
224,176,669735,1,0,0:0:0:0:
240,176,669855,1,8,0:0:0:0:
192,176,669914,1,8,0:0:0:0:
240,176,669974,1,0,0:0:0:0:
240,176,670093,1,8,0:0:0:0:
240,176,670152,1,8,0:0:0:0:
240,176,670212,1,0,0:0:0:0:
240,176,670271,1,0,0:0:0:0:
240,176,670331,1,12,0:0:0:0:
304,208,670569,1,8,0:0:0:0:
240,160,670688,1,8,0:0:0:0:
320,208,670807,1,0,0:0:0:0:
320,208,670926,1,0,0:0:0:0:
320,208,671045,1,8,0:0:0:0:
272,192,671164,1,0,0:0:0:0:
272,192,671283,1,8,0:0:0:0:
272,192,671343,1,8,0:0:0:0:
272,192,671402,1,0,0:0:0:0:
272,192,671521,1,8,0:0:0:0:
272,192,671640,1,0,0:0:0:0:
272,192,671759,1,8,0:0:0:0:
272,192,671819,1,8,0:0:0:0:
272,192,671878,1,0,0:0:0:0:
224,192,671938,1,0,0:0:0:0:
272,192,671997,1,8,0:0:0:0:
272,192,672116,1,0,0:0:0:0:
272,192,672235,1,12,0:0:0:0:
272,192,672355,1,0,0:0:0:0:
272,192,672474,1,8,0:0:0:0:
304,192,672533,1,0,0:0:0:0:
304,192,672593,1,0,0:0:0:0:
272,192,672712,1,8,0:0:0:0:
272,192,672831,1,0,0:0:0:0:
272,192,672950,1,8,0:0:0:0:
272,192,673009,1,0,0:0:0:0:
272,192,673069,1,0,0:0:0:0:
288,256,673128,1,0,0:0:0:0:
272,192,673188,1,8,0:0:0:0:
224,176,673307,1,0,0:0:0:0:
256,176,673426,1,8,0:0:0:0:
256,192,673545,1,0,0:0:0:0:
224,224,673664,1,8,0:0:0:0:
256,208,673724,1,0,0:0:0:0:
256,192,673783,1,0,0:0:0:0:
256,192,673902,1,8,0:0:0:0:
256,192,674140,5,8,0:0:0:0:
272,208,674200,1,0,0:0:0:0:
272,208,674259,1,0,0:0:0:0:
272,208,674319,1,0,0:0:0:0:
272,176,674378,1,8,0:0:0:0:
272,176,674458,1,0,0:0:0:0:
272,176,674537,1,0,0:0:0:0:
272,192,674616,1,8,0:0:0:0:
272,192,674676,1,8,0:0:0:0:
272,192,674735,1,0,0:0:0:0:
272,192,674795,1,0,0:0:0:0:
272,192,674855,1,8,0:0:0:0:
272,192,674934,1,0,0:0:0:0:
272,192,675013,1,0,0:0:0:0:
272,192,675093,1,8,0:0:0:0:
272,192,675152,1,8,0:0:0:0:
272,192,675212,1,0,0:0:0:0:
272,192,675271,1,8,0:0:0:0:
272,192,675331,1,8,0:0:0:0:
272,192,675410,1,0,0:0:0:0:
256,208,675489,1,0,0:0:0:0:
256,208,675569,1,8,0:0:0:0:
256,208,675628,1,8,0:0:0:0:
256,208,675688,1,8,0:0:0:0:
256,208,675747,1,8,0:0:0:0:
256,208,675807,1,0,0:0:0:0:
272,208,675886,1,0,0:0:0:0:
272,208,675966,1,0,0:0:0:0:
224,185,676045,1,12,0:0:0:0:
224,185,676164,1,0,0:0:0:0:
224,185,676283,1,8,0:0:0:0:
224,185,676402,1,0,0:0:0:0:
256,208,676462,1,8,0:0:0:0:
256,208,676521,1,8,0:0:0:0:
256,208,676581,1,8,0:0:0:0:
224,185,676640,1,0,0:0:0:0:
224,185,676759,1,8,0:0:0:0:
224,185,676819,1,8,0:0:0:0:
224,185,676878,1,0,0:0:0:0:
224,185,676997,1,0,0:0:0:0:
213,205,677057,1,0,0:0:0:0:
220,205,677116,1,8,0:0:0:0:
228,192,677235,1,8,0:0:0:0:
129,184,677295,1,8,0:0:0:0:
228,192,677354,1,8,0:0:0:0:
190,199,677414,1,0,0:0:0:0:
304,256,677474,1,8,0:0:0:0:
256,224,677533,1,8,0:0:0:0:
265,201,677593,1,0,0:0:0:0:
265,202,677652,1,0,0:0:0:0:
228,192,677712,1,8,0:0:0:0:
253,235,677831,1,0,0:0:0:0:
228,192,677950,1,12,0:0:0:0:
226,213,678069,1,0,0:0:0:0:
226,213,678188,1,8,0:0:0:0:
242,220,678247,1,0,0:0:0:0:
242,220,678307,1,0,0:0:0:0:
242,220,678426,1,8,0:0:0:0:
242,220,678485,1,8,0:0:0:0:
242,220,678545,1,0,0:0:0:0:
242,220,678664,1,8,0:0:0:0:
242,220,678783,1,0,0:0:0:0:
258,224,678902,1,8,0:0:0:0:
258,224,678962,1,0,0:0:0:0:
258,224,679021,1,0,0:0:0:0:
258,224,679081,1,0,0:0:0:0:
258,224,679140,1,8,0:0:0:0:
258,224,679200,1,0,0:0:0:0:
258,224,679259,1,8,0:0:0:0:
258,224,679378,1,8,0:0:0:0:
258,224,679438,1,8,0:0:0:0:
258,224,679497,1,0,0:0:0:0:
258,224,679616,1,12,0:0:0:0:
258,224,679854,1,4,0:0:0:0:
238,214,679973,1,0,0:0:0:0:
258,224,680093,1,8,0:0:0:0:
258,224,680212,1,0,0:0:0:0:
269,224,680450,1,0,0:0:0:0:
269,224,680509,1,0,0:0:0:0:
269,224,680569,1,8,0:0:0:0:
272,237,680688,1,8,0:0:0:0:
272,237,680747,1,0,0:0:0:0:
272,237,680807,1,8,0:0:0:0:
296,245,680926,1,0,0:0:0:0:
296,245,681045,1,8,0:0:0:0:
299,257,681164,1,8,0:0:0:0:
299,257,681223,1,0,0:0:0:0:
299,257,681283,1,8,0:0:0:0:
367,243,681343,1,0,0:0:0:0:
299,257,681402,1,0,0:0:0:0:
285,223,681521,1,8,0:0:0:0:
285,223,681640,1,0,0:0:0:0:
285,223,681759,1,12,0:0:0:0:
299,257,681878,1,0,0:0:0:0:
299,257,681938,1,0,0:0:0:0:
299,257,681997,1,8,0:0:0:0:
299,257,682116,1,0,0:0:0:0:
301,250,682235,1,8,0:0:0:0:
301,250,682295,1,0,0:0:0:0:
301,250,682354,1,0,0:0:0:0:
301,250,682414,1,8,0:0:0:0:
301,250,682473,1,8,0:0:0:0:
299,257,682593,1,0,0:0:0:0:
308,258,682712,1,8,0:0:0:0:
310,258,682771,1,0,0:0:0:0:
310,258,682831,1,0,0:0:0:0:
310,258,682950,1,8,0:0:0:0:
310,258,683009,1,8,0:0:0:0:
310,258,683069,1,8,0:0:0:0:
310,258,683128,1,0,0:0:0:0:
310,258,683188,1,0,0:0:0:0:
310,258,683307,1,0,0:0:0:0:
308,258,683426,1,12,0:0:0:0:
310,258,683664,1,4,0:0:0:0:
203,247,683783,1,0,0:0:0:0:
218,234,683843,1,0,0:0:0:0:
219,230,683902,1,8,0:0:0:0:
218,234,684021,1,0,0:0:0:0:
271,219,684140,1,8,0:0:0:0:
269,237,684259,1,0,0:0:0:0:
269,237,684319,1,8,0:0:0:0:
269,237,684378,1,8,0:0:0:0:
269,237,684438,1,0,0:0:0:0:
269,237,684497,1,0,0:0:0:0:
273,243,684616,1,0,0:0:0:0:
272,243,684676,1,8,0:0:0:0:
271,243,684735,1,0,0:0:0:0:
271,243,684854,1,8,0:0:0:0:
279,240,684973,1,8,0:0:0:0:
279,240,685033,1,0,0:0:0:0:
279,240,685093,1,0,0:0:0:0:
279,240,685152,1,8,0:0:0:0:
279,240,685212,1,8,0:0:0:0:
273,243,685331,1,8,0:0:0:0:
272,243,685450,1,0,0:0:0:0:
271,243,685569,1,12,0:0:0:0:
256,208,686283,1,0,0:0:0:0:
256,208,686402,1,8,0:0:0:0:
256,208,686521,1,0,0:0:0:0:
256,208,686759,1,8,0:0:0:0:
256,208,686878,1,0,0:0:0:0:
256,208,686997,1,8,0:0:0:0:
256,208,687235,1,0,0:0:0:0:
256,208,687354,1,8,0:0:0:0:
256,208,687473,1,0,0:0:0:0:
256,208,687711,1,12,0:0:0:0:
256,208,687830,1,0,0:0:0:0:
256,208,687949,1,12,0:0:0:0:
256,208,688188,1,0,0:0:0:0:
256,208,688307,1,8,0:0:0:0:
256,208,688426,1,0,0:0:0:0:
256,208,688545,1,12,0:0:0:0:
256,208,688783,1,0,0:0:0:0:
256,208,688902,1,8,0:0:0:0:
256,208,688981,1,8,0:0:0:0:
256,208,689061,1,8,0:0:0:0:
256,208,689140,1,0,0:0:0:0:
320,208,689220,1,0,0:0:0:0:
288,208,689299,1,0,0:0:0:0:
288,208,689378,1,12,0:0:0:0:
288,224,689497,1,0,0:0:0:0:
288,224,689616,1,0,0:0:0:0:
272,224,689735,1,12,0:0:0:0:
288,224,689855,1,0,0:0:0:0:
288,224,689974,1,0,0:0:0:0:
272,224,690093,1,12,0:0:0:0:
288,224,690212,1,0,0:0:0:0:
272,224,690331,1,12,0:0:0:0:
288,224,690450,1,0,0:0:0:0:
288,224,690569,1,0,0:0:0:0:
304,240,690688,1,12,0:0:0:0:
288,224,690807,1,0,0:0:0:0:
288,224,690926,1,0,0:0:0:0:
304,240,691045,1,12,0:0:0:0:
288,224,691164,1,0,0:0:0:0:
304,240,691283,1,12,0:0:0:0:
288,240,692235,1,12,0:0:0:0:
288,240,692355,1,0,0:0:0:0:
256,224,692474,1,8,0:0:0:0:
288,240,692593,1,0,0:0:0:0:
288,224,692712,1,8,0:0:0:0:
288,224,692771,1,8,0:0:0:0:
288,224,692831,1,0,0:0:0:0:
288,240,692950,1,8,0:0:0:0:
288,224,693009,1,0,0:0:0:0:
288,224,693069,1,0,0:0:0:0:
288,224,693188,1,12,0:0:0:0:
304,240,693307,1,0,0:0:0:0:
304,240,693366,1,0,0:0:0:0:
304,240,693426,1,8,0:0:0:0:
304,240,693545,1,0,0:0:0:0:
304,240,693664,1,8,0:0:0:0:
304,240,693724,1,8,0:0:0:0:
304,240,693783,1,0,0:0:0:0:
304,240,693902,1,8,0:0:0:0:
304,240,693962,1,8,0:0:0:0:
304,240,694021,1,8,0:0:0:0:
304,240,694081,1,8,0:0:0:0:
304,240,694140,1,0,0:0:0:0:
304,240,694378,1,0,0:0:0:0:
304,240,694497,1,8,0:0:0:0:
304,240,694557,1,0,0:0:0:0:
320,256,694616,1,0,0:0:0:0:
320,256,694735,1,0,0:0:0:0:
320,256,694855,1,8,0:0:0:0:
304,256,694974,1,0,0:0:0:0:
304,256,695093,1,12,0:0:0:0:
304,256,695212,1,0,0:0:0:0:
304,256,695271,1,0,0:0:0:0:
320,272,695331,1,8,0:0:0:0:
320,272,695450,1,8,0:0:0:0:
320,272,695509,1,8,0:0:0:0:
320,272,695569,1,0,0:0:0:0:
320,272,695628,1,0,0:0:0:0:
320,272,695688,1,0,0:0:0:0:
304,272,695807,1,8,0:0:0:0:
224,224,695866,1,0,0:0:0:0:
304,272,695926,1,0,0:0:0:0:
304,272,696045,1,12,0:0:0:0:
320,272,696283,1,8,0:0:0:0:
320,272,696402,1,8,0:0:0:0:
336,288,696521,1,4,0:0:0:0:
256,208,696759,1,8,0:0:0:0:
192,192,696878,1,0,0:0:0:0:
288,224,696997,1,12,0:0:0:0:
304,240,697116,1,0,0:0:0:0:
304,240,697175,1,0,0:0:0:0:
304,240,697235,1,8,0:0:0:0:
304,224,697295,1,8,0:0:0:0:
304,240,697354,1,0,0:0:0:0:
304,240,697473,1,8,0:0:0:0:
304,240,697533,1,8,0:0:0:0:
304,240,697592,1,0,0:0:0:0:
304,240,697711,1,8,0:0:0:0:
304,240,697771,1,8,0:0:0:0:
304,240,697830,1,8,0:0:0:0:
304,240,697890,1,8,0:0:0:0:
304,240,697949,1,0,0:0:0:0:
304,240,698187,1,0,0:0:0:0:
304,240,698306,1,8,0:0:0:0:
304,240,698366,1,0,0:0:0:0:
320,256,698425,1,0,0:0:0:0:
320,256,698544,1,0,0:0:0:0:
320,256,698664,1,8,0:0:0:0:
304,256,698783,1,0,0:0:0:0:
304,256,698902,1,12,0:0:0:0:
304,256,699021,1,0,0:0:0:0:
304,256,699080,1,0,0:0:0:0:
320,272,699140,1,8,0:0:0:0:
320,272,699259,1,0,0:0:0:0:
320,272,699318,1,0,0:0:0:0:
320,272,699378,1,8,0:0:0:0:
320,272,699437,1,0,0:0:0:0:
320,272,699497,1,0,0:0:0:0:
304,272,699616,1,8,0:0:0:0:
224,224,699675,1,8,0:0:0:0:
304,272,699735,1,0,0:0:0:0:
304,272,699854,1,8,0:0:0:0:
320,272,700093,1,0,0:0:0:0:
336,288,700331,1,12,0:0:0:0:
192,192,700554,1,0,0:0:0:0:
192,192,700628,1,0,0:0:0:0:
192,192,700703,1,0,0:0:0:0:
288,224,700807,1,12,0:0:0:0:
304,240,700926,1,0,0:0:0:0:
304,240,700985,1,0,0:0:0:0:
304,240,701045,1,8,0:0:0:0:
256,224,701105,1,8,0:0:0:0:
304,240,701164,1,0,0:0:0:0:
304,240,701283,1,8,0:0:0:0:
304,240,701343,1,8,0:0:0:0:
304,240,701402,1,0,0:0:0:0:
304,240,701521,1,8,0:0:0:0:
304,240,701581,1,8,0:0:0:0:
304,240,701640,1,8,0:0:0:0:
304,240,701700,1,8,0:0:0:0:
304,240,701759,1,0,0:0:0:0:
304,240,701878,1,8,0:0:0:0:
304,240,701997,1,0,0:0:0:0:
304,240,702116,1,8,0:0:0:0:
304,240,702176,1,0,0:0:0:0:
320,256,702235,1,0,0:0:0:0:
320,256,702354,1,0,0:0:0:0:
304,256,702414,1,0,0:0:0:0:
320,256,702474,1,8,0:0:0:0:
320,256,702593,1,0,0:0:0:0:
304,256,702712,1,8,0:0:0:0:
304,256,702831,1,0,0:0:0:0:
304,256,702890,1,0,0:0:0:0:
320,272,702950,1,8,0:0:0:0:
320,272,703069,1,8,0:0:0:0:
320,272,703128,1,8,0:0:0:0:
320,272,703188,1,0,0:0:0:0:
320,272,703247,1,0,0:0:0:0:
320,272,703307,1,0,0:0:0:0:
304,272,703426,1,8,0:0:0:0:
224,224,703485,1,0,0:0:0:0:
304,272,703545,1,0,0:0:0:0:
304,272,703664,1,8,0:0:0:0:
208,208,703783,1,0,0:0:0:0:
320,272,703902,1,8,0:0:0:0:
208,208,703962,1,8,0:0:0:0:
320,272,704021,1,0,0:0:0:0:
224,224,704081,1,0,0:0:0:0:
336,288,704140,1,8,0:0:0:0:
192,208,704259,1,0,0:0:0:0:
256,208,704378,1,8,0:0:0:0:
192,192,704497,1,0,0:0:0:0:
288,224,704616,1,12,0:0:0:0:
304,240,704735,1,0,0:0:0:0:
304,240,704794,1,0,0:0:0:0:
304,240,704854,1,8,0:0:0:0:
288,240,704914,1,0,0:0:0:0:
304,240,704973,1,0,0:0:0:0:
304,240,705092,1,8,0:0:0:0:
304,240,705152,1,0,0:0:0:0:
304,240,705211,1,0,0:0:0:0:
304,240,705330,1,8,0:0:0:0:
304,240,705390,1,8,0:0:0:0:
304,240,705449,1,8,0:0:0:0:
304,240,705509,1,8,0:0:0:0:
304,240,705568,1,0,0:0:0:0:
304,240,705806,1,0,0:0:0:0:
304,240,705925,1,8,0:0:0:0:
304,240,705985,1,0,0:0:0:0:
320,256,706045,1,0,0:0:0:0:
320,256,706163,1,0,0:0:0:0:
320,256,706283,1,8,0:0:0:0:
304,256,706402,1,0,0:0:0:0:
304,256,706521,1,12,0:0:0:0:
304,256,706640,1,0,0:0:0:0:
304,256,706699,1,0,0:0:0:0:
320,272,706759,1,0,0:0:0:0:
304,240,706819,1,0,0:0:0:0:
368,272,706878,1,12,0:0:0:0:
336,256,706997,1,0,0:0:0:0:
336,256,707057,1,0,0:0:0:0:
336,256,707116,1,0,0:0:0:0:
336,256,707235,1,12,0:0:0:0:
336,256,707355,1,0,0:0:0:0:
304,272,707473,1,12,0:0:0:0:
320,272,707711,1,8,0:0:0:0:
320,272,707830,1,8,0:0:0:0:
336,288,707949,1,0,0:0:0:0:
288,224,708426,1,12,0:0:0:0:
304,240,708545,1,0,0:0:0:0:
304,240,708604,1,0,0:0:0:0:
304,240,708664,1,8,0:0:0:0:
304,240,708783,1,0,0:0:0:0:
304,240,708902,1,8,0:0:0:0:
304,240,708962,1,8,0:0:0:0:
304,240,709021,1,0,0:0:0:0:
304,240,709140,1,8,0:0:0:0:
304,240,709200,1,8,0:0:0:0:
304,240,709259,1,8,0:0:0:0:
304,240,709319,1,8,0:0:0:0:
304,240,709378,1,0,0:0:0:0:
304,240,709616,1,0,0:0:0:0:
304,240,709735,1,8,0:0:0:0:
304,240,709795,1,0,0:0:0:0:
320,256,709854,1,0,0:0:0:0:
320,256,709973,1,0,0:0:0:0:
320,256,710093,1,8,0:0:0:0:
304,256,710212,1,0,0:0:0:0:
304,256,710331,1,12,0:0:0:0:
304,256,710450,1,0,0:0:0:0:
304,256,710509,1,0,0:0:0:0:
320,272,710569,1,8,0:0:0:0:
320,272,710688,1,8,0:0:0:0:
320,272,710747,1,8,0:0:0:0:
320,272,710807,1,0,0:0:0:0:
320,272,710866,1,0,0:0:0:0:
320,272,710926,1,0,0:0:0:0:
304,272,711045,1,8,0:0:0:0:
224,224,711104,1,0,0:0:0:0:
304,272,711164,1,0,0:0:0:0:
304,272,711283,1,12,0:0:0:0:
320,272,711521,1,8,0:0:0:0:
320,272,711640,1,0,0:0:0:0:
169,208,711700,1,0,0:0:0:0:
336,288,711759,1,8,0:0:0:0:
224,194,711878,1,0,0:0:0:0:
256,208,711997,1,8,0:0:0:0:
192,192,712116,1,0,0:0:0:0:
288,224,712235,1,12,0:0:0:0:
304,240,712354,1,0,0:0:0:0:
304,240,712413,1,0,0:0:0:0:
304,240,712473,1,8,0:0:0:0:
304,224,712533,1,8,0:0:0:0:
304,240,712592,1,0,0:0:0:0:
304,240,712711,1,8,0:0:0:0:
304,240,712771,1,8,0:0:0:0:
304,240,712830,1,0,0:0:0:0:
304,240,712949,1,8,0:0:0:0:
304,240,713009,1,8,0:0:0:0:
304,240,713068,1,8,0:0:0:0:
304,240,713128,1,8,0:0:0:0:
304,240,713187,1,0,0:0:0:0:
304,240,713425,1,0,0:0:0:0:
304,240,713544,1,8,0:0:0:0:
304,240,713604,1,0,0:0:0:0:
320,256,713663,1,0,0:0:0:0:
320,256,713782,1,0,0:0:0:0:
320,256,713902,1,8,0:0:0:0:
304,256,714021,1,0,0:0:0:0:
304,256,714140,1,12,0:0:0:0:
304,256,714259,1,0,0:0:0:0:
304,256,714318,1,0,0:0:0:0:
320,272,714378,1,8,0:0:0:0:
320,272,714497,1,0,0:0:0:0:
320,272,714556,1,0,0:0:0:0:
320,272,714616,1,8,0:0:0:0:
320,272,714675,1,0,0:0:0:0:
320,272,714735,1,0,0:0:0:0:
304,272,714854,1,8,0:0:0:0:
224,224,714913,1,8,0:0:0:0:
304,272,714973,1,0,0:0:0:0:
304,272,715092,1,8,0:0:0:0:
320,272,715331,1,0,0:0:0:0:
448,64,715569,1,8,0:0:0:0:
220,171,715648,1,8,0:0:0:0:
220,171,715728,1,0,0:0:0:0:
273,207,715807,1,8,0:0:0:0:
192,192,715886,1,0,0:0:0:0:
192,192,715966,1,0,0:0:0:0:
288,224,716045,1,12,0:0:0:0:
304,240,716164,1,0,0:0:0:0:
304,240,716223,1,0,0:0:0:0:
304,240,716283,1,8,0:0:0:0:
256,224,716343,1,8,0:0:0:0:
304,240,716402,1,0,0:0:0:0:
304,240,716521,1,8,0:0:0:0:
304,240,716581,1,8,0:0:0:0:
304,240,716640,1,0,0:0:0:0:
304,240,716759,1,8,0:0:0:0:
304,240,716819,1,8,0:0:0:0:
304,240,716878,1,8,0:0:0:0:
304,240,716938,1,8,0:0:0:0:
304,240,716997,1,0,0:0:0:0:
304,240,717116,1,8,0:0:0:0:
304,240,717235,1,0,0:0:0:0:
304,240,717354,1,8,0:0:0:0:
304,240,717414,1,0,0:0:0:0:
320,256,717473,1,0,0:0:0:0:
320,256,717592,1,0,0:0:0:0:
304,256,717652,1,0,0:0:0:0:
320,256,717712,1,8,0:0:0:0:
320,256,717831,1,0,0:0:0:0:
304,256,717950,1,12,0:0:0:0:
304,256,718069,1,0,0:0:0:0:
304,256,718128,1,0,0:0:0:0:
320,272,718188,1,8,0:0:0:0:
320,272,718307,1,8,0:0:0:0:
320,272,718366,1,8,0:0:0:0:
320,272,718426,1,0,0:0:0:0:
320,272,718485,1,0,0:0:0:0:
320,272,718545,1,0,0:0:0:0:
304,272,718664,1,8,0:0:0:0:
224,224,718723,1,0,0:0:0:0:
304,272,718783,1,0,0:0:0:0:
304,272,718902,1,8,0:0:0:0:
208,208,719021,1,0,0:0:0:0:
320,272,719140,1,8,0:0:0:0:
208,208,719200,1,8,0:0:0:0:
320,272,719259,1,0,0:0:0:0:
224,224,719319,1,0,0:0:0:0:
336,288,719378,1,8,0:0:0:0:
192,208,719497,1,0,0:0:0:0:
256,208,719616,1,8,0:0:0:0:
192,192,719735,1,0,0:0:0:0:
288,224,719854,1,12,0:0:0:0:
304,240,719973,1,0,0:0:0:0:
304,240,720032,1,0,0:0:0:0:
304,240,720092,1,8,0:0:0:0:
288,240,720152,1,0,0:0:0:0:
304,240,720211,1,0,0:0:0:0:
304,240,720330,1,8,0:0:0:0:
304,240,720390,1,0,0:0:0:0:
304,240,720449,1,0,0:0:0:0:
304,240,720568,1,8,0:0:0:0:
304,240,720628,1,8,0:0:0:0:
304,240,720687,1,8,0:0:0:0:
304,240,720747,1,8,0:0:0:0:
304,240,720806,1,0,0:0:0:0:
304,240,721045,1,12,0:0:0:0:
304,240,721163,1,0,0:0:0:0:
304,240,721223,1,0,0:0:0:0:
320,256,721282,1,8,0:0:0:0:
320,256,721401,5,0,0:0:0:0:
327,191,721432,1,0,0:0:0:0:
320,256,721521,1,8,0:0:0:0:
304,256,721640,1,0,0:0:0:0:
224,192,721759,1,12,0:0:0:0:
272,192,721878,1,0,0:0:0:0:
272,192,721938,1,0,0:0:0:0:
272,192,721997,1,0,0:0:0:0:
272,192,722057,1,0,0:0:0:0:
272,192,722116,1,12,0:0:0:0:
272,192,722235,1,0,0:0:0:0:
272,192,722295,1,0,0:0:0:0:
272,192,722354,1,0,0:0:0:0:
272,192,722474,1,12,0:0:0:0:
272,192,722593,1,0,0:0:0:0:
272,192,722712,1,12,0:0:0:0:
304,224,722950,1,8,0:0:0:0:
304,224,723009,1,8,0:0:0:0:
304,224,723069,1,0,0:0:0:0:
304,224,723128,1,0,0:0:0:0:
304,224,723188,1,8,0:0:0:0:
296,234,723307,1,0,0:0:0:0:
296,234,723426,1,8,0:0:0:0:
296,234,723545,1,0,0:0:0:0:
296,234,723664,1,12,0:0:0:0:
352,288,723783,1,0,0:0:0:0:
320,256,723902,1,8,0:0:0:0:
320,256,724021,1,8,0:0:0:0:
320,256,724140,1,0,0:0:0:0:
284,246,724200,1,8,0:0:0:0:
320,256,724259,1,0,0:0:0:0:
320,256,724378,1,8,0:0:0:0:
320,256,724497,1,0,0:0:0:0:
320,256,724616,1,0,0:0:0:0:
320,256,724735,1,0,0:0:0:0:
304,256,724854,1,8,0:0:0:0:
336,256,724914,1,0,0:0:0:0:
304,256,724974,1,0,0:0:0:0:
304,256,725033,1,0,0:0:0:0:
304,256,725093,1,8,0:0:0:0:
304,256,725212,1,0,0:0:0:0:
304,256,725331,1,8,0:0:0:0:
304,256,725450,1,0,0:0:0:0:
304,256,725509,1,0,0:0:0:0:
304,256,725569,1,8,0:0:0:0:
320,272,725628,1,8,0:0:0:0:
304,256,725688,1,0,0:0:0:0:
304,256,725807,1,0,0:0:0:0:
304,256,725926,1,8,0:0:0:0:
304,256,725985,1,8,0:0:0:0:
304,256,726045,1,0,0:0:0:0:
208,192,726104,1,0,0:0:0:0:
272,224,726164,1,0,0:0:0:0:
272,224,726283,1,8,0:0:0:0:
208,176,726343,1,8,0:0:0:0:
272,224,726402,1,0,0:0:0:0:
256,224,726521,1,8,0:0:0:0:
304,272,726640,1,0,0:0:0:0:
320,256,726759,1,12,0:0:0:0:
304,256,726878,1,0,0:0:0:0:
304,256,726997,1,8,0:0:0:0:
304,256,727116,1,8,0:0:0:0:
304,256,727235,1,4,0:0:0:0:
296,234,727474,1,12,0:0:0:0:
352,288,727593,1,0,0:0:0:0:
320,256,727712,1,8,0:0:0:0:
320,256,727831,1,8,0:0:0:0:
320,256,727950,1,0,0:0:0:0:
296,246,728009,1,0,0:0:0:0:
320,256,728069,1,0,0:0:0:0:
320,256,728188,1,8,0:0:0:0:
320,256,728307,1,0,0:0:0:0:
320,256,728426,1,0,0:0:0:0:
320,256,728545,1,0,0:0:0:0:
304,256,728664,1,8,0:0:0:0:
336,256,728724,1,0,0:0:0:0:
304,256,728784,1,0,0:0:0:0:
304,256,728843,1,8,0:0:0:0:
304,256,728903,1,8,0:0:0:0:
304,256,729022,1,0,0:0:0:0:
304,256,729141,1,8,0:0:0:0:
304,256,729260,1,0,0:0:0:0:
304,256,729319,1,0,0:0:0:0:
304,256,729379,1,8,0:0:0:0:
320,272,729438,1,0,0:0:0:0:
304,256,729498,1,0,0:0:0:0:
304,256,729617,1,0,0:0:0:0:
304,256,729736,1,8,0:0:0:0:
304,256,729795,1,8,0:0:0:0:
304,256,729855,1,0,0:0:0:0:
208,192,729914,1,0,0:0:0:0:
272,224,729974,1,0,0:0:0:0:
272,224,730093,1,8,0:0:0:0:
208,176,730153,1,8,0:0:0:0:
272,224,730212,1,0,0:0:0:0:
256,224,730331,1,12,0:0:0:0:
304,272,730450,1,0,0:0:0:0:
320,256,730569,1,12,0:0:0:0:
304,256,730688,1,0,0:0:0:0:
304,256,730807,1,12,0:0:0:0:
304,256,730926,1,8,0:0:0:0:
304,256,731045,1,4,0:0:0:0:
288,240,731164,1,0,0:0:0:0:
296,234,731283,1,12,0:0:0:0:
352,288,731402,1,0,0:0:0:0:
304,224,731462,1,0,0:0:0:0:
320,256,731521,1,8,0:0:0:0:
320,256,731640,1,0,0:0:0:0:
320,256,731759,1,8,0:0:0:0:
320,256,731878,1,0,0:0:0:0:
304,240,731938,1,0,0:0:0:0:
320,256,731997,1,8,0:0:0:0:
320,256,732116,1,0,0:0:0:0:
320,256,732235,1,8,0:0:0:0:
304,240,732295,1,8,0:0:0:0:
320,256,732354,1,0,0:0:0:0:
304,240,732414,1,0,0:0:0:0:
304,256,732473,1,8,0:0:0:0:
304,256,732593,1,0,0:0:0:0:
304,256,732712,1,8,0:0:0:0:
304,256,732831,1,0,0:0:0:0:
304,256,732890,1,0,0:0:0:0:
304,256,732950,1,8,0:0:0:0:
304,256,733069,1,0,0:0:0:0:
304,256,733188,1,12,0:0:0:0:
304,256,733307,1,0,0:0:0:0:
320,272,733366,1,0,0:0:0:0:
304,256,733426,1,8,0:0:0:0:
304,256,733545,1,0,0:0:0:0:
304,256,733604,1,0,0:0:0:0:
304,256,733664,1,8,0:0:0:0:
208,192,733723,1,8,0:0:0:0:
272,224,733783,1,0,0:0:0:0:
272,224,733902,1,8,0:0:0:0:
208,176,733962,1,8,0:0:0:0:
272,224,734021,1,0,0:0:0:0:
256,224,734140,1,8,0:0:0:0:
304,272,734259,1,0,0:0:0:0:
320,256,734378,1,8,0:0:0:0:
304,256,734497,1,0,0:0:0:0:
304,256,734616,1,8,0:0:0:0:
304,256,734735,1,8,0:0:0:0:
304,256,734854,1,0,0:0:0:0:
296,234,735093,1,12,0:0:0:0:
352,288,735212,1,0,0:0:0:0:
304,224,735272,1,0,0:0:0:0:
320,256,735331,1,8,0:0:0:0:
320,256,735450,1,0,0:0:0:0:
320,256,735569,1,8,0:0:0:0:
320,256,735688,1,0,0:0:0:0:
304,240,735748,1,0,0:0:0:0:
320,256,735807,1,8,0:0:0:0:
320,256,735926,1,0,0:0:0:0:
320,256,736045,1,8,0:0:0:0:
304,240,736105,1,8,0:0:0:0:
320,256,736164,1,0,0:0:0:0:
304,240,736224,1,0,0:0:0:0:
304,256,736283,1,8,0:0:0:0:
304,256,736403,1,0,0:0:0:0:
304,256,736522,1,8,0:0:0:0:
304,256,736601,1,8,0:0:0:0:
304,256,736680,1,8,0:0:0:0:
304,256,736760,1,0,0:0:0:0:
304,256,736839,1,0,0:0:0:0:
288,224,736918,1,0,0:0:0:0:
304,256,736998,1,12,0:0:0:0:
256,192,737116,1,0,0:0:0:0:
256,192,737176,1,0,0:0:0:0:
256,192,737235,1,0,0:0:0:0:
256,192,737295,1,0,0:0:0:0:
256,192,737354,1,12,0:0:0:0:
256,192,737474,1,0,0:0:0:0:
256,192,737533,1,0,0:0:0:0:
256,192,737593,1,0,0:0:0:0:
256,192,737712,1,12,0:0:0:0:
256,192,737831,1,0,0:0:0:0:
256,192,737950,1,12,0:0:0:0:
272,224,738426,1,0,0:0:0:0:
257,185,738902,1,12,0:0:0:0:
288,237,739616,1,8,0:0:0:0:
288,237,739854,1,8,0:0:0:0:
242,202,739974,1,0,0:0:0:0:
288,237,740092,1,0,0:0:0:0:
242,202,740212,1,0,0:0:0:0:
288,237,740330,1,8,0:0:0:0:
233,199,740450,1,8,0:0:0:0:
254,200,740568,1,4,0:0:0:0:
254,200,740806,1,12,0:0:0:0:
297,233,741521,1,8,0:0:0:0:
297,233,741759,1,8,0:0:0:0:
310,232,741878,1,0,0:0:0:0:
297,233,741997,1,8,0:0:0:0:
308,244,742116,1,0,0:0:0:0:
297,233,742235,1,8,0:0:0:0:
300,249,742354,1,8,0:0:0:0:
297,233,742473,1,4,0:0:0:0:
448,320,742712,1,12,0:0:0:0:
305,240,742830,1,0,0:0:0:0:
297,233,742949,1,8,0:0:0:0:
305,240,743068,1,0,0:0:0:0:
284,219,743187,1,12,0:0:0:0:
312,250,743306,1,0,0:0:0:0:
312,250,743426,1,8,0:0:0:0:
384,256,743485,1,8,0:0:0:0:
312,250,743545,1,0,0:0:0:0:
288,224,743604,1,0,0:0:0:0:
297,233,743664,1,0,0:0:0:0:
305,240,743782,1,12,0:0:0:0:
297,233,743901,1,0,0:0:0:0:
305,240,744020,1,0,0:0:0:0:
284,219,744139,1,12,0:0:0:0:
312,250,744259,1,0,0:0:0:0:
320,224,744319,1,0,0:0:0:0:
312,250,744377,1,8,0:0:0:0:
352,224,744438,1,8,0:0:0:0:
312,250,744496,1,0,0:0:0:0:
280,197,744616,1,12,0:0:0:0:
292,230,744735,1,0,0:0:0:0:
297,233,744854,1,8,0:0:0:0:
292,230,744973,1,8,0:0:0:0:
292,230,745092,1,0,0:0:0:0:
292,230,745211,1,0,0:0:0:0:
292,230,745330,1,0,0:0:0:0:
292,230,745449,1,0,0:0:0:0:
301,224,745568,1,12,0:0:0:0:
304,240,745807,1,0,0:0:0:0:
304,240,746045,1,8,0:0:0:0:
304,240,746283,1,0,0:0:0:0:
256,192,746521,5,12,0:0:0:0:
256,192,746759,1,0,0:0:0:0:
256,192,746839,1,0,0:0:0:0:
256,192,746918,1,2,0:0:0:0:
256,192,746997,1,0,0:0:0:0:
256,192,747077,1,0,0:0:0:0:
256,192,747156,1,2,0:0:0:0:
256,192,747235,1,0,0:0:0:0:
256,192,747315,1,0,0:0:0:0:
256,192,747394,1,2,0:0:0:0:
256,192,747474,1,0,0:0:0:0:
256,192,747554,1,0,0:0:0:0:
256,192,747633,1,0,0:0:0:0:
217,210,747712,1,2,0:0:0:0:
233,209,747791,1,2,0:0:0:0:
233,207,747870,1,0,0:0:0:0:
217,210,747950,1,2,0:0:0:0:
233,209,748029,1,2,0:0:0:0:
233,207,748108,1,0,0:0:0:0:
217,210,748188,1,2,0:0:0:0:
233,209,748267,1,2,0:0:0:0:
233,207,748346,1,0,0:0:0:0:
217,210,748426,1,2,0:0:0:0:
233,209,748505,1,2,0:0:0:0:
233,207,748584,1,2,0:0:0:0:
256,192,748664,1,0,0:0:0:0:
256,192,748744,1,0,0:0:0:0:
256,192,748823,1,2,0:0:0:0:
256,192,748902,1,0,0:0:0:0:
256,192,748982,1,0,0:0:0:0:
256,192,749061,1,2,0:0:0:0:
256,192,749140,1,0,0:0:0:0:
256,192,749220,1,0,0:0:0:0:
256,192,749299,1,2,0:0:0:0:
256,192,749379,1,0,0:0:0:0:
256,192,749459,1,0,0:0:0:0:
256,192,749538,1,0,0:0:0:0:
217,210,749617,1,2,0:0:0:0:
233,209,749696,1,2,0:0:0:0:
233,207,749775,1,0,0:0:0:0:
217,210,749855,1,2,0:0:0:0:
233,209,749934,1,2,0:0:0:0:
233,207,750013,1,0,0:0:0:0:
217,210,750093,1,2,0:0:0:0:
233,209,750172,1,2,0:0:0:0:
233,207,750251,1,2,0:0:0:0:
217,210,750331,1,4,0:0:0:0:
257,192,751283,1,12,0:0:0:0:
248,195,752235,5,4,0:0:0:0:
