osu file format v14

[General]
AudioFilename: audio.mp3
AudioLeadIn: 0
PreviewTime: 93913
Countdown: 0
SampleSet: Soft
StackLeniency: 0.7
Mode: 0
LetterboxInBreaks: 0
WidescreenStoryboard: 1

[Editor]
Bookmarks: 26237,37531,48825,60119,71413,82707,94001,116590,127884,139178,150472,161766,162119,162472,162825,163178,163531,163884,164237,164590,164943,165296,165648,166001,166354,166707,167060,167413,167766,168119,168472,168825,169178,169531,169884,170237,170590,170943,171296,171648,172001,172354,172707,173060,184380,195674,206943,218237,229531,240825,252119,274707,286001,297296,308590,319001
DistanceSpacing: 0.6
BeatDivisor: 4
GridSize: 4
TimelineZoom: 1

[Metadata]
Title:Luvin'Epoch
TitleUnicode:Luvin'Epoch
Artist:TEA,ginkiha
ArtistUnicode:TEA,ginkiha
Creator:Meg
Version:Collab
Source:
Tags:ginkiha ft.TEA Girl meets Girl ガール・ミーツ・ガール NIZI-RINGO ShiraKai kaCha iMage-- pop
BeatmapID:1253183
BeatmapSetID:592259

[Difficulty]
HPDrainRate:6
CircleSize:4
OverallDifficulty:8
ApproachRate:9
SliderMultiplier:1.7
SliderTickRate:1

[Events]
//Background and Video events
0,0,"luvinepoch.jpg",0,0
//Break Periods
2,161966,172460
//Storyboard Layer 0 (Background)
//Storyboard Layer 1 (Fail)
//Storyboard Layer 2 (Pass)
//Storyboard Layer 3 (Foreground)
//Storyboard Sound Samples

[TimingPoints]
3649,352.941176470588,4,2,2,50,1,0
3649,-133.333333333333,4,2,2,50,0,0
26237,-100,4,2,1,60,0,0
37531,-133.333333333333,4,2,1,60,0,0
48825,-111.111111111111,4,2,1,60,0,0
69119,-100,4,2,1,60,0,0
69472,-90.9090909090909,4,2,1,60,0,0
69825,-83.3333333333333,4,2,1,60,0,0
70178,-100,4,2,1,60,0,0
71413,-200,4,2,1,60,0,0
71766,-100,4,2,1,60,0,0
81648,-76.9230769230769,4,2,1,60,0,0
82001,-125,4,2,1,60,0,0
82707,-100,4,2,1,60,0,0
93296,-83.3333333333333,4,2,1,60,0,0
93648,-71.4285714285714,4,2,1,60,0,0
94001,-90.9090909090909,4,2,1,70,0,1
116590,-100,4,2,1,60,0,0
139178,-133.333333333333,4,2,1,50,0,0
149060,-100,4,2,1,60,0,0
160707,-66.6666666666667,4,2,1,60,0,0
161060,-200,4,2,1,60,0,0
161413,-100,4,2,1,60,0,0
161766,-100,4,2,1,50,0,0
173060,-125,4,2,2,60,0,0
182943,359.281437125748,4,2,2,50,1,0
182943,-125,4,2,2,50,0,0
183302,-76.9230769230769,4,2,2,60,0,0
183661,-200,4,2,2,60,0,0
184020,-100,4,2,2,60,0,0
184380,352.941176470588,4,2,1,60,1,0
184380,-100,4,2,1,60,0,0
185615,-100,4,2,3,60,0,0
185703,-100,4,2,1,60,0,0
186850,-100,4,2,2,60,0,0
186938,-100,4,2,1,60,0,0
187203,-100,4,2,2,60,0,0
187291,-100,4,2,1,60,0,0
188615,-100,4,2,2,60,0,0
188703,-100,4,2,1,60,0,0
189497,-100,4,2,2,60,0,0
189938,-100,4,2,1,60,0,0
191262,-100,4,2,2,60,0,0
191350,-100,4,2,1,60,0,0
192497,-100,4,2,2,60,0,0
192585,-100,4,2,1,60,0,0
192850,-100,4,2,2,60,0,0
192938,-100,4,2,1,60,0,0
193556,-100,4,2,2,60,0,0
193821,-100,4,2,1,60,0,0
194262,-100,4,2,2,60,0,0
194350,-100,4,2,1,60,0,0
194615,-100,4,2,2,60,0,0
194703,-100,4,2,1,60,0,0
194968,-100,4,2,2,60,0,0
195056,-100,4,2,1,60,0,0
195321,-100,4,2,3,60,0,0
195409,-100,4,2,1,60,0,0
196000,352.941176470588,4,2,2,50,1,0
197058,352.941176470588,4,2,2,50,1,0
217175,-100,4,2,2,60,0,0
227940,-133.333333333333,4,2,1,60,0,0
228469,-76.9230769230769,4,2,1,60,0,0
228822,-200,4,2,1,60,0,0
229175,-100,4,2,1,60,0,0
251410,-66.6666666666667,4,2,1,60,0,0
251763,-58.8235294117647,4,2,1,60,0,0
252116,-90.9090909090909,4,2,1,70,0,1
274705,-100,4,2,1,60,0,0
297293,-125,4,2,1,50,0,0
307528,-76.9230769230769,4,2,1,60,0,0
307881,-100,4,2,1,60,0,0
318293,-200,4,2,1,60,0,0
319175,-200,4,2,1,25,0,0

[Colours]
Combo1 : 210,255,210
Combo2 : 200,155,155
Combo3 : 128,255,255
Combo4 : 255,202,255

[HitObjects]
344,320,3649,5,2,0:0:0:0:
156,224,4884,1,2,0:0:0:0:
344,320,6119,6,0,P|359:262|310:228,1,127.500004863739,2|2,0:0|0:0,0:0:0:0:
256,72,7884,5,2,0:0:0:0:
52,136,8766,5,2,0:0:0:0:
16,64,8943,1,2,0:0:0:0:
73,8,9119,1,2,0:0:0:0:
144,45,9296,1,2,0:0:0:0:
464,84,10531,5,2,0:0:0:0:
159,192,11766,6,0,P|207:151|268:158,1,127.500004863739,2|2,0:0|0:0,0:0:0:0:
412,320,12825,2,0,L|443:313,2,31.8750012159348,2|2|2,0:0|0:0|0:0,0:0:0:0:
260,340,13531,5,2,0:0:0:0:
240,188,13884,1,2,0:0:0:0:
392,168,14237,1,2,0:0:0:0:
412,320,14590,1,2,0:0:0:0:
240,187,14943,6,0,P|232:218|231:250,1,63.7500024318696,6|0,0:0|0:0,0:0:0:0:
172,336,15296,2,0,P|155:308|133:285,1,63.7500024318696,8|0,0:0|0:0,0:0:0:0:
12,240,15648,2,0,L|74:228,2,63.7500024318696,0|0|8,0:0|0:0|0:0,0:0:0:0:
80,128,16178,5,2,0:0:0:0:
164,104,16354,1,0,0:0:0:0:
223,168,16531,2,0,P|255:164|285:153,1,63.7500024318696,0|8,0:0|0:0,0:0:0:0:
384,84,16884,2,0,L|321:69,1,63.7500024318696,0|0,0:0|0:0,0:0:0:0:
236,88,17237,1,0,0:0:0:0:
256,240,17413,2,0,P|240:212|213:195,1,63.7500024318696,10|10,0:0|0:0,0:0:0:0:
82,224,17766,5,2,0:3:0:0:
156,340,17943,1,0,0:0:0:0:
100,256,18119,1,8,0:0:0:0:
60,364,18296,1,0,0:0:0:0:
176,328,18472,2,0,L|207:334,1,31.8750012159348
64,256,18648,1,0,0:0:0:0:
192,208,18825,1,8,0:0:0:0:
64,256,19001,1,0,0:0:0:0:
207,334,19178,6,0,L|269:324,2,63.7500024318696,2|0|8,0:0|0:0|0:0,0:0:0:0:
308,248,19707,2,0,P|300:278|298:310,1,63.7500024318696,0|0,0:0|0:0,0:0:0:0:
436,328,20060,2,0,P|412:306|385:289,1,63.7500024318696,2|8,0:0|0:0,0:0:0:0:
448,184,20413,1,0,0:0:0:0:
308,248,20590,1,8,0:0:0:0:
372,88,20766,5,0,0:0:0:0:
372,88,20943,2,0,L|374:151,1,63.7500024318696,8|0,0:0|0:0,0:0:0:0:
456,312,21296,2,0,B|464:220|464:220|434:239,1,127.500004863739,0|8,0:0|0:0,0:0:0:0:
336,344,21825,6,0,B|308:308|308:308|280:292|228:292,1,127.500004863739,2|0,0:0|0:0,0:0:0:0:
156,336,22354,1,8,0:0:0:0:
58,193,22531,1,0,0:0:0:0:
58,193,22619,1,0,0:0:0:0:
58,193,22707,1,0,0:0:0:0:
148,236,22884,1,0,0:0:0:0:
66,293,23060,1,10,0:0:0:0:
58,193,23237,1,0,0:0:0:0:
139,136,23413,6,0,P|171:138|201:150,1,63.7500024318696,10|0,0:0|0:0,0:0:0:0:
324,88,23766,2,0,P|292:90|262:102,1,63.7500024318696,8|0,0:0|0:0,0:0:0:0:
304,256,24119,1,8,0:0:0:0:
304,256,24207,1,0,0:0:0:0:
304,256,24296,1,8,0:0:0:0:
312,164,24472,1,8,0:0:0:0:
151,212,24648,1,8,0:0:0:0:
189,48,24825,5,10,0:0:0:0:
218,141,25001,1,8,0:0:0:0:
343,166,25178,5,10,0:0:0:0:
373,73,25354,1,8,0:0:0:0:
218,141,25531,6,0,L|343:166,1,127.500004863739,14|0,0:0|0:0,0:0:0:0:
456,296,26060,1,0,0:0:0:0:
456,296,26148,1,0,0:0:0:0:
456,296,26237,6,0,P|397:280|359:327,1,127.5,6|0,0:0|0:0,0:0:0:0:
344,353,26590,2,0,L|244:333,1,85,8|0,0:0|0:0,0:0:0:0:
144,278,26943,2,0,L|244:258,1,85,2|2,0:0|0:0,0:0:0:0:
99,203,27296,1,8,0:0:0:0:
182,352,27472,1,0,0:0:0:0:
308,254,27648,6,0,P|281:197|222:181,1,127.5,2|0,0:0|0:0,0:0:0:0:
191,187,28001,2,0,L|200:98,1,85,8|0,0:0|0:0,0:0:0:0:
203,73,28266,1,0,0:0:0:0:
203,73,28354,1,2,0:0:0:0:
99,202,28531,1,2,0:0:0:0:
13,45,28707,1,8,0:0:0:0:
107,112,28884,1,0,0:0:0:0:
121,5,29060,5,6,0:0:0:0:
121,5,29413,1,8,0:0:0:0:
110,87,29590,1,0,0:0:0:0:
227,67,29766,1,2,0:0:0:0:
245,153,29943,1,2,0:0:0:0:
354,93,30119,1,8,0:0:0:0:
403,171,30296,6,0,P|451:105|421:29,1,170
380,172,30825,2,0,L|390:256,1,85,8|0,0:0|0:0,0:0:0:0:
245,153,31178,1,2,0:0:0:0:
245,153,31354,1,2,0:0:0:0:
354,93,31531,1,10,0:0:0:0:
297,243,31707,1,2,0:0:0:0:
158,165,31884,6,0,B|138:288|138:288|112:250,1,170,2|8,0:0|0:0,0:0:0:0:
52,171,32413,1,0,0:0:0:0:
52,171,32501,1,0,0:0:0:0:
52,171,32590,1,2,0:0:0:0:
55,316,32766,1,2,0:0:0:0:
219,268,32943,2,0,L|208:352,1,85,8|0,0:0|0:0,0:0:0:0:
373,235,33296,6,0,P|344:174|234:194,1,170,2|8,0:0|0:0,0:0:0:0:
306,329,33825,1,0,0:0:0:0:
306,329,33913,1,0,0:0:0:0:
306,329,34001,2,0,L|390:321,1,85,2|2,0:0|0:0,0:0:0:0:
504,278,34354,1,8,0:0:0:0:
373,235,34531,1,0,0:0:0:0:
511,152,34707,5,6,0:0:0:0:
511,152,35060,2,0,L|426:144,1,85,8|0,0:0|0:0,0:0:0:0:
320,85,35413,1,2,0:0:0:0:
418,166,35590,1,2,0:0:0:0:
484,25,35766,2,0,L|399:32,1,85,8|0,0:0|0:0,0:0:0:0:
215,143,36119,6,0,L|257:147,3,42.5,2|0|0|0,0:0|0:0|0:0|0:0,0:0:0:0:
320,85,36472,1,8,0:0:0:0:
300,47,36560,1,0,0:0:0:0:
261,30,36648,1,0,0:0:0:0:
218,35,36737,1,0,0:0:0:0:
186,63,36825,6,0,L|143:67,3,42.5,2|0|0|0,0:0|0:0|0:0|0:0,0:0:0:0:
104,148,37178,1,10,0:0:0:0:
54,160,37266,1,2,0:0:0:0:
10,133,37354,1,2,0:0:0:0:
1,82,37443,1,2,0:0:0:0:
39,49,37531,5,6,0:0:0:0:
116,210,37884,2,0,P|108:179|103:147,1,63.7500024318696,8|0,0:0|0:0,0:0:0:0:
184,64,38237,1,2,0:0:0:0:
184,64,38413,2,0,P|215:67|247:68,1,63.7500024318696,2|8,0:0|0:0,0:0:0:0:
344,136,38766,1,0,0:0:0:0:
344,136,38943,6,0,P|368:115|391:93,2,63.7500024318696,2|0|8,0:0|0:0|0:0,0:0:0:0:
212,152,39472,1,0,0:0:0:0:
304,228,39648,2,0,L|348:224,1,31.8750012159348,2|0,0:0|0:0,0:0:0:0:
200,260,39825,2,0,L|137:245,1,63.7500024318696,2|8,0:0|0:0,0:0:0:0:
24,320,40178,1,0,0:0:0:0:
24,320,40266,1,0,0:0:0:0:
24,320,40354,6,0,P|55:316|85:305,1,63.7500024318696,6|0,0:0|0:0,0:0:0:0:
138,161,40707,1,8,0:0:0:0:
168,336,40884,1,0,0:0:0:0:
221,192,41060,1,2,0:0:0:0:
85,305,41237,1,2,0:0:0:0:
236,280,41413,1,8,0:0:0:0:
153,249,41590,1,0,0:0:0:0:
319,311,41766,6,0,L|381:298,1,63.7500024318696,2|0,0:0|0:0,0:0:0:0:
371,148,42119,2,0,P|355:176|350:207,1,63.7500024318696,8|0,0:0|0:0,0:0:0:0:
467,360,42472,1,2,0:0:0:0:
435,208,42648,1,2,0:0:0:0:
467,360,42825,1,8,0:0:0:0:
435,208,43001,1,0,0:0:0:0:
319,311,43178,5,2,0:0:0:0:
319,311,43531,2,0,B|336:284|336:284|338:252,1,63.7500024318696,8|0,0:0|0:0,0:0:0:0:
240,252,43884,1,2,0:0:0:0:
416,248,44060,2,0,B|408:216|408:216|388:192,1,63.7500024318696,2|8,0:0|0:0,0:0:0:0:
249,219,44413,1,0,0:0:0:0:
176,92,44590,6,0,P|239:95|302:86,2,127.500004863739,2|8|2,0:0|0:0|0:0,0:0:0:0:
88,192,45472,1,2,0:0:0:0:
87,192,45648,2,0,P|95:161|96:129,1,63.7500024318696,8|0,0:0|0:0,0:0:0:0:
32,280,46001,5,6,0:0:0:0:
200,256,46354,1,8,0:0:0:0:
32,280,46707,5,2,0:0:0:0:
128,336,46884,1,2,0:0:0:0:
200,256,47060,2,0,L|262:266,1,63.7500024318696,8|0,0:0|0:0,0:0:0:0:
440,56,47413,5,2,0:0:0:0:
456,136,47590,1,0,0:0:0:0:
378,109,47766,1,12,0:0:0:0:
440,56,47943,1,0,0:0:0:0:
394,189,48119,1,8,0:0:0:0:
394,189,48207,1,8,0:0:0:0:
394,189,48296,1,8,0:0:0:0:
300,82,48472,1,8,0:0:0:0:
276,84,48560,1,8,0:0:0:0:
252,87,48648,1,8,0:0:0:0:
228,90,48737,1,8,0:0:0:0:
205,93,48825,6,0,P|193:149|183:210,1,114.749996498108,6|0,0:0|0:0,0:0:0:0:
157,210,49178,2,0,P|164:247|168:285,1,76.4999976654053,8|0,0:0|0:0,0:0:0:0:
27,247,49531,1,2,0:0:0:0:
116,141,49707,1,2,0:0:0:0:
15,71,49884,1,8,0:0:0:0:
41,156,50060,1,0,0:0:0:0:
41,156,50148,1,0,0:0:0:0:
41,156,50237,6,0,L|128:138,1,76.4999976654053
22,270,50590,1,8,0:0:0:0:
129,350,50766,2,0,P|202:350|242:281,1,152.999995330811,0|2,0:0|0:0,0:0:0:0:
393,354,51296,2,0,P|355:346|317:347,1,76.4999976654053,8|0,0:0|0:0,0:0:0:0:
212,208,51648,6,0,P|268:204|312:238,1,114.749996498108,6|0,0:0|0:0,0:0:0:0:
319,264,52001,2,0,P|356:256|394:257,1,76.4999976654053,8|0,0:0|0:0,0:0:0:0:
492,353,52354,1,2,0:0:0:0:
510,262,52531,1,2,0:0:0:0:
378,176,52707,1,8,0:0:0:0:
394,257,52884,1,0,0:0:0:0:
394,257,52972,1,0,0:0:0:0:
394,257,53060,5,2,0:0:0:0:
486,176,53237,2,0,P|496:139|502:101,1,76.4999976654053,0|8,0:0|0:0,0:0:0:0:
433,13,53590,2,0,P|360:17|337:86,1,152.999995330811,0|2,0:0|0:0,0:0:0:0:
229,153,54119,2,0,P|231:114|237:77,1,76.4999976654053,8|0,0:0|0:0,0:0:0:0:
91,25,54472,6,0,P|91:82|110:135,1,114.749996498108,2|0,0:0|0:0,0:0:0:0:
137,137,54825,2,0,P|130:174|128:212,1,76.4999976654053,8|0,0:0|0:0,0:0:0:0:
8,239,55178,1,2,0:0:0:0:
145,300,55354,1,2,0:0:0:0:
67,378,55531,1,8,0:0:0:0:
63,300,55707,1,0,0:0:0:0:
63,300,55796,1,0,0:0:0:0:
63,300,55884,5,2,0:0:0:0:
207,365,56060,2,0,P|224:330|229:293,1,76.4999976654053,0|8,0:0|0:0,0:0:0:0:
373,273,56413,2,0,P|362:200|295:169,1,152.999995330811,0|2,0:0|0:0,0:0:0:0:
183,132,56943,2,0,P|188:169|205:203,1,76.4999976654053,8|0,0:0|0:0,0:0:0:0:
297,246,57296,6,0,L|447:218,1,152.999995330811,6|8,0:0|0:0,0:0:0:0:
447,217,57825,1,0,0:0:0:0:
482,306,58001,2,0,B|489:260|489:260|479:216|479:216|492:155,1,152.999995330811,2|8,0:0|0:0,0:0:0:0:
347,71,58531,1,0,0:0:0:0:
347,71,58619,1,0,0:0:0:0:
347,71,58707,6,0,P|353:108|368:143,1,76.4999976654053,2|0,0:0|0:0,0:0:0:0:
436,48,59060,2,0,L|285:20,1,152.999995330811,12|8,0:0|0:0,0:0:0:0:
147,179,59590,1,0,1:0:0:0:
177,183,59678,1,0,1:0:0:0:
206,175,59766,1,0,1:0:0:0:
227,152,59854,1,0,1:0:0:0:
234,122,59943,1,0,1:0:0:0:
228,91,60031,1,0,1:0:0:0:
205,69,60119,6,0,P|188:122|205:176,1,114.749996498108,6|0,0:0|0:0,0:0:0:0:
239,196,60472,2,0,P|277:188|315:187,1,76.4999976654053,8|0,0:0|0:0,0:0:0:0:
176,252,60825,1,2,0:0:0:0:
176,252,61001,1,2,0:0:0:0:
284,112,61178,1,8,0:0:0:0:
396,168,61354,1,0,0:0:0:0:
396,168,61443,1,0,0:0:0:0:
396,168,61531,6,0,P|433:173|471:165,1,76.4999976654053,2|0,0:0|0:0,0:0:0:0:
432,80,61884,1,8,0:0:0:0:
336,232,62060,2,0,P|369:249|407:255,1,76.4999976654053,0|2,0:0|0:0,0:0:0:0:
284,76,62413,1,2,0:0:0:0:
260,218,62590,1,8,0:0:0:0:
396,168,62766,1,0,0:0:0:0:
396,168,62854,1,0,0:0:0:0:
395,167,62943,6,0,L|378:54,1,114.749996498108,6|0,0:0|0:0,0:0:0:0:
384,36,63296,1,8,0:0:0:0:
296,92,63472,1,0,0:0:0:0:
336,220,63648,1,2,0:0:0:0:
247,164,63825,1,2,0:0:0:0:
144,187,64001,1,8,0:0:0:0:
88,276,64178,1,0,0:0:0:0:
84,288,64266,1,0,0:0:0:0:
84,299,64354,6,0,P|129:243|98:178,1,152.999995330811,2|8,0:0|0:0,0:0:0:0:
52,96,64884,1,0,0:0:0:0:
184,132,65060,1,2,0:0:0:0:
128,244,65237,1,2,0:0:0:0:
260,208,65413,1,8,0:0:0:0:
204,96,65590,1,0,0:0:0:0:
336,132,65766,6,0,P|332:189|331:246,1,114.749996498108,2|0,0:0|0:0,0:0:0:0:
368,316,66119,2,0,P|366:277|375:241,1,76.4999976654053,8|0,0:0|0:0,0:0:0:0:
472,288,66472,1,2,0:0:0:0:
408,380,66648,1,2,0:0:0:0:
376,240,66825,1,8,0:0:0:0:
472,288,67001,1,0,0:0:0:0:
472,288,67090,1,0,0:0:0:0:
472,288,67178,6,0,P|493:255|500:218,1,76.4999976654053,2|0,0:0|0:0,0:0:0:0:
432,144,67531,2,0,P|393:142|357:154,1,76.4999976654053,8|0,0:0|0:0,0:0:0:0:
308,244,67884,2,0,P|281:216|247:199,1,76.4999976654053,2|2,0:0|0:0,0:0:0:0:
296,336,68237,1,8,0:0:0:0:
396,268,68413,1,0,0:0:0:0:
357,154,68590,6,0,B|352:116|352:76|352:76|336:88|320:94,1,114.749996498108,2|0,0:0|0:0,0:0:0:0:
288,96,68943,1,8,0:0:0:0:
93,189,69119,6,0,P|150:214|212:204,1,127.5,4|0,0:0|0:0,0:0:0:0:
288,96,69472,6,0,P|233:138|212:204,1,140.25000428009,4|0,0:0|0:0,0:0:0:0:
261,335,69825,6,0,P|260:260|211:203,1,152.999995330811,4|0,0:0|0:0,0:0:0:0:
211,203,70178,5,2,0:0:0:0:
308,232,70354,1,8,0:0:0:0:
400,192,70531,1,2,0:0:0:0:
328,56,70707,6,0,L|324:98,1,42.5,8|8,0:0|0:0,0:0:0:0:
320,140,70884,1,8,0:0:0:0:
414,22,71060,6,0,L|410:64,1,42.5,8|8,0:0|0:0,0:0:0:0:
403,149,71237,2,0,L|399:191,1,42.5,8|8,0:0|0:0,0:0:0:0:
392,276,71413,6,0,L|386:339,1,63.75,6|0,0:0|0:0,0:0:0:0:
385,349,71766,6,0,P|426:338|468:335,1,85,8|0,0:0|0:0,0:0:0:0:
283,221,72119,2,0,P|284:263|292:305,1,85,2|2,0:0|0:0,0:0:0:0:
201,384,72472,1,8,0:0:0:0:
97,289,72648,1,0,0:0:0:0:
197,200,72825,6,0,P|195:242|187:284,1,85,2|0,0:0|0:0,0:0:0:0:
121,374,73178,1,8,0:0:0:0:
11,309,73354,1,0,0:0:0:0:
11,309,73443,1,0,0:0:0:0:
11,309,73531,1,2,0:0:0:0:
111,202,73707,1,2,0:0:0:0:
15,141,73884,2,0,P|16:183|24:225,1,85,8|0,0:0|0:0,0:0:0:0:
187,284,74237,6,0,P|201:200|206:115,1,170,6|8,0:0|0:0,0:0:0:0:
86,50,74766,2,0,P|128:48|167:33,1,85,0|2,0:0|0:0,0:0:0:0:
288,145,75119,2,0,P|327:159|369:161,1,85,2|8,0:0|0:0,0:0:0:0:
481,85,75472,1,0,0:0:0:0:
481,85,75560,1,0,0:0:0:0:
481,85,75648,6,0,P|447:39|375:64,1,127.5,2|0,0:0|0:0,0:0:0:0:
350,35,76001,2,0,L|369:160,1,127.5,8|0,0:0|0:0,0:0:0:0:
500,211,76354,6,0,P|466:165|394:190,1,127.5,2|0,0:0|0:0,0:0:0:0:
369,161,76707,2,0,L|388:286,1,127.5,8|0,0:0|0:0,0:0:0:0:
388,287,77060,5,2,0:0:0:0:
500,211,77237,1,0,0:0:0:0:
475,329,77413,1,8,0:0:0:0:
369,161,77590,1,0,0:0:0:0:
297,249,77766,1,2,0:0:0:0:
424,217,77943,1,2,0:0:0:0:
375,371,78119,2,0,L|388:287,1,85,8|0,0:0|0:0,0:0:0:0:
275,168,78472,6,0,P|284:209|297:249,1,85,2|0,0:0|0:0,0:0:0:0:
265,337,78825,1,8,0:0:0:0:
186,246,79001,1,0,0:0:0:0:
186,246,79090,1,0,0:0:0:0:
186,246,79178,1,2,0:0:0:0:
275,168,79354,1,2,0:0:0:0:
93,207,79531,2,0,P|94:249|101:291,1,85,8|0,0:0|0:0,0:0:0:0:
265,337,79884,6,0,P|274:253|275:168,1,170,2|8,0:0|0:0,0:0:0:0:
377,113,80413,2,0,P|348:83|309:66,1,85,0|2,0:0|0:0,0:0:0:0:
213,10,80766,2,0,P|170:25|126:36,1,85,2|8,0:0|0:0,0:0:0:0:
0,131,81119,6,0,B|59:128|59:128|105:147|105:147|165:140,1,170
462,65,81648,6,0,B|410:95|410:95|369:75|308:65,1,165.749992412568,12|0,0:0|0:0,0:0:0:0:
287,57,82001,6,0,P|289:90|294:124,1,68,12|0,0:0|0:0,0:0:0:0:
414,275,82354,1,0,1:0:0:0:
428,270,82443,1,0,1:0:0:0:
436,257,82531,1,0,1:0:0:0:
437,242,82619,1,0,1:0:0:0:
439,227,82707,6,0,L|354:234,1,85,6|0,0:0|0:0,0:0:0:0:
280,344,83060,2,0,P|231:303|169:295,1,127.5,8|0,0:0|0:0,0:0:0:0:
144,308,83413,1,2,0:0:0:0:
236,224,83590,1,2,0:0:0:0:
116,112,83766,1,8,0:0:0:0:
152,224,83943,1,0,0:0:0:0:
112,335,84119,6,0,P|70:344|28:337,1,85,2|0,0:0|0:0,0:0:0:0:
212,296,84472,1,8,0:0:0:0:
64,240,84648,1,0,0:0:0:0:
65,250,84737,1,0,0:0:0:0:
67,260,84825,1,2,0:0:0:0:
180,236,85001,1,2,0:0:0:0:
44,148,85178,1,8,0:0:0:0:
203,124,85354,1,0,0:0:0:0:
66,260,85531,6,0,P|130:252|193:253,1,127.5,2|0,0:0|0:0,0:0:0:0:
228,268,85884,1,8,0:0:0:0:
360,176,86060,1,0,0:0:0:0:
428,236,86237,2,0,P|413:250|394:260,1,42.5,2|0,0:0|0:0,0:0:0:0:
288,228,86413,2,0,P|272:188|275:146,1,85,2|8,0:0|0:0,0:0:0:0:
456,56,86766,1,0,0:0:0:0:
456,56,86854,1,0,0:0:0:0:
455,55,86943,6,0,P|469:116|434:166,1,127.5,2|0,0:0|0:0,0:0:0:0:
396,181,87296,2,0,P|336:157|274:145,1,127.5,8|0,0:0|0:0,0:0:0:0:
248,156,87648,1,2,0:0:0:0:
176,256,87825,1,2,0:0:0:0:
120,128,88001,2,0,L|109:43,1,85,8|0,0:0|0:0,0:0:0:0:
8,192,88354,5,2,0:0:0:0:
32,288,88531,1,0,0:0:0:0:
152,352,88707,1,8,0:0:0:0:
176,256,88884,1,0,0:0:0:0:
83,42,89060,2,0,P|69:82|59:123,1,85,2|2,0:0|0:0,0:0:0:0:
176,256,89413,1,8,0:0:0:0:
205,102,89590,1,0,0:0:0:0:
8,192,89766,6,0,B|48:204|48:204|90:199,1,85,2|0,0:0|0:0,0:0:0:0:
83,42,90119,1,8,0:0:0:0:
215,100,90296,1,0,0:0:0:0:
225,98,90384,1,0,0:0:0:0:
236,97,90472,1,2,0:0:0:0:
351,80,90648,1,2,0:0:0:0:
465,62,90825,1,8,0:0:0:0:
351,45,91001,1,0,0:0:0:0:
237,27,91178,5,2,0:0:0:0:
304,112,91354,2,0,L|356:108,1,42.5,0|0,3:0|3:0,0:0:0:0:
180,124,91531,1,0,3:0:0:0:
340,196,91707,1,2,0:0:0:0:
173,211,91884,6,0,L|130:214,1,42.5,2|0,3:2|3:0,0:0:0:0:
272,132,92060,1,0,3:0:0:0:
332,292,92237,1,4,0:3:0:0:
363,292,92325,1,4,0:3:0:0:
393,280,92413,1,4,0:3:0:0:
417,259,92501,1,8,0:0:0:0:
431,230,92590,2,0,P|438:272|448:313,1,85,6|0,0:0|0:0,0:0:0:0:
400,92,92943,5,12,0:0:0:0:
392,88,93031,1,0,0:0:0:0:
384,84,93119,2,0,L|342:92,1,42.5
268,188,93296,5,12,0:0:0:0:
256,200,93384,1,0,0:0:0:0:
244,212,93472,2,0,L|193:201,1,50.9999984436036
144,64,93648,5,6,1:2:0:0:
124,48,93737,1,0,1:0:0:0:
104,32,93825,2,0,L|45:43,1,59.4999981842042,0|0,1:0|1:0,0:0:0:0:
0,213,94001,5,6,0:0:0:0:
148,135,94178,1,0,0:0:0:0:
56,288,94354,1,8,0:0:0:0:
186,280,94531,1,0,0:0:0:0:
91,203,94707,1,8,0:0:0:0:
137,367,94884,1,2,0:0:0:0:
252,208,95060,1,8,0:0:0:0:
362,371,95237,1,0,0:0:0:0:
362,371,95325,1,0,0:0:0:0:
362,371,95413,6,0,P|319:360|276:336,1,93.5000028533936,10|2,0:0|0:0,0:0:0:0:
186,280,95766,1,8,0:0:0:0:
344,179,95943,1,2,0:0:0:0:
276,336,96119,1,8,0:0:0:0:
276,336,96207,1,0,0:0:0:0:
276,336,96296,1,2,0:0:0:0:
122,213,96472,1,8,0:0:0:0:
195,364,96648,1,0,0:0:0:0:
325,269,96825,6,0,P|336:223|343:177,1,93.5000028533936,2|0,0:0|0:0,0:0:0:0:
103,121,97178,2,0,P|110:167|122:213,1,93.5000028533936,8|0,0:0|0:0,0:0:0:0:
215,280,97531,1,8,0:0:0:0:
342,177,97707,1,0,0:0:0:0:
342,177,97796,1,0,0:0:0:0:
342,177,97884,1,8,0:0:0:0:
195,52,98060,1,2,0:0:0:0:
195,52,98148,1,8,0:0:0:0:
195,52,98237,5,8,0:0:0:0:
213,143,98413,1,0,0:0:0:0:
287,66,98590,5,8,0:0:0:0:
194,223,98766,1,0,0:0:0:0:
103,121,98943,5,8,0:0:0:0:
219,296,99119,1,0,0:0:0:0:
342,177,99296,5,8,0:0:0:0:
213,376,99472,1,0,0:0:0:0:
277,233,99648,5,6,0:0:0:0:
277,233,99825,1,0,0:0:0:0:
169,29,100001,2,0,P|152:72|140:117,1,93.5000028533936,8|0,0:0|0:0,0:0:0:0:
103,121,100266,1,0,0:0:0:0:
103,121,100354,6,0,P|110:167|122:213,1,93.5000028533936,8|2,0:0|0:0,0:0:0:0:
343,178,100707,1,8,0:0:0:0:
239,92,100884,1,0,0:0:0:0:
239,92,100972,1,2,0:0:0:0:
239,92,101060,5,2,0:0:0:0:
325,269,101237,1,2,0:0:0:0:
434,160,101413,2,0,P|387:165|342:178,1,93.5000028533936,8|0,0:0|0:0,0:0:0:0:
239,92,101766,1,8,0:0:0:0:
239,92,101854,1,0,0:0:0:0:
239,92,101943,1,0,0:0:0:0:
325,269,102119,1,8,0:0:0:0:
154,218,102296,1,0,0:0:0:0:
299,365,102472,6,0,P|346:360|391:347,1,93.5000028533936,2|2,0:0|0:0,0:0:0:0:
248,194,102825,2,0,P|237:239|223:284,1,93.5000028533936,8|2,0:0|0:0,0:0:0:0:
127,377,103178,2,0,P|113:332|102:286,1,93.5000028533936,8|2,0:0|0:0,0:0:0:0:
0,198,103531,1,8,0:0:0:0:
136,128,103707,1,2,0:0:0:0:
136,128,103796,1,8,0:0:0:0:
136,128,103884,5,6,0:0:0:0:
11,284,104060,1,2,0:0:0:0:
156,218,104237,1,12,0:0:0:0:
5,118,104413,1,0,1:0:0:0:
5,118,104501,1,0,1:0:0:0:
5,118,104590,5,8,0:0:0:0:
102,286,104766,1,0,0:0:0:0:
175,55,104943,1,8,0:0:0:0:
82,193,105119,1,0,0:0:0:0:
263,324,105296,6,0,P|271:281|278:229,1,93.5000028533936,6|0,0:0|0:0,0:0:0:0:
489,212,105648,2,0,P|450:186|407:167,1,93.5000028533936,8|0,0:0|0:0,0:0:0:0:
301,62,106001,1,8,0:0:0:0:
369,251,106178,1,0,0:0:0:0:
206,166,106354,1,8,0:0:0:0:
301,62,106531,1,0,0:0:0:0:
301,62,106619,1,2,0:0:0:0:
301,62,106707,6,0,P|306:108|315:154,1,93.5000028533936,2|2,0:0|0:0,0:0:0:0:
369,251,107060,1,8,0:0:0:0:
206,166,107237,1,0,0:0:0:0:
263,324,107413,1,8,0:0:0:0:
263,324,107501,1,0,0:0:0:0:
263,324,107590,1,8,0:0:0:0:
199,77,107766,1,8,0:0:0:0:
277,231,107943,1,0,0:0:0:0:
295,23,108119,6,0,P|289:69|280:115,1,93.5000028533936,2|2,0:0|0:0,0:0:0:0:
98,45,108472,2,0,P|105:92|114:138,1,93.5000028533936,8|0,0:0|0:0,0:0:0:0:
199,77,108825,1,8,0:0:0:0:
5,25,109001,5,0,0:0:0:0:
5,25,109089,1,0,0:0:0:0:
5,25,109178,1,8,0:0:0:0:
85,229,109354,1,2,0:0:0:0:
85,229,109443,1,8,0:0:0:0:
85,229,109531,5,8,0:0:0:0:
113,137,109707,1,0,0:0:0:0:
107,265,109884,5,8,0:0:0:0:
212,192,110060,1,0,0:0:0:0:
107,305,110237,5,8,0:0:0:0:
264,281,110413,1,0,0:0:0:0:
88,346,110590,5,8,0:0:0:0:
283,380,110766,1,0,0:0:0:0:
300,206,110943,5,6,0:0:0:0:
300,206,111119,1,0,0:0:0:0:
497,335,111296,2,0,P|462:303|419:286,1,93.5000028533936,8|0,0:0|0:0,0:0:0:0:
383,296,111560,1,0,0:0:0:0:
383,296,111648,2,0,L|392:191,1,93.5000028533936,8|2,0:0|0:0,0:0:0:0:
512,92,112001,1,8,0:0:0:0:
471,224,112178,1,0,0:0:0:0:
471,224,112266,1,2,0:0:0:0:
471,224,112354,5,2,0:0:0:0:
296,139,112531,1,2,0:0:0:0:
383,296,112707,2,0,L|392:191,1,93.5000028533936,8|0,0:0|0:0,0:0:0:0:
403,58,113060,1,8,0:0:0:0:
403,58,113148,1,0,0:0:0:0:
403,58,113237,1,0,0:0:0:0:
309,230,113413,1,8,0:0:0:0:
445,137,113590,1,0,0:0:0:0:
288,45,113766,6,0,L|295:138,1,93.5000028533936,2|2,0:0|0:0,0:0:0:0:
243,337,114119,1,8,0:0:0:0:
136,207,114296,1,2,0:0:0:0:
40,313,114472,1,8,0:0:0:0:
40,313,114648,1,0,0:0:0:0:
218,258,114825,1,8,0:0:0:0:
38,196,115001,1,0,0:0:0:0:
147,368,115178,6,0,P|134:331|132:309,3,46.7500014266968,2|0|0|0,0:0|0:0|0:0|0:0,0:0:0:0:
218,258,115531,2,0,P|225:219|234:199,3,46.7500014266968,12|0|0|0,0:0|0:0|0:0|0:0,0:0:0:0:
161,139,115884,1,0,1:0:0:0:
131,116,115972,1,0,1:0:0:0:
93,113,116060,1,0,1:0:0:0:
58,127,116148,1,0,1:0:0:0:
38,159,116237,1,0,1:0:0:0:
38,196,116325,1,0,1:0:0:0:
53,229,116413,1,0,1:0:0:0:
85,248,116501,1,0,1:0:0:0:
118,246,116590,6,0,P|180:249|218:298,1,127.5,6|0,0:0|0:0,0:0:0:0:
199,344,116943,2,0,P|233:317|274:307,1,85,8|0,0:0|0:0,0:0:0:0:
392,344,117296,1,2,0:0:0:0:
392,344,117472,2,0,L|377:260,1,85,2|8,0:0|0:0,0:0:0:0:
480,204,117825,1,0,0:0:0:0:
481,193,117913,1,0,0:0:0:0:
483,183,118001,6,0,L|498:99,2,85,2|0|8,0:0|0:0|0:0,0:0:0:0:
384,68,118531,1,0,0:0:0:0:
377,260,118707,2,0,L|362:176,2,85,2|2|8,0:0|0:0|0:0,0:0:0:0:
256,192,119237,1,0,0:0:0:0:
256,192,119325,1,0,0:0:0:0:
256,192,119413,6,0,P|193:183|132:202,1,127.5,6|0,0:0|0:0,0:0:0:0:
108,216,119766,2,0,P|129:179|149:141,1,85,8|0,0:0|0:0,0:0:0:0:
120,24,120119,1,2,0:0:0:0:
36,124,120296,1,2,0:0:0:0:
224,44,120472,1,8,0:0:0:0:
132,107,120648,6,0,P|121:65|119:23,1,85,0|2,0:0|0:0,0:0:0:0:
212,160,121001,2,0,P|253:149|295:147,1,85,0|8,0:0|0:0,0:0:0:0:
159,239,121354,2,0,P|169:280|171:322,1,85,0|2,0:0|0:0,0:0:0:0:
80,187,121707,1,2,0:0:0:0:
212,160,121884,1,8,0:0:0:0:
119,23,122060,1,0,0:0:0:0:
159,239,122237,5,2,0:0:0:0:
159,239,122590,1,8,0:0:0:0:
132,107,122766,1,0,0:0:0:0:
4,214,122943,2,0,B|51:203|51:203|84:184,1,85,2|2,0:0|0:0,0:0:0:0:
116,364,123296,1,8,0:0:0:0:
159,239,123472,1,0,0:0:0:0:
24,320,123648,5,2,0:0:0:0:
24,320,123825,2,0,B|70:331|70:331|103:350,1,85,0|8,0:0|0:0,0:0:0:0:
268,304,124178,1,0,0:0:0:0:
159,239,124354,1,2,0:0:0:0:
269,177,124531,1,2,0:0:0:0:
243,312,124707,1,8,0:0:0:0:
163,214,124884,1,0,0:0:0:0:
288,193,125060,6,0,L|372:195,1,85,6|0,0:0|0:0,0:0:0:0:
212,108,125413,2,0,L|127:105,1,85,8|0,0:0|0:0,0:0:0:0:
320,88,125766,1,2,0:0:0:0:
180,213,125943,1,2,0:0:0:0:
359,272,126119,1,8,0:0:0:0:
359,272,126472,5,2,0:0:0:0:
424,192,126648,1,2,0:0:0:0:
288,312,126825,5,8,0:0:0:0:
223,232,127001,1,0,0:0:0:0:
359,352,127178,5,2,0:0:0:0:
359,352,127354,2,0,L|367:310,1,42.5,4|4,3:0|3:0,0:0:0:0:
344,140,127531,5,2,0:0:0:0:
344,140,127707,2,0,L|335:181,1,42.5,4|4,3:0|3:0,0:0:0:0:
204,312,127884,5,6,0:0:0:0:
204,312,128237,2,0,P|162:297|123:287,1,85,8|0,0:0|0:0,0:0:0:0:
38,208,128590,1,2,0:0:0:0:
19,301,128766,1,2,0:0:0:0:
130,194,128943,2,0,P|112:153|82:121,1,85,8|0,0:0|0:0,0:0:0:0:
58,110,129207,1,0,0:0:0:0:
58,110,129296,6,0,L|51:26,1,85,2|0,0:0|0:0,0:0:0:0:
192,0,129648,2,0,P|190:40|185:84,1,85,8|0,0:0|0:0,0:0:0:0:
315,153,130001,1,2,0:0:0:0:
281,69,130178,1,2,0:0:0:0:
393,26,130354,2,0,P|395:68|400:110,1,85,8|0,0:0|0:0,0:0:0:0:
315,153,130707,6,0,P|314:220|308:282,1,127.5,6|0,0:0|0:0,0:0:0:0:
296,307,131060,2,0,P|336:295|379:291,1,85,8|0,0:0|0:0,0:0:0:0:
459,349,131413,1,2,0:0:0:0:
459,349,131590,1,2,0:0:0:0:
511,223,131766,2,0,P|470:211|427:207,1,85,8|0,0:0|0:0,0:0:0:0:
315,153,132119,6,0,P|314:220|308:282,1,127.5,2|0,0:0|0:0,0:0:0:0:
296,307,132472,2,0,P|255:295|212:291,1,85,8|0,0:0|0:0,0:0:0:0:
83,236,132825,1,2,0:0:0:0:
120,313,133001,1,2,0:0:0:0:
31,314,133178,1,8,0:0:0:0:
190,370,133354,1,0,0:0:0:0:
164,233,133531,6,0,P|158:169|157:105,1,127.5,2|0,0:0|0:0,0:0:0:0:
135,84,133884,2,0,P|134:126|130:168,1,85,8|0,0:0|0:0,0:0:0:0:
42,90,134237,1,2,0:0:0:0:
226,14,134413,2,0,P|226:56|230:98,1,85,2|8,0:0|0:0,0:0:0:0:
308,187,134766,1,0,0:0:0:0:
308,187,134854,1,0,0:0:0:0:
308,187,134943,6,0,L|412:166,1,85,2|0,0:0|0:0,0:0:0:0:
499,123,135296,1,8,0:0:0:0:
374,81,135472,1,0,0:0:0:0:
460,224,135648,1,2,0:0:0:0:
460,224,135825,1,2,0:0:0:0:
336,275,136001,2,0,L|232:254,1,85,8|0,0:0|0:0,0:0:0:0:
460,224,136354,6,0,P|450:288|410:358,1,127.5,6|0,0:0|0:0,0:0:0:0:
420,373,136707,2,0,L|316:352,1,85,8|0,0:0|0:0,0:0:0:0:
252,258,137060,1,2,0:0:0:0:
211,344,137237,1,2,0:0:0:0:
336,275,137413,2,0,L|232:254,1,85,8|0,0:0|0:0,0:0:0:0:
84,166,137766,6,0,L|99:342,1,170,2|8,0:0|0:0,0:0:0:0:
8,216,138296,1,0,0:0:0:0:
176,263,138472,1,2,0:0:0:0:
203,110,138648,1,0,3:0:0:0:
203,110,138737,1,0,3:0:0:0:
203,110,138825,1,2,0:0:0:0:
84,166,139001,1,0,3:0:0:0:
84,166,139090,1,0,3:0:0:0:
84,166,139178,5,6,0:0:0:0:
352,104,139884,1,2,0:0:0:0:
256,340,140413,1,0,0:0:0:0:
256,340,140501,1,0,0:0:0:0:
256,340,140590,6,0,P|280:255|281:343,1,255.000009727478,0|0,3:0|3:0,0:0:0:0:
156,304,141472,2,0,P|158:272|170:243,2,63.7500024318696,0|0|0,0:0|3:0|0:0,0:0:0:0:
280,344,142001,6,0,L|375:334,1,95.6250036478044,2|0,3:3|0:0,0:0:0:0:
375,304,142354,2,0,P|407:309|436:321,1,63.7500024318696,0|0,3:0|0:0,0:0:0:0:
496,220,142707,2,0,P|464:225|435:237,1,63.7500024318696,2|0,3:2|0:0,0:0:0:0:
383,140,143060,1,0,3:0:0:0:
503,56,143237,1,0,0:0:0:0:
503,56,143325,1,0,0:0:0:0:
503,56,143413,5,2,3:2:0:0:
383,139,143590,2,0,P|319:143|257:131,1,127.500004863739
257,131,144296,1,0,0:0:0:0:
233,215,144472,1,0,3:0:0:0:
209,299,144648,1,0,0:0:0:0:
83,291,144825,6,0,P|146:286|209:299,1,127.500004863739,0|0,3:0|3:0,0:0:0:0:
328,364,145354,2,0,L|334:332,2,31.8750012159348,0|0|2,0:0|0:0|3:2,0:0:0:0:
160,208,146060,2,0,L|153:176,2,31.8750012159348,0|0|2,0:0|0:0|3:2,0:0:0:0:
334,20,146766,2,0,L|306:144,1,127.500004863739,2|0,0:0|0:0,0:0:0:0:
370,209,147296,1,0,3:0:0:0:
458,186,147472,1,0,0:0:0:0:
481,97,147648,5,2,3:0:0:0:
458,186,148354,1,0,3:0:0:0:
370,209,148884,1,0,0:0:0:0:
370,209,148972,1,0,0:0:0:0:
370,209,149060,5,0,3:0:0:0:
458,186,149237,1,0,3:0:0:0:
481,97,149413,2,0,L|465:13,1,85,4|0,3:2|0:0,0:0:0:0:
260,56,149766,5,0,3:0:0:0:
260,56,149943,1,0,3:0:0:0:
316,156,150119,1,8,0:0:0:0:
180,120,150296,2,0,L|138:109,1,42.5,8|0,0:0|0:0,0:0:0:0:
316,156,150472,6,0,P|373:127|436:124,1,127.5,6|0,0:0|0:0,0:0:0:0:
458,98,150825,2,0,P|469:139|480:180,1,85,8|0,0:0|0:0,0:0:0:0:
318,241,151178,1,2,0:0:0:0:
492,312,151354,1,2,0:0:0:0:
413,229,151531,2,0,P|401:270|390:311,1,85,8|0,0:0|0:0,0:0:0:0:
397,344,151796,1,0,0:0:0:0:
397,344,151884,6,0,B|345:339|345:339|321:351|321:351|299:344|273:341,1,127.5,2|0,0:0|0:0,0:0:0:0:
250,314,152237,2,0,P|214:337|174:352,1,85,8|0,0:0|0:0,0:0:0:0:
54,219,152590,1,2,0:0:0:0:
167,264,152766,1,2,0:0:0:0:
23,320,152943,1,8,0:0:0:0:
188,253,153119,1,0,0:0:0:0:
43,334,153296,6,0,P|37:272|30:207,1,127.5,2|0,1:2|0:0,0:0:0:0:
30,207,153648,5,8,0:0:0:0:
165,162,153825,1,0,0:0:0:0:
23,168,154001,5,2,0:0:0:0:
176,80,154178,1,2,0:0:0:0:
14,123,154354,5,8,0:0:0:0:
187,2,154531,1,0,0:0:0:0:
187,2,154619,1,0,0:0:0:0:
187,2,154707,5,2,0:0:0:0:
0,79,154884,1,0,0:0:0:0:
261,148,155060,1,8,0:0:0:0:
100,15,155237,6,0,P|108:100|117:184,1,170,0|2,0:0|0:0,0:0:0:0:
314,72,155766,1,8,0:0:0:0:
154,195,155943,1,0,0:0:0:0:
344,315,156119,6,0,L|512:295,1,170,2|8,0:0|0:0,0:0:0:0:
388,211,156648,1,0,0:0:0:0:
388,211,156737,1,0,0:0:0:0:
388,211,156825,1,2,0:0:0:0:
512,295,157001,1,2,0:0:0:0:
385,348,157178,2,0,L|300:338,1,85,8|0,0:0|0:0,0:0:0:0:
277,363,157443,1,0,0:0:0:0:
277,363,157531,6,0,B|288:302|288:302|274:271|274:271|284:238|284:197,1,170,2|8,0:0|0:0,0:0:0:0:
43,103,158060,2,0,B|54:164|54:164|40:195|40:195|50:228|50:268,1,170,2|2,0:0|0:0,0:0:0:0:
205,222,158590,2,0,P|164:209|122:204,1,85,8|0,0:0|0:0,0:0:0:0:
330,53,158943,6,0,P|247:70|163:76,1,170,6|8,0:0|0:0,0:0:0:0:
22,354,159472,2,0,P|63:341|105:336,1,85,2|0,0:0|0:0,0:0:0:0:
205,222,159825,2,0,P|164:209|122:204,1,85,2|8,0:0|0:0,0:0:0:0:
244,377,160178,2,0,P|327:360|411:354,1,170,6|0,0:0|0:0,0:0:0:0:
411,353,160707,6,0,P|427:315|519:306,1,127.500004863739,12|0,0:0|0:0,0:0:0:0:
382,149,161060,6,0,P|375:180|371:211,1,63.75,8|0,0:0|0:0,0:0:0:0:
421,226,161413,5,8,0:0:0:0:
458,206,161501,1,8,0:0:0:0:
475,166,161590,1,8,0:0:0:0:
475,123,161678,1,8,0:0:0:0:
459,83,161766,5,4,0:0:0:0:
441,307,173060,5,6,0:0:0:0:
387,244,173237,1,0,0:0:0:0:
357,319,173413,1,8,0:0:0:0:
470,230,173590,5,0,0:0:0:0:
417,167,173766,1,0,0:0:0:0:
336,179,173943,1,0,0:0:0:0:
306,254,174119,1,8,0:0:0:0:
417,167,174296,5,2,0:0:0:0:
305,102,174472,2,0,P|300:68|299:34,2,68,0|0|8,0:0|0:0|0:0,0:0:0:0:
499,150,175001,2,0,P|462:96|397:84,1,136
299,34,175531,2,0,P|300:68|305:102,1,68,10|0,0:0|0:0,0:0:0:0:
336,179,175884,5,2,0:0:0:0:
224,122,176060,1,0,0:0:0:0:
306,254,176237,1,8,0:0:0:0:
150,292,176413,1,0,0:0:0:0:
228,211,176590,1,0,0:0:0:0:
228,211,176678,1,0,0:0:0:0:
228,211,176766,1,0,0:0:0:0:
334,328,176943,1,8,0:0:0:0:
160,377,177119,5,0,0:0:0:0:
247,365,177296,1,2,0:0:0:0:
334,353,177472,1,0,0:0:0:0:
246,339,177648,1,8,0:0:0:0:
420,348,177825,2,0,P|432:316|442:284,1,68
325,173,178178,1,2,0:0:0:0:
361,271,178354,1,8,0:0:0:0:
325,173,178531,1,0,0:0:0:0:
442,284,178707,5,2,0:0:0:0:
280,252,178884,1,0,0:0:0:0:
436,131,179060,2,0,P|424:163|414:195,1,68,8|0,0:0|0:0,0:0:0:0:
242,163,179413,2,0,P|270:103|334:92,1,136,0|8,0:0|0:0,0:0:0:0:
280,252,179943,6,0,B|231:255|231:255|201:244|201:244|171:253|146:252,1,136,2|0,0:0|0:0,0:0:0:0:
67,170,180472,1,8,0:0:0:0:
143,245,180648,1,0,0:0:0:0:
93,331,180825,1,0,0:0:0:0:
93,331,180913,1,0,0:0:0:0:
93,331,181001,1,0,0:0:0:0:
8,297,181178,6,8,P|28:270|56:250,1,68,10|8,0:0|0:0,0:0:0:0:
144,167,181531,2,0,L|141:86,1,68,2|0,0:0|0:0,0:0:0:0:
20,33,181884,1,8,0:0:0:0:
61,134,182060,1,0,0:0:0:0:
226,59,182237,1,0,0:0:0:0:
226,59,182325,1,0,0:0:0:0:
226,59,182413,1,0,0:0:0:0:
144,167,182590,1,8,0:0:0:0:
310,125,182766,1,0,0:0:0:0:
226,59,182943,6,0,L|222:126,1,68,2|0,0:0|0:0,0:0:0:0:
414,144,183302,6,0,P|374:183|336:222,1,110.499994941712,6|0,0:0|0:0,0:0:0:0:
463,351,183661,6,0,P|431:348|400:358,1,63.75,6|0,0:0|0:0,0:0:0:0:
383,376,184020,6,0,P|342:364|300:356,1,85,6|0,0:0|0:0,0:0:0:0:
116,348,184380,5,6,0:0:0:0:
184,296,184556,1,0,0:0:0:0:
172,211,184732,1,8,0:0:0:0:
92,178,184909,1,0,0:0:0:0:
25,231,185085,1,2,0:0:0:0:
105,264,185262,1,2,0:0:0:0:
92,178,185438,1,8,0:0:0:0:
116,348,185615,5,2,0:0:0:0:
172,211,185791,1,2,0:0:0:0:
38,317,185968,1,0,0:0:0:0:
92,178,186144,1,8,0:0:0:0:
184,296,186321,1,0,0:0:0:0:
184,296,186409,1,0,0:0:0:0:
184,296,186497,1,2,0:0:0:0:
105,264,186674,1,2,0:0:0:0:
251,243,186850,1,10,0:0:0:0:
239,158,187027,1,0,0:0:0:0:
330,275,187203,5,6,0:0:0:0:
318,190,187380,1,0,0:0:0:0:
397,222,187556,1,8,0:0:0:0:
409,307,187732,1,0,0:0:0:0:
342,360,187909,1,2,0:0:0:0:
342,360,187997,1,0,0:0:0:0:
342,360,188085,1,2,0:0:0:0:
330,275,188262,1,8,0:0:0:0:
397,222,188438,1,0,0:0:0:0:
306,105,188615,5,2,0:0:0:0:
239,158,188791,1,0,0:0:0:0:
81,94,188968,1,8,0:0:0:0:
160,126,189144,1,0,0:0:0:0:
92,178,189321,1,2,0:0:0:0:
149,42,189497,1,2,0:0:0:0:
172,211,189674,1,10,0:0:0:0:
306,105,189850,1,2,0:0:0:0:
227,73,190027,5,2,0:0:0:0:
239,158,190203,1,0,0:0:0:0:
318,190,190380,1,8,0:0:0:0:
251,243,190556,1,0,0:0:0:0:
172,211,190732,1,2,0:0:0:0:
160,126,190909,1,2,0:0:0:0:
239,158,191085,1,8,0:0:0:0:
184,296,191262,5,2,0:0:0:0:
331,276,191438,1,2,0:0:0:0:
262,327,191615,1,0,0:0:0:0:
251,243,191791,1,8,0:0:0:0:
342,360,191968,1,0,0:0:0:0:
342,360,192056,1,0,0:0:0:0:
342,360,192144,1,2,0:0:0:0:
411,309,192321,1,2,0:0:0:0:
318,190,192497,1,10,0:0:0:0:
331,276,192674,1,0,0:0:0:0:
480,258,192850,5,2,0:0:0:0:
397,222,193027,1,0,0:0:0:0:
466,171,193203,1,8,0:0:0:0:
383,135,193380,1,0,0:0:0:0:
452,84,193556,1,2,0:0:0:0:
452,84,193644,1,0,0:0:0:0:
452,84,193732,1,2,0:0:0:0:
466,171,193909,1,8,0:0:0:0:
397,222,194085,1,0,0:0:0:0:
369,48,194262,5,2,0:0:0:0:
383,135,194438,1,0,0:0:0:0:
239,158,194615,1,10,0:0:0:0:
227,73,194791,1,0,0:0:0:0:
318,190,194968,1,2,0:0:0:0:
306,105,195144,1,2,0:0:0:0:
306,105,195232,1,2,0:0:0:0:
306,105,195321,1,10,0:0:0:0:
158,124,195497,1,0,0:0:0:0:
296,22,195674,5,6,0:0:0:0:
239,158,195850,1,0,0:0:0:0:
70,102,196000,2,0,P|77:143|93:182,1,85,8|0,0:0|0:0,0:0:0:0:
209,237,196352,2,0,P|194:276|188:318,1,85,2|2,0:0|0:0,0:0:0:0:
50,358,196705,1,8,0:0:0:0:
112,259,196882,1,0,0:0:0:0:
112,259,196970,1,0,0:0:0:0:
112,259,197058,6,0,P|151:273|193:279,1,85,2|0,0:0|0:0,0:0:0:0:
269,378,197411,2,0,P|308:363|350:357,1,85,8|0,0:0|0:0,0:0:0:0:
500,248,197764,1,2,0:0:0:0:
500,248,197941,1,2,0:0:0:0:
431,369,198117,2,0,P|424:327|421:284,1,85,8|0,0:0|0:0,0:0:0:0:
391,277,198382,1,0,0:0:0:0:
391,277,198469,6,0,P|397:235|400:192,1,85,6|0,0:0|0:0,0:0:0:0:
275,58,198823,1,8,0:0:0:0:
320,212,199000,1,0,0:0:0:0:
236,148,199176,2,0,P|277:138|319:131,1,85,2|2,0:0|0:0,0:0:0:0:
428,69,199529,1,8,0:0:0:0:
400,192,199705,1,0,0:0:0:0:
512,86,199882,6,0,P|470:76|428:69,1,85,2|0,0:0|0:0,0:0:0:0:
300,20,200235,2,0,P|258:27|216:36,1,85,8|0,0:0|0:0,0:0:0:0:
95,125,200588,1,2,0:0:0:0:
210,134,200764,1,2,0:0:0:0:
120,26,200941,1,8,0:0:0:0:
146,210,201117,1,0,0:0:0:0:
0,163,201294,5,2,0:0:0:0:
0,163,201647,2,0,P|8:110|12:74,2,85,8|0|2,0:0|0:0|0:0,0:0:0:0:
146,210,202176,1,2,0:0:0:0:
71,333,202352,2,0,P|63:280|59:244,1,85,8|0,0:0|0:0,0:0:0:0:
242,226,202705,6,0,P|237:268|230:310,1,85,2|0,0:0|0:0,0:0:0:0:
160,381,203058,1,8,0:0:0:0:
314,320,203235,1,0,0:0:0:0:
146,294,203411,1,2,0:0:0:0:
146,294,203500,1,0,0:0:0:0:
146,294,203588,1,2,0:0:0:0:
325,235,203764,2,0,P|320:278|314:320,1,85,8|0,0:0|0:0,0:0:0:0:
434,217,204117,6,0,P|490:274|460:348,2,170,6|8|2,0:0|0:0|0:0,0:0:0:0:
362,129,205000,1,2,0:0:0:0:
362,129,205176,2,0,L|371:39,1,85,8|0,0:0|0:0,0:0:0:0:
479,148,205529,5,2,0:0:0:0:
479,148,205705,1,0,0:0:0:0:
295,199,205881,1,12,0:0:0:0:
446,73,206058,1,0,0:0:0:0:
277,14,206235,1,8,0:0:0:0:
277,14,206323,1,8,0:0:0:0:
277,14,206411,1,8,0:0:0:0:
362,129,206588,1,8,0:0:0:0:
362,129,206676,1,8,0:0:0:0:
362,129,206764,1,8,0:0:0:0:
362,129,206852,1,8,0:0:0:0:
362,129,206941,6,0,L|348:212,1,85,6|0,0:0|0:0,0:0:0:0:
392,296,207294,1,8,0:0:0:0:
484,312,207470,1,0,0:0:0:0:
348,212,207647,1,2,0:0:0:0:
256,228,207823,1,2,0:0:0:0:
212,312,208000,1,8,0:0:0:0:
392,296,208176,1,0,0:0:0:0:
392,296,208264,1,0,0:0:0:0:
392,296,208352,6,0,L|384:211,2,85,2|0|8,0:0|0:0|0:0,0:0:0:0:
256,228,208882,2,0,L|263:143,1,85,0|2,0:0|0:0,0:0:0:0:
384,75,209235,1,2,0:0:0:0:
384,211,209411,1,8,0:0:0:0:
384,75,209588,1,0,0:0:0:0:
263,143,209764,6,0,L|178:132,1,85,6|0,0:0|0:0,0:0:0:0:
60,320,210117,1,8,0:0:0:0:
146,301,210294,1,0,0:0:0:0:
86,237,210470,1,2,0:0:0:0:
60,320,210647,1,2,0:0:0:0:
92,221,210823,1,8,0:0:0:0:
69,119,211000,1,0,0:0:0:0:
69,119,211088,1,0,0:0:0:0:
69,119,211176,6,0,P|60:77|59:34,1,85,2|0,0:0|0:0,0:0:0:0:
92,221,211529,1,8,0:0:0:0:
180,112,211705,2,0,P|203:76|232:45,1,85,0|2,0:0|0:0,0:0:0:0:
92,221,212058,1,2,0:0:0:0:
69,119,212235,1,8,0:0:0:0:
263,185,212411,2,0,P|304:176|347:175,1,85,0|2,0:0|0:0,0:0:0:0:
252,316,212941,5,8,0:0:0:0:
252,316,213117,1,0,0:0:0:0:
316,368,213294,1,2,0:0:0:0:
174,345,213470,1,2,0:0:0:0:
265,234,213646,1,8,0:0:0:0:
400,316,213823,1,0,0:0:0:0:
426,325,213911,1,0,0:0:0:0:
453,320,214000,5,2,0:0:0:0:
368,155,214176,2,0,P|355:196|355:238,1,85,0|8,0:0|0:0,0:0:0:0:
500,92,214529,2,0,P|512:132|512:174,1,85,0|2,0:0|0:0,0:0:0:0:
308,68,214882,2,0,P|282:102|267:141,1,85,2|8,0:0|0:0,0:0:0:0:
252,316,215235,1,0,0:0:0:0:
368,154,215411,6,0,P|437:182|395:243,1,170,6|8,0:0|0:0,0:0:0:0:
259,228,215941,1,0,0:0:0:0:
416,344,216117,1,2,0:0:0:0:
395,243,216294,1,2,0:0:0:0:
416,344,216470,1,8,0:0:0:0:
492,196,216647,1,0,0:0:0:0:
492,196,216735,1,0,0:0:0:0:
492,196,216823,5,2,0:0:0:0:
471,95,217000,1,2,0:0:0:0:
395,242,217176,2,0,P|333:236|303:183,1,127.5,12|0,0:0|0:0,0:0:0:0:
312,148,217529,1,8,0:0:0:0:
272,311,217705,1,0,1:0:0:0:
240,339,217794,1,0,1:0:0:0:
200,354,217882,1,0,1:0:0:0:
158,353,217970,1,0,1:0:0:0:
119,337,218058,1,0,1:0:0:0:
88,307,218147,1,0,1:0:0:0:
71,269,218235,6,0,P|133:263|163:210,1,127.5,6|0,0:0|0:0,0:0:0:0:
185,190,218588,2,0,P|143:180|104:163,1,85,8|0,0:0|0:0,0:0:0:0:
0,63,218941,1,2,0:0:0:0:
85,7,219117,1,2,0:0:0:0:
155,80,219294,2,0,P|196:70|235:53,1,85,8|0,0:0|0:0,0:0:0:0:
259,29,219558,1,0,0:0:0:0:
259,29,219647,6,0,P|276:67|289:108,1,85,2|0,0:0|0:0,0:0:0:0:
485,149,220000,1,8,0:0:0:0:
425,37,220176,2,0,P|389:113|363:194,1,170,0|2,0:0|0:0,0:0:0:0:
500,254,220705,2,0,P|459:264|423:287,1,85,8|0,0:0|0:0,0:0:0:0:
353,377,221058,6,0,L|246:355,1,85,6|0,0:0|0:0,0:0:0:0:
238,183,221411,2,0,P|228:224|224:266,1,85,8|0,0:0|0:0,0:0:0:0:
46,377,221764,1,2,0:0:0:0:
196,343,221941,1,2,0:0:0:0:
34,383,222117,1,8,0:0:0:0:
101,247,222294,1,0,0:0:0:0:
101,247,222382,1,0,0:0:0:0:
101,247,222470,6,0,P|110:288|114:330,1,85,2|0,0:0|0:0,0:0:0:0:
224,266,222823,1,8,0:0:0:0:
65,153,222999,1,0,0:0:0:0:
101,247,223176,1,2,0:0:0:0:
160,76,223352,1,2,0:0:0:0:
150,169,223529,1,8,0:0:0:0:
35,64,223705,1,0,0:0:0:0:
224,8,223882,6,0,P|244:44|252:86,1,85,2|0,0:0|0:0,0:0:0:0:
320,170,224235,1,8,0:0:0:0:
490,84,224411,1,0,0:0:0:0:
421,15,224588,2,0,P|400:51|392:93,1,85,2|2,0:0|0:0,0:0:0:0:
320,170,224941,1,8,0:0:0:0:
506,220,225117,1,0,0:0:0:0:
506,220,225205,1,0,0:0:0:0:
506,220,225294,6,0,P|467:201|425:193,1,85,2|0,0:0|0:0,0:0:0:0:
362,355,225647,1,8,0:0:0:0:
449,338,225823,2,0,P|398:274|316:279,1,170,0|2,0:0|0:0,0:0:0:0:
134,378,226352,2,0,P|176:379|214:361,1,85,8|0,0:0|0:0,0:0:0:0:
155,120,226705,6,0,P|157:204|214:264,1,170,2|0,0:0|0:0,0:0:0:0:
22,323,227235,6,0,P|57:271|62:208,1,127.5,12|0,0:0|0:0,0:0:0:0:
29,196,227588,2,0,P|90:184|138:143,1,127.5,12|0,0:0|0:0,0:0:0:0:
125,111,227941,6,0,P|176:146|239:151,1,127.5,12|0,0:0|0:0,0:0:0:0:
350,207,228470,6,0,B|354:182|364:153|364:153|351:115|351:115|362:81|365:46,1,165.749992412568,12|0,0:0|0:0,0:0:0:0:
340,36,228823,6,0,P|336:67|327:98,1,63.75,12|0,0:0|0:0,0:0:0:0:
240,150,229176,6,0,P|243:170|250:190,1,42.5,8|8,0:0|0:0,0:0:0:0:
289,286,229352,2,0,P|305:298|324:307,1,42.5,8|8,0:0|0:0,0:0:0:0:
419,347,229529,5,6,0:0:0:0:
272,368,229705,1,0,0:0:0:0:
144,292,229882,2,0,P|101:293|60:304,1,85,8|0,0:0|0:0,0:0:0:0:
208,208,230235,1,2,0:0:0:0:
208,208,230411,1,2,0:0:0:0:
272,368,230588,1,8,0:0:0:0:
344,244,230764,6,0,B|352:200|352:200|344:160,1,85,0|2,0:0|0:0,0:0:0:0:
208,124,231117,2,0,B|200:168|200:168|207:207,1,85,0|8,0:0|0:0,0:0:0:0:
372,88,231470,1,0,0:0:0:0:
351,84,231558,1,0,0:0:0:0:
329,84,231647,1,2,0:0:0:0:
344,244,231823,1,2,0:0:0:0:
208,124,231999,1,8,0:0:0:0:
372,88,232175,1,0,0:0:0:0:
232,199,232352,6,0,P|170:195|130:147,1,127.5,6|0,0:0|0:0,0:0:0:0:
128,128,232705,1,8,0:0:0:0:
256,15,232882,2,0,P|254:58|247:100,1,85,0|2,0:0|0:0,0:0:0:0:
44,100,233235,2,0,P|45:142|52:184,1,85,2|8,0:0|0:0,0:0:0:0:
148,28,233588,1,0,0:0:0:0:
231,198,233764,6,0,P|201:254|147:286,1,127.5,2|0,0:0|0:0,0:0:0:0:
120,296,234117,2,0,P|182:294|237:325,1,127.5,8|0,0:0|0:0,0:0:0:0:
260,344,234470,2,0,P|227:290|226:227,1,127.5,2|0,0:0|0:0,0:0:0:0:
231,198,234823,1,8,0:0:0:0:
120,296,234999,1,0,0:0:0:0:
328,260,235176,6,0,P|367:275|404:297,1,85,2|0,0:0|0:0,0:0:0:0:
496,160,235529,2,0,P|456:175|419:197,1,85,8|0,0:0|0:0,0:0:0:0:
332,352,235882,1,2,0:0:0:0:
492,316,236058,1,2,0:0:0:0:
332,352,236235,1,8,0:0:0:0:
419,197,236411,6,0,L|422:281,1,85,0|2,0:0|0:0,0:0:0:0:
240,360,236764,2,0,L|243:275,1,85,0|8,0:0|0:0,0:0:0:0:
328,152,237117,1,0,0:0:0:0:
336,171,237205,1,0,0:0:0:0:
340,192,237294,1,2,0:0:0:0:
400,108,237470,1,2,0:0:0:0:
268,236,237647,1,8,0:0:0:0:
448,208,237823,1,0,0:0:0:0:
220,136,237999,6,0,B|172:120|172:120|96:136,1,127.5,6|0,0:0|0:0,0:0:0:0:
76,144,238352,1,8,0:0:0:0:
184,252,238528,2,0,L|267:235,1,85,0|2,0:0|0:0,0:0:0:0:
289,246,238793,1,0,0:0:0:0:
311,257,238881,2,0,P|306:299|301:341,1,85,2|8,0:0|0:0,0:0:0:0:
219,162,239234,1,0,0:0:0:0:
89,359,239411,5,2,0:0:0:0:
89,359,239764,2,0,P|86:337|83:316,1,42.5,12|0,0:0|0:0,0:0:0:0:
169,233,239941,2,0,P|152:219|135:207,1,42.5
16,152,240117,2,0,P|48:124|74:91,1,85,12|0,0:0|0:0,0:0:0:0:
120,24,240382,1,0,0:0:0:0:
135,35,240470,2,0,P|148:52|156:72,1,42.5,0|0,1:0|1:0,0:0:0:0:
264,128,240647,2,0,P|271:108|284:91,1,42.5,0|0,1:0|1:0,0:0:0:0:
382,32,240823,6,0,P|413:60|453:73,1,85,6|0,0:0|0:0,0:0:0:0:
317,215,241176,2,0,P|372:225|424:178,1,127.5,8|0,0:0|0:0,0:0:0:0:
450,159,241529,2,0,P|464:199|488:234,1,85,2|2,0:0|0:0,0:0:0:0:
346,361,241882,1,8,0:0:0:0:
391,258,242058,1,0,0:0:0:0:
242,204,242235,6,0,L|252:288,1,85,2|0,0:0|0:0,0:0:0:0:
75,353,242588,1,8,0:0:0:0:
164,286,242764,1,0,0:0:0:0:
164,286,242852,1,0,0:0:0:0:
164,286,242941,1,2,0:0:0:0:
54,362,243117,1,2,0:0:0:0:
0,234,243294,2,0,P|41:243|76:266,1,85,8|0,0:0|0:0,0:0:0:0:
256,169,243647,6,0,L|114:191,1,127.5,6|0,0:0|0:0,0:0:0:0:
101,170,243999,2,0,P|142:160|177:137,1,85,8|0,0:0|0:0,0:0:0:0:
14,65,244352,2,0,L|97:78,1,85,2|2,0:0|0:0,0:0:0:0:
182,16,244705,1,8,0:0:0:0:
300,90,244882,1,0,0:0:0:0:
300,90,244970,1,0,0:0:0:0:
300,90,245058,6,0,B|339:82|339:82|370:96|370:96|423:87,1,127.5,2|0,0:0|0:0,0:0:0:0:
456,96,245411,2,0,P|474:50|472:11,1,85,8|0,0:0|0:0,0:0:0:0:
505,243,245764,2,0,B|466:235|466:235|435:249|435:249|381:240,1,127.5,2|0,0:0|0:0,0:0:0:0:
349,249,246117,2,0,P|331:203|333:164,1,85,8|0,0:0|0:0,0:0:0:0:
306,374,246470,5,2,0:0:0:0:
481,323,246647,1,0,0:0:0:0:
257,268,246823,5,8,0:0:0:0:
390,338,246999,1,0,0:0:0:0:
180,206,247176,5,2,0:0:0:0:
206,377,247352,1,2,0:0:0:0:
1,354,247529,5,8,0:0:0:0:
144,311,247705,1,0,0:0:0:0:
47,160,247882,5,2,0:0:0:0:
1,354,248058,1,0,0:0:0:0:
89,241,248235,1,8,0:0:0:0:
144,311,248411,1,0,0:0:0:0:
144,311,248499,1,0,0:0:0:0:
144,311,248588,1,2,0:0:0:0:
2,240,248764,1,2,0:0:0:0:
170,121,248941,2,0,L|179:205,1,85,8|0,0:0|0:0,0:0:0:0:
0,79,249294,6,0,P|41:68|78:48,1,85,2|0,0:0|3:0,0:0:0:0:
105,28,249558,1,0,3:0:0:0:
105,28,249647,1,0,3:0:0:0:
407,182,249823,6,0,L|323:174,1,85,2|2,0:0|3:2,0:0:0:0:
288,169,250088,1,0,3:0:0:0:
288,169,250176,1,0,3:0:0:0:
144,318,250352,5,2,0:0:0:0:
170,121,250529,1,0,3:0:0:0:
170,121,250617,1,0,3:0:0:0:
170,121,250705,2,0,L|179:205,1,85,6|2,0:0|0:0,0:0:0:0:
341,379,251058,6,0,L|356:252,1,127.5,12|0,0:0|0:0,0:0:0:0:
406,182,251411,6,0,P|481:223|434:295,1,191.250007295609,12|0,0:0|0:0,0:0:0:0:
453,339,251764,6,0,P|420:322|385:317,1,72.2500013780594,6|0,1:2|1:0,0:0:0:0:
283,251,251941,2,0,P|248:262|220:283,1,72.2500013780594,0|0,1:0|1:0,0:0:0:0:
100,308,252117,5,6,0:0:0:0:
292,328,252294,1,0,0:0:0:0:
152,200,252470,1,8,0:0:0:0:
273,349,252647,1,0,0:0:0:0:
265,160,252823,1,8,0:0:0:0:
219,283,252999,1,2,0:0:0:0:
411,223,253176,1,8,0:0:0:0:
263,86,253352,2,0,P|263:109|265:132,1,46.7500014266968,0|8,0:0|0:0,0:0:0:0:
328,232,253529,5,2,0:0:0:0:
192,164,253705,2,0,B|148:156|148:156|101:170,1,93.5000028533936,2|8,0:0|0:0,0:0:0:0:
263,86,254058,1,0,0:0:0:0:
156,248,254235,2,0,P|166:293|182:337,1,93.5000028533936,8|0,0:0|0:0,0:0:0:0:
356,164,254588,2,0,P|372:120|382:74,1,93.5000028533936,8|0,0:0|0:0,0:0:0:0:
101,170,254941,6,0,B|145:178|145:178|191:163,1,93.5000028533936,2|2,0:0|0:0,0:0:0:0:
256,48,255294,1,8,0:0:0:0:
348,248,255470,1,0,0:0:0:0:
256,84,255647,5,8,0:0:0:0:
164,284,255823,1,0,0:0:0:0:
256,120,255999,5,8,0:0:0:0:
348,320,256176,1,2,0:0:0:0:
348,320,256264,1,8,0:0:0:0:
348,320,256352,5,8,0:0:0:0:
164,284,256529,1,0,0:0:0:0:
376,240,256705,1,8,0:0:0:0:
136,204,256882,1,0,0:0:0:0:
256,364,257058,5,8,0:0:0:0:
334,180,257235,1,0,0:0:0:0:
136,204,257411,1,8,0:0:0:0:
388,312,257588,1,0,0:0:0:0:
176,360,257764,6,0,L|84:348,1,93.5000028533936,6|0,0:0|0:0,0:0:0:0:
44,352,258029,1,0,0:0:0:0:
44,352,258117,2,0,L|30:259,1,93.5000028533936,8|0,0:0|0:0,0:0:0:0:
186,129,258470,2,0,P|170:172|135:203,1,93.5000028533936,10|2,0:0|0:0,0:0:0:0:
24,96,258823,1,8,0:0:0:0:
24,96,258911,1,0,0:0:0:0:
24,96,258999,2,0,P|48:97|71:94,1,46.7500014266968,2|2,0:0|0:0,0:0:0:0:
160,8,259176,6,0,P|219:44|287:56,1,140.25000428009,2|0,0:0|0:0,0:0:0:0:
335,52,259529,2,0,P|293:72|256:100,1,93.5000028533936,8|0,0:0|0:0,0:0:0:0:
256,296,259882,1,8,0:0:0:0:
352,188,260058,1,0,0:0:0:0:
176,216,260235,2,0,P|129:209|85:193,1,93.5000028533936,8|0,0:0|0:0,0:0:0:0:
255,100,260587,5,2,0:0:0:0:
256,296,260763,1,2,0:0:0:0:
352,188,260940,1,8,0:0:0:0:
176,216,261116,1,2,0:0:0:0:
389,288,261293,1,8,0:0:0:0:
158,321,261469,1,2,0:0:0:0:
255,100,261646,1,8,0:0:0:0:
307,264,261822,1,2,0:0:0:0:
307,264,261910,1,2,0:0:0:0:
307,264,261999,6,0,P|315:217|314:171,1,93.5000028533936,14|2,0:0|0:0,0:0:0:0:
152,64,262352,2,0,P|150:110|158:156,1,93.5000028533936,12|0,0:0|0:0,0:0:0:0:
184,180,262617,1,0,0:0:0:0:
184,180,262705,6,0,L|230:171,1,46.7500014266968,8|0,0:0|0:0,0:0:0:0:
80,256,262882,2,0,L|33:264,1,46.7500014266968
256,264,263058,2,0,L|302:255,1,46.7500014266968,8|0,0:0|0:0,0:0:0:0:
152,340,263235,2,0,L|105:348,1,46.7500014266968
328,348,263411,6,0,L|419:330,1,93.5000028533936,6|0,0:0|0:0,0:0:0:0:
512,212,263764,2,0,L|420:194,1,93.5000028533936,8|0,0:0|0:0,0:0:0:0:
229,171,264117,1,2,0:0:0:0:
376,96,264294,1,2,0:0:0:0:
367,260,264470,1,8,0:0:0:0:
472,132,264647,1,0,0:0:0:0:
472,132,264735,1,2,0:0:0:0:
472,131,264823,6,0,P|475:84|461:40,1,93.5000028533936,2|2,0:0|0:0,0:0:0:0:
367,260,265176,2,0,P|363:306|377:350,1,93.5000028533936,0|2,0:0|0:0,0:0:0:0:
480,244,265529,1,8,0:0:0:0:
314,171,265705,1,0,0:0:0:0:
461,40,265882,1,8,0:0:0:0:
416,168,266058,1,0,0:0:0:0:
256,52,266235,6,0,P|210:43|163:37,1,93.5000028533936,2|0,0:0|0:0,0:0:0:0:
96,188,266588,1,8,0:0:0:0:
0,36,266764,1,2,0:0:0:0:
192,172,266941,1,8,0:0:0:0:
16,132,267117,1,0,0:0:0:0:
247,92,267294,1,8,0:0:0:0:
96,188,267470,1,2,0:0:0:0:
96,188,267558,1,8,0:0:0:0:
96,188,267647,5,0,0:0:0:0:
120,352,267823,1,0,0:0:0:0:
188,128,267999,5,8,0:0:0:0:
212,292,268176,1,0,0:0:0:0:
324,128,268352,5,8,0:0:0:0:
300,292,268529,1,0,0:0:0:0:
416,188,268705,5,8,0:0:0:0:
392,352,268882,1,0,0:0:0:0:
256,201,269058,5,6,0:0:0:0:
120,352,269235,1,2,0:0:0:0:
299,292,269411,2,0,P|336:262|354:220,1,93.5000028533936,8|0,0:0|0:0,0:0:0:0:
324,48,269764,1,8,0:0:0:0:
256,201,269941,1,2,0:0:0:0:
423,184,270117,1,8,0:0:0:0:
288,80,270294,1,0,0:0:0:0:
288,80,270382,1,2,0:0:0:0:
288,79,270470,6,0,P|242:89|195:87,1,93.5000028533936,2|0,0:0|0:0,0:0:0:0:
216,284,270823,2,0,P|230:239|255:200,1,93.5000028533936,8|0,0:0|0:0,0:0:0:0:
75,119,271176,2,0,P|106:153|128:194,1,93.5000028533936,8|2,0:0|0:0,0:0:0:0:
163,359,271529,2,0,P|184:318|216:284,1,93.5000028533936,8|0,0:0|0:0,0:0:0:0:
408,324,271882,5,2,0:0:0:0:
292,204,272058,1,2,0:0:0:0:
456,232,272235,1,8,0:0:0:0:
306,305,272411,1,0,0:0:0:0:
383,157,272588,2,0,L|389:203,1,46.7500014266968,8|8,0:0|0:0,0:0:0:0:
419,336,272764,5,2,0:0:0:0:
280,192,272941,1,8,0:0:0:0:
474,143,273117,1,8,0:0:0:0:
474,143,273205,1,8,0:0:0:0:
473,142,273294,6,0,P|473:166|470:189,1,46.7500014266968,2|0,0:0|0:0,0:0:0:0:
420,284,273470,2,0,P|403:300|384:314,1,46.7500014266968
281,345,273647,1,12,0:0:0:0:
236,353,273735,1,0,0:0:0:0:
190,346,273823,1,0,0:0:0:0:
148,324,273911,1,0,0:0:0:0:
116,291,273999,5,0,1:0:0:0:
162,290,274088,1,0,1:0:0:0:
201,264,274176,1,0,1:0:0:0:
220,222,274264,1,0,1:0:0:0:
214,177,274352,1,0,1:0:0:0:
184,141,274441,1,0,1:0:0:0:
141,126,274529,1,0,1:0:0:0:
96,137,274617,1,0,1:0:0:0:
64,170,274705,6,0,B|64:123|64:123|50:97|50:97|57:46,1,127.5,6|0,0:0|0:0,0:0:0:0:
49,13,275058,2,0,P|87:30|129:38,1,85,8|0,0:0|0:0,0:0:0:0:
307,146,275411,1,2,0:0:0:0:
334,58,275588,1,2,0:0:0:0:
221,3,275764,2,0,P|225:45|241:84,1,85,8|0,0:0|0:0,0:0:0:0:
263,110,276029,1,0,0:0:0:0:
263,110,276117,6,0,L|347:100,1,85,2|0,0:0|0:0,0:0:0:0:
503,34,276470,2,0,L|419:25,1,85,8|0,0:0|0:0,0:0:0:0:
307,146,276823,1,2,0:0:0:0:
480,188,276999,1,2,0:0:0:0:
386,70,277176,2,0,P|390:112|397:154,1,85,8|0,0:0|0:0,0:0:0:0:
511,269,277529,6,0,B|472:279|472:279|435:260|435:260|417:273|393:279,1,127.5,6|0,0:0|0:0,0:0:0:0:
365,260,277882,2,0,P|361:302|354:344,1,85,8|0,0:0|0:0,0:0:0:0:
209,230,278235,1,2,0:0:0:0:
268,320,278411,1,2,0:0:0:0:
286,196,278588,2,0,P|249:217|209:230,1,85,8|0,0:0|0:0,0:0:0:0:
121,354,278941,6,0,P|83:333|43:320,1,85,2|0,0:0|0:0,0:0:0:0:
121,246,279294,2,0,P|115:203|103:163,1,85,8|0,0:0|0:0,0:0:0:0:
0,107,279647,1,2,0:0:0:0:
35,216,279823,1,2,0:0:0:0:
117,50,279999,1,8,0:0:0:0:
103,163,280176,1,0,0:0:0:0:
194,103,280352,6,0,B|225:111|244:125|244:125|273:107|311:99,1,127.5,2|0,0:0|0:0,0:0:0:0:
339,118,280705,2,0,P|352:77|358:35,1,85,8|0,0:0|0:0,0:0:0:0:
512,122,281058,1,2,0:0:0:0:
353,209,281235,1,2,0:0:0:0:
427,147,281411,2,0,P|440:187|446:229,1,85,8|0,0:0|0:0,0:0:0:0:
351,309,281764,5,2,0:0:0:0:
462,255,281941,1,0,0:0:0:0:
333,327,282117,1,8,0:0:0:0:
491,378,282294,1,0,0:0:0:0:
373,286,282470,2,0,P|335:266|293:259,1,85,2|2,0:0|0:0,0:0:0:0:
214,355,282823,2,0,P|171:357|131:371,1,85,8|0,0:0|0:0,0:0:0:0:
138,245,283175,6,0,L|11:227,1,127.5,6|0,0:0|0:0,0:0:0:0:
0,195,283529,2,0,P|42:192|82:178,1,85,8|0,0:0|0:0,0:0:0:0:
196,78,283882,1,2,0:0:0:0:
78,34,284058,1,2,0:0:0:0:
160,162,284235,1,8,0:0:0:0:
165,171,284588,5,2,0:0:0:0:
282,98,284764,1,2,0:0:0:0:
362,230,284941,1,8,0:0:0:0:
255,183,285117,1,0,0:0:0:0:
220,348,285294,1,2,0:0:0:0:
284,267,285470,5,4,3:0:0:0:
284,267,285558,1,4,3:0:0:0:
284,267,285647,1,2,0:0:0:0:
423,299,285823,1,4,3:0:0:0:
423,299,285911,1,4,3:0:0:0:
423,299,285999,5,6,0:0:0:0:
428,40,286352,2,0,P|419:81|415:123,1,85,8|0,0:0|0:0,0:0:0:0:
448,216,286705,1,2,0:0:0:0:
308,120,286882,2,0,P|321:160|338:199,1,85,2|8,0:0|0:0,0:0:0:0:
448,216,287235,1,0,0:0:0:0:
310,302,287411,6,0,P|246:295|183:295,1,127.5,2|0,0:0|0:0,0:0:0:0:
152,308,287764,1,8,0:0:0:0:
120,172,287941,1,0,0:0:0:0:
52,256,288117,1,2,0:0:0:0:
204,192,288294,1,2,0:0:0:0:
73,93,288470,1,8,0:0:0:0:
120,172,288647,1,0,0:0:0:0:
224,29,288822,6,0,P|232:70|235:112,1,85,6|0,0:0|0:0,0:0:0:0:
338,199,289176,2,0,P|340:156|349:115,1,85,8|0,0:0|0:0,0:0:0:0:
480,252,289529,1,2,0:0:0:0:
392,288,289705,1,2,0:0:0:0:
304,324,289882,1,8,0:0:0:0:
479,252,290058,6,0,B|494:212|494:212|493:170,1,85,0|2,0:0|0:0,0:0:0:0:
468,19,290411,2,0,B|426:25|426:25|390:48,1,85,0|8,0:0|0:0,0:0:0:0:
273,146,290764,2,0,B|299:178|299:178|337:198,1,85,0|2,0:0|0:0,0:0:0:0:
243,364,291117,2,0,P|250:322|251:279,1,85,2|8,0:0|0:0,0:0:0:0:
176,172,291470,1,0,0:0:0:0:
16,299,291647,6,0,P|58:299|100:296,1,85,2|0,0:0|0:0,0:0:0:0:
252,280,291999,1,8,0:0:0:0:
76,140,292176,1,0,0:0:0:0:
268,192,292352,2,0,L|278:107,2,85,2|2|8,0:0|0:0|0:0,0:0:0:0:
388,84,292882,6,0,P|370:45|342:13,1,85
452,192,293235,2,0,P|467:152|469:110,1,85,0|8,0:0|0:0,0:0:0:0:
420,313,293588,1,0,0:0:0:0:
344,232,293764,1,2,0:0:0:0:
235,257,293941,1,2,0:0:0:0:
404,294,294117,1,8,0:0:0:0:
250,275,294294,1,0,0:0:0:0:
342,151,294469,5,6,0:0:0:0:
342,151,294823,1,8,0:0:0:0:
400,64,295176,5,2,0:0:0:0:
388,244,295352,1,2,0:0:0:0:
238,143,295529,1,8,0:0:0:0:
342,151,295882,5,2,0:0:0:0:
292,224,296058,1,2,0:0:0:0:
381,231,296235,1,8,0:0:0:0:
331,304,296411,1,0,0:0:0:0:
420,311,296588,1,2,0:0:0:0:
342,151,296764,1,4,3:0:0:0:
342,151,296852,1,4,3:0:0:0:
342,151,296941,1,2,0:0:0:0:
242,297,297117,1,4,3:0:0:0:
242,297,297205,1,4,3:0:0:0:
242,297,297294,5,6,0:0:0:0:
491,156,297823,1,0,0:0:0:0:
469,242,297999,1,2,0:0:0:0:
216,57,298529,2,0,L|169:51,1,34
238,143,298705,6,0,B|288:131|288:131|319:143|319:143|369:133,1,136,0|0,3:0|3:0,0:0:0:0:
281,220,299235,1,0,0:0:0:0:
281,220,299588,5,0,0:0:0:0:
238,143,299764,1,0,3:0:0:0:
216,57,299941,1,0,0:0:0:0:
147,150,300117,6,0,P|97:137|49:119,1,102,2|0,3:2|0:0,0:0:0:0:
24,102,300469,2,0,P|28:135|32:169,1,68,0|0,3:0|0:0,0:0:0:0:
114,221,300822,2,0,P|109:254|105:288,1,68,0|0,3:0|0:0,0:0:0:0:
0,344,301176,1,0,3:0:0:0:
31,251,301352,1,0,0:0:0:0:
31,251,301441,1,0,0:0:0:0:
31,251,301529,5,2,3:2:0:0:
146,361,301705,2,0,P|212:362|260:317,1,136
260,317,302411,5,0,0:0:0:0:
355,331,302588,1,0,3:0:0:0:
448,345,302764,1,0,0:0:0:0:
357,308,302941,1,0,3:0:0:0:
495,184,303470,6,0,P|491:200|487:217,1,34
495,240,303647,2,0,L|427:249,1,68,2|0,3:2|0:0,0:0:0:0:
303,105,304176,6,0,P|306:121|310:138,1,34
303,161,304352,2,0,L|370:170,1,68,0|0,3:0|0:0,0:0:0:0:
499,67,304882,6,0,P|439:41|391:84,1,136
370,170,305411,2,0,L|303:161,1,68,0|0,3:0|0:0,0:0:0:0:
215,149,305764,5,0,3:0:0:0:
150,85,306470,1,2,3:2:0:0:
191,8,306999,1,0,0:0:0:0:
191,8,307088,1,0,0:0:0:0:
191,8,307176,5,2,0:0:0:0:
150,85,307352,1,2,0:0:0:0:
65,108,307529,2,0,P|100:69|150:85,1,110.499994941712,4|0,3:2|0:0,0:0:0:0:
215,148,307794,1,0,0:0:0:0:
215,148,307882,2,0,P|212:191|207:233,1,85,4|0,3:2|3:0,0:0:0:0:
167,302,308146,1,0,3:0:0:0:
157,313,308234,1,8,0:0:0:0:
25,257,308411,1,8,0:0:0:0:
25,257,308499,1,8,0:0:0:0:
25,257,308588,6,0,P|49:182|129:181,1,170,6|8,0:0|0:0,0:0:0:0:
207,232,309117,1,0,0:0:0:0:
206,232,309294,2,0,P|247:224|290:225,1,85,2|2,0:0|0:0,0:0:0:0:
379,314,309647,2,0,P|337:321|294:320,1,85,8|0,0:0|0:0,0:0:0:0:
283,314,309911,1,0,0:0:0:0:
272,308,309999,6,0,L|289:224,1,85,2|0,0:0|0:0,0:0:0:0:
396,100,310352,1,8,0:0:0:0:
452,180,310529,1,0,0:0:0:0:
276,108,310705,1,2,0:0:0:0:
330,1,310882,1,2,0:0:0:0:
396,100,311058,1,8,0:0:0:0:
276,108,311235,1,0,0:0:0:0:
451,179,311411,6,0,P|447:240|392:267,1,127.5,6|0,0:0|0:3,0:0:0:0:
353,261,311763,1,8,0:0:0:0:
207,232,311941,1,0,0:0:0:0:
340,292,312117,1,2,0:0:0:0:
304,148,312294,1,2,0:0:0:0:
326,322,312470,1,8,0:0:0:0:
200,352,312647,1,0,0:0:0:0:
200,352,312735,1,0,0:0:0:0:
200,352,312823,5,2,0:0:0:0:
72,284,312999,2,0,L|156:272,1,85,0|8,0:0|0:0,0:0:0:0:
280,168,313352,2,0,L|195:156,1,85,0|2,0:0|0:0,0:0:0:0:
72,52,313705,2,0,L|156:40,2,85,2|8|0,0:0|0:0|0:0,0:0:0:0:
253,71,314235,6,0,B|237:191|237:191|279:167,1,170,2|8,0:0|0:0,0:0:0:0:
400,104,314764,1,0,0:0:0:0:
400,104,314852,1,0,0:0:0:0:
400,104,314941,2,0,L|411:188,1,85,2|2,0:0|0:0,0:0:0:0:
496,232,315294,2,0,L|484:316,1,85,8|0,0:0|0:0,0:0:0:0:
492,332,315558,1,0,0:0:0:0:
501,348,315647,6,0,P|428:313|365:365,1,170,2|8,0:0|0:0,0:0:0:0:
183,358,316176,2,0,P|241:297|264:216,1,170,0|2,0:0|0:0,0:0:0:0:
240,112,316705,1,8,0:0:0:0:
88,188,316882,1,2,0:0:0:0:
264,215,317058,6,0,L|348:206,1,85,8|0,0:0|0:0,0:0:0:0:
362,210,317322,1,8,0:0:0:0:
376,215,317411,2,0,P|396:212|416:203,1,42.5,0|0,1:0|1:0,0:0:0:0:
472,152,317588,2,0,P|484:134|491:114,1,42.5,0|0,1:0|1:0,0:0:0:0:
494,38,317764,1,0,1:0:0:0:
240,108,317941,2,0,L|365:127,1,127.5,12|0,0:0|0:0,0:0:0:0:
392,116,318294,6,0,P|310:154|377:214,1,212.5,4|0,0:0|0:0,0:0:0:0:
