osu file format v14

[General]
AudioFilename: Rannalle.mp3
AudioLeadIn: 0
PreviewTime: 45947
Countdown: 0
SampleSet: Normal
StackLeniency: 0.7
Mode: 3
LetterboxInBreaks: 0
SpecialStyle: 0
WidescreenStoryboard: 0

[Editor]
DistanceSpacing: 0.8
BeatDivisor: 2
GridSize: 32
TimelineZoom: 1

[Metadata]
Title:Rannalle
TitleUnicode:Rannalle
Artist:TCT
ArtistUnicode:TCT
Creator:BitComet
Version:Comeetta
Source:
Tags:kesabiisi finnish
BeatmapID:1693558
BeatmapSetID:806848

[Difficulty]
HPDrainRate:6
CircleSize:4
OverallDifficulty:8
ApproachRate:5
SliderMultiplier:1.4
SliderTickRate:1

[Events]
//Background and Video events
0,0,"bg.jpg",0,0
//Break Periods
//Storyboard Layer 0 (Background)
//Storyboard Layer 1 (Fail)
//Storyboard Layer 2 (Pass)
//Storyboard Layer 3 (Foreground)
//Storyboard Sound Samples

[TimingPoints]
10,468.75,4,1,0,100,1,0

[HitObjects]
320,192,5635,5,0,0:0:0:0:
64,192,5752,1,0,0:0:0:0:
448,192,5869,1,0,0:0:0:0:
192,192,5987,1,0,0:0:0:0:
320,192,6104,1,0,0:0:0:0:
64,192,6221,1,0,0:0:0:0:
448,192,6338,1,0,0:0:0:0:
192,192,6455,1,0,0:0:0:0:
64,192,6573,1,0,0:0:0:0:
320,192,6573,1,0,0:0:0:0:
320,192,6885,1,0,0:0:0:0:
448,192,6885,1,0,0:0:0:0:
64,192,7276,1,0,0:0:0:0:
448,192,7393,1,0,0:0:0:0:
192,192,7510,1,0,0:0:0:0:
320,192,7627,1,0,0:0:0:0:
64,192,7744,1,0,0:0:0:0:
448,192,7862,1,0,0:0:0:0:
192,192,7979,1,0,0:0:0:0:
320,192,8096,1,0,0:0:0:0:
64,192,8213,1,0,0:0:0:0:
448,192,8330,1,0,0:0:0:0:
192,192,8448,1,0,0:0:0:0:
320,192,8448,1,0,0:0:0:0:
64,192,8760,1,0,0:0:0:0:
192,192,8760,1,0,0:0:0:0:
64,192,9151,1,0,0:0:0:0:
448,192,9268,1,0,0:0:0:0:
192,192,9385,1,0,0:0:0:0:
320,192,9385,1,0,0:0:0:0:
64,192,9502,1,0,0:0:0:0:
320,192,9619,1,0,0:0:0:0:
448,192,9619,1,0,0:0:0:0:
192,192,9737,1,0,0:0:0:0:
64,192,9854,1,0,0:0:0:0:
320,192,9854,1,0,0:0:0:0:
448,192,9971,1,0,0:0:0:0:
64,192,10088,1,0,0:0:0:0:
192,192,10088,1,0,0:0:0:0:
192,192,10323,1,0,0:0:0:0:
320,192,10323,1,0,0:0:0:0:
448,192,10323,1,0,0:0:0:0:
64,192,10635,1,0,0:0:0:0:
192,192,10635,1,0,0:0:0:0:
320,192,10635,1,0,0:0:0:0:
64,192,11143,1,0,0:0:0:0:
192,192,11260,1,0,0:0:0:0:
320,192,11260,1,0,0:0:0:0:
448,192,11377,1,0,0:0:0:0:
64,192,11494,1,0,0:0:0:0:
320,192,11494,1,0,0:0:0:0:
192,192,11612,1,0,0:0:0:0:
320,192,11729,1,0,0:0:0:0:
448,192,11729,1,0,0:0:0:0:
64,192,11846,1,0,0:0:0:0:
192,192,11963,1,0,0:0:0:0:
448,192,11963,1,0,0:0:0:0:
64,192,12198,1,0,0:0:0:0:
192,192,12198,1,0,0:0:0:0:
320,192,12198,1,0,0:0:0:0:
192,192,12510,1,0,0:0:0:0:
320,192,12510,1,0,0:0:0:0:
448,192,12510,1,0,0:0:0:0:
64,192,13018,1,0,0:0:0:0:
448,192,13135,1,0,0:0:0:0:
192,192,13252,1,0,0:0:0:0:
320,192,13252,1,0,0:0:0:0:
64,192,13369,1,0,0:0:0:0:
192,192,13487,1,0,0:0:0:0:
448,192,13487,1,0,0:0:0:0:
320,192,13604,1,0,0:0:0:0:
64,192,13721,1,0,0:0:0:0:
192,192,13721,1,0,0:0:0:0:
448,192,13838,1,0,0:0:0:0:
320,192,13955,1,0,0:0:0:0:
64,192,14073,1,0,0:0:0:0:
192,192,14073,1,0,0:0:0:0:
448,192,14073,1,0,0:0:0:0:
64,192,14385,1,0,0:0:0:0:
192,192,14385,1,0,0:0:0:0:
320,192,14385,1,0,0:0:0:0:
192,192,14893,1,0,0:0:0:0:
320,192,15010,1,0,0:0:0:0:
448,192,15010,1,0,0:0:0:0:
64,192,15127,1,0,0:0:0:0:
192,192,15127,1,0,0:0:0:0:
320,192,15244,1,0,0:0:0:0:
448,192,15244,1,0,0:0:0:0:
64,192,15362,1,0,0:0:0:0:
192,192,15362,1,0,0:0:0:0:
320,192,15479,1,0,0:0:0:0:
448,192,15479,1,0,0:0:0:0:
64,192,15596,1,0,0:0:0:0:
192,192,15596,1,0,0:0:0:0:
320,192,15713,1,0,0:0:0:0:
448,192,15713,1,0,0:0:0:0:
64,192,15830,1,0,0:0:0:0:
192,192,15830,1,0,0:0:0:0:
448,192,15948,1,0,0:0:0:0:
320,192,15987,1,0,0:0:0:0:
192,192,16026,1,0,0:0:0:0:
64,192,16065,1,0,0:0:0:0:
448,192,16104,1,0,0:0:0:0:
320,192,16143,1,0,0:0:0:0:
192,192,16182,1,0,0:0:0:0:
64,192,16221,1,0,0:0:0:0:
448,192,16260,1,0,0:0:0:0:
320,192,16299,1,0,0:0:0:0:
192,192,16358,1,0,0:0:0:0:
64,192,16416,1,0,0:0:0:0:
448,192,16416,1,0,0:0:0:0:
320,192,16494,1,0,0:0:0:0:
192,192,16573,1,0,0:0:0:0:
64,192,16651,1,0,0:0:0:0:
448,192,16768,1,0,0:0:0:0:
64,192,16885,1,0,0:0:0:0:
192,192,16963,1,0,0:0:0:0:
320,192,17041,1,0,0:0:0:0:
448,192,17119,1,0,0:0:0:0:
192,192,17198,1,0,0:0:0:0:
64,192,17276,1,0,0:0:0:0:
320,192,17354,1,0,0:0:0:0:
448,192,17354,1,0,0:0:0:0:
192,192,17432,1,0,0:0:0:0:
64,192,17510,1,0,0:0:0:0:
320,192,17588,1,0,0:0:0:0:
448,192,17666,1,0,0:0:0:0:
192,192,17744,1,0,0:0:0:0:
64,192,17823,1,0,0:0:0:0:
64,192,18018,1,0,0:0:0:0:
320,192,18291,1,0,0:0:0:0:
448,192,18291,1,0,0:0:0:0:
64,192,18760,1,0,0:0:0:0:
192,192,18760,1,0,0:0:0:0:
320,192,18838,1,0,0:0:0:0:
448,192,18916,1,0,0:0:0:0:
192,192,18994,1,0,0:0:0:0:
320,192,19073,1,0,0:0:0:0:
448,192,19151,1,0,0:0:0:0:
192,192,19229,1,0,0:0:0:0:
320,192,19229,1,0,0:0:0:0:
64,192,19307,1,0,0:0:0:0:
448,192,19385,1,0,0:0:0:0:
320,192,19463,1,0,0:0:0:0:
192,192,19541,1,0,0:0:0:0:
64,192,19619,1,0,0:0:0:0:
320,192,19698,1,0,0:0:0:0:
448,192,19698,1,0,0:0:0:0:
448,192,19893,1,0,0:0:0:0:
64,192,20166,1,0,0:0:0:0:
192,192,20166,1,0,0:0:0:0:
448,192,20635,1,0,0:0:0:0:
192,192,20713,1,0,0:0:0:0:
64,192,20987,1,0,0:0:0:0:
192,192,21026,1,0,0:0:0:0:
448,192,21104,1,0,0:0:0:0:
64,192,21182,1,0,0:0:0:0:
320,192,21260,1,0,0:0:0:0:
448,192,21338,1,0,0:0:0:0:
64,192,21573,1,0,0:0:0:0:
192,192,21573,1,0,0:0:0:0:
320,192,21924,1,0,0:0:0:0:
192,192,21963,1,0,0:0:0:0:
64,192,22041,1,0,0:0:0:0:
448,192,22119,1,0,0:0:0:0:
192,192,22198,1,0,0:0:0:0:
64,192,22315,1,0,0:0:0:0:
320,192,22510,1,0,0:0:0:0:
448,192,22588,1,0,0:0:0:0:
192,192,22666,1,0,0:0:0:0:
64,192,22901,1,0,0:0:0:0:
320,192,22979,1,0,0:0:0:0:
192,192,23057,1,0,0:0:0:0:
320,192,23213,1,0,0:0:0:0:
448,192,23291,1,0,0:0:0:0:
192,192,23369,1,0,0:0:0:0:
64,192,23448,1,0,0:0:0:0:
320,192,23448,1,0,0:0:0:0:
64,192,23760,128,0,24151:0:0:0:0:
448,192,23760,128,0,24151:0:0:0:0:
192,192,24385,1,0,0:0:0:0:
320,192,24463,1,0,0:0:0:0:
64,192,24541,1,0,0:0:0:0:
448,192,24619,1,0,0:0:0:0:
192,192,24698,1,0,0:0:0:0:
320,192,24776,1,0,0:0:0:0:
448,192,24854,1,0,0:0:0:0:
64,192,24932,1,0,0:0:0:0:
320,192,25010,1,0,0:0:0:0:
192,192,25088,1,0,0:0:0:0:
448,192,25166,1,0,0:0:0:0:
64,192,25244,1,0,0:0:0:0:
192,192,25323,1,0,0:0:0:0:
320,192,25323,1,0,0:0:0:0:
448,192,25440,1,0,0:0:0:0:
320,192,25557,1,0,0:0:0:0:
64,192,25791,1,0,0:0:0:0:
320,192,25791,1,0,0:0:0:0:
448,192,25791,1,0,0:0:0:0:
192,192,26260,1,0,0:0:0:0:
448,192,26260,1,0,0:0:0:0:
320,192,26338,1,0,0:0:0:0:
192,192,26416,1,0,0:0:0:0:
448,192,26494,1,0,0:0:0:0:
64,192,26573,1,0,0:0:0:0:
320,192,26651,1,0,0:0:0:0:
64,192,26729,1,0,0:0:0:0:
192,192,26729,1,0,0:0:0:0:
448,192,26807,1,0,0:0:0:0:
64,192,26885,1,0,0:0:0:0:
320,192,26963,1,0,0:0:0:0:
192,192,27198,1,0,0:0:0:0:
448,192,27198,1,0,0:0:0:0:
192,192,27354,128,0,27510:0:0:0:0:
320,192,27354,128,0,27510:0:0:0:0:
64,192,27666,1,0,0:0:0:0:
192,192,27666,1,0,0:0:0:0:
448,192,27666,1,0,0:0:0:0:
320,192,28135,1,0,0:0:0:0:
192,192,28213,1,0,0:0:0:0:
64,192,28487,1,0,0:0:0:0:
320,192,28526,1,0,0:0:0:0:
448,192,28604,1,0,0:0:0:0:
192,192,28682,1,0,0:0:0:0:
320,192,28760,1,0,0:0:0:0:
448,192,28838,1,0,0:0:0:0:
192,192,29073,1,0,0:0:0:0:
64,192,29151,1,0,0:0:0:0:
320,192,29463,1,0,0:0:0:0:
64,192,29541,1,0,0:0:0:0:
320,192,29619,1,0,0:0:0:0:
192,192,29698,1,0,0:0:0:0:
64,192,29776,1,0,0:0:0:0:
320,192,30010,1,0,0:0:0:0:
192,192,30088,1,0,0:0:0:0:
64,192,30401,1,0,0:0:0:0:
192,192,30479,1,0,0:0:0:0:
448,192,30557,1,0,0:0:0:0:
320,192,30635,1,0,0:0:0:0:
64,192,30713,1,0,0:0:0:0:
320,192,30948,1,0,0:0:0:0:
448,192,31026,1,0,0:0:0:0:
192,192,31133,1,0,0:0:0:0:
64,192,31231,1,0,0:0:0:0:
192,192,31319,1,0,0:0:0:0:
320,192,31416,128,0,31573:0:0:0:0:
448,192,31651,1,0,0:0:0:0:
192,192,31768,1,0,0:0:0:0:
448,192,31885,1,0,0:0:0:0:
320,192,31963,1,0,0:0:0:0:
64,192,32041,1,0,0:0:0:0:
448,192,32119,1,0,0:0:0:0:
192,192,32197,1,0,0:0:0:0:
320,192,32276,1,0,0:0:0:0:
448,192,32354,1,0,0:0:0:0:
64,192,32432,1,0,0:0:0:0:
320,192,32510,1,0,0:0:0:0:
192,192,32588,1,0,0:0:0:0:
448,192,32666,1,0,0:0:0:0:
64,192,32744,1,0,0:0:0:0:
192,192,32823,1,0,0:0:0:0:
320,192,32823,1,0,0:0:0:0:
320,192,32979,128,0,33135:0:0:0:0:
448,192,32979,128,0,33135:0:0:0:0:
64,192,33291,128,0,33604:0:0:0:0:
320,192,33291,128,0,33604:0:0:0:0:
448,192,33291,128,0,33604:0:0:0:0:
192,192,33760,1,0,0:0:0:0:
448,192,33760,1,0,0:0:0:0:
320,192,33838,1,0,0:0:0:0:
192,192,33916,1,0,0:0:0:0:
448,192,33994,1,0,0:0:0:0:
64,192,34073,1,0,0:0:0:0:
320,192,34151,1,0,0:0:0:0:
64,192,34229,1,0,0:0:0:0:
192,192,34229,1,0,0:0:0:0:
448,192,34307,1,0,0:0:0:0:
64,192,34385,1,0,0:0:0:0:
320,192,34463,1,0,0:0:0:0:
192,192,34698,1,0,0:0:0:0:
448,192,34698,1,0,0:0:0:0:
192,192,34854,128,0,35010:0:0:0:0:
320,192,34854,128,0,35010:0:0:0:0:
64,192,35166,128,0,35479:0:0:0:0:
192,192,35166,128,0,35479:0:0:0:0:
448,192,35166,128,0,35479:0:0:0:0:
64,192,35635,1,0,0:0:0:0:
192,192,35713,1,0,0:0:0:0:
448,192,35791,1,0,0:0:0:0:
64,192,35869,1,0,0:0:0:0:
320,192,35948,1,0,0:0:0:0:
192,192,36026,1,0,0:0:0:0:
64,192,36104,1,0,0:0:0:0:
448,192,36182,1,0,0:0:0:0:
192,192,36260,1,0,0:0:0:0:
320,192,36338,1,0,0:0:0:0:
64,192,36416,1,0,0:0:0:0:
448,192,36494,1,0,0:0:0:0:
192,192,36573,1,0,0:0:0:0:
320,192,36573,1,0,0:0:0:0:
64,192,36729,128,0,36885:0:0:0:0:
448,192,36729,128,0,36885:0:0:0:0:
64,192,37041,128,0,37354:0:0:0:0:
192,192,37041,128,0,37354:0:0:0:0:
448,192,37041,128,0,37354:0:0:0:0:
64,192,37510,1,0,0:0:0:0:
320,192,37510,1,0,0:0:0:0:
192,192,37588,1,0,0:0:0:0:
320,192,37666,1,0,0:0:0:0:
64,192,37744,1,0,0:0:0:0:
448,192,37823,1,0,0:0:0:0:
192,192,37901,1,0,0:0:0:0:
320,192,37979,1,0,0:0:0:0:
448,192,37979,1,0,0:0:0:0:
64,192,38057,1,0,0:0:0:0:
448,192,38135,1,0,0:0:0:0:
192,192,38213,1,0,0:0:0:0:
64,192,38448,1,0,0:0:0:0:
320,192,38448,1,0,0:0:0:0:
192,192,38604,128,0,38760:0:0:0:0:
448,192,38604,128,0,38760:0:0:0:0:
64,192,38916,128,0,39229:0:0:0:0:
192,192,38916,128,0,39229:0:0:0:0:
320,192,38916,128,0,39229:0:0:0:0:
448,192,39385,1,0,0:0:0:0:
64,192,39463,1,0,0:0:0:0:
320,192,39541,1,0,0:0:0:0:
192,192,39619,1,0,0:0:0:0:
448,192,39698,1,0,0:0:0:0:
320,192,39776,1,0,0:0:0:0:
64,192,39854,1,0,0:0:0:0:
192,192,39854,1,0,0:0:0:0:
320,192,39932,1,0,0:0:0:0:
64,192,40010,1,0,0:0:0:0:
448,192,40088,1,0,0:0:0:0:
192,192,40166,1,0,0:0:0:0:
64,192,40323,1,0,0:0:0:0:
320,192,40323,1,0,0:0:0:0:
192,192,40479,128,0,40635:0:0:0:0:
448,192,40479,128,0,40635:0:0:0:0:
192,192,40791,128,0,41182:0:0:0:0:
320,192,40791,128,0,41182:0:0:0:0:
448,192,40791,128,0,41182:0:0:0:0:
320,192,41260,1,0,0:0:0:0:
192,192,41338,1,0,0:0:0:0:
448,192,41416,1,0,0:0:0:0:
192,192,41494,1,0,0:0:0:0:
320,192,41573,1,0,0:0:0:0:
448,192,41651,1,0,0:0:0:0:
64,192,41729,1,0,0:0:0:0:
192,192,41729,1,0,0:0:0:0:
320,192,41807,1,0,0:0:0:0:
192,192,41885,1,0,0:0:0:0:
448,192,41963,1,0,0:0:0:0:
320,192,42041,1,0,0:0:0:0:
64,192,42119,1,0,0:0:0:0:
192,192,42198,1,0,0:0:0:0:
448,192,42198,1,0,0:0:0:0:
64,192,42354,128,0,42510:0:0:0:0:
448,192,42354,128,0,42510:0:0:0:0:
64,192,42666,128,0,43057:0:0:0:0:
192,192,42666,128,0,43057:0:0:0:0:
320,192,42666,128,0,43057:0:0:0:0:
448,192,43135,1,0,0:0:0:0:
320,192,43213,1,0,0:0:0:0:
192,192,43369,1,0,0:0:0:0:
320,192,43487,1,0,0:0:0:0:
448,192,43526,1,0,0:0:0:0:
64,192,43604,1,0,0:0:0:0:
192,192,43721,1,0,0:0:0:0:
448,192,43838,1,0,0:0:0:0:
64,192,44073,1,0,0:0:0:0:
192,192,44073,1,0,0:0:0:0:
320,192,44151,1,0,0:0:0:0:
448,192,44190,1,0,0:0:0:0:
192,192,44424,1,0,0:0:0:0:
320,192,44424,1,0,0:0:0:0:
64,192,44541,1,0,0:0:0:0:
448,192,44541,1,0,0:0:0:0:
64,192,44776,1,0,0:0:0:0:
192,192,44854,1,0,0:0:0:0:
320,192,45010,1,0,0:0:0:0:
192,192,45166,1,0,0:0:0:0:
64,192,45244,1,0,0:0:0:0:
448,192,45401,1,0,0:0:0:0:
320,192,45479,1,0,0:0:0:0:
192,192,45596,1,0,0:0:0:0:
448,192,45713,1,0,0:0:0:0:
320,192,46143,1,0,0:0:0:0:
320,192,46377,1,0,0:0:0:0:
448,192,46573,1,0,0:0:0:0:
64,192,46885,1,0,0:0:0:0:
192,192,46885,1,0,0:0:0:0:
448,192,46963,1,0,0:0:0:0:
192,192,47041,1,0,0:0:0:0:
320,192,47119,1,0,0:0:0:0:
192,192,47198,1,0,0:0:0:0:
448,192,47276,1,0,0:0:0:0:
64,192,47354,1,0,0:0:0:0:
320,192,47354,1,0,0:0:0:0:
192,192,47432,1,0,0:0:0:0:
448,192,47510,1,0,0:0:0:0:
64,192,47588,1,0,0:0:0:0:
320,192,47666,1,0,0:0:0:0:
192,192,47744,1,0,0:0:0:0:
64,192,47823,1,0,0:0:0:0:
448,192,47823,1,0,0:0:0:0:
192,192,47940,1,0,0:0:0:0:
320,192,48057,1,0,0:0:0:0:
192,192,48174,1,0,0:0:0:0:
64,192,48291,1,0,0:0:0:0:
192,192,48408,1,0,0:0:0:0:
448,192,48526,1,0,0:0:0:0:
192,192,48643,1,0,0:0:0:0:
64,192,48760,1,0,0:0:0:0:
192,192,48838,1,0,0:0:0:0:
320,192,48916,1,0,0:0:0:0:
448,192,48994,1,0,0:0:0:0:
64,192,49073,1,0,0:0:0:0:
192,192,49151,1,0,0:0:0:0:
320,192,49229,1,0,0:0:0:0:
448,192,49307,1,0,0:0:0:0:
64,192,49463,1,0,0:0:0:0:
320,192,49698,1,0,0:0:0:0:
448,192,49698,1,0,0:0:0:0:
192,192,49854,1,0,0:0:0:0:
64,192,50166,1,0,0:0:0:0:
192,192,50166,1,0,0:0:0:0:
448,192,50166,1,0,0:0:0:0:
64,192,50635,1,0,0:0:0:0:
192,192,50713,1,0,0:0:0:0:
320,192,50791,1,0,0:0:0:0:
448,192,50869,1,0,0:0:0:0:
192,192,50948,1,0,0:0:0:0:
64,192,51026,1,0,0:0:0:0:
320,192,51104,1,0,0:0:0:0:
448,192,51104,1,0,0:0:0:0:
192,192,51182,1,0,0:0:0:0:
64,192,51260,1,0,0:0:0:0:
320,192,51338,1,0,0:0:0:0:
448,192,51416,1,0,0:0:0:0:
192,192,51494,1,0,0:0:0:0:
64,192,51573,1,0,0:0:0:0:
64,192,51768,1,0,0:0:0:0:
320,192,52041,1,0,0:0:0:0:
448,192,52041,1,0,0:0:0:0:
64,192,52510,1,0,0:0:0:0:
192,192,52510,1,0,0:0:0:0:
320,192,52588,1,0,0:0:0:0:
448,192,52666,1,0,0:0:0:0:
192,192,52744,1,0,0:0:0:0:
320,192,52823,1,0,0:0:0:0:
448,192,52901,1,0,0:0:0:0:
192,192,52979,1,0,0:0:0:0:
320,192,52979,1,0,0:0:0:0:
64,192,53057,1,0,0:0:0:0:
448,192,53135,1,0,0:0:0:0:
320,192,53213,1,0,0:0:0:0:
192,192,53291,1,0,0:0:0:0:
64,192,53369,1,0,0:0:0:0:
320,192,53448,1,0,0:0:0:0:
448,192,53448,1,0,0:0:0:0:
448,192,53643,1,0,0:0:0:0:
64,192,53916,1,0,0:0:0:0:
192,192,53916,1,0,0:0:0:0:
320,192,54073,1,0,0:0:0:0:
64,192,54385,1,0,0:0:0:0:
448,192,54385,1,0,0:0:0:0:
320,192,54463,1,0,0:0:0:0:
64,192,54541,1,0,0:0:0:0:
448,192,54619,1,0,0:0:0:0:
320,192,54698,1,0,0:0:0:0:
64,192,54776,1,0,0:0:0:0:
192,192,54854,1,0,0:0:0:0:
448,192,54854,1,0,0:0:0:0:
320,192,54932,1,0,0:0:0:0:
448,192,55010,1,0,0:0:0:0:
64,192,55088,1,0,0:0:0:0:
320,192,55166,1,0,0:0:0:0:
192,192,55244,1,0,0:0:0:0:
64,192,55323,1,0,0:0:0:0:
448,192,55323,1,0,0:0:0:0:
320,192,55440,1,0,0:0:0:0:
64,192,55557,1,0,0:0:0:0:
192,192,55674,1,0,0:0:0:0:
320,192,55791,1,0,0:0:0:0:
448,192,55791,1,0,0:0:0:0:
64,192,55908,1,0,0:0:0:0:
192,192,56026,1,0,0:0:0:0:
448,192,56026,1,0,0:0:0:0:
64,192,56260,1,0,0:0:0:0:
320,192,56260,1,0,0:0:0:0:
192,192,56338,1,0,0:0:0:0:
320,192,56416,1,0,0:0:0:0:
448,192,56494,1,0,0:0:0:0:
64,192,56573,1,0,0:0:0:0:
192,192,56651,1,0,0:0:0:0:
320,192,56729,1,0,0:0:0:0:
448,192,56807,1,0,0:0:0:0:
64,192,56963,1,0,0:0:0:0:
320,192,57198,1,0,0:0:0:0:
448,192,57198,1,0,0:0:0:0:
192,192,57354,1,0,0:0:0:0:
64,192,57666,1,0,0:0:0:0:
192,192,57666,1,0,0:0:0:0:
448,192,57666,1,0,0:0:0:0:
64,192,58135,1,0,0:0:0:0:
192,192,58213,1,0,0:0:0:0:
320,192,58291,1,0,0:0:0:0:
448,192,58369,1,0,0:0:0:0:
192,192,58448,1,0,0:0:0:0:
64,192,58526,1,0,0:0:0:0:
320,192,58604,1,0,0:0:0:0:
448,192,58604,1,0,0:0:0:0:
192,192,58682,1,0,0:0:0:0:
64,192,58760,1,0,0:0:0:0:
320,192,58838,1,0,0:0:0:0:
448,192,58916,1,0,0:0:0:0:
192,192,58994,1,0,0:0:0:0:
64,192,59073,1,0,0:0:0:0:
64,192,59268,1,0,0:0:0:0:
320,192,59541,1,0,0:0:0:0:
448,192,59541,1,0,0:0:0:0:
64,192,60010,1,0,0:0:0:0:
192,192,60010,1,0,0:0:0:0:
320,192,60088,1,0,0:0:0:0:
448,192,60166,1,0,0:0:0:0:
192,192,60244,1,0,0:0:0:0:
320,192,60323,1,0,0:0:0:0:
448,192,60401,1,0,0:0:0:0:
192,192,60479,1,0,0:0:0:0:
320,192,60479,1,0,0:0:0:0:
64,192,60557,1,0,0:0:0:0:
448,192,60635,1,0,0:0:0:0:
320,192,60713,1,0,0:0:0:0:
192,192,60791,1,0,0:0:0:0:
64,192,60869,1,0,0:0:0:0:
320,192,60948,1,0,0:0:0:0:
448,192,60948,1,0,0:0:0:0:
320,192,61065,1,0,0:0:0:0:
192,192,61182,1,0,0:0:0:0:
320,192,61182,1,0,0:0:0:0:
64,192,61299,1,0,0:0:0:0:
448,192,61299,1,0,0:0:0:0:
64,192,61416,1,0,0:0:0:0:
192,192,61416,1,0,0:0:0:0:
320,192,61416,1,0,0:0:0:0:
448,192,61416,1,0,0:0:0:0:
64,192,61885,1,0,0:0:0:0:
192,192,61944,1,0,0:0:0:0:
320,192,62002,1,0,0:0:0:0:
448,192,62061,1,0,0:0:0:0:
192,192,62119,1,0,0:0:0:0:
320,192,62178,1,0,0:0:0:0:
64,192,62237,1,0,0:0:0:0:
192,192,62295,1,0,0:0:0:0:
320,192,62354,1,0,0:0:0:0:
448,192,62412,1,0,0:0:0:0:
192,192,62471,1,0,0:0:0:0:
64,192,62530,1,0,0:0:0:0:
448,192,62588,1,0,0:0:0:0:
320,192,62647,1,0,0:0:0:0:
192,192,62705,1,0,0:0:0:0:
64,192,62764,1,0,0:0:0:0:
320,192,62823,1,0,0:0:0:0:
448,192,62881,1,0,0:0:0:0:
192,192,62940,1,0,0:0:0:0:
64,192,62998,1,0,0:0:0:0:
320,192,63057,1,0,0:0:0:0:
192,192,63115,1,0,0:0:0:0:
64,192,63174,1,0,0:0:0:0:
448,192,63233,1,0,0:0:0:0:
320,192,63291,1,0,0:0:0:0:
192,192,63350,1,0,0:0:0:0:
64,192,63408,1,0,0:0:0:0:
192,192,63760,1,0,0:0:0:0:
320,192,63819,1,0,0:0:0:0:
448,192,63877,1,0,0:0:0:0:
64,192,63936,1,0,0:0:0:0:
192,192,63994,1,0,0:0:0:0:
320,192,64053,1,0,0:0:0:0:
448,192,64112,1,0,0:0:0:0:
192,192,64170,1,0,0:0:0:0:
64,192,64229,1,0,0:0:0:0:
320,192,64287,1,0,0:0:0:0:
448,192,64346,1,0,0:0:0:0:
64,192,64405,1,0,0:0:0:0:
192,192,64463,1,0,0:0:0:0:
448,192,64522,1,0,0:0:0:0:
320,192,64580,1,0,0:0:0:0:
192,192,64698,1,0,0:0:0:0:
448,192,64756,1,0,0:0:0:0:
320,192,64815,1,0,0:0:0:0:
64,192,64873,1,0,0:0:0:0:
192,192,64932,1,0,0:0:0:0:
320,192,64990,1,0,0:0:0:0:
448,192,65049,1,0,0:0:0:0:
64,192,65108,1,0,0:0:0:0:
192,192,65166,1,0,0:0:0:0:
320,192,65225,1,0,0:0:0:0:
448,192,65283,1,0,0:0:0:0:
448,192,65635,1,0,0:0:0:0:
320,192,65694,1,0,0:0:0:0:
192,192,65752,1,0,0:0:0:0:
64,192,65811,1,0,0:0:0:0:
320,192,65869,1,0,0:0:0:0:
192,192,65928,1,0,0:0:0:0:
448,192,65987,1,0,0:0:0:0:
320,192,66045,1,0,0:0:0:0:
192,192,66104,1,0,0:0:0:0:
64,192,66162,1,0,0:0:0:0:
320,192,66221,1,0,0:0:0:0:
448,192,66280,1,0,0:0:0:0:
64,192,66338,1,0,0:0:0:0:
192,192,66397,1,0,0:0:0:0:
320,192,66455,1,0,0:0:0:0:
448,192,66514,1,0,0:0:0:0:
192,192,66573,1,0,0:0:0:0:
64,192,66631,1,0,0:0:0:0:
320,192,66690,1,0,0:0:0:0:
448,192,66748,1,0,0:0:0:0:
192,192,66807,1,0,0:0:0:0:
320,192,66865,1,0,0:0:0:0:
448,192,66924,1,0,0:0:0:0:
64,192,66983,1,0,0:0:0:0:
192,192,67041,1,0,0:0:0:0:
320,192,67100,1,0,0:0:0:0:
448,192,67158,1,0,0:0:0:0:
64,192,67510,1,0,0:0:0:0:
320,192,67569,1,0,0:0:0:0:
448,192,67627,1,0,0:0:0:0:
64,192,67686,1,0,0:0:0:0:
192,192,67744,1,0,0:0:0:0:
448,192,67803,1,0,0:0:0:0:
320,192,67862,1,0,0:0:0:0:
64,192,67920,1,0,0:0:0:0:
192,192,67979,1,0,0:0:0:0:
320,192,68037,1,0,0:0:0:0:
448,192,68096,1,0,0:0:0:0:
64,192,68155,1,0,0:0:0:0:
320,192,68213,1,0,0:0:0:0:
448,192,68272,1,0,0:0:0:0:
192,192,68330,1,0,0:0:0:0:
64,192,68389,1,0,0:0:0:0:
448,192,68448,1,0,0:0:0:0:
320,192,68506,1,0,0:0:0:0:
192,192,68565,1,0,0:0:0:0:
64,192,68623,1,0,0:0:0:0:
448,192,68682,1,0,0:0:0:0:
192,192,68740,1,0,0:0:0:0:
64,192,68799,1,0,0:0:0:0:
320,192,68858,1,0,0:0:0:0:
448,192,68916,1,0,0:0:0:0:
192,192,68975,1,0,0:0:0:0:
320,192,69033,1,0,0:0:0:0:
320,192,69385,1,0,0:0:0:0:
192,192,69444,1,0,0:0:0:0:
64,192,69502,1,0,0:0:0:0:
448,192,69561,1,0,0:0:0:0:
320,192,69619,1,0,0:0:0:0:
192,192,69678,1,0,0:0:0:0:
64,192,69737,1,0,0:0:0:0:
320,192,69795,1,0,0:0:0:0:
448,192,69854,1,0,0:0:0:0:
192,192,69912,1,0,0:0:0:0:
64,192,69971,1,0,0:0:0:0:
448,192,70030,1,0,0:0:0:0:
320,192,70088,1,0,0:0:0:0:
64,192,70147,1,0,0:0:0:0:
192,192,70205,1,0,0:0:0:0:
320,192,70323,1,0,0:0:0:0:
64,192,70381,1,0,0:0:0:0:
192,192,70440,1,0,0:0:0:0:
448,192,70498,1,0,0:0:0:0:
320,192,70557,1,0,0:0:0:0:
192,192,70615,1,0,0:0:0:0:
64,192,70674,1,0,0:0:0:0:
448,192,70733,1,0,0:0:0:0:
320,192,70791,1,0,0:0:0:0:
64,192,71260,1,0,0:0:0:0:
320,192,71319,1,0,0:0:0:0:
192,192,71377,1,0,0:0:0:0:
448,192,71436,1,0,0:0:0:0:
320,192,71494,1,0,0:0:0:0:
192,192,71553,1,0,0:0:0:0:
448,192,71612,1,0,0:0:0:0:
64,192,71670,1,0,0:0:0:0:
192,192,71729,1,0,0:0:0:0:
320,192,71787,1,0,0:0:0:0:
448,192,71846,1,0,0:0:0:0:
64,192,71905,1,0,0:0:0:0:
320,192,71963,1,0,0:0:0:0:
448,192,72022,1,0,0:0:0:0:
192,192,72080,1,0,0:0:0:0:
64,192,72139,1,0,0:0:0:0:
320,192,72198,1,0,0:0:0:0:
448,192,72256,1,0,0:0:0:0:
192,192,72315,1,0,0:0:0:0:
64,192,72373,1,0,0:0:0:0:
320,192,72432,1,0,0:0:0:0:
192,192,72490,1,0,0:0:0:0:
64,192,72549,1,0,0:0:0:0:
448,192,72608,1,0,0:0:0:0:
320,192,72666,1,0,0:0:0:0:
192,192,72725,1,0,0:0:0:0:
64,192,72783,1,0,0:0:0:0:
448,192,73135,1,0,0:0:0:0:
64,192,73213,1,0,0:0:0:0:
320,192,73291,1,0,0:0:0:0:
192,192,73369,1,0,0:0:0:0:
448,192,73448,1,0,0:0:0:0:
320,192,73526,1,0,0:0:0:0:
64,192,73604,1,0,0:0:0:0:
192,192,73604,1,0,0:0:0:0:
320,192,73682,1,0,0:0:0:0:
64,192,73760,1,0,0:0:0:0:
448,192,73838,1,0,0:0:0:0:
192,192,73916,1,0,0:0:0:0:
64,192,74073,1,0,0:0:0:0:
320,192,74073,1,0,0:0:0:0:
192,192,74229,1,0,0:0:0:0:
320,192,74307,1,0,0:0:0:0:
64,192,74541,128,0,74698:0:0:0:0:
448,192,74541,128,0,74698:0:0:0:0:
320,192,75010,1,0,0:0:0:0:
192,192,75088,1,0,0:0:0:0:
448,192,75166,1,0,0:0:0:0:
64,192,75244,1,0,0:0:0:0:
320,192,75323,1,0,0:0:0:0:
448,192,75401,1,0,0:0:0:0:
192,192,75479,1,0,0:0:0:0:
320,192,75557,1,0,0:0:0:0:
448,192,75635,1,0,0:0:0:0:
64,192,75713,1,0,0:0:0:0:
192,192,75830,1,0,0:0:0:0:
192,192,76123,1,0,0:0:0:0:
64,192,76885,1,0,0:0:0:0:
192,192,76885,1,0,0:0:0:0:
320,192,77002,1,0,0:0:0:0:
192,192,77119,1,0,0:0:0:0:
448,192,77237,1,0,0:0:0:0:
192,192,77354,1,0,0:0:0:0:
320,192,77354,1,0,0:0:0:0:
64,192,77471,1,0,0:0:0:0:
448,192,77588,1,0,0:0:0:0:
320,192,77705,1,0,0:0:0:0:
64,192,77823,1,0,0:0:0:0:
192,192,77823,1,0,0:0:0:0:
192,192,78057,1,0,0:0:0:0:
192,192,78291,1,0,0:0:0:0:
320,192,78408,1,0,0:0:0:0:
448,192,78526,1,0,0:0:0:0:
448,192,78760,1,0,0:0:0:0:
320,192,78838,1,0,0:0:0:0:
64,192,78916,1,0,0:0:0:0:
448,192,78994,1,0,0:0:0:0:
192,192,79073,1,0,0:0:0:0:
320,192,79151,1,0,0:0:0:0:
448,192,79229,1,0,0:0:0:0:
64,192,79307,1,0,0:0:0:0:
320,192,79385,1,0,0:0:0:0:
192,192,79463,1,0,0:0:0:0:
448,192,79541,1,0,0:0:0:0:
64,192,79619,1,0,0:0:0:0:
192,192,79698,1,0,0:0:0:0:
320,192,79815,1,0,0:0:0:0:
448,192,79932,1,0,0:0:0:0:
64,192,80010,128,0,80518:0:0:0:0:
192,192,80010,128,0,80518:0:0:0:0:
448,192,80635,1,0,0:0:0:0:
320,192,80713,1,0,0:0:0:0:
64,192,80987,1,0,0:0:0:0:
192,192,81026,1,0,0:0:0:0:
448,192,81104,1,0,0:0:0:0:
64,192,81182,1,0,0:0:0:0:
320,192,81260,1,0,0:0:0:0:
448,192,81338,1,0,0:0:0:0:
64,192,81573,1,0,0:0:0:0:
192,192,81573,1,0,0:0:0:0:
320,192,81924,1,0,0:0:0:0:
192,192,81963,1,0,0:0:0:0:
64,192,82041,1,0,0:0:0:0:
448,192,82119,1,0,0:0:0:0:
192,192,82198,1,0,0:0:0:0:
64,192,82315,1,0,0:0:0:0:
320,192,82510,1,0,0:0:0:0:
448,192,82588,1,0,0:0:0:0:
192,192,82666,1,0,0:0:0:0:
64,192,82901,1,0,0:0:0:0:
320,192,82979,1,0,0:0:0:0:
192,192,83057,1,0,0:0:0:0:
320,192,83213,1,0,0:0:0:0:
448,192,83291,1,0,0:0:0:0:
192,192,83369,1,0,0:0:0:0:
64,192,83448,1,0,0:0:0:0:
320,192,83448,1,0,0:0:0:0:
64,192,83760,128,0,84151:0:0:0:0:
448,192,83760,128,0,84151:0:0:0:0:
448,192,84385,1,0,0:0:0:0:
320,192,84463,1,0,0:0:0:0:
64,192,84541,1,0,0:0:0:0:
448,192,84619,1,0,0:0:0:0:
192,192,84698,1,0,0:0:0:0:
320,192,84776,1,0,0:0:0:0:
448,192,84854,1,0,0:0:0:0:
64,192,84932,1,0,0:0:0:0:
320,192,85010,1,0,0:0:0:0:
192,192,85088,1,0,0:0:0:0:
448,192,85166,1,0,0:0:0:0:
64,192,85244,1,0,0:0:0:0:
192,192,85323,1,0,0:0:0:0:
320,192,85323,1,0,0:0:0:0:
320,192,85479,128,0,85635:0:0:0:0:
448,192,85479,128,0,85635:0:0:0:0:
64,192,85791,128,0,86104:0:0:0:0:
320,192,85791,128,0,86104:0:0:0:0:
448,192,85791,128,0,86104:0:0:0:0:
192,192,86260,1,0,0:0:0:0:
448,192,86260,1,0,0:0:0:0:
320,192,86338,1,0,0:0:0:0:
192,192,86416,1,0,0:0:0:0:
448,192,86494,1,0,0:0:0:0:
64,192,86573,1,0,0:0:0:0:
320,192,86651,1,0,0:0:0:0:
64,192,86729,1,0,0:0:0:0:
192,192,86729,1,0,0:0:0:0:
448,192,86807,1,0,0:0:0:0:
64,192,86885,1,0,0:0:0:0:
320,192,86963,1,0,0:0:0:0:
192,192,87198,1,0,0:0:0:0:
448,192,87198,1,0,0:0:0:0:
192,192,87354,128,0,87510:0:0:0:0:
320,192,87354,128,0,87510:0:0:0:0:
64,192,87666,128,0,87979:0:0:0:0:
192,192,87666,128,0,87979:0:0:0:0:
448,192,87666,128,0,87979:0:0:0:0:
448,192,88135,1,0,0:0:0:0:
64,192,88213,1,0,0:0:0:0:
320,192,88291,1,0,0:0:0:0:
192,192,88369,1,0,0:0:0:0:
448,192,88448,1,0,0:0:0:0:
320,192,88526,1,0,0:0:0:0:
64,192,88604,1,0,0:0:0:0:
192,192,88604,1,0,0:0:0:0:
320,192,88682,1,0,0:0:0:0:
64,192,88760,1,0,0:0:0:0:
448,192,88838,1,0,0:0:0:0:
192,192,88916,1,0,0:0:0:0:
64,192,89073,1,0,0:0:0:0:
320,192,89073,1,0,0:0:0:0:
192,192,89229,128,0,89385:0:0:0:0:
448,192,89229,128,0,89385:0:0:0:0:
192,192,89541,128,0,89658:0:0:0:0:
320,192,89541,128,0,89776:0:0:0:0:
448,192,89541,128,0,89893:0:0:0:0:
192,192,91885,1,0,0:0:0:0:
448,192,91885,1,0,0:0:0:0:
320,192,91963,1,0,0:0:0:0:
192,192,92041,1,0,0:0:0:0:
448,192,92119,1,0,0:0:0:0:
64,192,92198,1,0,0:0:0:0:
320,192,92276,1,0,0:0:0:0:
64,192,92354,1,0,0:0:0:0:
192,192,92354,1,0,0:0:0:0:
448,192,92432,1,0,0:0:0:0:
64,192,92510,1,0,0:0:0:0:
320,192,92588,1,0,0:0:0:0:
192,192,92823,1,0,0:0:0:0:
448,192,92823,1,0,0:0:0:0:
192,192,92979,128,0,93135:0:0:0:0:
320,192,92979,128,0,93135:0:0:0:0:
64,192,93291,128,0,93604:0:0:0:0:
192,192,93291,128,0,93604:0:0:0:0:
448,192,93291,128,0,93604:0:0:0:0:
64,192,93760,1,0,0:0:0:0:
320,192,93760,1,0,0:0:0:0:
192,192,93838,1,0,0:0:0:0:
320,192,93916,1,0,0:0:0:0:
64,192,93994,1,0,0:0:0:0:
448,192,94073,1,0,0:0:0:0:
192,192,94151,1,0,0:0:0:0:
320,192,94229,1,0,0:0:0:0:
448,192,94229,1,0,0:0:0:0:
64,192,94307,1,0,0:0:0:0:
448,192,94385,1,0,0:0:0:0:
192,192,94463,1,0,0:0:0:0:
64,192,94698,1,0,0:0:0:0:
320,192,94698,1,0,0:0:0:0:
192,192,94854,128,0,95010:0:0:0:0:
448,192,94854,128,0,95010:0:0:0:0:
64,192,95166,128,0,95479:0:0:0:0:
192,192,95166,128,0,95479:0:0:0:0:
320,192,95166,128,0,95479:0:0:0:0:
448,192,95635,1,0,0:0:0:0:
64,192,95713,1,0,0:0:0:0:
320,192,95791,1,0,0:0:0:0:
192,192,95869,1,0,0:0:0:0:
448,192,95948,1,0,0:0:0:0:
320,192,96026,1,0,0:0:0:0:
64,192,96104,1,0,0:0:0:0:
192,192,96104,1,0,0:0:0:0:
320,192,96182,1,0,0:0:0:0:
64,192,96260,1,0,0:0:0:0:
448,192,96338,1,0,0:0:0:0:
192,192,96416,1,0,0:0:0:0:
64,192,96573,1,0,0:0:0:0:
320,192,96573,1,0,0:0:0:0:
192,192,96729,128,0,96885:0:0:0:0:
448,192,96729,128,0,96885:0:0:0:0:
192,192,97041,128,0,97354:0:0:0:0:
320,192,97041,128,0,97354:0:0:0:0:
448,192,97041,128,0,97354:0:0:0:0:
448,192,97510,1,0,0:0:0:0:
64,192,97588,1,0,0:0:0:0:
192,192,97666,1,0,0:0:0:0:
320,192,97744,1,0,0:0:0:0:
448,192,97823,1,0,0:0:0:0:
192,192,97901,1,0,0:0:0:0:
64,192,97979,1,0,0:0:0:0:
320,192,97979,1,0,0:0:0:0:
192,192,98057,1,0,0:0:0:0:
64,192,98135,1,0,0:0:0:0:
448,192,98213,1,0,0:0:0:0:
320,192,98291,1,0,0:0:0:0:
64,192,98448,1,0,0:0:0:0:
192,192,98448,1,0,0:0:0:0:
320,192,98604,128,0,98760:0:0:0:0:
448,192,98604,128,0,98760:0:0:0:0:
192,192,98916,128,0,99307:0:0:0:0:
320,192,98916,128,0,99307:0:0:0:0:
448,192,98916,128,0,99307:0:0:0:0:
192,192,99385,1,0,0:0:0:0:
320,192,99463,1,0,0:0:0:0:
448,192,99541,1,0,0:0:0:0:
320,192,99619,1,0,0:0:0:0:
192,192,99698,1,0,0:0:0:0:
448,192,99776,1,0,0:0:0:0:
64,192,99854,1,0,0:0:0:0:
320,192,99854,1,0,0:0:0:0:
192,192,99932,1,0,0:0:0:0:
320,192,100010,1,0,0:0:0:0:
448,192,100088,1,0,0:0:0:0:
192,192,100166,1,0,0:0:0:0:
64,192,100244,1,0,0:0:0:0:
320,192,100323,1,0,0:0:0:0:
448,192,100323,1,0,0:0:0:0:
64,192,100479,128,0,100635:0:0:0:0:
448,192,100479,128,0,100635:0:0:0:0:
64,192,100791,128,0,101182:0:0:0:0:
192,192,100791,128,0,101182:0:0:0:0:
320,192,100791,128,0,101182:0:0:0:0:
448,192,101260,1,0,0:0:0:0:
192,192,101338,1,0,0:0:0:0:
320,192,101416,1,0,0:0:0:0:
448,192,101494,1,0,0:0:0:0:
64,192,101573,1,0,0:0:0:0:
192,192,101651,1,0,0:0:0:0:
64,192,101729,1,0,0:0:0:0:
320,192,101729,1,0,0:0:0:0:
448,192,101807,1,0,0:0:0:0:
64,192,101885,1,0,0:0:0:0:
192,192,101963,1,0,0:0:0:0:
320,192,102198,1,0,0:0:0:0:
448,192,102198,1,0,0:0:0:0:
64,192,102354,128,0,102510:0:0:0:0:
192,192,102354,128,0,102510:0:0:0:0:
192,192,102666,128,0,102979:0:0:0:0:
320,192,102666,128,0,102979:0:0:0:0:
448,192,102666,128,0,102979:0:0:0:0:
64,192,103135,1,0,0:0:0:0:
192,192,103213,1,0,0:0:0:0:
320,192,103369,1,0,0:0:0:0:
192,192,103487,1,0,0:0:0:0:
64,192,103526,1,0,0:0:0:0:
448,192,103604,1,0,0:0:0:0:
320,192,103721,1,0,0:0:0:0:
64,192,103838,1,0,0:0:0:0:
320,192,104073,1,0,0:0:0:0:
448,192,104073,1,0,0:0:0:0:
192,192,104151,1,0,0:0:0:0:
64,192,104190,1,0,0:0:0:0:
192,192,104424,1,0,0:0:0:0:
320,192,104424,1,0,0:0:0:0:
64,192,104541,1,0,0:0:0:0:
448,192,104541,1,0,0:0:0:0:
448,192,104776,1,0,0:0:0:0:
320,192,104854,1,0,0:0:0:0:
192,192,105010,1,0,0:0:0:0:
320,192,105166,1,0,0:0:0:0:
448,192,105244,1,0,0:0:0:0:
64,192,105401,1,0,0:0:0:0:
192,192,105479,1,0,0:0:0:0:
320,192,105596,1,0,0:0:0:0:
64,192,105713,1,0,0:0:0:0:
192,192,106143,1,0,0:0:0:0:
192,192,106377,1,0,0:0:0:0:
64,192,106573,1,0,0:0:0:0:
320,192,106885,1,0,0:0:0:0:
448,192,106885,1,0,0:0:0:0:
64,192,106963,1,0,0:0:0:0:
320,192,107041,1,0,0:0:0:0:
192,192,107119,1,0,0:0:0:0:
320,192,107198,1,0,0:0:0:0:
64,192,107276,1,0,0:0:0:0:
192,192,107354,1,0,0:0:0:0:
448,192,107354,1,0,0:0:0:0:
320,192,107432,1,0,0:0:0:0:
64,192,107510,1,0,0:0:0:0:
448,192,107588,1,0,0:0:0:0:
192,192,107666,1,0,0:0:0:0:
320,192,107744,1,0,0:0:0:0:
64,192,107823,1,0,0:0:0:0:
448,192,107823,1,0,0:0:0:0:
320,192,107940,1,0,0:0:0:0:
192,192,108057,1,0,0:0:0:0:
320,192,108174,1,0,0:0:0:0:
448,192,108291,1,0,0:0:0:0:
320,192,108408,1,0,0:0:0:0:
64,192,108526,1,0,0:0:0:0:
320,192,108643,1,0,0:0:0:0:
448,192,108760,1,0,0:0:0:0:
320,192,108838,1,0,0:0:0:0:
192,192,108916,1,0,0:0:0:0:
64,192,108994,1,0,0:0:0:0:
448,192,109073,1,0,0:0:0:0:
320,192,109151,1,0,0:0:0:0:
192,192,109229,1,0,0:0:0:0:
64,192,109307,1,0,0:0:0:0:
448,192,109463,1,0,0:0:0:0:
64,192,109698,1,0,0:0:0:0:
192,192,109698,1,0,0:0:0:0:
320,192,109854,1,0,0:0:0:0:
64,192,110166,1,0,0:0:0:0:
320,192,110166,1,0,0:0:0:0:
448,192,110166,1,0,0:0:0:0:
448,192,110635,1,0,0:0:0:0:
320,192,110713,1,0,0:0:0:0:
192,192,110791,1,0,0:0:0:0:
64,192,110869,1,0,0:0:0:0:
320,192,110948,1,0,0:0:0:0:
448,192,111026,1,0,0:0:0:0:
64,192,111104,1,0,0:0:0:0:
192,192,111104,1,0,0:0:0:0:
320,192,111182,1,0,0:0:0:0:
448,192,111260,1,0,0:0:0:0:
192,192,111338,1,0,0:0:0:0:
64,192,111416,1,0,0:0:0:0:
320,192,111494,1,0,0:0:0:0:
448,192,111573,1,0,0:0:0:0:
448,192,111768,1,0,0:0:0:0:
64,192,112041,1,0,0:0:0:0:
192,192,112041,1,0,0:0:0:0:
320,192,112510,1,0,0:0:0:0:
448,192,112510,1,0,0:0:0:0:
192,192,112588,1,0,0:0:0:0:
64,192,112666,1,0,0:0:0:0:
320,192,112744,1,0,0:0:0:0:
192,192,112823,1,0,0:0:0:0:
64,192,112901,1,0,0:0:0:0:
192,192,112979,1,0,0:0:0:0:
320,192,112979,1,0,0:0:0:0:
448,192,113057,1,0,0:0:0:0:
64,192,113135,1,0,0:0:0:0:
192,192,113213,1,0,0:0:0:0:
320,192,113291,1,0,0:0:0:0:
448,192,113369,1,0,0:0:0:0:
64,192,113448,1,0,0:0:0:0:
192,192,113448,1,0,0:0:0:0:
64,192,113643,1,0,0:0:0:0:
320,192,113916,1,0,0:0:0:0:
448,192,113916,1,0,0:0:0:0:
192,192,114073,1,0,0:0:0:0:
64,192,114385,1,0,0:0:0:0:
448,192,114385,1,0,0:0:0:0:
192,192,114463,1,0,0:0:0:0:
448,192,114541,1,0,0:0:0:0:
64,192,114619,1,0,0:0:0:0:
192,192,114698,1,0,0:0:0:0:
448,192,114776,1,0,0:0:0:0:
64,192,114854,1,0,0:0:0:0:
320,192,114854,1,0,0:0:0:0:
192,192,114932,1,0,0:0:0:0:
64,192,115010,1,0,0:0:0:0:
448,192,115088,1,0,0:0:0:0:
192,192,115166,1,0,0:0:0:0:
320,192,115244,1,0,0:0:0:0:
64,192,115323,1,0,0:0:0:0:
448,192,115323,1,0,0:0:0:0:
192,192,115440,1,0,0:0:0:0:
448,192,115557,1,0,0:0:0:0:
320,192,115674,1,0,0:0:0:0:
64,192,115791,1,0,0:0:0:0:
192,192,115791,1,0,0:0:0:0:
448,192,115908,1,0,0:0:0:0:
64,192,116026,1,0,0:0:0:0:
320,192,116026,1,0,0:0:0:0:
192,192,116260,1,0,0:0:0:0:
448,192,116260,1,0,0:0:0:0:
320,192,116338,1,0,0:0:0:0:
192,192,116416,1,0,0:0:0:0:
64,192,116494,1,0,0:0:0:0:
448,192,116573,1,0,0:0:0:0:
320,192,116651,1,0,0:0:0:0:
192,192,116729,1,0,0:0:0:0:
64,192,116807,1,0,0:0:0:0:
448,192,116963,1,0,0:0:0:0:
64,192,117198,1,0,0:0:0:0:
192,192,117198,1,0,0:0:0:0:
320,192,117354,1,0,0:0:0:0:
64,192,117666,1,0,0:0:0:0:
320,192,117666,1,0,0:0:0:0:
448,192,117666,1,0,0:0:0:0:
448,192,118135,1,0,0:0:0:0:
320,192,118213,1,0,0:0:0:0:
192,192,118291,1,0,0:0:0:0:
64,192,118369,1,0,0:0:0:0:
320,192,118448,1,0,0:0:0:0:
448,192,118526,1,0,0:0:0:0:
64,192,118604,1,0,0:0:0:0:
192,192,118604,1,0,0:0:0:0:
320,192,118682,1,0,0:0:0:0:
448,192,118760,1,0,0:0:0:0:
192,192,118838,1,0,0:0:0:0:
64,192,118916,1,0,0:0:0:0:
320,192,118994,1,0,0:0:0:0:
448,192,119073,1,0,0:0:0:0:
448,192,119268,1,0,0:0:0:0:
64,192,119541,1,0,0:0:0:0:
192,192,119541,1,0,0:0:0:0:
320,192,120010,1,0,0:0:0:0:
448,192,120010,1,0,0:0:0:0:
192,192,120088,1,0,0:0:0:0:
64,192,120166,1,0,0:0:0:0:
320,192,120244,1,0,0:0:0:0:
192,192,120323,1,0,0:0:0:0:
64,192,120401,1,0,0:0:0:0:
192,192,120479,1,0,0:0:0:0:
320,192,120479,1,0,0:0:0:0:
448,192,120557,1,0,0:0:0:0:
64,192,120635,1,0,0:0:0:0:
192,192,120713,1,0,0:0:0:0:
320,192,120791,1,0,0:0:0:0:
448,192,120869,1,0,0:0:0:0:
64,192,120948,1,0,0:0:0:0:
192,192,120948,1,0,0:0:0:0:
192,192,121065,1,0,0:0:0:0:
192,192,121182,1,0,0:0:0:0:
320,192,121182,1,0,0:0:0:0:
64,192,121299,1,0,0:0:0:0:
448,192,121299,1,0,0:0:0:0:
64,192,121416,1,0,0:0:0:0:
192,192,121416,1,0,0:0:0:0:
320,192,121416,1,0,0:0:0:0:
448,192,121416,1,0,0:0:0:0:
448,192,121885,1,0,0:0:0:0:
320,192,121944,1,0,0:0:0:0:
192,192,122002,1,0,0:0:0:0:
64,192,122061,1,0,0:0:0:0:
320,192,122119,1,0,0:0:0:0:
192,192,122178,1,0,0:0:0:0:
448,192,122237,1,0,0:0:0:0:
320,192,122295,1,0,0:0:0:0:
192,192,122354,1,0,0:0:0:0:
64,192,122412,1,0,0:0:0:0:
320,192,122471,1,0,0:0:0:0:
448,192,122530,1,0,0:0:0:0:
64,192,122588,1,0,0:0:0:0:
192,192,122647,1,0,0:0:0:0:
320,192,122705,1,0,0:0:0:0:
448,192,122764,1,0,0:0:0:0:
192,192,122823,1,0,0:0:0:0:
64,192,122881,1,0,0:0:0:0:
320,192,122940,1,0,0:0:0:0:
448,192,122998,1,0,0:0:0:0:
192,192,123057,1,0,0:0:0:0:
320,192,123115,1,0,0:0:0:0:
448,192,123174,1,0,0:0:0:0:
64,192,123233,1,0,0:0:0:0:
192,192,123291,1,0,0:0:0:0:
320,192,123350,1,0,0:0:0:0:
448,192,123408,1,0,0:0:0:0:
320,192,123760,1,0,0:0:0:0:
192,192,123819,1,0,0:0:0:0:
64,192,123877,1,0,0:0:0:0:
448,192,123936,1,0,0:0:0:0:
320,192,123994,1,0,0:0:0:0:
192,192,124053,1,0,0:0:0:0:
64,192,124112,1,0,0:0:0:0:
320,192,124170,1,0,0:0:0:0:
448,192,124229,1,0,0:0:0:0:
192,192,124287,1,0,0:0:0:0:
64,192,124346,1,0,0:0:0:0:
448,192,124405,1,0,0:0:0:0:
320,192,124463,1,0,0:0:0:0:
64,192,124522,1,0,0:0:0:0:
192,192,124580,1,0,0:0:0:0:
320,192,124698,1,0,0:0:0:0:
64,192,124756,1,0,0:0:0:0:
192,192,124815,1,0,0:0:0:0:
448,192,124873,1,0,0:0:0:0:
320,192,124932,1,0,0:0:0:0:
192,192,124990,1,0,0:0:0:0:
64,192,125049,1,0,0:0:0:0:
448,192,125108,1,0,0:0:0:0:
320,192,125166,1,0,0:0:0:0:
192,192,125225,1,0,0:0:0:0:
64,192,125283,1,0,0:0:0:0:
64,192,125635,1,0,0:0:0:0:
192,192,125694,1,0,0:0:0:0:
320,192,125752,1,0,0:0:0:0:
448,192,125811,1,0,0:0:0:0:
192,192,125869,1,0,0:0:0:0:
320,192,125928,1,0,0:0:0:0:
64,192,125987,1,0,0:0:0:0:
192,192,126045,1,0,0:0:0:0:
320,192,126104,1,0,0:0:0:0:
448,192,126162,1,0,0:0:0:0:
192,192,126221,1,0,0:0:0:0:
64,192,126280,1,0,0:0:0:0:
448,192,126338,1,0,0:0:0:0:
320,192,126397,1,0,0:0:0:0:
192,192,126455,1,0,0:0:0:0:
64,192,126514,1,0,0:0:0:0:
320,192,126573,1,0,0:0:0:0:
448,192,126631,1,0,0:0:0:0:
192,192,126690,1,0,0:0:0:0:
64,192,126748,1,0,0:0:0:0:
320,192,126807,1,0,0:0:0:0:
192,192,126865,1,0,0:0:0:0:
64,192,126924,1,0,0:0:0:0:
448,192,126983,1,0,0:0:0:0:
320,192,127041,1,0,0:0:0:0:
192,192,127100,1,0,0:0:0:0:
64,192,127158,1,0,0:0:0:0:
448,192,127510,1,0,0:0:0:0:
192,192,127569,1,0,0:0:0:0:
64,192,127627,1,0,0:0:0:0:
448,192,127686,1,0,0:0:0:0:
320,192,127744,1,0,0:0:0:0:
64,192,127803,1,0,0:0:0:0:
192,192,127862,1,0,0:0:0:0:
448,192,127920,1,0,0:0:0:0:
320,192,127979,1,0,0:0:0:0:
192,192,128037,1,0,0:0:0:0:
64,192,128096,1,0,0:0:0:0:
448,192,128155,1,0,0:0:0:0:
192,192,128213,1,0,0:0:0:0:
64,192,128272,1,0,0:0:0:0:
320,192,128330,1,0,0:0:0:0:
448,192,128389,1,0,0:0:0:0:
64,192,128447,1,0,0:0:0:0:
192,192,128506,1,0,0:0:0:0:
320,192,128565,1,0,0:0:0:0:
448,192,128623,1,0,0:0:0:0:
64,192,128682,1,0,0:0:0:0:
320,192,128740,1,0,0:0:0:0:
448,192,128799,1,0,0:0:0:0:
192,192,128858,1,0,0:0:0:0:
64,192,128916,1,0,0:0:0:0:
320,192,128975,1,0,0:0:0:0:
192,192,129033,1,0,0:0:0:0:
192,192,129385,1,0,0:0:0:0:
320,192,129444,1,0,0:0:0:0:
448,192,129502,1,0,0:0:0:0:
64,192,129561,1,0,0:0:0:0:
192,192,129619,1,0,0:0:0:0:
320,192,129678,1,0,0:0:0:0:
448,192,129737,1,0,0:0:0:0:
192,192,129795,1,0,0:0:0:0:
64,192,129854,1,0,0:0:0:0:
320,192,129912,1,0,0:0:0:0:
448,192,129971,1,0,0:0:0:0:
64,192,130030,1,0,0:0:0:0:
192,192,130088,1,0,0:0:0:0:
448,192,130147,1,0,0:0:0:0:
320,192,130205,1,0,0:0:0:0:
192,192,130322,1,0,0:0:0:0:
448,192,130381,1,0,0:0:0:0:
320,192,130440,1,0,0:0:0:0:
64,192,130498,1,0,0:0:0:0:
192,192,130557,1,0,0:0:0:0:
320,192,130615,1,0,0:0:0:0:
448,192,130674,1,0,0:0:0:0:
64,192,130733,1,0,0:0:0:0:
192,192,130791,1,0,0:0:0:0:
448,192,131260,1,0,0:0:0:0:
192,192,131319,1,0,0:0:0:0:
320,192,131377,1,0,0:0:0:0:
64,192,131436,1,0,0:0:0:0:
192,192,131494,1,0,0:0:0:0:
320,192,131553,1,0,0:0:0:0:
64,192,131612,1,0,0:0:0:0:
448,192,131670,1,0,0:0:0:0:
320,192,131729,1,0,0:0:0:0:
192,192,131787,1,0,0:0:0:0:
64,192,131846,1,0,0:0:0:0:
448,192,131905,1,0,0:0:0:0:
192,192,131963,1,0,0:0:0:0:
64,192,132022,1,0,0:0:0:0:
320,192,132080,1,0,0:0:0:0:
448,192,132139,1,0,0:0:0:0:
192,192,132198,1,0,0:0:0:0:
64,192,132256,1,0,0:0:0:0:
320,192,132315,1,0,0:0:0:0:
448,192,132373,1,0,0:0:0:0:
192,192,132432,1,0,0:0:0:0:
320,192,132490,1,0,0:0:0:0:
448,192,132549,1,0,0:0:0:0:
64,192,132608,1,0,0:0:0:0:
192,192,132666,1,0,0:0:0:0:
320,192,132725,1,0,0:0:0:0:
448,192,132783,1,0,0:0:0:0:
64,192,133135,1,0,0:0:0:0:
192,192,133194,1,0,0:0:0:0:
320,192,133252,1,0,0:0:0:0:
448,192,133311,1,0,0:0:0:0:
192,192,133369,1,0,0:0:0:0:
320,192,133428,1,0,0:0:0:0:
64,192,133487,1,0,0:0:0:0:
192,192,133545,1,0,0:0:0:0:
320,192,133604,1,0,0:0:0:0:
448,192,133662,1,0,0:0:0:0:
192,192,133721,1,0,0:0:0:0:
64,192,133780,1,0,0:0:0:0:
448,192,133838,1,0,0:0:0:0:
320,192,133897,1,0,0:0:0:0:
192,192,133955,1,0,0:0:0:0:
64,192,134014,1,0,0:0:0:0:
320,192,134073,1,0,0:0:0:0:
448,192,134131,1,0,0:0:0:0:
192,192,134190,1,0,0:0:0:0:
64,192,134248,1,0,0:0:0:0:
320,192,134307,1,0,0:0:0:0:
192,192,134365,1,0,0:0:0:0:
64,192,134424,1,0,0:0:0:0:
448,192,134483,1,0,0:0:0:0:
320,192,134541,1,0,0:0:0:0:
192,192,134600,1,0,0:0:0:0:
64,192,134658,1,0,0:0:0:0:
192,192,135010,1,0,0:0:0:0:
320,192,135069,1,0,0:0:0:0:
448,192,135127,1,0,0:0:0:0:
64,192,135186,1,0,0:0:0:0:
192,192,135244,1,0,0:0:0:0:
320,192,135303,1,0,0:0:0:0:
448,192,135362,1,0,0:0:0:0:
192,192,135420,1,0,0:0:0:0:
64,192,135479,1,0,0:0:0:0:
320,192,135537,1,0,0:0:0:0:
448,192,135596,1,0,0:0:0:0:
64,192,135655,1,0,0:0:0:0:
192,192,135713,1,0,0:0:0:0:
448,192,135772,1,0,0:0:0:0:
320,192,135830,1,0,0:0:0:0:
192,192,135948,1,0,0:0:0:0:
448,192,136006,1,0,0:0:0:0:
320,192,136065,1,0,0:0:0:0:
64,192,136123,1,0,0:0:0:0:
192,192,136182,1,0,0:0:0:0:
320,192,136240,1,0,0:0:0:0:
448,192,136299,1,0,0:0:0:0:
64,192,136358,1,0,0:0:0:0:
192,192,136416,1,0,0:0:0:0:
320,192,136475,1,0,0:0:0:0:
448,192,136533,1,0,0:0:0:0:
192,192,136885,1,0,0:0:0:0:
448,192,137002,1,0,0:0:0:0:
64,192,137119,1,0,0:0:0:0:
320,192,137237,1,0,0:0:0:0:
192,192,137354,1,0,0:0:0:0:
448,192,137471,1,0,0:0:0:0:
64,192,137588,1,0,0:0:0:0:
320,192,137705,1,0,0:0:0:0:
192,192,137823,1,0,0:0:0:0:
448,192,137823,1,0,0:0:0:0:
64,192,138135,1,0,0:0:0:0:
192,192,138135,1,0,0:0:0:0:
448,192,138526,1,0,0:0:0:0:
64,192,138643,1,0,0:0:0:0:
320,192,138760,1,0,0:0:0:0:
192,192,138877,1,0,0:0:0:0:
448,192,138994,1,0,0:0:0:0:
64,192,139112,1,0,0:0:0:0:
320,192,139229,1,0,0:0:0:0:
192,192,139346,1,0,0:0:0:0:
448,192,139463,1,0,0:0:0:0:
64,192,139580,1,0,0:0:0:0:
192,192,139698,1,0,0:0:0:0:
320,192,139698,1,0,0:0:0:0:
320,192,140010,1,0,0:0:0:0:
448,192,140010,1,0,0:0:0:0:
448,192,140401,1,0,0:0:0:0:
64,192,140518,1,0,0:0:0:0:
192,192,140635,1,0,0:0:0:0:
320,192,140635,1,0,0:0:0:0:
448,192,140752,1,0,0:0:0:0:
64,192,140869,1,0,0:0:0:0:
192,192,140869,1,0,0:0:0:0:
320,192,140987,1,0,0:0:0:0:
192,192,141104,1,0,0:0:0:0:
448,192,141104,1,0,0:0:0:0:
64,192,141221,1,0,0:0:0:0:
320,192,141338,1,0,0:0:0:0:
448,192,141338,1,0,0:0:0:0:
64,192,141573,1,0,0:0:0:0:
192,192,141573,1,0,0:0:0:0:
320,192,141573,1,0,0:0:0:0:
192,192,141885,1,0,0:0:0:0:
320,192,141885,1,0,0:0:0:0:
448,192,141885,1,0,0:0:0:0:
448,192,142393,1,0,0:0:0:0:
192,192,142510,1,0,0:0:0:0:
320,192,142510,1,0,0:0:0:0:
64,192,142627,1,0,0:0:0:0:
192,192,142744,1,0,0:0:0:0:
448,192,142744,1,0,0:0:0:0:
320,192,142862,1,0,0:0:0:0:
64,192,142979,1,0,0:0:0:0:
192,192,142979,1,0,0:0:0:0:
448,192,143096,1,0,0:0:0:0:
64,192,143213,1,0,0:0:0:0:
320,192,143213,1,0,0:0:0:0:
64,192,143448,1,0,0:0:0:0:
192,192,143448,1,0,0:0:0:0:
320,192,143448,1,0,0:0:0:0:
192,192,143760,1,0,0:0:0:0:
320,192,143760,1,0,0:0:0:0:
448,192,143760,1,0,0:0:0:0:
64,192,144268,1,0,0:0:0:0:
448,192,144385,1,0,0:0:0:0:
64,192,144502,1,0,0:0:0:0:
448,192,144619,1,0,0:0:0:0:
64,192,144737,1,0,0:0:0:0:
448,192,144854,1,0,0:0:0:0:
64,192,144971,1,0,0:0:0:0:
448,192,145088,1,0,0:0:0:0:
64,192,145205,1,0,0:0:0:0:
448,192,145323,1,0,0:0:0:0:
64,192,145440,1,0,0:0:0:0:
448,192,145557,1,0,0:0:0:0:
64,192,145674,1,0,0:0:0:0:
448,192,145791,1,0,0:0:0:0:
192,192,145908,1,0,0:0:0:0:
320,192,146026,1,0,0:0:0:0:
192,192,146143,1,0,0:0:0:0:
320,192,146260,1,0,0:0:0:0:
192,192,146377,1,0,0:0:0:0:
320,192,146494,1,0,0:0:0:0:
192,192,146612,1,0,0:0:0:0:
320,192,146729,1,0,0:0:0:0:
192,192,146846,1,0,0:0:0:0:
320,192,146963,1,0,0:0:0:0:
192,192,147080,1,0,0:0:0:0:
320,192,147198,1,0,0:0:0:0:
192,192,147315,1,0,0:0:0:0:
320,192,147432,1,0,0:0:0:0:
192,192,147549,1,0,0:0:0:0:
320,192,147666,1,0,0:0:0:0:
192,192,147783,1,0,0:0:0:0:
320,192,147901,1,0,0:0:0:0:
192,192,148018,1,0,0:0:0:0:
320,192,148135,1,0,0:0:0:0:
64,192,148252,1,0,0:0:0:0:
192,192,148252,1,0,0:0:0:0:
320,192,148369,1,0,0:0:0:0:
448,192,148369,1,0,0:0:0:0:
64,192,148487,1,0,0:0:0:0:
192,192,148487,1,0,0:0:0:0:
320,192,148604,1,0,0:0:0:0:
448,192,148604,1,0,0:0:0:0:
64,192,148721,1,0,0:0:0:0:
192,192,148721,1,0,0:0:0:0:
320,192,148838,1,0,0:0:0:0:
448,192,148838,1,0,0:0:0:0:
64,192,148955,1,0,0:0:0:0:
192,192,148955,1,0,0:0:0:0:
320,192,149073,1,0,0:0:0:0:
448,192,149073,1,0,0:0:0:0:
64,192,149190,1,0,0:0:0:0:
192,192,149190,1,0,0:0:0:0:
320,192,149307,1,0,0:0:0:0:
448,192,149307,1,0,0:0:0:0:
64,192,149424,1,0,0:0:0:0:
192,192,149424,1,0,0:0:0:0:
320,192,149541,1,0,0:0:0:0:
448,192,149541,1,0,0:0:0:0:
64,192,149658,1,0,0:0:0:0:
192,192,149658,1,0,0:0:0:0:
320,192,149776,1,0,0:0:0:0:
448,192,149776,1,0,0:0:0:0:
64,192,149893,1,0,0:0:0:0:
192,192,149893,1,0,0:0:0:0:
320,192,150010,1,0,0:0:0:0:
448,192,150010,1,0,0:0:0:0:
64,192,150088,1,0,0:0:0:0:
192,192,150088,1,0,0:0:0:0:
320,192,150166,1,0,0:0:0:0:
448,192,150166,1,0,0:0:0:0:
64,192,150244,1,0,0:0:0:0:
192,192,150244,1,0,0:0:0:0:
320,192,150323,1,0,0:0:0:0:
448,192,150323,1,0,0:0:0:0:
64,192,150401,1,0,0:0:0:0:
192,192,150401,1,0,0:0:0:0:
320,192,150479,1,0,0:0:0:0:
448,192,150479,1,0,0:0:0:0:
64,192,150537,1,0,0:0:0:0:
192,192,150537,1,0,0:0:0:0:
320,192,150596,1,0,0:0:0:0:
448,192,150596,1,0,0:0:0:0:
64,192,150655,1,0,0:0:0:0:
192,192,150655,1,0,0:0:0:0:
320,192,150713,1,0,0:0:0:0:
448,192,150713,1,0,0:0:0:0:
64,192,150772,1,0,0:0:0:0:
192,192,150772,1,0,0:0:0:0:
320,192,150830,1,0,0:0:0:0:
448,192,150830,1,0,0:0:0:0:
64,192,150889,1,0,0:0:0:0:
192,192,150889,1,0,0:0:0:0:
320,192,150948,1,0,0:0:0:0:
448,192,150948,1,0,0:0:0:0:
64,192,151006,1,0,0:0:0:0:
192,192,151006,1,0,0:0:0:0:
320,192,151065,1,0,0:0:0:0:
448,192,151065,1,0,0:0:0:0:
64,192,151123,1,0,0:0:0:0:
192,192,151123,1,0,0:0:0:0:
320,192,151182,1,0,0:0:0:0:
448,192,151182,1,0,0:0:0:0:
64,192,151240,1,0,0:0:0:0:
192,192,151240,1,0,0:0:0:0:
320,192,151299,1,0,0:0:0:0:
448,192,151299,1,0,0:0:0:0:
64,192,151358,1,0,0:0:0:0:
192,192,151358,1,0,0:0:0:0:
320,192,151416,1,0,0:0:0:0:
448,192,151416,1,0,0:0:0:0:
192,192,151475,1,0,0:0:0:0:
64,192,151533,1,0,0:0:0:0:
448,192,151592,1,0,0:0:0:0:
320,192,151651,1,0,0:0:0:0:
64,192,153760,1,0,0:0:0:0:
192,192,153994,1,0,0:0:0:0:
320,192,154229,1,0,0:0:0:0:
448,192,154463,1,0,0:0:0:0:
192,192,155166,128,0,155479:0:0:0:0:
320,192,155166,128,0,155479:0:0:0:0:
64,192,155635,1,0,0:0:0:0:
448,192,155635,1,0,0:0:0:0:
64,192,155948,1,0,0:0:0:0:
448,192,155948,1,0,0:0:0:0:
192,192,156416,1,0,0:0:0:0:
320,192,156416,1,0,0:0:0:0:
64,192,157041,1,0,0:0:0:0:
192,192,157041,1,0,0:0:0:0:
320,192,157041,1,0,0:0:0:0:
448,192,157041,1,0,0:0:0:0:
64,192,157510,1,0,0:0:0:0:
320,192,157569,1,0,0:0:0:0:
192,192,157627,1,0,0:0:0:0:
448,192,157686,1,0,0:0:0:0:
320,192,157744,1,0,0:0:0:0:
192,192,157803,1,0,0:0:0:0:
64,192,157862,1,0,0:0:0:0:
320,192,157920,1,0,0:0:0:0:
192,192,157979,1,0,0:0:0:0:
448,192,158037,1,0,0:0:0:0:
320,192,158096,1,0,0:0:0:0:
64,192,158155,1,0,0:0:0:0:
448,192,158213,1,0,0:0:0:0:
192,192,158272,1,0,0:0:0:0:
320,192,158330,1,0,0:0:0:0:
64,192,158389,1,0,0:0:0:0:
192,192,158448,1,0,0:0:0:0:
448,192,158506,1,0,0:0:0:0:
320,192,158565,1,0,0:0:0:0:
64,192,158623,1,0,0:0:0:0:
192,192,158682,1,0,0:0:0:0:
320,192,158740,1,0,0:0:0:0:
64,192,158799,1,0,0:0:0:0:
448,192,158858,1,0,0:0:0:0:
192,192,158916,1,0,0:0:0:0:
320,192,158975,1,0,0:0:0:0:
64,192,159033,1,0,0:0:0:0:
320,192,159385,1,0,0:0:0:0:
192,192,159444,1,0,0:0:0:0:
448,192,159502,1,0,0:0:0:0:
64,192,159561,1,0,0:0:0:0:
320,192,159619,1,0,0:0:0:0:
192,192,159678,1,0,0:0:0:0:
448,192,159737,1,0,0:0:0:0:
320,192,159795,1,0,0:0:0:0:
64,192,159854,1,0,0:0:0:0:
192,192,159912,1,0,0:0:0:0:
448,192,159971,1,0,0:0:0:0:
64,192,160030,1,0,0:0:0:0:
320,192,160088,1,0,0:0:0:0:
448,192,160147,1,0,0:0:0:0:
192,192,160205,1,0,0:0:0:0:
320,192,160323,1,0,0:0:0:0:
448,192,160381,1,0,0:0:0:0:
192,192,160440,1,0,0:0:0:0:
64,192,160498,1,0,0:0:0:0:
320,192,160557,1,0,0:0:0:0:
192,192,160615,1,0,0:0:0:0:
448,192,160674,1,0,0:0:0:0:
64,192,160733,1,0,0:0:0:0:
320,192,160791,1,0,0:0:0:0:
192,192,160850,1,0,0:0:0:0:
448,192,160908,1,0,0:0:0:0:
448,192,161260,1,0,0:0:0:0:
192,192,161319,1,0,0:0:0:0:
320,192,161377,1,0,0:0:0:0:
64,192,161436,1,0,0:0:0:0:
192,192,161494,1,0,0:0:0:0:
320,192,161553,1,0,0:0:0:0:
448,192,161612,1,0,0:0:0:0:
192,192,161670,1,0,0:0:0:0:
320,192,161729,1,0,0:0:0:0:
64,192,161787,1,0,0:0:0:0:
192,192,161846,1,0,0:0:0:0:
448,192,161905,1,0,0:0:0:0:
64,192,161963,1,0,0:0:0:0:
320,192,162022,1,0,0:0:0:0:
192,192,162080,1,0,0:0:0:0:
448,192,162139,1,0,0:0:0:0:
320,192,162198,1,0,0:0:0:0:
64,192,162256,1,0,0:0:0:0:
192,192,162315,1,0,0:0:0:0:
448,192,162373,1,0,0:0:0:0:
320,192,162432,1,0,0:0:0:0:
192,192,162490,1,0,0:0:0:0:
448,192,162549,1,0,0:0:0:0:
64,192,162608,1,0,0:0:0:0:
320,192,162666,1,0,0:0:0:0:
192,192,162725,1,0,0:0:0:0:
448,192,162783,1,0,0:0:0:0:
64,192,163135,1,0,0:0:0:0:
192,192,163194,1,0,0:0:0:0:
448,192,163252,1,0,0:0:0:0:
64,192,163311,1,0,0:0:0:0:
320,192,163369,1,0,0:0:0:0:
448,192,163428,1,0,0:0:0:0:
192,192,163487,1,0,0:0:0:0:
64,192,163545,1,0,0:0:0:0:
320,192,163604,1,0,0:0:0:0:
192,192,163662,1,0,0:0:0:0:
448,192,163721,1,0,0:0:0:0:
64,192,163780,1,0,0:0:0:0:
192,192,163838,1,0,0:0:0:0:
448,192,163897,1,0,0:0:0:0:
320,192,163955,1,0,0:0:0:0:
64,192,164014,1,0,0:0:0:0:
448,192,164073,1,0,0:0:0:0:
192,192,164131,1,0,0:0:0:0:
320,192,164190,1,0,0:0:0:0:
64,192,164248,1,0,0:0:0:0:
448,192,164307,1,0,0:0:0:0:
320,192,164365,1,0,0:0:0:0:
64,192,164424,1,0,0:0:0:0:
192,192,164483,1,0,0:0:0:0:
448,192,164541,1,0,0:0:0:0:
320,192,164600,1,0,0:0:0:0:
192,192,164658,1,0,0:0:0:0:
192,192,165010,1,0,0:0:0:0:
320,192,165069,1,0,0:0:0:0:
64,192,165127,1,0,0:0:0:0:
448,192,165186,1,0,0:0:0:0:
192,192,165244,1,0,0:0:0:0:
320,192,165303,1,0,0:0:0:0:
64,192,165362,1,0,0:0:0:0:
192,192,165420,1,0,0:0:0:0:
448,192,165479,1,0,0:0:0:0:
320,192,165537,1,0,0:0:0:0:
64,192,165596,1,0,0:0:0:0:
448,192,165655,1,0,0:0:0:0:
192,192,165713,1,0,0:0:0:0:
64,192,165772,1,0,0:0:0:0:
320,192,165830,1,0,0:0:0:0:
192,192,165948,1,0,0:0:0:0:
64,192,166006,1,0,0:0:0:0:
320,192,166065,1,0,0:0:0:0:
448,192,166123,1,0,0:0:0:0:
192,192,166182,1,0,0:0:0:0:
320,192,166240,1,0,0:0:0:0:
64,192,166299,1,0,0:0:0:0:
448,192,166358,1,0,0:0:0:0:
192,192,166416,1,0,0:0:0:0:
64,192,166885,1,0,0:0:0:0:
192,192,166944,1,0,0:0:0:0:
320,192,167002,1,0,0:0:0:0:
448,192,167061,1,0,0:0:0:0:
192,192,167119,1,0,0:0:0:0:
320,192,167178,1,0,0:0:0:0:
448,192,167237,1,0,0:0:0:0:
64,192,167295,1,0,0:0:0:0:
320,192,167354,1,0,0:0:0:0:
192,192,167412,1,0,0:0:0:0:
448,192,167471,1,0,0:0:0:0:
64,192,167530,1,0,0:0:0:0:
192,192,167588,1,0,0:0:0:0:
448,192,167647,1,0,0:0:0:0:
320,192,167705,1,0,0:0:0:0:
64,192,167764,1,0,0:0:0:0:
192,192,167823,1,0,0:0:0:0:
448,192,167881,1,0,0:0:0:0:
320,192,167940,1,0,0:0:0:0:
64,192,167998,1,0,0:0:0:0:
192,192,168057,1,0,0:0:0:0:
320,192,168115,1,0,0:0:0:0:
64,192,168174,1,0,0:0:0:0:
448,192,168233,1,0,0:0:0:0:
192,192,168291,1,0,0:0:0:0:
320,192,168350,1,0,0:0:0:0:
64,192,168408,1,0,0:0:0:0:
64,192,168760,1,0,0:0:0:0:
192,192,168819,1,0,0:0:0:0:
320,192,168877,1,0,0:0:0:0:
448,192,168936,1,0,0:0:0:0:
192,192,168994,1,0,0:0:0:0:
320,192,169053,1,0,0:0:0:0:
64,192,169112,1,0,0:0:0:0:
192,192,169170,1,0,0:0:0:0:
320,192,169229,1,0,0:0:0:0:
448,192,169287,1,0,0:0:0:0:
192,192,169346,1,0,0:0:0:0:
64,192,169405,1,0,0:0:0:0:
448,192,169463,1,0,0:0:0:0:
320,192,169522,1,0,0:0:0:0:
192,192,169580,1,0,0:0:0:0:
64,192,169639,1,0,0:0:0:0:
320,192,169698,1,0,0:0:0:0:
448,192,169756,1,0,0:0:0:0:
192,192,169815,1,0,0:0:0:0:
64,192,169873,1,0,0:0:0:0:
320,192,169932,1,0,0:0:0:0:
192,192,169990,1,0,0:0:0:0:
64,192,170049,1,0,0:0:0:0:
448,192,170108,1,0,0:0:0:0:
320,192,170166,1,0,0:0:0:0:
192,192,170225,1,0,0:0:0:0:
64,192,170283,1,0,0:0:0:0:
192,192,170635,1,0,0:0:0:0:
320,192,170694,1,0,0:0:0:0:
448,192,170752,1,0,0:0:0:0:
64,192,170811,1,0,0:0:0:0:
192,192,170869,1,0,0:0:0:0:
320,192,170928,1,0,0:0:0:0:
448,192,170987,1,0,0:0:0:0:
192,192,171045,1,0,0:0:0:0:
64,192,171104,1,0,0:0:0:0:
320,192,171162,1,0,0:0:0:0:
448,192,171221,1,0,0:0:0:0:
64,192,171280,1,0,0:0:0:0:
192,192,171338,1,0,0:0:0:0:
448,192,171397,1,0,0:0:0:0:
320,192,171455,1,0,0:0:0:0:
192,192,171573,1,0,0:0:0:0:
448,192,171631,1,0,0:0:0:0:
320,192,171690,1,0,0:0:0:0:
64,192,171748,1,0,0:0:0:0:
192,192,171807,1,0,0:0:0:0:
320,192,171865,1,0,0:0:0:0:
448,192,171924,1,0,0:0:0:0:
64,192,171983,1,0,0:0:0:0:
192,192,172041,1,0,0:0:0:0:
320,192,172100,1,0,0:0:0:0:
448,192,172158,1,0,0:0:0:0:
448,192,172510,1,0,0:0:0:0:
320,192,172569,1,0,0:0:0:0:
192,192,172627,1,0,0:0:0:0:
64,192,172686,1,0,0:0:0:0:
320,192,172744,1,0,0:0:0:0:
192,192,172803,1,0,0:0:0:0:
448,192,172862,1,0,0:0:0:0:
320,192,172920,1,0,0:0:0:0:
192,192,172979,1,0,0:0:0:0:
64,192,173037,1,0,0:0:0:0:
320,192,173096,1,0,0:0:0:0:
448,192,173155,1,0,0:0:0:0:
64,192,173213,1,0,0:0:0:0:
192,192,173272,1,0,0:0:0:0:
320,192,173330,1,0,0:0:0:0:
448,192,173389,1,0,0:0:0:0:
192,192,173448,1,0,0:0:0:0:
64,192,173506,1,0,0:0:0:0:
320,192,173565,1,0,0:0:0:0:
448,192,173623,1,0,0:0:0:0:
192,192,173682,1,0,0:0:0:0:
320,192,173740,1,0,0:0:0:0:
448,192,173799,1,0,0:0:0:0:
64,192,173858,1,0,0:0:0:0:
192,192,173916,1,0,0:0:0:0:
320,192,173975,1,0,0:0:0:0:
448,192,174033,1,0,0:0:0:0:
64,192,174385,1,0,0:0:0:0:
320,192,174444,1,0,0:0:0:0:
448,192,174502,1,0,0:0:0:0:
64,192,174561,1,0,0:0:0:0:
192,192,174619,1,0,0:0:0:0:
448,192,174678,1,0,0:0:0:0:
320,192,174737,1,0,0:0:0:0:
64,192,174795,1,0,0:0:0:0:
192,192,174854,1,0,0:0:0:0:
320,192,174912,1,0,0:0:0:0:
448,192,174971,1,0,0:0:0:0:
64,192,175030,1,0,0:0:0:0:
320,192,175088,1,0,0:0:0:0:
448,192,175147,1,0,0:0:0:0:
192,192,175205,1,0,0:0:0:0:
64,192,175264,1,0,0:0:0:0:
448,192,175323,1,0,0:0:0:0:
320,192,175381,1,0,0:0:0:0:
192,192,175440,1,0,0:0:0:0:
64,192,175498,1,0,0:0:0:0:
448,192,175557,1,0,0:0:0:0:
192,192,175615,1,0,0:0:0:0:
64,192,175674,1,0,0:0:0:0:
320,192,175733,1,0,0:0:0:0:
448,192,175791,1,0,0:0:0:0:
192,192,175850,1,0,0:0:0:0:
320,192,175908,1,0,0:0:0:0:
320,192,176260,1,0,0:0:0:0:
192,192,176319,1,0,0:0:0:0:
64,192,176377,1,0,0:0:0:0:
448,192,176436,1,0,0:0:0:0:
320,192,176494,1,0,0:0:0:0:
192,192,176553,1,0,0:0:0:0:
64,192,176612,1,0,0:0:0:0:
320,192,176670,1,0,0:0:0:0:
448,192,176729,1,0,0:0:0:0:
192,192,176787,1,0,0:0:0:0:
64,192,176846,1,0,0:0:0:0:
448,192,176905,1,0,0:0:0:0:
320,192,176963,1,0,0:0:0:0:
64,192,177022,1,0,0:0:0:0:
192,192,177080,1,0,0:0:0:0:
320,192,177198,1,0,0:0:0:0:
64,192,177256,1,0,0:0:0:0:
192,192,177315,1,0,0:0:0:0:
448,192,177373,1,0,0:0:0:0:
320,192,177432,1,0,0:0:0:0:
192,192,177490,1,0,0:0:0:0:
64,192,177549,1,0,0:0:0:0:
448,192,177608,1,0,0:0:0:0:
320,192,177666,1,0,0:0:0:0:
64,192,178135,1,0,0:0:0:0:
320,192,178194,1,0,0:0:0:0:
192,192,178252,1,0,0:0:0:0:
448,192,178311,1,0,0:0:0:0:
320,192,178369,1,0,0:0:0:0:
192,192,178428,1,0,0:0:0:0:
448,192,178487,1,0,0:0:0:0:
64,192,178545,1,0,0:0:0:0:
192,192,178604,1,0,0:0:0:0:
320,192,178662,1,0,0:0:0:0:
448,192,178721,1,0,0:0:0:0:
64,192,178780,1,0,0:0:0:0:
320,192,178838,1,0,0:0:0:0:
448,192,178897,1,0,0:0:0:0:
192,192,178955,1,0,0:0:0:0:
64,192,179014,1,0,0:0:0:0:
320,192,179073,1,0,0:0:0:0:
448,192,179131,1,0,0:0:0:0:
192,192,179190,1,0,0:0:0:0:
64,192,179248,1,0,0:0:0:0:
320,192,179307,1,0,0:0:0:0:
192,192,179365,1,0,0:0:0:0:
64,192,179424,1,0,0:0:0:0:
448,192,179483,1,0,0:0:0:0:
320,192,179541,1,0,0:0:0:0:
192,192,179600,1,0,0:0:0:0:
64,192,179658,1,0,0:0:0:0:
64,192,180010,1,0,0:0:0:0:
192,192,180069,1,0,0:0:0:0:
320,192,180127,1,0,0:0:0:0:
448,192,180186,1,0,0:0:0:0:
64,192,180244,1,0,0:0:0:0:
192,192,180303,1,0,0:0:0:0:
320,192,180362,1,0,0:0:0:0:
448,192,180420,1,0,0:0:0:0:
320,192,180479,1,0,0:0:0:0:
192,192,180537,1,0,0:0:0:0:
64,192,180596,1,0,0:0:0:0:
448,192,180655,1,0,0:0:0:0:
320,192,180713,1,0,0:0:0:0:
192,192,180772,1,0,0:0:0:0:
64,192,180830,1,0,0:0:0:0:
192,192,180889,1,0,0:0:0:0:
320,192,180948,1,0,0:0:0:0:
448,192,181006,1,0,0:0:0:0:
320,192,181065,1,0,0:0:0:0:
192,192,181123,1,0,0:0:0:0:
64,192,181182,1,0,0:0:0:0:
448,192,181240,1,0,0:0:0:0:
320,192,181299,1,0,0:0:0:0:
192,192,181358,1,0,0:0:0:0:
64,192,181416,1,0,0:0:0:0:
192,192,181475,1,0,0:0:0:0:
320,192,181533,1,0,0:0:0:0:
448,192,181592,1,0,0:0:0:0:
320,192,181651,1,0,0:0:0:0:
192,192,181709,1,0,0:0:0:0:
64,192,181768,1,0,0:0:0:0:
192,192,181826,1,0,0:0:0:0:
320,192,181885,1,0,0:0:0:0:
320,192,183760,1,0,0:0:0:0:
192,192,183819,1,0,0:0:0:0:
64,192,183877,1,0,0:0:0:0:
448,192,183936,1,0,0:0:0:0:
320,192,183994,1,0,0:0:0:0:
192,192,184053,1,0,0:0:0:0:
64,192,184112,1,0,0:0:0:0:
320,192,184170,1,0,0:0:0:0:
448,192,184229,1,0,0:0:0:0:
192,192,184287,1,0,0:0:0:0:
64,192,184346,1,0,0:0:0:0:
448,192,184405,1,0,0:0:0:0:
320,192,184463,1,0,0:0:0:0:
64,192,184522,1,0,0:0:0:0:
192,192,184580,1,0,0:0:0:0:
320,192,184698,1,0,0:0:0:0:
64,192,184756,1,0,0:0:0:0:
192,192,184815,1,0,0:0:0:0:
448,192,184873,1,0,0:0:0:0:
320,192,184932,1,0,0:0:0:0:
192,192,184990,1,0,0:0:0:0:
64,192,185049,1,0,0:0:0:0:
448,192,185108,1,0,0:0:0:0:
320,192,185166,1,0,0:0:0:0:
320,192,185635,1,0,0:0:0:0:
192,192,185694,1,0,0:0:0:0:
448,192,185752,1,0,0:0:0:0:
64,192,185811,1,0,0:0:0:0:
320,192,185869,1,0,0:0:0:0:
192,192,185928,1,0,0:0:0:0:
448,192,185987,1,0,0:0:0:0:
320,192,186045,1,0,0:0:0:0:
64,192,186104,1,0,0:0:0:0:
192,192,186162,1,0,0:0:0:0:
448,192,186221,1,0,0:0:0:0:
64,192,186280,1,0,0:0:0:0:
320,192,186338,1,0,0:0:0:0:
448,192,186397,1,0,0:0:0:0:
192,192,186455,1,0,0:0:0:0:
320,192,186573,1,0,0:0:0:0:
448,192,186631,1,0,0:0:0:0:
192,192,186690,1,0,0:0:0:0:
64,192,186748,1,0,0:0:0:0:
320,192,186807,1,0,0:0:0:0:
192,192,186865,1,0,0:0:0:0:
448,192,186924,1,0,0:0:0:0:
64,192,186983,1,0,0:0:0:0:
320,192,187041,1,0,0:0:0:0:
192,192,187510,1,0,0:0:0:0:
320,192,187569,1,0,0:0:0:0:
64,192,187627,1,0,0:0:0:0:
448,192,187686,1,0,0:0:0:0:
192,192,187744,1,0,0:0:0:0:
320,192,187803,1,0,0:0:0:0:
64,192,187862,1,0,0:0:0:0:
192,192,187920,1,0,0:0:0:0:
448,192,187979,1,0,0:0:0:0:
320,192,188037,1,0,0:0:0:0:
64,192,188096,1,0,0:0:0:0:
448,192,188155,1,0,0:0:0:0:
192,192,188213,1,0,0:0:0:0:
64,192,188272,1,0,0:0:0:0:
320,192,188330,1,0,0:0:0:0:
192,192,188448,1,0,0:0:0:0:
64,192,188506,1,0,0:0:0:0:
320,192,188565,1,0,0:0:0:0:
448,192,188623,1,0,0:0:0:0:
192,192,188682,1,0,0:0:0:0:
320,192,188740,1,0,0:0:0:0:
64,192,188799,1,0,0:0:0:0:
448,192,188858,1,0,0:0:0:0:
192,192,188916,1,0,0:0:0:0:
320,192,189385,1,0,0:0:0:0:
192,192,189444,1,0,0:0:0:0:
448,192,189502,1,0,0:0:0:0:
64,192,189561,1,0,0:0:0:0:
320,192,189619,1,0,0:0:0:0:
192,192,189678,1,0,0:0:0:0:
448,192,189737,1,0,0:0:0:0:
320,192,189795,1,0,0:0:0:0:
64,192,189854,1,0,0:0:0:0:
192,192,189912,1,0,0:0:0:0:
448,192,189971,1,0,0:0:0:0:
64,192,190030,1,0,0:0:0:0:
320,192,190088,1,0,0:0:0:0:
448,192,190147,1,0,0:0:0:0:
192,192,190205,1,0,0:0:0:0:
320,192,190323,1,0,0:0:0:0:
448,192,190381,1,0,0:0:0:0:
192,192,190440,1,0,0:0:0:0:
64,192,190498,1,0,0:0:0:0:
320,192,190557,1,0,0:0:0:0:
192,192,190615,1,0,0:0:0:0:
448,192,190674,1,0,0:0:0:0:
64,192,190733,1,0,0:0:0:0:
320,192,190791,1,0,0:0:0:0:
64,192,191260,1,0,0:0:0:0:
320,192,191319,1,0,0:0:0:0:
448,192,191377,1,0,0:0:0:0:
64,192,191436,1,0,0:0:0:0:
192,192,191494,1,0,0:0:0:0:
448,192,191553,1,0,0:0:0:0:
320,192,191612,1,0,0:0:0:0:
64,192,191670,1,0,0:0:0:0:
192,192,191729,1,0,0:0:0:0:
320,192,191787,1,0,0:0:0:0:
448,192,191846,1,0,0:0:0:0:
64,192,191905,1,0,0:0:0:0:
320,192,191963,1,0,0:0:0:0:
448,192,192022,1,0,0:0:0:0:
192,192,192080,1,0,0:0:0:0:
64,192,192139,1,0,0:0:0:0:
448,192,192198,1,0,0:0:0:0:
320,192,192256,1,0,0:0:0:0:
192,192,192315,1,0,0:0:0:0:
64,192,192373,1,0,0:0:0:0:
448,192,192432,1,0,0:0:0:0:
192,192,192490,1,0,0:0:0:0:
64,192,192549,1,0,0:0:0:0:
320,192,192608,1,0,0:0:0:0:
448,192,192666,1,0,0:0:0:0:
192,192,192725,1,0,0:0:0:0:
320,192,192783,1,0,0:0:0:0:
448,192,193135,1,0,0:0:0:0:
192,192,193194,1,0,0:0:0:0:
64,192,193252,1,0,0:0:0:0:
448,192,193311,1,0,0:0:0:0:
320,192,193369,1,0,0:0:0:0:
64,192,193428,1,0,0:0:0:0:
192,192,193487,1,0,0:0:0:0:
448,192,193545,1,0,0:0:0:0:
320,192,193604,1,0,0:0:0:0:
192,192,193662,1,0,0:0:0:0:
64,192,193721,1,0,0:0:0:0:
448,192,193780,1,0,0:0:0:0:
192,192,193838,1,0,0:0:0:0:
64,192,193897,1,0,0:0:0:0:
320,192,193955,1,0,0:0:0:0:
448,192,194014,1,0,0:0:0:0:
64,192,194073,1,0,0:0:0:0:
192,192,194131,1,0,0:0:0:0:
320,192,194190,1,0,0:0:0:0:
448,192,194248,1,0,0:0:0:0:
64,192,194307,1,0,0:0:0:0:
320,192,194365,1,0,0:0:0:0:
448,192,194424,1,0,0:0:0:0:
192,192,194483,1,0,0:0:0:0:
64,192,194541,1,0,0:0:0:0:
320,192,194600,1,0,0:0:0:0:
192,192,194658,1,0,0:0:0:0:
64,192,195010,1,0,0:0:0:0:
192,192,195069,1,0,0:0:0:0:
448,192,195127,1,0,0:0:0:0:
64,192,195186,1,0,0:0:0:0:
320,192,195244,1,0,0:0:0:0:
448,192,195303,1,0,0:0:0:0:
192,192,195362,1,0,0:0:0:0:
64,192,195420,1,0,0:0:0:0:
320,192,195479,1,0,0:0:0:0:
192,192,195537,1,0,0:0:0:0:
448,192,195596,1,0,0:0:0:0:
64,192,195655,1,0,0:0:0:0:
192,192,195713,1,0,0:0:0:0:
448,192,195772,1,0,0:0:0:0:
320,192,195830,1,0,0:0:0:0:
64,192,195889,1,0,0:0:0:0:
448,192,195948,1,0,0:0:0:0:
192,192,196006,1,0,0:0:0:0:
320,192,196065,1,0,0:0:0:0:
64,192,196123,1,0,0:0:0:0:
448,192,196182,1,0,0:0:0:0:
320,192,196240,1,0,0:0:0:0:
64,192,196299,1,0,0:0:0:0:
192,192,196358,1,0,0:0:0:0:
448,192,196416,1,0,0:0:0:0:
320,192,196475,1,0,0:0:0:0:
192,192,196533,1,0,0:0:0:0:
448,192,196885,1,0,0:0:0:0:
320,192,196944,1,0,0:0:0:0:
64,192,197002,1,0,0:0:0:0:
448,192,197061,1,0,0:0:0:0:
192,192,197119,1,0,0:0:0:0:
64,192,197178,1,0,0:0:0:0:
320,192,197237,1,0,0:0:0:0:
448,192,197295,1,0,0:0:0:0:
192,192,197354,1,0,0:0:0:0:
320,192,197412,1,0,0:0:0:0:
64,192,197471,1,0,0:0:0:0:
448,192,197530,1,0,0:0:0:0:
320,192,197588,1,0,0:0:0:0:
64,192,197647,1,0,0:0:0:0:
192,192,197705,1,0,0:0:0:0:
448,192,197764,1,0,0:0:0:0:
64,192,197823,1,0,0:0:0:0:
320,192,197881,1,0,0:0:0:0:
192,192,197940,1,0,0:0:0:0:
448,192,197998,1,0,0:0:0:0:
64,192,198057,1,0,0:0:0:0:
192,192,198115,1,0,0:0:0:0:
448,192,198174,1,0,0:0:0:0:
320,192,198233,1,0,0:0:0:0:
64,192,198291,1,0,0:0:0:0:
192,192,198350,1,0,0:0:0:0:
320,192,198408,1,0,0:0:0:0:
448,192,198760,1,0,0:0:0:0:
320,192,199229,1,0,0:0:0:0:
192,192,199698,1,0,0:0:0:0:
64,192,200166,1,0,0:0:0:0:
64,192,200635,1,0,0:0:0:0:
192,192,201104,1,0,0:0:0:0:
320,192,201573,1,0,0:0:0:0:
448,192,202041,1,0,0:0:0:0:
192,192,202510,1,0,0:0:0:0:
320,192,202979,1,0,0:0:0:0:
64,192,203448,1,0,0:0:0:0:
448,192,203916,1,0,0:0:0:0:
192,192,204385,1,0,0:0:0:0:
320,192,204854,1,0,0:0:0:0:
192,192,205323,1,0,0:0:0:0:
320,192,205323,1,0,0:0:0:0:
64,192,205674,1,0,0:0:0:0:
448,192,205674,1,0,0:0:0:0:
