osu file format v14

[General]
AudioFilename: audio.mp3
AudioLeadIn: 0
PreviewTime: 47132
Countdown: 0
SampleSet: Soft
StackLeniency: 0.5
Mode: 0
LetterboxInBreaks: 0
WidescreenStoryboard: 1

[Editor]
Bookmarks: -54250,-23,11976,23976,35976,47976,59976,71976,83976,95976,107976,119976,131976,143976,155976,167976,179976,191976,203976,215976,227976,239976
DistanceSpacing: 0.3
BeatDivisor: 8
GridSize: 16
TimelineZoom: 2.050001

[Metadata]
Title:Cardinal Rave
TitleUnicode:Cardinal Rave
Artist:TAROLIN feat. Katakiri Rekka
ArtistUnicode:TAROLIN feat. 片霧烈火
Creator:Yusomi
Version:Keitaro & Yusomi's Hard
Source:
Tags:shota on osu cubbby cubby -keitaro japanese electronic
BeatmapID:2361458
BeatmapSetID:1116399

[Difficulty]
HPDrainRate:5
CircleSize:4
OverallDifficulty:6
ApproachRate:8
SliderMultiplier:1.4
SliderTickRate:1

[Events]
//Background and Video events
0,0,"Konachan.com - 301504flipped.jpg",0,0
//Break Periods
2,24232,35282
2,132231,143282
//Storyboard Layer 0 (Background)
//Storyboard Layer 1 (Fail)
//Storyboard Layer 2 (Pass)
//Storyboard Layer 3 (Foreground)
//Storyboard Layer 4 (Overlay)
//Storyboard Sound Samples

[TimingPoints]
32,375,4,2,1,65,1,0
2657,-100,4,2,1,65,0,0
3032,-100,4,2,1,65,0,0
8657,-100,4,2,1,65,0,0
9032,-100,4,2,1,65,0,0
12032,-100,4,2,1,65,0,0
22532,-100,4,2,2,65,0,0
23938,-100,4,2,2,65,0,0
24032,750,4,2,1,45,1,0
33032,-100,4,2,1,45,0,0
36032,375,4,2,1,55,1,0
36032,-125,4,2,1,55,0,0
45032,-100,4,2,1,55,0,0
45407,-100,4,2,1,55,0,0
45782,-100,4,2,1,55,0,0
48032,-100,4,2,1,65,0,0
59657,-100,4,2,2,65,0,0
60032,-100,4,2,1,65,0,1
70532,-100,4,2,1,65,0,0
71657,-100,4,2,2,65,0,0
72032,-100,4,2,2,75,0,0
72313,-100,4,2,2,75,0,0
72407,-100,4,2,2,75,0,0
72875,-100,4,2,1,75,0,0
72969,-100,4,2,2,75,0,0
73813,-100,4,2,2,75,0,0
73907,-100,4,2,2,75,0,0
74000,-100,4,2,1,75,0,0
74094,-100,4,2,2,75,0,0
74375,-100,4,2,1,75,0,0
74469,-100,4,2,2,75,0,0
74938,-100,4,2,1,75,0,0
75032,-100,4,2,2,75,0,0
75313,-100,4,2,2,75,0,0
75407,-100,4,2,2,75,0,0
75688,-100,4,2,1,75,0,0
75782,-100,4,2,2,75,0,0
76250,-100,4,2,1,75,0,0
76344,-100,4,2,2,75,0,0
77938,-100,4,2,1,75,0,0
78032,-100,4,2,2,75,0,0
78313,-100,4,2,2,75,0,0
78407,-100,4,2,2,75,0,0
78500,-100,4,2,1,75,0,0
78594,-100,4,2,2,75,0,0
78688,-100,4,2,1,75,0,0
78782,-100,4,2,2,75,0,0
79813,-100,4,2,2,75,0,0
79907,-100,4,2,2,75,0,0
80750,-100,4,2,1,75,0,0
80844,-100,4,2,2,75,0,0
81313,-100,4,2,2,75,0,0
81407,-100,4,2,2,75,0,0
81875,-100,4,2,1,75,0,0
81969,-100,4,2,2,75,0,0
82532,-100,4,2,2,65,0,0
82625,-100,4,2,2,65,0,0
83282,-100,4,2,1,65,0,0
83469,-100,4,2,2,65,0,0
83657,-100,4,2,2,65,0,0
83750,-100,4,2,1,65,0,0
84032,-100,4,2,2,75,0,0
84125,-100,4,2,1,75,0,0
84219,-100,4,2,2,75,0,0
84313,-100,4,2,2,75,0,0
84407,-100,4,2,2,75,0,0
84688,-100,4,2,1,75,0,0
84782,-100,4,2,2,75,0,0
84875,-100,4,2,1,75,0,0
84969,-100,4,2,2,75,0,0
85250,-100,4,2,1,75,0,0
85344,-100,4,2,2,75,0,0
85438,-100,4,2,1,75,0,0
85532,-100,4,2,2,75,0,0
85625,-100,4,2,1,75,0,0
85719,-100,4,2,2,75,0,0
86000,-100,4,2,1,75,0,0
86094,-100,4,2,2,75,0,0
86188,-100,4,2,1,75,0,0
86282,-100,4,2,2,75,0,0
86375,-100,4,2,1,75,0,0
86469,-100,4,2,2,75,0,0
86938,-100,4,2,1,75,0,0
87032,-100,4,2,2,75,0,0
87125,-100,4,2,1,75,0,0
87219,-100,4,2,2,75,0,0
87688,-100,4,2,1,75,0,0
87782,-100,4,2,2,75,0,0
87875,-100,4,2,1,75,0,0
87969,-100,4,2,2,75,0,0
88625,-100,4,2,1,75,0,0
88719,-100,4,2,2,75,0,0
89000,-100,4,2,1,75,0,0
89094,-100,4,2,2,75,0,0
89188,-100,4,2,1,75,0,0
89282,-100,4,2,2,75,0,0
89375,-100,4,2,1,75,0,0
89469,-100,4,2,2,75,0,0
89750,-100,4,2,1,75,0,0
89844,-100,4,2,2,75,0,0
90125,-100,4,2,1,75,0,0
90219,-100,4,2,2,75,0,0
90688,-100,4,2,1,75,0,0
90782,-100,4,2,2,75,0,0
90875,-100,4,2,1,75,0,0
90969,-100,4,2,2,75,0,0
91250,-100,4,2,1,75,0,0
91344,-100,4,2,2,75,0,0
91438,-100,4,2,1,75,0,0
91532,-100,4,2,2,75,0,0
91625,-100,4,2,1,75,0,0
91719,-100,4,2,2,75,0,0
92000,-100,4,2,1,75,0,0
92094,-100,4,2,2,75,0,0
92188,-100,4,2,1,75,0,0
92282,-100,4,2,2,75,0,0
92375,-100,4,2,1,75,0,0
92469,-100,4,2,2,75,0,0
92938,-100,4,2,1,75,0,0
93032,-100,4,2,2,75,0,0
93125,-100,4,2,1,75,0,0
93219,-100,4,2,2,75,0,0
93688,-100,4,2,1,75,0,0
93782,-100,4,2,2,75,0,0
93875,-100,4,2,1,75,0,0
93969,-100,4,2,2,75,0,0
94438,-100,4,2,2,75,0,0
94532,-100,4,2,2,75,0,0
96032,-100,4,2,1,65,0,0
96407,-100,4,2,1,65,0,0
102032,-100,4,2,1,65,0,0
102407,-100,4,2,1,65,0,0
107657,-100,4,2,1,65,0,0
108032,-100,4,2,1,65,0,0
108782,-100,4,2,1,65,0,0
109157,-100,4,2,1,65,0,0
109532,-100,4,2,1,65,0,0
111594,-100,4,2,1,65,0,0
112532,-100,4,2,1,65,0,0
112907,-100,4,2,1,65,0,0
113282,-100,4,2,1,65,0,0
113657,-100,4,2,1,65,0,0
114032,-100,4,2,1,65,0,0
120032,-100,4,2,1,65,0,0
130907,-100,4,2,1,65,0,0
131282,-100,4,2,1,65,0,0
139907,-100,4,2,2,65,0,0
140094,-100,4,2,1,65,0,0
144032,-125,4,2,1,55,0,0
155282,-100,4,2,1,55,0,0
156032,-100,4,2,1,65,0,0
167657,-100,4,2,1,65,0,0
168032,-100,4,2,1,65,0,1
178532,-100,4,2,2,65,0,1
179657,-100,4,2,1,65,0,0
180032,-80,4,2,2,75,0,1
180125,-80,4,2,1,75,0,1
180219,-80,4,2,2,75,0,1
180688,-80,4,2,1,75,0,1
180782,-80,4,2,2,75,0,1
180875,-80,4,2,1,75,0,1
180969,-80,4,2,2,75,0,1
181250,-80,4,2,1,75,0,1
181344,-80,4,2,2,75,0,1
181438,-80,4,2,1,75,0,1
181532,-80,4,2,2,75,0,1
181625,-80,4,2,1,75,0,1
181719,-80,4,2,2,75,0,1
182000,-80,4,2,1,75,0,1
182094,-80,4,2,2,75,0,1
182188,-80,4,2,1,75,0,1
182282,-80,4,2,2,75,0,1
182375,-80,4,2,1,75,0,1
182469,-80,4,2,2,75,0,1
182938,-80,4,2,1,75,0,1
183032,-80,4,2,2,75,0,1
183125,-80,4,2,1,75,0,1
183219,-80,4,2,2,75,0,1
183688,-80,4,2,1,75,0,1
183782,-80,4,2,2,75,0,1
183875,-80,4,2,1,75,0,1
183969,-80,4,2,2,75,0,1
184625,-80,4,2,1,75,0,1
184719,-80,4,2,2,75,0,1
185000,-80,4,2,1,75,0,1
185094,-80,4,2,2,75,0,1
185188,-80,4,2,1,75,0,1
185282,-80,4,2,2,75,0,1
185375,-80,4,2,1,75,0,1
185469,-80,4,2,2,75,0,1
186125,-80,4,2,1,75,0,1
186219,-80,4,2,2,75,0,1
186688,-80,4,2,1,75,0,1
186782,-80,4,2,2,75,0,1
186875,-80,4,2,1,75,0,1
186969,-80,4,2,2,75,0,1
187250,-80,4,2,1,75,0,1
187344,-80,4,2,2,75,0,1
187438,-80,4,2,1,75,0,1
187532,-80,4,2,2,75,0,1
187625,-80,4,2,1,75,0,1
187719,-80,4,2,2,75,0,1
188000,-80,4,2,1,75,0,1
188094,-80,4,2,2,75,0,1
188188,-80,4,2,1,75,0,1
188282,-80,4,2,2,75,0,1
188375,-80,4,2,1,75,0,1
188469,-80,4,2,2,75,0,1
188938,-80,4,2,1,75,0,1
189032,-80,4,2,2,75,0,1
189125,-80,4,2,1,75,0,1
189219,-80,4,2,2,75,0,1
189688,-80,4,2,1,75,0,1
189782,-80,4,2,2,75,0,1
189875,-80,4,2,1,75,0,1
189969,-80,4,2,2,75,0,1
190532,-100,4,2,1,65,0,0
192032,-80,4,2,2,75,0,1
192125,-80,4,2,1,75,0,1
192219,-80,4,2,2,75,0,1
192313,-80,4,2,2,75,0,1
192407,-80,4,2,2,75,0,1
192688,-80,4,2,1,75,0,1
192782,-80,4,2,2,75,0,1
192875,-80,4,2,1,75,0,1
192969,-80,4,2,2,75,0,1
193250,-80,4,2,1,75,0,1
193344,-80,4,2,2,75,0,1
193438,-80,4,2,1,75,0,1
193532,-80,4,2,2,75,0,1
193625,-80,4,2,1,75,0,1
193719,-80,4,2,2,75,0,1
194000,-80,4,2,1,75,0,1
194094,-80,4,2,2,75,0,1
194188,-80,4,2,1,75,0,1
194282,-80,4,2,2,75,0,1
194375,-80,4,2,1,75,0,1
194469,-80,4,2,2,75,0,1
194938,-80,4,2,1,75,0,1
195032,-80,4,2,2,75,0,1
195125,-80,4,2,1,75,0,1
195219,-80,4,2,2,75,0,1
195688,-80,4,2,1,75,0,1
195782,-80,4,2,2,75,0,1
195875,-80,4,2,1,75,0,1
195969,-80,4,2,2,75,0,1
196625,-80,4,2,1,75,0,1
196719,-80,4,2,2,75,0,1
197000,-80,4,2,1,75,0,1
197094,-80,4,2,2,75,0,1
197188,-80,4,2,1,75,0,1
197282,-80,4,2,2,75,0,1
197375,-80,4,2,1,75,0,1
197469,-80,4,2,2,75,0,1
197750,-80,4,2,1,75,0,1
197844,-80,4,2,2,75,0,1
198500,-80,4,2,1,75,0,1
198594,-80,4,2,2,75,0,1
198688,-80,4,2,1,75,0,1
198782,-80,4,2,2,75,0,1
199250,-80,4,2,1,75,0,1
199344,-80,4,2,2,75,0,1
199438,-80,4,2,1,75,0,1
199532,-80,4,2,2,75,0,1
200000,-80,4,2,1,75,0,1
200094,-80,4,2,2,75,0,1
200188,-80,4,2,1,75,0,1
200282,-80,4,2,2,75,0,1
200750,-80,4,2,1,75,0,1
200844,-80,4,2,2,75,0,1
200938,-80,4,2,1,75,0,1
201032,-80,4,2,2,75,0,1
202532,-100,4,2,1,65,0,1
202907,-100,4,2,1,65,0,0
204032,-100,4,2,1,65,0,0
216032,-100,4,2,1,65,0,0
218657,-100,4,2,1,65,0,0
219032,-100,4,2,1,65,0,0
224657,-100,4,2,1,65,0,0
225032,-100,4,2,1,65,0,0
228219,-100,4,2,1,65,0,0
238532,-100,4,2,2,65,0,0
240032,-100,4,2,1,65,0,0
240078,-100,4,2,2,65,0,0
240782,-100,4,2,1,65,0,0
241157,-100,4,2,2,65,0,0
241532,-100,4,2,1,65,0,0
241907,-100,4,2,2,65,0,0
242282,-100,4,2,1,65,0,0
242657,-100,4,2,2,65,0,0
243032,-100,4,2,1,65,0,0
243782,-100,4,2,2,65,0,0
244157,-100,4,2,1,65,0,0
244532,-100,4,2,2,65,0,0
245282,-100,4,2,2,65,0,0

[Colours]
Combo1 : 155,88,200
Combo2 : 221,255,157
Combo3 : 176,242,230
Combo4 : 255,51,51
Combo5 : 119,186,255
Combo6 : 252,108,255
Combo7 : 255,193,255
Combo8 : 252,255,106

[HitObjects]
129,43,32,6,0,P|154:94|130:151,1,105,4|0,3:2|0:0,0:0:0:0:
123,157,407,2,0,L|51:152,1,70,8|2,1:2|0:1,0:0:0:0:
4,245,782,1,2,3:0:0:0:
78,319,969,1,2,0:3:0:0:
78,319,1063,1,2,1:3:0:0:
78,319,1157,2,0,L|166:324,1,70,8|0,1:1|0:0,0:0:0:0:
221,247,1532,5,2,3:2:0:0:
270,339,1719,1,2,0:0:0:0:
323,248,1907,1,8,1:0:0:0:
376,338,2094,1,2,0:1:0:0:
444,258,2282,2,0,P|469:207|445:150,1,105,0|2,3:0|0:0,0:0:0:0:
440,142,2657,2,0,L|456:67,1,70,8|2,1:1|0:0,0:0:0:0:
365,8,3032,102,0,P|317:13|287:97,1,140,0|8,3:0|1:2,0:0:0:0:
342,152,3594,1,2,0:1:0:0:
274,204,3782,2,0,L|162:191,2,105,2|2|0,3:0|1:3|0:0,0:0:0:0:
336,268,4532,5,2,3:2:0:0:
280,346,4719,1,2,0:0:0:0:
211,279,4907,1,8,0:0:0:0:
140,343,5094,1,2,0:1:0:0:
85,274,5282,2,0,P|26:277|-18:325,2,105,2|2|2,3:2|0:0|0:0,0:0:0:0:
140,204,6032,102,0,P|151:152|114:100,1,105,4|0,3:2|0:0,0:0:0:0:
106,96,6407,2,0,L|95:18,1,70,8|2,1:2|0:1,0:0:0:0:
196,23,6782,2,0,P|227:43|297:41,1,105,2|2,3:0|1:3,0:0:0:0:
314,30,7157,2,0,L|390:42,1,70,8|0,1:1|0:0,0:0:0:0:
469,75,7532,5,2,3:2:0:0:
469,75,7719,1,2,0:0:0:0:
399,150,7907,1,8,1:2:0:0:
498,181,8094,1,2,0:1:0:0:
422,251,8282,2,0,B|409:290|409:290|420:366,1,105,0|2,3:0|0:0,0:0:0:0:
420,373,8657,2,0,B|384:378|384:378|328:359,1,70,8|2,1:1|0:0,0:0:0:0:
288,297,9032,102,0,B|256:224|320:238|281:143,1,140,0|8,3:0|1:2,0:0:0:0:
218,117,9594,1,2,0:1:0:0:
144,160,9782,2,0,P|104:169|33:117,2,105,2|2|0,3:0|1:3|0:0,0:0:0:0:
218,117,10532,6,0,L|214:44,1,70,2|2,3:2|0:0,0:0:0:0:
299,2,10907,2,0,L|302:71,1,70,8|2,1:2|0:1,0:0:0:0:
378,105,11282,2,0,P|415:140|497:118,1,140,2|2,3:2|1:0,0:0:0:0:
494,121,11750,1,0,1:0:0:0:
494,121,11844,1,2,1:2:0:0:
511,231,12032,102,0,P|433:227|362:222,1,140,4|8,3:1|1:2,0:0:0:0:
300,182,12594,1,2,0:1:0:0:
300,182,12688,2,0,P|292:240|301:266,1,70
312,270,12969,1,2,0:0:0:0:
239,311,13157,2,0,L|151:299,1,70,10|0,1:2|1:0,0:0:0:0:
90,280,13532,6,0,P|80:241|141:171,1,140,4|8,3:1|1:2,0:0:0:0:
200,122,14094,1,2,0:1:0:0:
200,122,14188,2,0,P|194:80|172:34,1,70
160,42,14469,2,0,L|69:51,2,70,2|10|2,0:0|1:2|1:2,0:0:0:0:
246,11,15032,102,0,L|373:17,1,105,4|0,3:1|1:0,0:0:0:0:
383,19,15407,2,0,P|390:62|388:89,1,70,8|2,1:2|0:1,0:0:0:0:
368,108,15688,1,0,0:0:0:0:
436,176,15875,1,0,0:0:0:0:
436,176,15969,2,0,L|514:174,2,70,2|10|0,0:0|1:2|1:0,0:0:0:0:
421,271,16532,6,0,L|434:315,2,35,4|0|0,3:1|1:0|1:0,0:0:0:0:
342,224,16907,2,0,P|293:236|254:236,1,70,10|2,1:2|0:0,0:0:0:0:
202,181,17282,1,0,3:0:0:0:
156,255,17469,1,2,0:0:0:0:
156,255,17563,1,2,0:0:0:0:
156,255,17657,2,0,P|158:293|170:338,1,70,10|2,1:2|0:0,0:0:0:0:
36,358,18032,102,2,P|66:312|60:221,1,140,4|8,3:1|1:2,0:1:0:0:
6,147,18594,1,2,0:1:0:0:
6,147,18688,1,0,0:0:0:0:
6,147,18782,1,0,3:0:0:0:
80,78,18969,2,0,P|41:58|8:51,2,70,2|10|0,0:0|1:2|1:0,0:0:0:0:
174,21,19532,6,2,P|177:61|195:170,1,140,4|8,3:1|1:2,0:1:0:0:
280,211,20094,1,2,0:1:0:0:
280,211,20188,1,0,0:0:0:0:
280,211,20282,1,0,3:0:0:0:
277,114,20469,1,2,0:0:0:0:
355,158,20657,2,0,P|392:158|449:169,1,70,10|0,1:2|1:0,0:0:0:0:
489,231,21032,102,2,P|475:254|444:276,3,35,12|0|2|0,3:1|0:0|1:2|0:0,0:1:0:0:
470,294,21407,2,0,P|441:305|412:302,3,35,8|0|2|0,1:2|1:0|1:0|1:0,0:0:0:0:
400,289,21782,2,0,P|373:293|349:310,3,35,2|0|2|0,3:1|1:0|1:2|1:0,0:0:0:0:
321,292,22157,2,0,P|307:314|304:344,3,35,8|2|2|2,1:2|1:2|1:2|1:2,0:0:0:0:
289,350,22532,5,0,3:0:0:0:
289,350,22907,1,0,0:0:0:0:
289,350,23282,1,0,0:0:0:0:
289,350,23657,2,0,L|158:342,1,105
167,334,24032,53,2,0:0:0:0:
31,41,36032,70,0,B|86:28|86:28|131:59,1,112,4|8,3:2|0:0,0:0:0:0:
179,129,36594,2,0,L|291:115,1,112,0|8,3:0|0:0,0:0:0:0:
339,46,37157,1,2,0:1:0:0:
429,38,37344,1,2,3:2:0:0:
429,38,37438,1,0,0:0:0:0:
429,38,37532,6,0,B|442:92|442:92|411:138,1,112,4|8,3:2|0:0,0:0:0:0:
341,185,38094,2,0,L|355:297,1,112,0|8,3:0|0:0,0:0:0:0:
413,356,38657,1,2,0:1:0:0:
284,316,38844,1,10,0:0:0:0:
284,316,38938,1,0,0:0:0:0:
284,316,39032,102,0,B|238:347|238:347|183:333,1,112,4|8,3:2|0:0,0:0:0:0:
104,304,39594,1,0,3:0:0:0:
77,145,39969,1,10,0:0:0:0:
77,145,40063,1,0,0:0:0:0:
77,145,40157,1,0,0:0:0:0:
12,91,40344,1,0,3:0:0:0:
89,58,40532,6,0,B|144:44|144:44|190:75,1,112,2|0,0:0|1:0,0:0:0:0:
216,154,41094,1,0,3:0:0:0:
253,229,41282,2,0,L|308:225,2,56,2|8|0,1:1|0:0|1:0,0:0:0:0:
110,319,42032,102,0,B|156:350|156:350|211:336,1,112,6|8,3:2|0:0,0:0:0:0:
288,304,42594,2,0,P|312:332|396:342,1,112,0|10,3:0|0:0,0:0:0:0:
396,342,43063,1,0,0:0:0:0:
408,334,43157,2,0,L|404:265,1,56,2|0,0:0|3:0,0:0:0:0:
469,224,43532,6,0,B|500:178|500:178|486:123,1,112,4|8,3:2|0:0,0:0:0:0:
423,74,44094,2,0,P|376:101|306:99,1,112,0|2,3:0|0:0,0:0:0:0:
304,98,44563,1,0,0:0:0:0:
285,93,44657,2,0,L|210:106,1,56,10|0,0:0|3:0,0:0:0:0:
145,49,45032,101,6,3:2:0:0:
145,49,45407,1,2,1:2:0:0:
145,49,45782,1,2,1:2:0:0:
145,49,46157,2,0,P|125:90|149:169,1,105,6|0,1:2|0:0,0:0:0:0:
145,158,46532,5,2,0:0:0:0:
196,194,48032,54,0,L|192:310,1,105,6|0,3:2|0:0,0:0:0:0:
202,330,48407,2,0,P|249:332|285:316,1,70,8|0,0:0|0:0,0:0:0:0:
357,309,48782,2,0,B|417:328|417:328|448:362,2,105,2|0|0,3:2|3:0|3:0,0:0:0:0:
302,246,49532,102,0,B|287:169|287:169|254:141,1,105,6|0,3:2|0:0,0:0:0:0:
252,144,49907,2,0,L|259:65,1,70,10|0,0:0|0:0,0:0:0:0:
340,37,50282,2,0,B|413:44|413:44|455:32,2,105,2|0|0,3:2|3:0|3:0,0:0:0:0:
258,74,51032,6,0,P|197:85|120:32,1,140,6|8,3:2|0:0,0:0:0:0:
54,54,51594,1,0,0:0:0:0:
11,122,51782,2,0,L|33:288,1,140,2|8,3:2|0:0,0:0:0:0:
89,318,52344,1,0,3:0:0:0:
154,267,52532,102,0,L|149:190,1,70,6|0,3:2|0:0,0:0:0:0:
249,159,52907,2,0,L|244:228,1,70,10|0,0:0|0:0,0:0:0:0:
304,298,53282,1,2,3:2:0:0:
380,248,53469,1,2,0:1:0:0:
380,248,53563,1,2,3:1:0:0:
380,248,53657,1,10,0:1:0:0:
454,291,53844,1,0,3:0:0:0:
501,220,54032,6,0,P|497:182|492:140,1,70,6|0,3:2|3:0,0:0:0:0:
420,67,54407,2,0,P|415:101|412:136,1,70,8|0,0:0|3:0,0:0:0:0:
331,198,54782,2,0,P|327:160|322:118,1,70,2|0,3:2|3:0,0:0:0:0:
250,45,55157,2,0,P|245:79|242:114,1,70,8|0,0:0|3:0,0:0:0:0:
167,153,55532,101,6,3:2:0:0:
167,153,55719,1,0,3:0:0:0:
76,170,55907,1,10,0:0:0:0:
76,170,56094,1,0,3:0:0:0:
33,242,56282,1,2,3:2:0:0:
33,242,56469,1,0,3:0:0:0:
55,319,56657,1,8,0:0:0:0:
55,319,56844,1,0,3:0:0:0:
139,313,57032,6,0,P|163:336|171:353,3,35,6|0|0|0,3:2|3:0|3:0|3:0,0:0:0:0:
195,348,57407,2,0,P|220:349|246:342,3,35,8|0|0|0,3:2|3:0|3:0|3:0,0:0:0:0:
267,356,57782,2,0,P|286:333|292:313,3,35,2|0|0|0,3:2|3:0|3:0|3:0,0:0:0:0:
329,316,58157,2,0,P|333:290|330:270,3,35,8|0|0|0,3:2|3:0|3:0|3:0,0:0:0:0:
314,248,58532,1,2,3:2:0:0:
256,192,58625,12,0,59657,0:0:0:0:
428,49,60032,6,0,L|343:46,1,70,4|0,3:1|0:0,0:0:0:0:
336,37,60313,2,0,L|254:42,1,70,0|0,3:0|0:0,0:0:0:0:
232,62,60594,1,2,3:2:0:0:
130,39,60782,2,0,L|138:0,3,35,0|0|0|0,3:0|1:0|1:0|3:0,0:0:0:0:
107,57,61157,2,0,L|120:151,1,70,8|2,1:0|3:2,0:0:0:0:
37,197,61532,6,0,P|54:242|53:278,1,70,2|0,3:2|0:0,0:0:0:0:
64,284,61813,2,0,P|61:325|76:364,1,70,0|0,3:0|0:0,0:0:0:0:
98,373,62094,1,2,3:2:0:0:
183,301,62282,2,0,L|140:306,3,35,0|0|0|0,3:0|1:0|1:0|3:0,0:0:0:0:
208,279,62657,2,0,L|253:283,3,35,8|0|2|0,1:2|0:0|3:2|1:0,0:0:0:0:
181,262,63032,102,0,P|178:210|177:165,1,70,2|0,3:2|1:0,0:0:0:0:
197,174,63313,2,0,P|200:138|199:94,1,70,0|0,3:0|0:0,0:0:0:0:
173,81,63594,1,2,3:2:0:0:
270,41,63782,2,0,P|260:15|250:-5,3,35,0|0|0|0,3:0|1:0|1:0|3:0,0:0:0:0:
284,76,64157,1,8,1:2:0:0:
368,44,64344,1,2,3:2:0:0:
368,44,64438,1,0,0:0:0:0:
368,44,64532,6,0,P|409:53|427:55,3,35,2|0|0|0,3:2|1:0|1:0|3:0,0:0:0:0:
433,71,64907,2,0,P|456:69|476:66,3,35,8|0|0|0,1:2|1:0|3:0|0:0,0:0:0:0:
496,90,65282,2,0,P|499:112|505:136,3,35,2|0|0|0,3:2|1:0|1:0|3:0,0:0:0:0:
484,155,65657,2,0,P|491:181|498:212,3,35,8|0|2|0,1:2|1:0|3:2|0:0,0:0:0:0:
487,226,66032,102,0,P|493:260|504:301,1,70,4|2,3:1|3:2,0:0:0:0:
403,232,66407,2,0,P|395:285|391:314,1,70,8|0,1:2|3:0,0:0:0:0:
325,209,66782,2,0,P|299:247|286:280,1,70,0|2,3:0|3:2,0:0:0:0:
263,149,67157,2,0,P|226:172|200:193,1,70,8|0,1:2|3:0,0:0:0:0:
122,161,67532,5,0,3:0:0:0:
122,161,67719,1,2,3:2:0:0:
58,218,67907,1,8,1:2:0:0:
58,218,68094,1,0,3:0:0:0:
1,155,68282,1,0,3:0:0:0:
1,155,68469,1,2,3:2:0:0:
62,96,68657,1,8,1:2:0:0:
62,96,68844,1,0,3:0:0:0:
134,34,69032,102,0,P|138:22|135:-6,3,35,0|0|2|0,3:0|3:0|3:2|3:0,0:0:0:0:
156,72,69407,2,0,P|184:68|207:65,3,35,8|0|2|0,3:2|3:0|3:2|3:0,0:0:0:0:
178,112,69782,2,0,P|196:136|208:162,3,35,0|0|2|0,3:0|3:0|3:2|3:0,0:0:0:0:
142,145,70157,2,0,P|137:173|124:201,3,35,8|0|2|0,3:2|3:0|3:2|3:0,0:0:0:0:
103,134,70532,6,0,L|-5:123,2,105,2|2|2,3:0|3:0|3:0,0:0:0:0:
181,205,71282,2,0,L|330:193,1,140,2|6,3:0|3:2,0:0:0:0:
480,81,72032,54,0,P|445:88|411:91,1,70,6|2,3:1|0:0,0:0:0:0:
393,87,72313,1,0,0:0:0:0:
396,91,72407,2,0,P|403:125|406:159,1,70,8|0,0:1|0:0,0:0:0:0:
321,194,72782,2,0,P|316:141|306:90,1,105,2|2,3:1|0:0,0:0:0:0:
302,73,73157,2,0,P|267:80|233:83,1,70,8|0,0:1|0:0,0:0:0:0:
155,35,73532,102,0,P|148:70|145:104,1,70,2|2,3:1|0:0,0:0:0:0:
149,122,73813,1,0,0:0:0:0:
152,126,73907,2,0,P|118:119|84:116,1,70,8|0,0:1|0:0,0:0:0:0:
68,206,74282,2,0,P|102:208|137:216,1,70,2|2,3:1|0:0,0:0:0:0:
223,244,74657,1,8,0:1:0:0:
261,326,74844,1,2,0:1:0:0:
314,251,75032,6,0,P|349:258|383:261,1,70,2|2,3:1|0:0,0:0:0:0:
401,257,75313,1,0,0:0:0:0:
404,261,75407,2,0,P|397:295|394:329,1,70,8|0,0:1|0:0,0:0:0:0:
484,341,75782,2,0,P|486:306|494:271,1,70,2|2,3:1|0:0,0:0:0:0:
470,183,76157,2,0,P|435:181|400:173,1,70,8|0,0:1|0:0,0:0:0:0:
320,130,76532,1,2,3:1:0:0:
399,85,76719,1,2,0:0:0:0:
321,36,76907,1,8,0:1:0:0:
242,81,77094,1,2,0:0:0:0:
151,87,77282,102,0,P|116:94|82:97,1,70,2|2,3:1|0:2,0:0:0:0:
64,93,77563,1,2,0:2:0:0:
67,97,77657,2,0,P|74:131|77:165,1,70,8|2,0:1|0:1,0:0:0:0:
32,303,78032,6,0,P|67:296|101:293,1,70,2|2,3:1|0:0,0:0:0:0:
119,297,78313,1,0,0:0:0:0:
122,301,78407,2,0,P|115:267|112:233,1,70,8|0,0:1|0:0,0:0:0:0:
191,190,78782,2,0,P|196:243|206:294,1,105,2|2,3:1|0:0,0:0:0:0:
210,311,79157,2,0,P|245:304|279:301,1,70,8|0,0:1|0:3,0:0:0:0:
357,349,79532,102,0,P|364:314|367:280,1,70,2|2,3:1|0:0,0:0:0:0:
363,262,79813,1,0,0:0:0:0:
366,266,79907,2,0,P|400:273|434:276,1,70,8|0,0:1|0:0,0:0:0:0:
444,178,80282,2,0,P|409:175|374:167,1,70,2|2,3:1|0:0,0:0:0:0:
289,140,80657,1,8,0:1:0:0:
251,58,80844,1,2,0:1:0:0:
198,133,81032,6,0,P|163:126|129:123,1,70,2|2,3:1|0:0,0:0:0:0:
111,127,81313,1,0,0:0:0:0:
114,131,81407,2,0,P|121:97|124:63,1,70,10|0,0:1|0:0,0:0:0:0:
28,43,81782,2,0,P|26:78|18:113,1,70,2|2,3:1|0:0,0:0:0:0:
42,201,82157,2,0,P|77:203|112:211,1,70,10|2,0:1|0:0,0:0:0:0:
192,251,82532,1,2,0:0:0:0:
256,192,82625,12,2,83657,0:0:0:0:
280,356,84032,102,0,P|315:304|380:307,1,105,6|0,3:1|0:0,0:0:0:0:
386,308,84407,2,0,P|422:306|473:300,1,70,10|0,0:1|0:0,0:0:0:0:
480,168,84782,6,0,P|492:204|501:236,1,70,2|2,3:1|0:0,0:0:0:0:
392,134,85157,2,0,P|400:196|401:220,1,70,10|0,0:1|0:0,0:0:0:0:
239,113,85532,102,0,P|286:104|315:102,1,70,2|2,3:1|0:0,0:0:0:0:
186,184,85907,2,0,P|225:199|257:217,1,70,10|0,0:1|0:0,0:0:0:0:
195,301,86282,1,2,3:1:0:0:
195,301,86375,1,0,3:0:0:0:
195,301,86469,1,2,3:2:0:0:
119,244,86657,2,0,P|64:245|18:251,1,70,10|0,0:1|0:0,0:0:0:0:
127,384,87032,6,0,P|126:314|116:216,1,140,2|8,3:1|0:1,0:0:0:0:
71,163,87594,1,0,0:1:0:0:
141,114,87782,2,0,P|181:126|212:132,1,70,2|2,3:1|0:0,0:0:0:0:
247,31,88157,2,0,P|274:66|298:95,1,70,8|10,0:1|0:1,0:0:0:0:
399,122,88532,102,0,P|390:75|387:44,1,70,10|8,3:1|0:1,0:0:0:0:
482,190,88907,2,0,P|491:138|494:112,1,70,10|8,0:1|0:1,0:0:0:0:
404,232,89282,1,10,3:1:0:0:
485,300,89469,1,8,0:1:0:0:
485,300,89657,2,0,P|438:310|392:322,1,70,8|8,0:1|0:1,0:0:0:0:
314,362,90032,6,0,B|291:324|262:305|262:305|233:312|200:334,1,140,6|10,3:1|0:1,0:0:0:0:
122,315,90594,1,0,0:0:0:0:
122,315,90782,2,0,P|128:270|137:237,1,70,2|2,3:1|0:0,0:0:0:0:
41,157,91157,2,0,P|45:211|53:234,1,70,10|0,0:1|0:0,0:0:0:0:
217,249,91532,102,0,P|223:204|232:171,1,70,2|2,3:1|0:0,0:0:0:0:
136,91,91907,2,0,P|140:145|148:168,1,70,10|0,0:1|0:0,0:0:0:0:
275,102,92282,2,0,P|238:97|117:90,1,140,2|10,3:1|0:1,0:0:0:0:
69,38,92844,1,0,0:0:0:0:
38,187,93032,6,0,P|48:148|50:111,1,70,2|2,3:1|0:0,0:0:0:0:
137,239,93407,2,0,P|125:199|116:168,1,70,8|0,0:1|0:0,0:0:0:0:
75,310,93782,2,0,P|118:293|209:325,1,140,2|8,3:1|0:1,0:0:0:0:
297,346,94344,1,2,0:1:0:0:
297,346,94438,1,0,3:0:0:0:
297,346,94532,1,2,3:1:0:0:
461,143,96032,70,0,B|430:133|430:133|411:140|411:140|393:134|393:134|361:143,1,105,2|0,0:0|0:0,0:0:0:0:
344,147,96407,6,0,B|328:129|328:129|339:48,1,105,4|0,3:1|1:0,0:0:0:0:
325,59,96782,2,0,L|251:50,1,70,2|0,3:1|0:0,0:0:0:0:
174,8,97157,2,0,L|165:82,1,70,8|0,0:0|1:0,0:0:0:0:
103,144,97532,1,2,3:1:0:0:
172,202,97719,1,0,1:0:0:0:
86,232,97907,2,0,L|8:224,1,70,8|0,1:2|1:0,0:0:0:0:
49,330,98282,1,2,3:1:0:0:
64,321,98375,2,0,L|142:329,1,70,0|0,1:0|1:0,0:0:0:0:
149,319,98657,2,0,L|153:284,2,35,8|0|0,0:0|1:0|1:0,0:0:0:0:
256,368,99032,101,2,3:1:0:0:
259,372,99407,1,8,0:0:0:0:
363,319,99595,1,0,1:0:0:0:
378,328,99688,2,0,L|448:321,2,70,0|0|0,1:0|1:0|1:0,0:0:0:0:
360,315,100157,2,0,L|352:245,1,70,8|0,0:0|1:0,0:0:0:0:
306,121,100532,2,0,L|264:177,1,70,2|0,3:1|1:0,0:0:0:0:
247,177,100813,2,0,L|206:121,1,70,0|0,1:0|1:0,0:0:0:0:
193,108,101094,1,0,1:0:0:0:
106,79,101282,6,0,L|107:33,2,35,2|0|0,3:1|0:0|1:0,0:0:0:0:
98,166,101657,1,8,1:2:0:0:
101,170,101844,1,0,1:0:0:0:
51,241,102032,102,0,B|82:251|82:251|101:244|101:244|119:250|119:250|151:241,1,105,0|0,3:0|0:0,0:0:0:0:
168,237,102407,6,0,B|184:255|184:255|173:336,1,105,8|0,0:0|1:0,0:0:0:0:
187,325,102782,2,0,L|261:334,1,70,2|0,3:1|0:0,0:0:0:0:
338,376,103157,2,0,L|347:302,1,70,8|0,0:2|1:0,0:0:0:0:
409,240,103532,1,2,3:1:0:0:
340,182,103719,1,0,1:0:0:0:
426,152,103907,2,0,L|504:160,1,70,8|0,1:2|1:0,0:0:0:0:
463,54,104282,1,2,3:1:0:0:
448,63,104375,2,0,L|370:55,1,70,0|0,1:0|1:0,0:0:0:0:
363,65,104657,2,0,L|359:100,2,35,8|0|0,0:2|1:0|1:0,0:0:0:0:
256,16,105032,101,2,3:1:0:0:
259,20,105407,1,8,0:0:0:0:
149,65,105594,1,0,1:0:0:0:
133,55,105687,2,0,L|64:63,2,70,0|0|0,1:0|1:0|1:0,0:0:0:0:
152,69,106156,2,0,L|159:138,1,70,8|0,0:2|1:0,0:0:0:0:
206,263,106531,2,0,L|247:206,1,70,2|0,3:1|1:0,0:0:0:0:
264,206,106812,2,0,L|306:263,1,70,0|0,1:0|1:0,0:0:0:0:
319,276,107093,1,0,1:0:0:0:
208,384,107282,5,2,3:1:0:0:
258,321,107469,1,0,1:0:0:0:
304,384,107657,1,12,0:1:0:0:
489,275,108032,102,0,B|460:262|460:262|423:268,1,70,2|0,0:0|0:0,0:0:0:0:
416,346,108407,2,0,B|446:360|446:360|483:354,1,70,8|0,0:0|0:0,0:0:0:0:
494,273,108782,1,2,3:1:0:0:
504,259,108875,2,0,L|496:189,1,70,0|0,1:0|1:0,0:0:0:0:
483,177,109157,2,0,L|475:107,1,70,8|0,0:2|1:0,0:0:0:0:
392,69,109532,6,2,L|387:34,2,35,2|0|0,3:1|0:0|1:0,0:1:0:0:
398,160,109907,2,0,L|328:167,1,70,8|0,1:2|1:0,0:0:0:0:
319,258,110282,1,2,3:1:0:0:
328,273,110375,2,2,L|320:351,1,70,0|0,1:0|1:0,0:1:0:0:
330,358,110657,2,0,L|365:362,2,35,8|0|0,0:2|1:0|1:0,0:0:0:0:
230,311,111032,102,0,L|234:276,3,35,8|0|0|0,1:2|0:0|0:0|0:0,0:0:0:0:
235,258,111407,1,8,0:2:0:0:
149,319,111595,1,0,1:0:0:0:
134,328,111688,2,0,L|64:321,2,70,0|0|0,1:0|1:0|1:0,0:0:0:0:
152,315,112157,2,0,L|160:245,1,70,8|0,0:2|1:0,0:0:0:0:
206,121,112532,2,2,L|247:178,1,70,2|0,3:1|1:0,0:1:0:0:
264,178,112813,2,0,L|306:121,1,70,0|0,1:0|1:0,0:0:0:0:
319,108,113094,1,0,1:0:0:0:
407,87,113282,5,2,3:1:0:0:
424,186,113469,1,0,1:0:0:0:
424,186,113563,1,0,1:0:0:0:
424,186,113657,2,0,P|482:180|515:182,1,70,8|0,1:2|1:0,0:0:0:0:
371,256,114032,2,0,P|376:282|385:305,3,35,2|0|0|0,3:1|0:0|0:0|0:0,0:0:0:0:
394,313,114407,2,0,P|453:316|494:321,1,70,8|0,0:0|0:0,0:0:0:0:
322,354,114782,70,0,P|268:357|237:360,1,70,2|0,3:1|0:0,0:0:0:0:
286,269,115157,2,0,P|242:271|202:271,1,70,8|0,0:0|0:0,0:0:0:0:
266,183,115532,6,0,P|217:181|176:166,1,70,2|0,3:1|1:0,0:0:0:0:
273,98,115907,2,0,P|242:64|234:41,1,70,8|0,1:2|0:0,0:0:0:0:
363,0,116282,2,0,P|361:44|361:87,1,70,2|0,3:1|1:0,0:0:0:0:
447,54,116657,2,0,P|462:96|494:129,1,70,8|0,1:2|0:0,0:0:0:0:
426,182,117032,102,0,P|458:210|496:228,1,70,2|0,3:1|1:0,0:0:0:0:
434,309,117407,2,0,P|483:322|515:321,1,70,8|0,1:2|1:0,0:0:0:0:
346,342,117782,2,0,P|354:366|364:388,2,35,2|0|0,3:1|1:0|1:0,0:0:0:0:
274,250,118157,2,0,P|281:222|289:200,2,35,8|0|0,1:2|1:0|1:0,0:0:0:0:
174,329,118532,6,0,P|153:336|120:337,3,35,2|0|0|0,3:1|1:0|1:0|1:0,0:0:0:0:
108,352,118907,2,0,P|76:339|64:325,3,35,8|0|0|0,1:2|1:0|1:0|1:0,0:0:0:0:
53,318,119282,2,0,P|65:300|75:270,3,35,2|0|0|0,3:1|1:0|1:0|1:0,0:0:0:0:
104,266,119657,2,0,P|106:230|102:204,3,35,8|0|0|0,1:2|1:0|1:0|1:0,0:0:0:0:
81,197,120032,101,4,3:2:0:0:
22,128,120219,1,0,1:3:0:0:
22,128,120313,1,0,1:0:0:0:
22,128,120407,2,0,L|30:32,1,70,8|2,1:2|1:1,0:0:0:0:
114,6,120782,2,0,P|120:30|130:62,3,35,2|0|0|0,3:2|1:0|1:0|1:0,0:0:0:0:
130,62,121157,2,0,P|182:66|224:75,1,70,8|0,1:2|1:0,0:0:0:0:
309,133,121532,6,0,P|261:136|229:148,1,70,0|0,3:0|1:0,0:0:0:0:
231,150,121813,1,0,1:0:0:0:
225,159,121907,2,0,P|231:205|236:239,1,70,8|2,1:2|1:1,0:0:0:0:
314,281,122282,2,0,P|320:246|323:229,3,35,2|0|0|0,3:2|1:0|1:0|1:0,0:0:0:0:
348,232,122657,2,0,P|385:237|404:242,3,35,8|0|0|0,1:2|0:0|1:0|0:0,0:0:0:0:
421,228,123032,101,0,3:0:0:0:
487,176,123219,1,0,1:0:0:0:
487,176,123313,1,0,1:0:0:0:
487,176,123407,2,0,P|477:134|469:101,1,70,8|2,1:2|1:1,0:0:0:0:
400,49,123782,2,0,P|404:20|406:8,3,35,2|0|0|0,3:2|1:0|1:0|1:0,0:0:0:0:
378,72,124157,2,0,P|331:61|284:60,1,70,8|0,1:2|1:0,0:0:0:0:
207,29,124532,6,0,P|213:59|226:93,3,35,0|0|0|0,3:0|1:0|1:0|1:0,0:0:0:0:
192,96,124907,2,0,P|208:122|228:142,3,35,8|0|2|0,1:2|1:0|1:1|0:0,0:0:0:0:
200,172,125282,2,0,P|231:187|256:189,3,35,2|0|0|0,3:2|1:0|1:0|1:0,0:0:0:0:
252,218,125657,2,0,P|282:208|304:201,3,35,8|0|0|0,1:2|1:0|1:0|0:0,0:0:0:0:
315,200,126032,102,0,P|317:254|320:289,1,70,4|0,3:1|1:0,0:0:0:0:
385,376,126407,2,0,P|385:326|383:297,1,70,8|2,1:2|1:1,0:0:0:0:
417,163,126782,2,0,P|419:217|422:252,1,70,2|0,3:2|1:0,0:0:0:0:
487,339,127157,2,0,P|487:289|485:260,1,70,8|2,1:2|1:1,0:0:0:0:
417,163,127532,5,2,3:2:0:0:
417,163,127719,1,0,1:0:0:0:
478,94,127907,1,8,1:2:0:0:
478,94,128094,1,2,1:1:0:0:
404,30,128282,1,2,3:2:0:0:
404,30,128469,1,0,1:0:0:0:
344,103,128657,1,8,1:2:0:0:
344,103,128844,1,2,1:1:0:0:
272,53,129032,102,0,L|281:8,3,35,2|0|2|0,3:2|1:0|1:1|1:0,0:0:0:0:
237,66,129407,2,0,L|244:122,3,35,10|0|2|0,3:2|1:0|1:1|1:0,0:0:0:0:
197,48,129782,2,0,L|206:3,3,35,2|0|2|0,3:2|1:0|1:1|1:0,0:0:0:0:
162,61,130157,2,0,L|169:117,3,35,10|0|2|0,3:2|1:0|1:1|1:0,0:0:0:0:
115,44,130532,1,0,3:0:0:0:
115,44,130907,6,0,B|86:75|86:75|93:110|93:110|77:149,1,105,0|0,1:0|0:0,0:0:0:0:
71,155,131282,2,0,L|20:144,2,46.6666666666667,8|0|0,1:2|1:0|1:0,0:0:0:0:
84,189,131657,2,0,L|253:182,1,140,8|4,1:0|0:0,0:0:0:0:
52,63,144032,6,0,B|105:53|105:53|152:88,1,112,6|8,3:2|0:0,0:0:0:0:
228,134,144594,1,0,0:0:0:0:
228,134,144782,2,0,L|276:127,2,28,0|0|0,1:0|1:0|1:0,0:0:0:0:
172,190,145157,2,0,P|171:236|176:263,1,56,2|2,0:0|0:0,0:0:0:0:
106,297,145532,2,0,B|152:331|152:331|205:321,1,112,2|8,3:2|0:0,0:0:0:0:
313,253,146094,1,0,3:0:0:0:
313,253,146282,2,0,L|321:292,2,28,0|0|0,1:0|1:0|1:0,0:0:0:0:
396,243,146657,2,0,L|405:162,1,56,10|2,0:0|0:0,0:0:0:0:
425,106,147032,6,0,B|384:141|384:141|326:139,1,112,2|8,3:2|0:0,0:0:0:0:
169,200,147782,2,0,B|171:134|212:146|205:70,1,112,0|10,1:0|0:0,0:0:0:0:
39,9,148532,102,0,P|62:47|76:65,1,56,6|0,3:2|0:0,0:0:0:0:
94,136,148907,2,0,P|79:167|63:195,1,56,8|0,0:0|3:0,0:0:0:0:
31,261,149282,2,0,P|65:241|145:252,1,112,2|8,1:2|0:0,0:0:0:0:
303,253,150032,6,0,P|303:222|298:182,2,56,2|0|8,3:2|1:0|0:0,0:0:0:0:
260,324,150594,1,0,1:0:0:0:
331,360,150782,2,0,P|376:368|398:378,1,56,0|2,1:0|1:2,0:0:0:0:
399,370,151063,1,0,0:0:0:0:
412,374,151157,2,0,P|457:366|479:356,1,56,10|0,0:0|0:0,0:0:0:0:
425,288,151532,102,0,P|437:247|450:222,2,56,2|0|8,3:2|0:0|0:0,0:0:0:0:
344,277,152094,1,0,3:0:0:0:
282,219,152282,2,0,P|277:165|273:143,1,56,0|2,1:0|1:2,0:0:0:0:
273,149,152563,1,0,0:0:0:0:
267,136,152657,2,0,P|272:82|276:60,1,56,10|0,0:0|0:0,0:0:0:0:
205,29,153032,6,0,P|161:30|136:31,1,56,2|0,3:2|1:2,0:0:0:0:
111,105,153407,2,0,P|112:149|113:174,1,56,10|0,1:2|1:2,0:0:0:0:
121,244,153782,2,0,B|175:229|175:229|191:175,1,112,2|10,1:2|1:2,0:0:0:0:
194,179,154532,1,2,0:0:0:0:
256,192,154625,12,0,155657,0:0:0:0:
422,81,156032,54,0,P|384:65|290:132,1,140,6|8,3:2|0:0,0:0:0:0:
253,172,156594,1,0,0:0:0:0:
253,172,156782,2,0,B|181:177|181:177|162:171|153:157,2,105,2|0|0,3:2|3:0|3:0,0:0:0:0:
319,216,157532,102,0,P|334:280|319:290,1,70,2|0,3:2|0:0,0:0:0:0:
368,345,157907,2,0,P|332:313|235:321,1,140,10|2,0:0|3:2,0:0:0:0:
145,353,158469,1,2,0:3:0:0:
145,353,158563,1,0,3:0:0:0:
145,353,158657,2,0,P|157:312|166:278,1,70,8|0,0:0|3:0,0:0:0:0:
125,220,159032,6,0,B|53:217|76:269|-5:270,1,140,2|8,3:2|0:0,0:0:0:0:
0,269,159594,1,0,0:0:0:0:
30,164,159782,2,0,P|32:124|29:92,1,70,2|2,3:2|0:3,0:0:0:0:
88,20,160157,1,8,0:0:0:0:
111,98,160344,1,0,3:0:0:0:
171,38,160532,102,0,P|210:46|249:54,1,70,2|0,3:2|0:0,0:0:0:0:
287,121,160907,2,0,P|326:129|365:137,1,70,10|0,0:2|0:0,0:0:0:0:
428,88,161282,1,2,3:2:0:0:
490,155,161469,1,2,0:1:0:0:
490,155,161563,1,2,3:1:0:0:
490,155,161657,2,0,L|478:234,1,70,10|0,0:1|3:0,0:0:0:0:
506,303,162032,6,0,P|461:306|431:292,1,70,2|0,3:2|3:0,0:0:0:0:
354,254,162407,2,0,L|365:336,1,70,8|0,0:0|3:0,0:0:0:0:
293,354,162782,2,0,P|248:357|218:343,1,70,2|0,3:2|3:0,0:0:0:0:
141,305,163157,2,0,L|152:387,1,70,8|0,0:0|3:0,0:0:0:0:
53,338,163532,101,2,3:2:0:0:
53,338,163719,1,0,3:0:0:0:
69,245,163907,1,10,0:0:0:0:
69,245,164094,1,0,3:0:0:0:
22,159,164282,1,2,3:2:0:0:
22,159,164469,1,0,3:0:0:0:
45,64,164657,1,8,0:0:0:0:
45,64,164844,1,0,3:0:0:0:
134,32,165032,6,0,L|193:29,3,35,2|0|0|0,3:2|3:0|3:0|3:0,0:0:0:0:
189,42,165407,2,0,L|240:46,3,35,8|0|0|0,3:2|3:0|3:0|3:0,0:0:0:0:
245,33,165782,2,0,L|304:30,3,35,2|0|0|0,3:2|3:0|3:0|3:0,0:0:0:0:
300,43,166157,2,0,L|351:47,3,35,8|0|0|0,3:2|3:0|3:0|3:0,0:0:0:0:
357,68,166532,1,2,0:2:0:0:
256,192,166625,12,4,167657,3:1:0:0:
468,354,168032,6,0,P|432:326|382:325,1,70,6|0,3:2|1:0,0:0:0:0:
389,324,168313,1,2,3:2:0:0:
373,327,168407,2,0,P|344:360|304:370,1,70,8|2,1:2|3:2,0:0:0:0:
238,329,168782,2,0,L|243:289,3,35,2|0|0|2,3:2|1:0|1:0|3:2,0:0:0:0:
244,279,169157,2,0,L|167:287,1,70,8|2,1:2|3:2,0:0:0:0:
106,335,169532,6,0,P|89:289|103:256,1,70,2|0,3:2|1:0,0:0:0:0:
103,259,169813,1,2,3:2:0:0:
109,245,169907,2,0,P|112:202|103:173,1,70,8|2,1:2|3:2,0:0:0:0:
39,133,170282,2,0,L|2:136,3,35,2|0|0|2,3:2|1:0|1:0|3:2,0:0:0:0:
61,102,170657,2,0,L|107:104,3,35,8|0|2|0,1:2|0:0|3:2|1:0,0:0:0:0:
41,82,171032,102,0,P|30:47|46:8,1,70,2|0,3:2|1:0,0:0:0:0:
68,5,171313,1,2,3:2:0:0:
68,5,171407,2,0,L|110:7,2,35,8|0|2,1:2|1:0|3:2,0:0:0:0:
173,53,171782,2,0,L|217:45,3,35,2|0|0|2,3:2|1:0|1:0|3:2,0:0:0:0:
239,33,172157,1,8,1:2:0:0:
301,97,172344,1,2,3:2:0:0:
301,97,172438,1,0,1:0:0:0:
301,97,172532,6,0,L|288:194,1,70,2|0,3:2|1:0,0:0:0:0:
294,196,172813,1,2,3:2:0:0:
294,196,172907,2,0,L|241:188,3,35,8|0|2|0,1:2|1:0|3:2|0:0,0:0:0:0:
228,208,173282,2,0,L|186:218,3,35,2|0|0|2,3:2|1:0|1:0|3:2,0:0:0:0:
163,238,173657,2,0,L|115:228,3,35,8|0|6|0,1:2|1:0|3:2|0:0,0:0:0:0:
93,243,174032,102,0,P|98:300|104:330,1,70,6|2,3:2|3:1,0:0:0:0:
189,317,174407,2,0,P|200:358|209:394,1,70,8|2,1:2|3:1,0:0:0:0:
276,225,174782,2,0,P|281:282|287:312,1,70,2|2,3:2|3:1,0:0:0:0:
367,287,175157,6,0,L|359:217,1,70,0|0,1:0|0:0,0:0:0:0:
473,75,175532,102,0,P|468:132|462:162,1,70,6|2,3:2|3:1,0:0:0:0:
377,149,175907,2,0,P|366:190|357:226,1,70,8|2,1:2|3:1,0:0:0:0:
290,57,176282,2,0,P|285:114|279:144,1,70,2|2,3:2|3:1,0:0:0:0:
176,77,176657,6,0,L|214:80,3,35
138,103,177032,102,0,L|97:100,3,35,6|0|2|2,3:2|3:0|3:1|3:2,0:0:0:0:
73,96,177407,2,0,P|50:110|37:132,3,35,8|2|2|2,3:2|3:2|3:1|3:2,0:0:0:0:
5,147,177782,2,0,P|9:173|21:201,3,35,2|0|2|2,3:2|3:0|3:1|3:2,0:0:0:0:
21,220,178157,2,0,P|46:232|71:238,3,35,0|0|2|2,3:0|3:0|3:1|3:2,0:0:0:0:
88,257,178532,6,0,L|219:251,1,93.3333333333333
221,269,178907,2,0,L|218:336,2,46.6666666666667
261,236,179282,1,0,0:0:0:0:
346,272,179469,1,0,0:0:0:0:
421,208,179657,38,2,P|436:154|408:88,1,105,6|0,1:1|0:0,0:1:0:0:
407,83,180032,6,0,L|321:101,1,87.5,6|2,3:1|0:0,0:0:0:0:
237,127,180407,1,10,0:1:0:0:
175,65,180594,1,0,0:0:0:0:
152,149,180782,1,2,3:1:0:0:
155,165,180875,1,0,3:0:0:0:
165,178,180969,1,2,3:2:0:0:
79,198,181157,2,0,P|48:167|7:155,1,87.5,10|0,0:1|0:0,0:0:0:0:
2,247,181532,102,0,P|13:309|67:342,1,131.25,2|0,3:1|0:0,0:0:0:0:
89,340,181907,2,0,P|98:298|134:274,1,87.5,10|0,0:1|0:0,0:0:0:0:
206,322,182282,2,0,P|230:357|271:366,1,87.5,2|2,3:1|0:0,0:0:0:0:
293,365,182563,1,2,0:0:0:0:
296,369,182657,2,0,L|396:354,1,87.5,10|0,0:1|0:0,0:0:0:0:
407,271,183032,6,0,P|345:257|285:282,1,131.25,2|0,3:1|0:0,0:0:0:0:
264,285,183407,2,0,L|280:198,1,87.5,8|0,0:1|0:0,0:0:0:0:
304,114,183782,2,0,P|366:99|426:124,1,131.25,2|2,3:1|0:0,0:0:0:0:
448,127,184157,2,0,L|432:40,1,87.5,8|10,0:1|0:1,0:0:0:0:
348,14,184532,101,10,3:1:0:0:
264,38,184719,1,2,0:0:0:0:
178,58,184907,2,0,P|135:56|80:36,1,87.5,10|0,0:1|0:0,0:0:0:0:
5,51,185282,1,2,3:1:0:0:
58,133,185469,1,8,0:1:0:0:
58,133,185563,1,8,0:1:0:0:
58,133,185657,2,0,P|84:169|96:211,1,87.5,8|0,0:1|0:0,0:0:0:0:
105,301,186032,6,0,L|191:283,1,87.5,6|2,3:1|0:0,0:0:0:0:
275,257,186407,1,10,0:1:0:0:
337,319,186594,1,0,0:0:0:0:
360,235,186782,1,2,3:1:0:0:
357,219,186875,1,0,3:0:0:0:
347,206,186969,1,2,3:2:0:0:
433,186,187157,2,0,P|464:217|505:229,1,87.5,10|0,0:1|0:0,0:0:0:0:
510,137,187532,102,0,P|499:75|445:42,1,131.25,2|0,3:1|0:0,0:0:0:0:
423,44,187907,2,0,P|414:86|378:110,1,87.5,10|0,0:1|0:0,0:0:0:0:
306,62,188282,2,0,P|282:27|241:18,1,87.5,2|2,3:1|0:0,0:0:0:0:
219,19,188563,1,2,0:0:0:0:
222,23,188657,2,0,L|122:38,1,87.5,10|0,0:1|0:0,0:0:0:0:
121,129,189032,6,0,P|198:158|197:240,1,175,2|8,3:1|0:1,0:0:0:0:
128,292,189594,1,0,0:0:0:0:
131,296,189782,2,0,P|81:291|33:282,1,87.5,2|2,3:1|0:0,0:0:0:0:
40,372,190157,2,0,P|90:377|138:386,1,87.5,8|0,0:1|0:1,0:0:0:0:
256,192,190532,12,2,191657,0:1:0:0:
57,54,192032,102,0,P|106:95|116:158,1,131.25,6|0,3:1|0:0,0:0:0:0:
128,176,192407,2,0,P|151:140|192:127,1,87.5,10|0,0:1|0:0,0:0:0:0:
279,115,192782,1,2,3:1:0:0:
251,202,192969,1,2,0:0:0:0:
251,202,193063,1,2,0:0:0:0:
251,202,193157,2,0,P|227:237|186:250,1,87.5,10|0,0:1|0:0,0:0:0:0:
155,332,193532,6,0,P|106:291|96:228,1,131.25,2|0,3:1|0:0,0:0:0:0:
84,210,193907,2,0,P|61:246|20:259,1,87.5,10|0,0:1|0:0,0:0:0:0:
2,173,194282,2,0,L|14:86,1,87.5,2|2,3:1|0:0,0:0:0:0:
12,64,194563,1,2,0:0:0:0:
15,68,194657,2,0,L|101:80,1,87.5,10|0,0:1|0:0,0:0:0:0:
151,152,195032,102,0,P|212:132|243:76,1,131.25,2|0,3:1|0:0,0:0:0:0:
257,59,195407,2,0,L|343:71,1,87.5,8|0,0:1|0:0,0:0:0:0:
503,45,195782,2,0,P|441:64|410:120,1,131.25,2|2,3:1|0:0,0:0:0:0:
381,153,196157,2,0,L|393:239,1,87.5,8|10,0:1|0:1,0:0:0:0:
415,324,196532,5,10,3:1:0:0:
331,300,196719,1,2,0:0:0:0:
245,280,196907,2,0,P|202:282|147:302,1,87.5,10|0,0:1|0:0,0:0:0:0:
72,287,197282,1,2,3:1:0:0:
125,205,197469,1,8,0:1:0:0:
125,205,197563,1,8,0:1:0:0:
125,205,197657,2,0,P|151:169|163:127,1,87.5,8|0,0:1|0:0,0:0:0:0:
130,46,198032,102,0,P|169:27|212:22,1,87.5,6|2,3:1|0:0,0:0:0:0:
299,22,198407,2,0,P|342:27|382:46,1,87.5,10|0,0:1|0:0,0:0:0:0:
382,133,198782,2,0,P|342:151|299:156,1,87.5,2|2,3:1|0:0,0:0:0:0:
212,157,199157,2,0,P|168:151|129:133,1,87.5,10|0,0:1|0:0,0:0:0:0:
131,221,199532,5,2,3:1:0:0:
134,225,199719,1,2,0:0:0:0:
178,299,199907,2,0,P|202:262|213:220,1,87.5,10|0,0:1|0:0,0:0:0:0:
381,221,200282,1,2,3:1:0:0:
384,225,200469,1,8,0:1:0:0:
333,299,200657,2,0,P|309:262|298:220,1,87.5,10|8,0:1|0:1,0:0:0:0:
264,37,201032,102,0,L|324:30,3,43.75,2|0|2|2,3:1|0:0|0:0|0:0,0:0:0:0:
239,63,201407,2,0,L|182:53,3,43.75,8|0|2|0,0:1|0:0|0:0|0:0,0:0:0:0:
265,83,201782,2,0,L|325:76,3,43.75,2|0|2|2,0:1|0:0|0:0|0:0,0:0:0:0:
240,109,202157,2,0,L|183:99,3,43.75,8|0|2|0,0:1|0:0|0:0|0:0,0:0:0:0:
256,139,202532,1,0,0:0:0:0:
353,292,202907,54,2,B|315:298|315:298|297:315|297:315|270:305|270:305|249:326|249:326|211:313,2,140,0|0|4,0:0|0:0|1:3,0:1:0:0:
492,174,204032,22,0,P|477:132|470:101,1,70,12|2,1:1|0:1,0:0:0:0:
374,113,204407,2,0,P|387:57|391:26,1,70,8|2,1:0|0:1,0:0:0:0:
294,176,204782,2,0,P|270:118|255:57,2,105,8|10|2,1:1|1:2|1:1,0:0:0:0:
359,245,205532,6,0,P|391:249|440:250,1,70,14|2,1:0|0:1,0:0:0:0:
272,284,205907,2,0,P|222:292|189:296,1,70,8|2,1:0|0:1,0:0:0:0:
347,337,206282,2,0,P|398:347|457:347,2,105,8|10|2,1:1|1:2|1:1,0:0:0:0:
272,284,207032,102,0,P|261:327|257:363,1,70,12|2,1:1|0:1,0:0:0:0:
202,236,207407,2,0,P|194:181|188:139,1,70,8|2,1:0|0:1,0:0:0:0:
144,299,207782,2,0,P|94:308|28:266,2,105,8|10|2,1:1|1:2|1:1,0:0:0:0:
202,236,208532,6,0,P|245:240|274:250,1,70,12|2,1:0|0:1,0:0:0:0:
300,170,208907,2,0,P|338:196|354:228,1,70,10|2,1:0|0:1,0:0:0:0:
395,288,209282,102,0,P|472:288|501:233,1,140,10|8,1:0|1:0,0:0:0:0:
441,178,209844,1,8,1:0:0:0:
493,91,210032,6,0,P|493:49|492:17,1,70,12|2,1:0|0:1,0:0:0:0:
369,0,210407,2,0,P|383:42|390:69,1,70,8|2,1:0|0:1,0:0:0:0:
284,140,210782,2,0,P|296:94|296:63,1,70,8|2,1:0|0:1,0:0:0:0:
292,58,211063,1,10,1:2:0:0:
281,48,211157,2,0,P|235:60|204:60,1,70,8|2,0:0|1:1,0:0:0:0:
74,9,211532,102,0,P|116:9|148:10,1,70,12|2,1:0|0:1,0:0:0:0:
165,133,211907,2,0,P|123:119|96:112,1,70,8|2,1:0|0:1,0:0:0:0:
25,218,212282,2,0,P|71:206|102:206,1,70,8|2,1:0|0:1,0:0:0:0:
107,210,212563,1,10,1:2:0:0:
117,221,212657,2,0,P|105:267|105:298,1,70,8|2,0:0|1:1,0:0:0:0:
201,268,213032,6,0,L|246:265,3,35,14|0|2|2,1:0|0:0|0:1|0:1,0:0:0:0:
257,252,213407,2,0,L|307:265,3,35,10|0|2|0,1:0|0:0|1:1|0:0,0:0:0:0:
321,239,213782,2,0,L|351:267,3,35,14|0|2|2,1:0|0:0|0:1|0:1,0:0:0:0:
387,261,214157,2,0,L|390:304,3,35,10|0|10|0,1:0|0:0|1:0|0:0,0:0:0:0:
415,328,214532,1,0,0:0:0:0:
220,142,215469,69,2,0:1:0:0:
220,142,215563,1,2,0:1:0:0:
220,142,215657,1,2,0:1:0:0:
371,231,216032,6,0,L|288:239,1,70,4|0,3:2|0:0,0:0:0:0:
239,292,216407,2,0,L|164:287,1,70,8|2,1:2|0:1,0:0:0:0:
95,341,216782,2,0,B|74:295|74:295|94:227,2,105,2|2|0,3:0|1:3|0:0,0:0:0:0:
169,287,217532,101,2,3:2:0:0:
169,287,217719,1,2,0:0:0:0:
229,372,217907,1,8,1:2:0:0:
312,318,218094,1,2,0:1:0:0:
390,376,218282,2,0,B|460:377|460:377|493:356,2,105,0|2|2,3:0|0:0|0:0,0:0:0:0:
312,318,219032,6,0,P|297:272|365:222,1,140,0|8,3:0|1:0,0:0:0:0:
440,195,219594,1,2,0:1:0:0:
483,120,219782,2,0,B|474:49|474:49|447:10,2,105,2|2|0,3:0|1:3|0:0,0:0:0:0:
440,195,220532,101,2,3:2:0:0:
365,134,220719,1,2,0:0:0:0:
354,222,220907,1,8,1:2:0:0:
354,222,221094,1,2,0:1:0:0:
281,165,221282,2,0,B|225:176|225:176|181:157,2,105,2|2|2,3:2|0:0|0:0,0:0:0:0:
354,222,222032,6,0,P|381:277|331:353,1,140,4|8,3:2|1:2,0:0:0:0:
272,322,222594,1,2,0:1:0:0:
196,358,222782,2,0,P|133:361|66:353,1,105,2|2,3:0|1:3,0:0:0:0:
66,353,223157,2,0,P|60:309|58:275,1,70,8|0,1:0|0:0,0:0:0:0:
109,217,223532,101,2,3:2:0:0:
27,170,223719,1,2,0:0:0:0:
110,121,223907,1,8,1:2:0:0:
32,78,224094,1,2,0:1:0:0:
105,29,224282,2,0,P|150:24|214:54,1,105,0|2,3:0|0:0,0:0:0:0:
217,61,224657,2,0,P|262:62|305:42,1,70,8|2,1:0|0:0,0:0:0:0:
378,12,225032,6,0,P|381:65|377:149,1,105,0|0,3:0|0:0,0:0:0:0:
373,145,225407,2,0,P|412:160|448:168,1,70,8|2,1:2|0:1,0:0:0:0:
511,249,225782,2,0,P|429:249|384:255,1,105,2|2,3:0|1:3,0:0:0:0:
383,276,226157,2,0,P|336:272|302:264,1,70,8|0,1:0|0:0,0:0:0:0:
240,216,226532,102,0,P|223:263|232:303,1,70,2|2,0:0|0:0,0:0:0:0:
162,335,226907,2,0,P|129:296|90:284,1,70,8|2,0:0|0:1,0:0:0:0:
28,345,227282,2,0,P|41:273|45:212,1,105,2|2,0:0|0:0,0:0:0:0:
43,241,227657,2,0,L|0:248,3,35,10|0|2|0,1:0|1:0|1:2|1:0,0:0:0:0:
79,236,228032,6,0,P|80:190|77:107,1,105,4|0,3:1|1:0,0:0:0:0:
60,103,228407,1,8,1:2:0:0:
122,34,228594,1,2,0:1:0:0:
122,34,228688,1,0,0:0:0:0:
122,34,228782,2,0,P|170:34|208:57,1,70,0|2,3:0|0:0,0:0:0:0:
252,95,229157,2,0,P|292:106|338:94,1,70,10|0,1:2|1:0,0:0:0:0:
369,42,229532,102,0,P|397:90|376:161,1,105,4|0,3:1|1:0,0:0:0:0:
377,158,229907,1,8,1:2:0:0:
320,258,230094,1,2,0:1:0:0:
320,258,230188,2,0,L|423:267,1,70
411,308,230469,2,0,L|487:301,2,70,2|10|2,0:0|1:2|0:0,0:0:0:0:
342,366,231032,6,0,L|241:355,1,70,4|0,3:1|0:0,0:0:0:0:
193,314,231407,2,0,L|115:326|115:326,1,70,8|2,1:2|0:1,0:0:0:0:
91,331,231688,2,0,P|77:291|102:230,1,105,0|2,0:0|0:0,0:0:0:0:
150,169,232157,2,0,L|138:94,1,70,10|0,1:2|1:0,0:0:0:0:
153,77,232438,1,0,1:0:0:0:
165,58,232532,102,0,L|156:6,2,35,4|0|0,3:1|1:0|1:0,0:0:0:0:
233,106,232907,1,10,1:2:0:0:
233,106,233094,2,0,P|281:112|317:118,1,70,2|0,0:2|3:0,0:0:0:0:
372,70,233469,1,2,0:0:0:0:
372,70,233563,1,2,0:0:0:0:
372,70,233657,2,0,P|389:98|398:118,2,35,10|0|2,1:2|0:0|0:2,0:0:0:0:
472,108,234032,6,2,P|461:150|456:187,1,70,4|0,3:1|0:0,0:1:0:0:
413,255,234407,1,8,1:2:0:0:
331,222,234594,1,2,0:1:0:0:
331,222,234688,1,0,0:0:0:0:
331,222,234782,2,0,P|292:225|258:229,1,70,0|2,3:0|0:0,0:0:0:0:
196,282,235157,2,0,P|148:284|117:288,1,70,10|0,1:2|1:0,0:0:0:0:
54,334,235532,102,2,P|80:281|65:212,1,105,4|0,3:1|1:0,0:1:0:0:
60,212,235907,2,0,P|42:175|42:141,1,70,8|2,1:2|0:1,0:0:0:0:
128,104,236282,1,0,3:0:0:0:
81,32,236469,1,2,0:0:0:0:
81,32,236563,1,0,0:0:0:0:
81,32,236657,2,0,P|38:35|3:45,1,70,10|0,1:2|0:0,0:0:0:0:
128,104,237032,6,2,P|153:97|187:86,3,35,12|0|2|0,3:1|0:0|1:2|0:0,0:1:0:0:
192,75,237407,2,0,P|222:82|245:86,3,35,8|0|2|0,1:2|1:0|1:1|1:0,0:0:0:0:
257,106,237782,2,0,P|282:99|316:88,3,35,2|0|0|0,3:1|1:0|1:0|1:0,0:0:0:0:
321,77,238157,2,0,P|351:84|374:88,3,35,8|0|0|0,1:2|1:0|1:0|1:0,0:0:0:0:
391,77,238532,101,0,3:0:0:0:
391,77,238907,1,0,0:0:0:0:
391,77,239282,1,0,0:0:0:0:
391,77,239657,6,0,P|421:144|403:216,1,140,0|2,0:0|3:2,0:0:0:0:
256,192,240125,12,0,245282,0:0:0:0:
