osu file format v14

[General]
AudioFilename: audio.mp3
AudioLeadIn: 0
PreviewTime: 47132
Countdown: 0
SampleSet: Soft
StackLeniency: 0.2
Mode: 0
LetterboxInBreaks: 0
WidescreenStoryboard: 1

[Editor]
Bookmarks: -54250,-23,11976,23976,35976,47976,59976,71976,83976,95976,107976,119976,131976,143976,155976,167976,179976,191976,203976,215976,227976,239976
DistanceSpacing: 0.8
BeatDivisor: 4
GridSize: 32
TimelineZoom: 3.05

[Metadata]
Title:Cardinal Rave
TitleUnicode:Cardinal Rave
Artist:TAROLIN feat. Katakiri Rekka
ArtistUnicode:TAROLIN feat. 片霧烈火
Creator:Yusomi
Version:Expert
Source:
Tags:shota on osu cubbby cubby -keitaro japanese electronic
BeatmapID:2361457
BeatmapSetID:1116399

[Difficulty]
HPDrainRate:4
CircleSize:4.5
OverallDifficulty:8.3
ApproachRate:9.4
SliderMultiplier:2
SliderTickRate:1

[Events]
//Background and Video events
0,0,"Konachan.com - 301504flipped.jpg",0,0
//Break Periods
//Storyboard Layer 0 (Background)
//Storyboard Layer 1 (Fail)
//Storyboard Layer 2 (Pass)
//Storyboard Layer 3 (Foreground)
//Storyboard Layer 4 (Overlay)
//Storyboard Sound Samples

[TimingPoints]
32,375,4,2,1,65,1,0
407,-66.6666666666667,4,2,1,65,0,0
594,-100,4,2,1,65,0,0
1157,-66.6666666666667,4,2,1,65,0,0
1532,-100,4,2,1,65,0,0
1907,-66.6666666666667,4,2,1,65,0,0
2094,-100,4,2,1,65,0,0
2282,-100,4,2,1,65,0,0
3032,-100,4,2,1,65,0,0
3407,-66.6666666666667,4,2,1,65,0,0
3594,-100,4,2,1,65,0,0
4157,-66.6666666666667,4,2,1,65,0,0
4532,-100,4,2,1,65,0,0
4907,-66.6666666666667,4,2,1,65,0,0
5094,-100,4,2,1,65,0,0
6032,-100,4,2,1,65,0,0
6407,-66.6666666666667,4,2,1,65,0,0
6594,-100,4,2,1,65,0,0
7157,-66.6666666666667,4,2,1,65,0,0
7532,-100,4,2,1,65,0,0
7907,-66.6666666666667,4,2,1,65,0,0
8094,-100,4,2,1,65,0,0
8282,-100,4,2,1,65,0,0
9032,-100,4,2,1,65,0,0
9407,-66.6666666666667,4,2,1,65,0,0
9594,-100,4,2,1,65,0,0
10157,-66.6666666666667,4,2,1,65,0,0
10532,-100,4,2,1,65,0,0
10907,-66.6666666666667,4,2,1,65,0,0
11094,-100,4,2,1,65,0,0
11657,-100,4,2,1,65,0,0
12032,-79.9999999999999,4,2,1,65,0,0
21032,-66.6666666666667,4,2,1,65,0,0
22532,-200,4,2,2,50,0,0
23657,-100,4,2,2,65,0,0
24032,750,4,2,1,45,1,0
24032,-100,4,2,1,45,0,0
29282,-100,4,2,1,45,0,0
30032,-60.6060606060606,4,2,1,45,0,0
31532,-100,4,2,1,45,0,0
36032,375,4,2,1,65,1,0
45032,-100,4,2,1,65,0,0
45407,-76.9230769230769,4,2,1,65,0,0
45782,-62.5,4,2,1,65,0,0
46157,-52.6315789473684,4,2,1,65,0,0
46438,-100,4,2,1,0,0,0
46532,-100,4,2,1,65,0,0
48032,-76.9230769230769,4,2,1,75,0,1
49532,-62.5,4,2,1,75,0,1
49672,-100,4,2,1,0,0,1
49719,-100,4,2,1,75,0,1
49907,-62.5,4,2,1,75,0,1
50047,-100,4,2,1,0,0,1
50094,-100,4,2,1,75,0,1
50282,-76.9230769230769,4,2,1,75,0,1
51032,-76.9230769230769,4,2,1,75,0,1
51594,-76.9230769230769,4,2,1,75,0,1
52532,-76.9230769230769,4,2,1,75,0,1
55532,-52.6315789473684,4,2,1,75,0,1
55907,-62.5,4,2,1,75,0,1
56282,-76.9230769230769,4,2,1,75,0,1
56657,-100,4,2,1,75,0,1
58532,-100,4,2,1,65,0,0
59282,-100,4,2,1,0,0,0
59657,-100,4,2,2,65,0,0
60032,-66.6666666666667,4,2,1,65,0,0
71282,-66.6666666666667,4,2,1,65,0,0
71657,-100,4,2,2,65,0,0
72032,-76.9230769230769,4,2,2,75,0,0
72875,-76.9230769230769,4,2,1,65,0,0
72969,-76.9230769230769,4,2,2,65,0,0
74000,-76.9230769230769,4,2,1,65,0,0
74094,-76.9230769230769,4,2,2,65,0,0
74375,-76.9230769230769,4,2,1,65,0,0
74469,-76.9230769230769,4,2,2,65,0,0
74844,-76.9230769230769,4,2,2,65,0,0
74938,-76.9230769230769,4,2,1,0,0,0
75032,-76.9230769230769,4,2,2,65,0,0
75688,-76.9230769230769,4,2,1,65,0,0
75782,-76.9230769230769,4,2,2,65,0,0
76250,-76.9230769230769,4,2,1,65,0,0
76344,-76.9230769230769,4,2,2,65,0,0
77844,-76.9230769230769,4,2,2,65,0,0
77938,-76.9230769230769,4,2,1,0,0,0
78032,-76.9230769230769,4,2,2,65,0,0
78500,-76.9230769230769,4,2,1,65,0,0
78594,-76.9230769230769,4,2,2,65,0,0
78688,-76.9230769230769,4,2,1,65,0,0
78782,-76.9230769230769,4,2,2,65,0,0
80750,-76.9230769230769,4,2,1,65,0,0
80844,-76.9230769230769,4,2,2,65,0,0
81875,-76.9230769230769,4,2,1,65,0,0
81969,-76.9230769230769,4,2,2,65,0,0
82532,-133.333333333333,4,2,2,55,0,0
83282,-133.333333333333,4,2,1,45,0,0
83469,-133.333333333333,4,2,2,45,0,0
83750,-133.333333333333,4,2,1,45,0,0
84032,-52.6315789473684,4,2,2,87,0,1
84125,-66.6666666666667,4,2,1,70,0,1
84219,-68.9655172413793,4,2,2,87,0,1
84688,-68.9655172413793,4,2,1,70,0,1
84782,-68.9655172413793,4,2,2,87,0,1
84875,-68.9655172413793,4,2,1,70,0,1
84969,-68.9655172413793,4,2,2,87,0,1
85157,-52.6315789473684,4,2,2,87,0,1
85250,-68.9655172413793,4,2,1,70,0,1
85344,-68.9655172413793,4,2,2,87,0,1
85438,-68.9655172413793,4,2,1,70,0,1
85532,-68.9655172413793,4,2,2,87,0,1
85625,-68.9655172413793,4,2,1,70,0,1
85719,-68.9655172413793,4,2,2,87,0,1
86000,-68.9655172413793,4,2,1,70,0,1
86094,-68.9655172413793,4,2,2,87,0,1
86188,-68.9655172413793,4,2,1,70,0,1
86282,-68.9655172413793,4,2,2,87,0,1
86375,-68.9655172413793,4,2,1,70,0,1
86469,-68.9655172413793,4,2,2,87,0,1
86657,-52.6315789473684,4,2,2,87,0,1
86938,-68.9655172413793,4,2,1,70,0,1
87032,-68.9655172413793,4,2,2,87,0,1
87125,-68.9655172413793,4,2,1,70,0,1
87219,-68.9655172413793,4,2,2,87,0,1
87688,-68.9655172413793,4,2,1,70,0,1
87782,-68.9655172413793,4,2,2,87,0,1
87875,-68.9655172413793,4,2,1,70,0,1
87969,-68.9655172413793,4,2,2,87,0,1
88157,-52.6315789473684,4,2,2,87,0,1
88532,-60.6060606060606,4,2,2,87,0,1
88625,-68.9655172413793,4,2,1,70,0,1
88719,-68.9655172413793,4,2,2,87,0,1
89000,-68.9655172413793,4,2,1,70,0,1
89094,-68.9655172413793,4,2,2,87,0,1
89188,-68.9655172413793,4,2,1,70,0,1
89282,-68.9655172413793,4,2,2,87,0,1
89375,-68.9655172413793,4,2,1,70,0,1
89469,-68.9655172413793,4,2,2,87,0,1
89657,-68.9655172413793,4,2,2,87,0,1
89750,-68.9655172413793,4,2,1,70,0,1
89844,-68.9655172413793,4,2,2,87,0,1
90032,-68.9655172413793,4,2,2,87,0,1
90125,-68.9655172413793,4,2,1,70,0,1
90219,-68.9655172413793,4,2,2,87,0,1
90688,-68.9655172413793,4,2,1,70,0,1
90782,-68.9655172413793,4,2,2,87,0,1
90875,-68.9655172413793,4,2,1,70,0,1
90969,-68.9655172413793,4,2,2,87,0,1
91157,-52.6315789473684,4,2,2,87,0,1
91250,-68.9655172413793,4,2,1,70,0,1
91344,-68.9655172413793,4,2,2,87,0,1
91438,-68.9655172413793,4,2,1,70,0,1
91532,-68.9655172413793,4,2,2,87,0,1
91625,-68.9655172413793,4,2,1,70,0,1
91719,-68.9655172413793,4,2,2,87,0,1
92000,-68.9655172413793,4,2,1,70,0,1
92094,-68.9655172413793,4,2,2,87,0,1
92188,-68.9655172413793,4,2,1,70,0,1
92282,-68.9655172413793,4,2,2,87,0,1
92375,-68.9655172413793,4,2,1,70,0,1
92469,-68.9655172413793,4,2,2,87,0,1
92657,-68.9655172413793,4,2,2,87,0,1
92938,-68.9655172413793,4,2,1,70,0,1
93032,-68.9655172413793,4,2,2,87,0,1
93125,-68.9655172413793,4,2,1,70,0,1
93219,-68.9655172413793,4,2,2,87,0,1
93688,-68.9655172413793,4,2,1,70,0,1
93782,-68.9655172413793,4,2,2,87,0,1
93875,-68.9655172413793,4,2,1,70,0,1
93969,-68.9655172413793,4,2,2,87,0,1
94157,-68.9655172413793,4,2,2,87,0,1
94532,-100,4,2,2,65,0,0
94578,-100,4,2,2,40,0,0
94907,-100,4,2,2,65,0,0
94953,-100,4,2,2,40,0,0
95282,-100,4,2,2,65,0,0
96032,-66.6666666666667,4,2,1,70,0,0
96594,-100,4,2,1,70,0,0
96782,-100,4,2,1,50,0,0
96875,-100,4,2,1,70,0,0
96969,-100,4,2,1,50,0,0
97063,-100,4,2,1,70,0,0
97157,-100,4,2,1,50,0,0
97250,-100,4,2,1,70,0,0
97438,-100,4,2,1,50,0,0
97532,-100,4,2,1,70,0,0
97625,-100,4,2,1,50,0,0
97719,-100,4,2,1,70,0,0
97813,-100,4,2,1,50,0,0
97907,-100,4,2,1,70,0,0
98000,-100,4,2,1,50,0,0
98094,-100,4,2,1,70,0,0
98188,-100,4,2,1,50,0,0
98282,-100,4,2,1,70,0,0
98469,-100,4,2,1,50,0,0
98563,-100,4,2,1,70,0,0
98657,-100,4,2,1,50,0,0
98750,-100,4,2,1,70,0,0
98938,-100,4,2,1,50,0,0
99032,-100,4,2,1,70,0,0
99782,-100,4,2,1,50,0,0
99875,-100,4,2,1,70,0,0
99969,-100,4,2,1,50,0,0
100063,-100,4,2,1,70,0,0
100157,-100,4,2,1,50,0,0
100250,-100,4,2,1,70,0,0
100438,-100,4,2,1,50,0,0
100532,-100,4,2,1,70,0,0
100625,-100,4,2,1,50,0,0
100719,-100,4,2,1,70,0,0
100813,-100,4,2,1,70,0,0
100907,-100,4,2,1,50,0,0
101000,-100,4,2,1,70,0,0
101188,-100,4,2,1,50,0,0
101282,-100,4,2,1,70,0,0
101375,-100,4,2,1,50,0,0
101469,-100,4,2,1,70,0,0
101563,-100,4,2,1,50,0,0
101657,-100,4,2,1,70,0,0
101750,-100,4,2,1,50,0,0
101844,-100,4,2,1,70,0,0
101938,-100,4,2,1,50,0,0
102032,-66.6666666666667,4,2,1,70,0,0
102594,-100,4,2,1,70,0,0
102782,-100,4,2,1,50,0,0
102875,-100,4,2,1,70,0,0
102969,-100,4,2,1,50,0,0
103063,-100,4,2,1,70,0,0
103157,-100,4,2,1,50,0,0
103250,-100,4,2,1,70,0,0
103438,-100,4,2,1,50,0,0
103532,-100,4,2,1,70,0,0
103625,-100,4,2,1,50,0,0
103719,-100,4,2,1,70,0,0
103813,-100,4,2,1,50,0,0
103907,-100,4,2,1,70,0,0
104000,-100,4,2,1,50,0,0
104094,-100,4,2,1,70,0,0
104188,-100,4,2,1,50,0,0
104282,-100,4,2,1,70,0,0
104469,-100,4,2,1,50,0,0
104563,-100,4,2,1,70,0,0
104657,-100,4,2,1,50,0,0
104750,-100,4,2,1,70,0,0
104938,-100,4,2,1,50,0,0
105032,-100,4,2,1,70,0,0
105782,-100,4,2,1,50,0,0
105875,-100,4,2,1,70,0,0
105969,-100,4,2,1,50,0,0
106063,-100,4,2,1,70,0,0
106157,-100,4,2,1,50,0,0
106250,-100,4,2,1,70,0,0
106438,-100,4,2,1,50,0,0
106532,-100,4,2,1,70,0,0
106625,-100,4,2,1,50,0,0
106719,-100,4,2,1,70,0,0
106813,-100,4,2,1,70,0,0
106907,-100,4,2,1,50,0,0
107000,-100,4,2,1,70,0,0
107188,-100,4,2,1,50,0,0
107282,-100,4,2,1,70,0,0
107375,-100,4,2,1,50,0,0
107469,-100,4,2,1,70,0,0
107563,-100,4,2,1,50,0,0
107657,-100,4,2,1,70,0,0
108032,-66.6666666666667,4,2,1,70,0,0
108875,-100,4,2,1,70,0,0
109063,-100,4,2,1,70,0,0
109157,-100,4,2,1,50,0,0
109250,-100,4,2,1,70,0,0
109438,-100,4,2,1,50,0,0
109532,-100,4,2,1,70,0,0
109625,-100,4,2,1,50,0,0
109719,-100,4,2,1,70,0,0
109813,-100,4,2,1,50,0,0
109907,-100,4,2,1,70,0,0
110000,-100,4,2,1,50,0,0
110094,-100,4,2,1,70,0,0
110188,-100,4,2,1,50,0,0
110282,-100,4,2,1,70,0,0
110469,-100,4,2,1,50,0,0
110563,-100,4,2,1,70,0,0
110657,-100,4,2,1,50,0,0
110750,-100,4,2,1,70,0,0
110938,-100,4,2,1,50,0,0
111032,-100,4,2,1,70,0,0
111782,-100,4,2,1,50,0,0
111875,-100,4,2,1,70,0,0
111969,-100,4,2,1,50,0,0
112063,-100,4,2,1,70,0,0
112157,-100,4,2,1,50,0,0
112250,-100,4,2,1,70,0,0
112438,-100,4,2,1,50,0,0
112532,-100,4,2,1,70,0,0
112625,-100,4,2,1,50,0,0
112719,-100,4,2,1,70,0,0
112907,-100,4,2,1,50,0,0
113000,-100,4,2,1,70,0,0
113188,-100,4,2,1,50,0,0
113282,-100,4,2,1,65,0,0
113375,-100,4,2,1,50,0,0
113469,-100,4,2,1,65,0,0
113563,-100,4,2,1,50,0,0
113657,-100,4,2,1,65,0,0
113750,-100,4,2,1,50,0,0
113844,-100,4,2,1,65,0,0
113938,-100,4,2,1,50,0,0
114032,-100,4,2,1,65,0,0
120032,-66.6666666666667,4,2,1,65,0,0
130907,-58.8235294117647,4,2,1,65,0,0
132032,-100,4,2,1,65,0,0
132782,-133.333333333333,4,2,1,45,0,0
135407,-133.333333333333,4,2,1,45,0,0
135782,-133.333333333333,4,2,1,45,0,0
136907,-133.333333333333,4,2,1,45,0,0
136953,-133.333333333333,4,2,1,27,0,0
137094,-133.333333333333,4,2,1,45,0,0
137141,-133.333333333333,4,2,1,27,0,0
137282,-133.333333333333,4,2,1,45,0,0
138594,-133.333333333333,4,2,1,45,0,0
138782,-133.333333333333,4,2,1,45,0,0
139203,-133.333333333333,4,2,1,27,0,0
139344,-133.333333333333,4,2,1,45,0,0
139391,-133.333333333333,4,2,1,0,0,0
139532,-133.333333333333,4,2,1,45,0,0
139907,-133.333333333333,4,2,2,45,0,0
140094,-133.333333333333,4,2,1,45,0,0
141078,-133.333333333333,4,2,1,27,0,0
141782,-133.333333333333,4,2,1,45,0,0
142532,-133.333333333333,4,2,1,45,0,0
144032,-83.3333333333333,4,2,1,53,0,0
144407,-83.3333333333333,4,2,1,53,0,0
145188,-83.3333333333333,4,2,1,30,0,0
145344,-83.3333333333333,4,2,1,53,0,0
149657,-83.3333333333333,4,2,1,53,0,0
150032,-83.3333333333333,4,2,1,53,0,0
150407,-83.3333333333333,4,2,1,53,0,0
151157,-83.3333333333333,4,2,1,53,0,0
151907,-83.3333333333333,4,2,1,53,0,0
152657,-62.5,4,2,1,53,0,0
153032,-83.3333333333333,4,2,1,48,0,0
156032,-76.9230769230769,4,2,1,75,0,1
156407,-76.9230769230769,4,2,1,75,0,1
157532,-62.5,4,2,1,75,0,1
157672,-100,4,2,1,0,0,1
157719,-100,4,2,1,75,0,1
157907,-62.5,4,2,1,75,0,1
158047,-100,4,2,1,0,0,1
158094,-100,4,2,1,75,0,1
158282,-76.9230769230769,4,2,1,75,0,1
159032,-76.9230769230769,4,2,1,75,0,1
159594,-76.9230769230769,4,2,1,75,0,1
160532,-76.9230769230769,4,2,1,75,0,1
163532,-52.6315789473684,4,2,1,75,0,1
163907,-62.5,4,2,1,75,0,1
164282,-76.9230769230769,4,2,1,75,0,1
164657,-100,4,2,1,75,0,1
166532,-100,4,2,1,65,0,0
168032,-66.6666666666667,4,2,1,65,0,0
169344,-66.6666666666667,4,2,1,65,0,0
175157,-66.6666666666667,4,2,1,65,0,0
175532,-66.6666666666667,4,2,1,65,0,0
176657,-133.333333333333,4,2,1,65,0,0
177032,-66.6666666666667,4,2,1,65,0,0
178532,-66.6666666666667,4,2,2,65,0,0
179657,-66.6666666666667,4,2,1,75,0,0
180032,-55.5555555555556,4,2,2,85,0,1
180125,-55.5555555555556,4,2,1,70,0,1
180219,-68.9655172413793,4,2,2,85,0,1
180688,-68.9655172413793,4,2,1,70,0,1
180782,-68.9655172413793,4,2,2,85,0,1
180875,-68.9655172413793,4,2,1,70,0,1
180969,-68.9655172413793,4,2,2,85,0,1
181250,-68.9655172413793,4,2,1,70,0,1
181344,-68.9655172413793,4,2,2,85,0,1
181438,-68.9655172413793,4,2,1,70,0,1
181532,-68.9655172413793,4,2,2,85,0,1
181625,-68.9655172413793,4,2,1,70,0,1
181719,-68.9655172413793,4,2,2,85,0,1
182000,-68.9655172413793,4,2,1,70,0,1
182094,-68.9655172413793,4,2,2,85,0,1
182188,-68.9655172413793,4,2,1,70,0,1
182282,-68.9655172413793,4,2,2,85,0,1
182375,-68.9655172413793,4,2,1,70,0,1
182469,-68.9655172413793,4,2,2,85,0,1
182938,-68.9655172413793,4,2,1,70,0,1
183032,-68.9655172413793,4,2,2,85,0,1
183125,-68.9655172413793,4,2,1,70,0,1
183219,-68.9655172413793,4,2,2,85,0,1
183688,-68.9655172413793,4,2,1,70,0,1
183782,-68.9655172413793,4,2,2,85,0,1
183875,-68.9655172413793,4,2,1,70,0,1
183969,-68.9655172413793,4,2,2,85,0,1
184532,-68.9655172413793,4,2,2,85,0,1
184625,-68.9655172413793,4,2,1,70,0,1
184719,-68.9655172413793,4,2,2,85,0,1
185000,-68.9655172413793,4,2,1,70,0,1
185094,-68.9655172413793,4,2,2,85,0,1
185188,-68.9655172413793,4,2,1,70,0,1
185282,-68.9655172413793,4,2,2,85,0,1
185375,-68.9655172413793,4,2,1,70,0,1
185469,-68.9655172413793,4,2,2,85,0,1
185750,-68.9655172413793,4,2,2,85,0,1
185844,-68.9655172413793,4,2,2,85,0,1
186032,-68.9655172413793,4,2,2,85,0,1
186125,-68.9655172413793,4,2,1,70,0,1
186219,-68.9655172413793,4,2,2,85,0,1
186688,-68.9655172413793,4,2,1,70,0,1
186782,-68.9655172413793,4,2,2,85,0,1
186875,-68.9655172413793,4,2,1,70,0,1
186969,-68.9655172413793,4,2,2,85,0,1
187250,-68.9655172413793,4,2,1,70,0,1
187344,-68.9655172413793,4,2,2,85,0,1
187438,-68.9655172413793,4,2,1,70,0,1
187532,-68.9655172413793,4,2,2,85,0,1
187625,-68.9655172413793,4,2,1,70,0,1
187719,-68.9655172413793,4,2,2,85,0,1
188000,-68.9655172413793,4,2,1,70,0,1
188094,-68.9655172413793,4,2,2,85,0,1
188188,-68.9655172413793,4,2,1,70,0,1
188282,-68.9655172413793,4,2,2,85,0,1
188375,-68.9655172413793,4,2,1,70,0,1
188469,-68.9655172413793,4,2,2,85,0,1
188938,-68.9655172413793,4,2,1,70,0,1
189032,-68.9655172413793,4,2,2,85,0,1
189125,-68.9655172413793,4,2,1,70,0,1
189219,-68.9655172413793,4,2,2,85,0,1
189688,-68.9655172413793,4,2,1,70,0,1
189782,-68.9655172413793,4,2,2,85,0,1
189875,-68.9655172413793,4,2,1,70,0,1
189969,-68.9655172413793,4,2,2,85,0,1
190157,-68.9655172413793,4,2,2,85,0,1
190532,-125,4,2,1,65,0,0
191282,-100,4,2,1,45,0,0
192032,-55.5555555555556,4,2,2,85,0,1
192125,-68.9655172413793,4,2,1,70,0,1
192219,-68.9655172413793,4,2,2,85,0,1
192688,-68.9655172413793,4,2,1,70,0,1
192782,-68.9655172413793,4,2,2,85,0,1
192875,-68.9655172413793,4,2,1,70,0,1
192969,-68.9655172413793,4,2,2,85,0,1
193250,-68.9655172413793,4,2,1,70,0,1
193344,-68.9655172413793,4,2,2,85,0,1
193438,-68.9655172413793,4,2,1,70,0,1
193532,-68.9655172413793,4,2,2,85,0,1
193625,-68.9655172413793,4,2,1,70,0,1
193719,-68.9655172413793,4,2,2,85,0,1
194000,-68.9655172413793,4,2,1,70,0,1
194094,-68.9655172413793,4,2,2,85,0,1
194188,-68.9655172413793,4,2,1,70,0,1
194282,-68.9655172413793,4,2,2,85,0,1
194375,-68.9655172413793,4,2,1,70,0,1
194469,-68.9655172413793,4,2,2,85,0,1
194938,-68.9655172413793,4,2,1,70,0,1
195032,-68.9655172413793,4,2,2,85,0,1
195125,-68.9655172413793,4,2,1,70,0,1
195219,-68.9655172413793,4,2,2,85,0,1
195688,-68.9655172413793,4,2,1,70,0,1
195782,-68.9655172413793,4,2,2,85,0,1
195875,-68.9655172413793,4,2,1,70,0,1
195969,-68.9655172413793,4,2,2,85,0,1
196532,-68.9655172413793,4,2,2,85,0,1
196625,-68.9655172413793,4,2,1,70,0,1
196719,-68.9655172413793,4,2,2,85,0,1
197000,-68.9655172413793,4,2,1,70,0,1
197094,-68.9655172413793,4,2,2,85,0,1
197188,-68.9655172413793,4,2,1,70,0,1
197282,-68.9655172413793,4,2,2,85,0,1
197375,-68.9655172413793,4,2,1,70,0,1
197469,-68.9655172413793,4,2,2,85,0,1
197657,-68.9655172413793,4,2,2,85,0,1
197750,-68.9655172413793,4,2,1,70,0,1
197844,-66.6666666666667,4,2,2,85,0,1
198500,-68.9655172413793,4,2,1,70,0,1
198594,-66.6666666666667,4,2,2,85,0,1
198688,-68.9655172413793,4,2,1,70,0,1
198782,-55.5555555555556,4,2,2,85,0,1
199250,-68.9655172413793,4,2,1,70,0,1
199344,-55.5555555555556,4,2,2,85,0,1
199438,-68.9655172413793,4,2,1,70,0,1
199532,-47.6190476190476,4,2,2,85,0,1
200000,-68.9655172413793,4,2,1,70,0,1
200094,-47.6190476190476,4,2,2,85,0,1
200188,-68.9655172413793,4,2,1,70,0,1
200282,-68.9655172413793,4,2,2,85,0,1
200657,-47.6190476190476,4,2,2,85,0,1
200750,-68.9655172413793,4,2,1,70,0,1
200844,-47.6190476190476,4,2,2,85,0,1
200938,-68.9655172413793,4,2,1,70,0,1
201032,-62.5,4,2,2,85,0,1
202532,-133.333333333333,4,2,1,65,0,0
202782,-133.333333333333,4,2,1,30,0,0
202907,-55.5555555555556,4,2,1,65,0,0
203610,-100,4,2,1,0,0,0
203657,-100,4,2,1,65,0,0
204032,-41.6666666666667,4,2,1,75,0,0
208532,-37.037037037037,4,2,1,75,0,0
209282,-41.6666666666667,4,2,1,75,0,0
210032,-37.037037037037,4,2,1,75,0,0
211532,-32.258064516129,4,2,1,75,0,0
214532,-100,4,2,1,50,0,0
216032,-100,4,2,1,65,0,0
216407,-66.6666666666667,4,2,1,65,0,0
216594,-100,4,2,1,65,0,0
217157,-66.6666666666667,4,2,1,65,0,0
217532,-100,4,2,1,65,0,0
217907,-66.6666666666667,4,2,1,65,0,0
218094,-100,4,2,1,65,0,0
218282,-100,4,2,1,65,0,0
219032,-100,4,2,1,65,0,0
219407,-66.6666666666667,4,2,1,65,0,0
219594,-100,4,2,1,65,0,0
220157,-66.6666666666667,4,2,1,65,0,0
220532,-100,4,2,1,65,0,0
220907,-66.6666666666667,4,2,1,65,0,0
221094,-100,4,2,1,65,0,0
221282,-100,4,2,1,65,0,0
222032,-100,4,2,1,65,0,0
222407,-66.6666666666667,4,2,1,65,0,0
222594,-100,4,2,1,65,0,0
223157,-66.6666666666667,4,2,1,65,0,0
223532,-100,4,2,1,65,0,0
223907,-66.6666666666667,4,2,1,65,0,0
224094,-100,4,2,1,65,0,0
224282,-100,4,2,1,65,0,0
225032,-100,4,2,1,65,0,0
225407,-66.6666666666667,4,2,1,65,0,0
225594,-100,4,2,1,65,0,0
226157,-66.6666666666667,4,2,1,65,0,0
226532,-100,4,2,1,65,0,0
226907,-66.6666666666667,4,2,1,65,0,0
227094,-100,4,2,1,65,0,0
227282,-100,4,2,1,65,0,0
227657,-100,4,2,1,65,0,0
228032,-80,4,2,1,65,0,0
228313,-80,4,2,1,65,0,0
229532,-80,4,2,1,65,0,0
229813,-80,4,2,1,65,0,0
231032,-80,4,2,1,65,0,0
231313,-80,4,2,1,65,0,0
234032,-80,4,2,1,65,0,0
234313,-80,4,2,1,65,0,0
235532,-80,4,2,1,65,0,0
235813,-80,4,2,1,65,0,0
237032,-57.1428571428571,4,2,1,65,0,0
238532,-200,4,2,2,50,0,0
239657,-100,4,2,2,65,0,0
240032,-100,4,2,1,65,0,0
240078,-100,4,2,2,45,0,0
240782,-100,4,2,1,45,0,0
241157,-100,4,2,2,45,0,0
241532,-100,4,2,1,45,0,0
241907,-100,4,2,2,45,0,0
242282,-100,4,2,1,45,0,0
242657,-100,4,2,2,45,0,0
243032,-100,4,2,1,45,0,0
243782,-100,4,2,2,45,0,0
244157,-100,4,2,1,45,0,0
244532,-100,4,2,2,0,0,0

[Colours]
Combo1 : 155,88,200
Combo2 : 221,255,157
Combo3 : 176,242,230
Combo4 : 255,51,51
Combo5 : 119,186,255
Combo6 : 252,108,255
Combo7 : 255,193,255
Combo8 : 252,255,106

[HitObjects]
122,315,32,6,0,B|146:265|114:225|114:225|127:173,1,150,4|0,3:2|0:0,0:0:0:0:
127,173,407,2,0,L|199:192,1,75.0000028610231,8|0,1:2|0:0,0:0:0:0:
53,276,594,2,0,B|29:282|29:282|50:269,1,50,2|0,0:1|0:0,0:0:0:0:
159,100,782,1,2,3:0:0:0:
162,104,875,1,2,0:3:0:0:
165,108,969,2,0,L|230:126,1,50,2|2,0:3|1:3,0:0:0:0:
448,73,1157,2,0,P|431:10|370:37,1,150.000005722046,8|0,1:1|0:0,0:0:0:0:
215,45,1532,6,0,L|199:42,1,16.6666666666667,2|0,3:2|0:0,0:0:0:0:
296,167,1719,2,0,L|300:150,1,16.6666666666667,2|0,0:0|0:0,0:0:0:0:
370,37,1907,2,0,P|399:61|411:96,1,75.0000028610231,8|0,1:0|0:0,0:0:0:0:
346,230,2094,2,0,B|340:254|340:254|353:233,1,50,2|0,0:1|0:0,0:0:0:0:
420,178,2282,2,0,L|373:159,2,50,0|0|0,3:0|0:0|0:0,0:0:0:0:
493,201,2563,2,0,L|500:186,1,16.6666666666667,2|0,0:0|0:0,0:0:0:0:
496,205,2657,101,8,1:1:0:0:
449,348,2844,2,0,L|456:333,1,16.6666666666667,2|0,0:0|0:0,0:0:0:0:
447,261,3032,6,0,B|422:266|396:266|396:266|368:302|368:302|343:302|316:308,1,150,0|0,3:0|0:0,0:0:0:0:
237,305,3407,2,0,P|243:341|267:370,1,75.0000028610231,8|0,1:2|0:0,0:0:0:0:
449,348,3594,2,0,B|455:372|455:372|442:351,1,50,2|0,0:1|0:0,0:0:0:0:
320,224,3782,1,2,3:0:0:0:
323,228,3875,1,2,0:3:0:0:
326,232,3969,2,0,L|276:238,1,50,2|2,0:3|1:3,0:0:0:0:
64,311,4157,2,0,P|81:374|142:347,1,150.000005722046,8|0,1:1|0:0,0:0:0:0:
216,299,4532,102,0,L|219:315,1,16.6666666666667,2|0,3:2|0:0,0:0:0:0:
280,162,4719,2,0,L|296:159,1,16.6666666666667,2|0,0:0|0:0,0:0:0:0:
27,168,4907,2,0,P|63:164|96:181,1,75.0000028610231,8|0,0:0|0:0,0:0:0:0:
146,251,5094,2,0,B|133:272|133:272|139:248,1,50,2|0,0:1|0:0,0:0:0:0:
144,118,5282,2,0,L|135:68,2,50,2|0|0,3:2|0:0|0:0,0:0:0:0:
203,176,5563,2,0,L|199:205,1,16.6666666666667,2|0,0:0|0:0,0:0:0:0:
205,179,5657,5,10,1:1:0:0:
258,26,5844,2,0,L|254:-3,1,16.6666666666667,2|0,0:0|0:0,0:0:0:0:
282,179,6032,102,0,B|321:192|347:158|347:158|375:128|417:142,1,150,4|0,3:2|0:0,0:0:0:0:
417,142,6407,2,0,L|424:222,1,75.0000028610231,8|0,1:2|0:0,0:0:0:0:
294,109,6594,2,0,B|273:96|273:96|297:102,1,50,2|0,0:1|0:0,0:0:0:0:
487,132,6782,1,2,3:0:0:0:
490,136,6875,1,2,0:3:0:0:
493,140,6969,2,0,L|497:190,1,50,2|2,0:3|1:3,0:0:0:0:
369,346,7157,2,0,P|429:374|447:310,1,150.000005722046,8|0,1:1|0:0,0:0:0:0:
431,231,7532,6,0,L|452:241,1,16.6666666666667,2|0,3:2|0:0,0:0:0:0:
294,349,7719,2,0,L|284:370,1,16.6666666666667,2|0,0:0|0:0,0:0:0:0:
360,199,7907,2,0,P|353:236|364:271,1,75.0000028610231,8|0,1:2|0:0,0:0:0:0:
280,267,8094,2,0,B|259:280|259:280|283:274,1,50,2|0,0:1|0:0,0:0:0:0:
421,156,8282,2,0,L|479:168,2,50,0|0|0,3:0|0:0|0:0,0:0:0:0:
362,96,8563,2,0,L|361:79,1,16.6666666666667,2|0,0:0|0:0,0:0:0:0:
365,100,8657,101,8,1:1:0:0:
211,230,8844,2,0,L|194:230,1,16.6666666666667,2|0,0:0|0:0,0:0:0:0:
259,48,9032,6,0,B|288:118|288:118|262:147|270:187,1,150,0|0,3:0|0:0,0:0:0:0:
347,170,9407,2,0,L|420:156,1,75.0000028610231,8|0,1:2|0:0,0:0:0:0:
204,107,9594,2,0,B|179:110|179:110|204:114,1,50,2|0,0:1|0:0,0:0:0:0:
405,78,9782,1,2,3:0:0:0:
408,82,9875,1,2,0:3:0:0:
411,86,9969,2,0,L|361:95,1,50,2|2,0:3|1:3,0:0:0:0:
143,38,10157,2,0,P|83:10|65:74,1,150.000005722046,8|0,1:0|0:0,0:0:0:0:
101,153,10532,102,0,L|113:129,1,16.6666666666667,2|0,3:2|0:0,0:0:0:0:
127,322,10719,2,0,L|151:334,1,16.6666666666667,2|0,0:0|0:0,0:0:0:0:
43,220,10907,2,0,P|76:238|113:239,1,75.0000028610231,8|0,1:2|0:0,0:0:0:0:
173,198,11094,2,0,B|192:183|192:183|166:189,1,50,2|0,0:1|0:0,0:0:0:0:
47,311,11282,2,0,L|56:360,2,50,2|0|0,3:2|0:0|0:0,0:0:0:0:
17,137,11563,2,0,L|13:120,1,16.6666666666667,2|0,0:0|0:0,0:0:0:0:
21,141,11657,6,0,L|85:126,1,50,2|0,1:0|1:0,0:0:0:0:
141,113,11844,2,0,L|205:98,1,50,2|0,1:2|1:0,0:0:0:0:
278,0,12032,102,0,B|268:88|268:88|289:117,1,125,4|2,3:1|0:0,0:0:0:0:
289,117,12313,2,0,L|353:127,1,62.5,0|8,1:0|1:2,0:0:0:0:
400,71,12500,2,0,P|421:94|427:125,1,62.5,0|2,1:0|0:1,0:0:0:0:
392,189,12688,1,0,0:0:0:0:
395,193,12782,1,0,3:0:0:0:
450,326,12969,2,0,L|512:318,1,62.5,2|0,0:0|0:0,0:0:0:0:
386,368,13157,2,0,L|323:360,1,62.5,10|0,1:2|0:0,0:0:0:0:
228,376,13344,1,0,1:0:0:0:
231,380,13438,1,0,1:0:0:0:
234,384,13532,6,0,B|244:296|244:296|222:266,1,125,4|2,3:1|0:0,0:0:0:0:
222,266,13813,2,0,L|158:256,1,62.5,0|8,1:0|1:2,0:0:0:0:
111,312,14000,2,0,P|90:289|84:258,1,62.5,0|2,1:0|0:1,0:0:0:0:
116,187,14188,1,0,0:0:0:0:
119,191,14282,1,0,3:0:0:0:
62,58,14469,2,0,L|0:65,1,62.5,2|0,0:0|0:0,0:0:0:0:
126,16,14657,2,0,L|188:22,1,62.5,10|0,1:2|0:0,0:0:0:0:
65,62,14844,2,0,L|3:69,1,62.5,2|0,1:2|0:0,0:0:0:0:
59,157,15032,102,0,B|83:118|133:120|133:120|167:135,1,125,4|2,3:1|0:0,0:0:0:0:
167,135,15313,2,0,L|235:134,1,62.5,0|8,1:0|1:2,0:0:0:0:
298,170,15500,2,0,B|310:140|310:140|302:111,1,62.5,0|2,1:0|0:1,0:0:0:0:
280,36,15688,1,0,0:0:0:0:
283,40,15782,1,0,3:0:0:0:
459,152,15969,2,0,L|441:216,1,62.5,2|0,0:0|0:0,0:0:0:0:
388,124,16157,2,0,L|370:60,1,62.5,10|0,1:2|0:0,0:0:0:0:
419,285,16344,1,0,1:0:0:0:
422,289,16438,1,0,1:0:0:0:
425,293,16532,6,0,B|491:306,2,62.5,4|0|0,3:1|1:0|1:0,0:0:0:0:
344,307,16813,1,0,0:0:0:0:
347,311,16907,2,0,L|279:310,1,62.5,10|0,1:2|0:0,0:0:0:0:
216,346,17094,2,0,B|203:316|203:316|211:287,1,62.5,2|0,0:0|0:0,0:0:0:0:
234,217,17282,1,0,3:0:0:0:
34,282,17469,1,2,0:0:0:0:
123,253,17563,1,2,0:0:0:0:
72,248,17657,1,10,1:2:0:0:
112,380,17844,1,2,0:0:0:0:
106,169,18032,102,2,B|90:85|90:85|107:49,1,125,4|2,3:1|0:0,0:1:0:0:
106,49,18313,2,0,L|167:56,1,62.5,0|8,1:0|1:2,0:0:0:0:
205,129,18500,2,0,P|191:156|189:187,1,62.5,0|2,1:0|0:1,0:0:0:0:
216,261,18688,1,0,0:0:0:0:
219,265,18782,1,0,3:0:0:0:
61,243,18969,2,0,L|0:234,1,62.5,2|0,0:0|0:0,0:0:0:0:
90,307,19157,2,0,L|151:298,1,62.5,10|0,1:2|0:0,0:0:0:0:
401,199,19344,1,0,1:0:0:0:
404,203,19438,1,0,1:0:0:0:
407,207,19532,6,2,B|423:291|423:291|405:326,1,125,4|2,3:1|0:0,0:1:0:0:
405,326,19813,2,0,L|344:319,1,62.5,0|8,1:0|1:2,0:0:0:0:
306,246,20000,2,0,P|320:219|322:188,1,62.5,0|2,1:0|0:1,0:0:0:0:
290,114,20188,1,0,0:0:0:0:
293,118,20282,1,0,3:0:0:0:
448,144,20469,2,0,L|512:152,1,62.5,2|0,0:0|0:0,0:0:0:0:
422,77,20657,2,0,L|360:85,1,62.5,10|0,1:2|0:0,0:0:0:0:
119,41,20844,1,0,1:0:0:0:
122,45,20938,1,0,0:0:0:0:
125,49,21032,102,2,P|140:83|147:119,1,75.0000028610231,12|0,3:1|0:0,0:1:0:0:
116,207,21219,2,0,P|152:199|189:199,1,75.0000028610231,2|0,1:2|0:0,0:0:0:0:
116,207,21407,2,0,P|90:179|72:146,1,75.0000028610231,8|0,1:2|1:0,0:0:0:0:
28,324,21594,2,0,P|55:298|88:280,1,75.0000028610231,2|0,1:0|1:0,0:0:0:0:
332,204,21782,2,0,P|296:192|264:173,1,75.0000028610231,2|0,3:1|1:0,0:0:0:0:
28,324,21969,2,0,P|55:349|88:367,1,75.0000028610231,2|0,1:2|1:0,0:0:0:0:
257,247,22157,2,0,P|264:210|264:173,1,75.0000028610231,8|2,1:2|1:2,0:0:0:0:
173,273,22344,2,0,P|172:310|180:346,1,75.0000028610231,2|2,1:2|1:2,0:0:0:0:
342,336,22532,6,0,L|441:322,2,100,0|0|0,3:0|0:0|0:0,0:0:0:0:
342,336,23657,1,0,0:0:0:0:
256,384,24032,54,0,P|281:247|420:240,1,300,2|0,0:0|0:0,0:0:0:0:
296,264,25532,2,0,P|330:148|218:191,1,300,2|0,0:0|0:0,0:0:0:0:
299,150,27032,2,0,B|138:82|138:82|92:61|113:51|67:30|67:30|33:15,1,300
37,104,28344,1,0,0:0:0:0:
40,107,28532,2,0,P|50:182|52:257,1,150,2|0,0:0|0:0,0:0:0:0:
77,329,29282,2,0,B|115:321|126:277|126:277|120:320|152:343,1,150
22,382,30032,102,0,P|164:300|323:257,1,330.000003147125,2|0,0:2|0:0,0:0:0:0:
511,323,31157,1,0,0:0:0:0:
404,314,31344,1,0,0:0:0:0:
489,344,31532,2,0,B|465:268|373:278|350:336|350:336|336:376|285:388|254:362,1,300,2|0,0:0|0:0,0:0:0:0:
357,366,32844,1,0,0:0:0:0:
359,369,33032,6,0,P|306:291|211:300,1,200
145,337,33969,1,0,0:0:0:0:
147,341,34157,2,0,P|125:351|100:351,1,50
32,327,34532,101,2,0:0:0:0:
91,272,34907,1,0,0:0:0:0:
96,192,35282,1,0,0:0:0:0:
54,123,35657,1,0,0:0:0:0:
60,42,36032,85,4,3:2:0:0:
130,121,36219,2,0,L|180:95,1,50
130,121,36407,2,0,P|173:144|222:152,1,100,8|0,0:0|3:0,0:0:0:0:
292,138,36688,2,0,P|315:130|336:117,1,50
386,13,36969,1,8,0:0:0:0:
337,116,37157,2,0,P|331:140|332:165,1,50,2|0,0:1|0:0,0:0:0:0:
414,232,37344,2,0,L|459:235,2,33.3333333333333,2|2|2,3:2|0:0|0:0,0:0:0:0:
394,231,37532,5,4,3:2:0:0:
333,320,37719,2,0,L|283:294,1,50
333,320,37907,2,0,P|290:343|241:351,1,100,8|0,0:0|3:0,0:0:0:0:
171,337,38188,2,0,P|148:329|127:316,1,50
63,228,38469,1,8,0:0:0:0:
126,315,38657,2,0,P|130:338|129:363,1,50,2|0,0:1|0:0,0:0:0:0:
44,351,38844,2,0,L|41:384,2,33.3333333333333,10|2|2,0:0|0:0|0:0,0:0:0:0:
48,331,39032,101,4,3:2:0:0:
144,237,39219,2,0,L|196:209,1,50
144,237,39407,2,0,P|146:188|167:143,1,100,8|0,0:0|3:0,0:0:0:0:
209,86,39688,2,0,P|218:62|218:38,1,50
21,61,39969,1,10,0:0:0:0:
27,49,40032,1,2,0:0:0:0:
35,39,40094,1,2,0:0:0:0:
47,35,40157,2,0,P|90:57|139:49,1,100,0|0,0:0|3:0,0:0:0:0:
289,0,40532,6,0,P|337:-7|381:14,1,100,2|0,0:0|0:0,0:0:0:0:
465,108,40907,1,0,1:0:0:0:
468,112,41000,2,0,L|419:101,1,50,0|0,0:0|3:0,0:0:0:0:
306,164,41188,1,0,1:0:0:0:
309,168,41281,2,0,L|358:179,1,50,2|0,1:1|0:0,0:0:0:0:
440,248,41469,1,8,0:0:0:0:
257,266,41657,1,0,1:0:0:0:
291,259,41750,1,0,1:0:0:0:
326,266,41844,1,8,0:0:0:0:
357,283,41938,1,0,0:0:0:0:
377,312,42032,101,6,3:2:0:0:
269,355,42219,2,0,L|221:371,1,50
269,355,42407,2,0,P|222:342|181:313,1,100,8|0,0:0|3:0,0:0:0:0:
136,254,42688,2,0,P|119:237|96:227,1,50
25,157,42969,2,0,L|-14:158,2,33.3333333333333,10|2|2,0:0|0:0|0:0,0:0:0:0:
39,168,43157,2,0,P|82:146|131:154,1,100,2|0,0:0|3:0,0:0:0:0:
209,223,43532,5,4,3:2:0:0:
82,60,43719,2,0,L|125:34,1,50
82,60,43907,2,0,P|130:62|176:82,1,100,8|0,0:0|3:0,0:0:0:0:
233,131,44188,2,0,P|253:144|277:149,1,50
430,106,44469,1,2,0:0:0:0:
417,109,44532,1,2,0:0:0:0:
406,115,44594,1,2,0:0:0:0:
395,123,44657,2,0,P|362:158|352:207,1,100,10|0,0:0|3:0,0:0:0:0:
437,384,45032,102,0,P|393:331|341:375,1,150,6|0,3:2|0:0,0:0:0:0:
342,373,45407,6,0,P|339:282|250:313,1,194.999991073609,2|0,1:2|0:0,0:0:0:0:
259,295,45782,102,0,P|317:223|189:200,1,240,2|0,1:2|0:0,0:0:0:0:
214,171,46157,6,0,P|320:121|256:0,1,284.999992389679,6|0,1:2|0:0,0:0:0:0:
255,0,46532,101,2,0:0:0:0:
72,79,47282,69,0,0:0:0:0:
129,239,47657,1,0,0:0:0:0:
304,264,48032,102,0,L|432:246,1,129.999994049073,6|0,3:2|1:0,0:0:0:0:
72,79,48407,2,0,P|92:103|100:134,1,64.9999970245363,8|0,0:0|0:0,0:0:0:0:
129,239,48594,2,0,P|137:270|157:294,1,64.9999970245363
304,264,48782,1,2,3:2:0:0:
368,255,48875,1,2,0:3:0:0:
433,246,48969,1,2,0:3:0:0:
402,234,49063,1,0,3:0:0:0:
371,222,49157,1,8,0:0:0:0:
378,344,49344,1,0,3:0:0:0:
416,132,49532,6,0,P|422:73|435:14,1,120,6|0,3:2|0:0,0:0:0:0:
412,9,49719,102,0,P|418:32|410:56,1,50
274,192,49907,6,0,P|267:132|254:73,1,120,10|0,0:0|0:0,0:0:0:0:
278,68,50094,102,0,P|271:91|279:115,1,50
368,228,50282,6,0,L|431:240,1,64.9999970245363,2|2,3:2|0:3,0:0:0:0:
210,273,50469,1,2,0:3:0:0:
304,295,50563,1,0,3:0:0:0:
251,310,50657,1,8,0:0:0:0:
144,228,50844,2,0,L|80:240,1,64.9999970245363,0|0,3:0|0:0,0:0:0:0:
36,181,51032,102,0,P|91:148|154:156,1,129.999994049073,6|0,3:2|0:0,0:0:0:0:
251,310,51407,2,0,L|263:246,1,64.9999970245363,8|0,0:0|0:0,0:0:0:0:
369,115,51594,2,0,L|432:127,1,64.9999970245363
477,68,51782,6,0,P|421:35|358:43,1,129.999994049073,2|2,3:2|0:3,0:0:0:0:
301,87,52063,1,0,3:0:0:0:
230,105,52157,2,0,P|199:101|174:81,1,64.9999970245363,8|0,0:0|0:0,0:0:0:0:
257,1,52344,1,0,3:0:0:0:
177,211,52532,102,0,P|189:240|184:271,1,64.9999970245363,6|0,3:2|0:0,0:0:0:0:
21,359,52719,2,0,P|39:333|69:321,1,64.9999970245363
251,310,52907,2,0,P|232:335|202:347,1,64.9999970245363,10|0,0:0|0:0,0:0:0:0:
13,298,53094,2,0,P|37:318|69:321,1,64.9999970245363
251,310,53282,6,0,L|331:301,1,64.9999970245363,2|2,3:2|0:0,0:0:0:0:
456,253,53469,1,2,0:1:0:0:
416,368,53563,1,2,3:1:0:0:
389,294,53657,1,10,0:1:0:0:
437,105,53844,1,0,3:0:0:0:
454,246,54032,102,0,L|445:181,1,64.9999970245363,6|0,3:2|0:0,0:0:0:0:
437,105,54219,2,0,L|372:114,1,64.9999970245363,0|0,3:0|0:0,0:0:0:0:
290,57,54407,2,0,L|299:122,1,64.9999970245363,8|0,0:0|0:0,0:0:0:0:
307,194,54594,2,0,L|372:185,1,64.9999970245363,0|0,3:0|0:0,0:0:0:0:
58,242,54782,6,0,L|67:177,1,64.9999970245363,2|0,3:2|0:0,0:0:0:0:
75,105,54969,2,0,L|140:114,1,64.9999970245363,0|0,3:0|0:0,0:0:0:0:
222,57,55157,2,0,L|213:122,1,64.9999970245363,8|0,0:0|0:0,0:0:0:0:
205,194,55344,2,0,L|140:185,1,64.9999970245363,0|0,3:0|0:0,0:0:0:0:
38,316,55532,102,0,P|84:326|127:346,1,94.9999974632264,6|0,3:2|0:0,0:0:0:0:
384,346,55719,2,0,P|427:326|474:316,1,94.9999974632264,0|0,3:0|0:0,0:0:0:0:
90,205,55907,6,0,P|123:226|147:258,1,80,10|0,0:0|0:0,0:0:0:0:
364,258,56094,2,0,P|388:226|422:205,1,80,0|0,3:0|0:0,0:0:0:0:
155,90,56282,102,0,P|169:118|176:150,1,64.9999970245363,2|0,3:2|0:0,0:0:0:0:
335,150,56469,2,0,P|342:119|357:89,1,64.9999970245363,0|0,3:0|0:0,0:0:0:0:
238,33,56657,6,0,L|256:79,1,50,8|0,0:0|0:0,0:0:0:0:
256,80,56844,2,0,L|274:33,1,50,0|0,3:0|0:0,0:0:0:0:
419,37,57032,101,6,3:2:0:0:
373,57,57125,1,0,3:0:0:0:
342,97,57219,1,0,3:0:0:0:
334,146,57313,1,0,3:0:0:0:
350,193,57407,1,8,3:2:0:0:
359,241,57500,1,0,3:0:0:0:
358,291,57594,1,0,3:0:0:0:
331,333,57688,1,0,3:0:0:0:
314,285,57782,5,2,3:2:0:0:
281,323,57876,1,0,3:0:0:0:
231,330,57970,1,0,3:0:0:0:
189,302,58063,1,0,3:0:0:0:
182,252,58157,1,8,3:2:0:0:
206,208,58251,1,0,3:0:0:0:
194,159,58345,1,0,3:0:0:0:
151,134,58438,1,0,3:0:0:0:
102,147,58532,102,0,B|486:167|486:167|493:154,1,400,2|0,3:2|0:0,0:0:0:0:
467,236,59657,1,0,0:0:0:0:
441,19,60032,22,0,L|449:93,1,75.0000028610231,4|0,3:1|0:0,0:0:0:0:
510,306,60219,1,0,1:0:0:0:
476,337,60313,1,0,3:0:0:0:
439,311,60406,1,8,1:2:0:0:
394,302,60500,1,0,1:0:0:0:
394,257,60594,1,2,3:2:0:0:
279,358,60782,1,0,3:0:0:0:
293,315,60875,1,0,1:0:0:0:
256,287,60969,1,0,1:0:0:0:
219,315,61063,1,0,3:0:0:0:
233,358,61156,1,8,1:0:0:0:
231,147,61344,1,2,3:2:0:0:
256,192,61438,1,0,1:0:0:0:
281,147,61532,5,2,3:2:0:0:
118,257,61719,1,0,1:0:0:0:
118,302,61813,1,0,3:0:0:0:
73,311,61907,1,8,1:2:0:0:
36,337,62000,1,0,1:0:0:0:
2,306,62094,1,2,3:2:0:0:
30,199,62282,101,0,3:0:0:0:
35,154,62375,1,0,1:0:0:0:
75,134,62469,1,0,1:0:0:0:
119,142,62563,1,0,3:0:0:0:
196,156,62657,5,8,1:2:0:0:
167,95,62750,1,0,1:0:0:0:
103,70,62844,1,2,3:2:0:0:
35,78,62938,1,0,1:0:0:0:
2,18,63032,101,2,3:2:0:0:
196,5,63219,1,0,1:0:0:0:
235,26,63313,1,0,3:0:0:0:
256,65,63407,1,8,1:2:0:0:
277,26,63500,1,0,1:0:0:0:
316,5,63594,1,2,3:2:0:0:
510,18,63782,1,0,3:0:0:0:
469,36,63875,1,0,1:0:0:0:
428,54,63969,1,0,1:0:0:0:
469,72,64063,1,0,3:0:0:0:
510,90,64156,1,8,1:2:0:0:
337,112,64344,1,2,3:2:0:0:
340,116,64437,1,0,1:0:0:0:
414,139,64531,5,2,3:2:0:0:
389,176,64625,1,0,1:0:0:0:
347,193,64719,1,0,1:0:0:0:
322,230,64813,1,0,3:0:0:0:
280,247,64906,1,8,1:2:0:0:
255,284,65000,1,0,1:0:0:0:
213,301,65094,1,0,3:0:0:0:
188,338,65188,1,0,1:0:0:0:
150,354,65282,101,2,3:2:0:0:
98,323,65375,1,0,1:0:0:0:
99,261,65469,1,0,1:0:0:0:
64,211,65563,1,0,3:0:0:0:
79,153,65656,1,8,1:2:0:0:
74,92,65750,1,0,1:0:0:0:
123,56,65844,1,2,3:2:0:0:
146,0,65938,1,0,1:0:0:0:
207,2,66032,5,4,3:1:0:0:
505,80,66219,1,2,3:2:0:0:
450,38,66313,1,0,1:0:0:0:
420,95,66407,1,8,1:2:0:0:
378,75,66500,1,0,1:0:0:0:
357,110,66594,1,0,3:0:0:0:
152,150,66782,1,0,3:0:0:0:
207,108,66876,1,0,1:0:0:0:
237,165,66970,1,2,3:2:0:0:
279,145,67063,1,0,1:0:0:0:
300,180,67157,1,8,1:2:0:0:
448,170,67344,1,0,3:0:0:0:
385,196,67438,1,2,1:2:0:0:
452,191,67532,101,0,3:0:0:0:
432,291,67719,1,2,3:2:0:0:
387,341,67813,1,0,1:0:0:0:
341,349,67907,1,8,1:2:0:0:
305,326,68000,1,0,1:0:0:0:
300,300,68094,1,0,3:0:0:0:
209,194,68282,1,0,3:0:0:0:
204,168,68376,1,0,1:0:0:0:
168,145,68469,1,2,3:2:0:0:
122,153,68563,1,0,1:0:0:0:
77,203,68657,1,8,1:2:0:0:
215,85,68844,2,0,P|181:69|144:71,1,75.0000028610231,0|2,3:0|0:2,0:0:0:0:
59,284,69032,5,0,3:0:0:0:
102,342,69125,1,0,3:0:0:0:
172,347,69219,1,2,3:2:0:0:
216,315,69313,1,0,3:0:0:0:
245,292,69407,1,8,3:2:0:0:
272,289,69500,1,0,3:0:0:0:
291,299,69594,1,2,3:2:0:0:
296,312,69688,1,0,3:0:0:0:
295,322,69782,101,0,3:0:0:0:
314,314,69875,1,0,3:0:0:0:
339,315,69969,1,2,3:2:0:0:
367,327,70063,1,0,3:0:0:0:
382,356,70157,1,8,3:2:0:0:
375,314,70250,1,0,3:0:0:0:
401,266,70344,1,2,3:2:0:0:
446,217,70438,1,0,3:0:0:0:
451,148,70532,5,2,3:0:0:0:
281,97,70813,1,2,3:0:0:0:
106,42,71094,1,2,3:0:0:0:
33,92,71282,102,0,B|220:55|220:55|161:35,1,225.000008583069,2|0,3:0|0:0,0:0:0:0:
32,18,71657,1,6,3:2:0:0:
54,164,71844,1,2,0:3:0:0:
18,384,72032,70,0,B|43:368|43:368|60:269,1,129.999994049073,6|2,3:1|0:0,0:0:0:0:
85,239,72282,101,0,0:0:0:0:
111,234,72344,5,0,0:0:0:0:
125,241,72407,101,8,0:1:0:0:
257,135,72594,1,0,0:0:0:0:
368,351,72782,2,0,B|361:379|361:379|330:283,1,129.999994049073,2|2,3:1|0:0,0:0:0:0:
276,217,73063,1,2,0:0:0:0:
341,258,73157,1,8,0:1:0:0:
272,349,73344,1,0,0:0:0:0:
257,135,73532,6,0,B|393:152,1,129.999994049073,2|2,3:1|0:0,0:0:0:0:
475,96,73782,101,0,0:0:0:0:
445,115,73844,5,0,0:0:0:0:
409,116,73907,102,0,P|365:72|271:82,1,129.999994049073,8|0,0:1|0:0,0:0:0:0:
459,205,74282,1,2,3:1:0:0:
215,65,74469,2,0,L|229:128,1,64.9999970245363,2|2,0:0|0:0,0:0:0:0:
260,0,74657,1,8,0:1:0:0:
77,284,74844,2,0,L|144:270,1,64.9999970245363,2|0,0:1|0:0,0:0:0:0:
188,259,75032,5,2,3:1:0:0:
106,62,75219,101,2,0:0:0:0:
74,114,75282,5,0,0:0:0:0:
87,156,75344,101,0,0:0:0:0:
105,167,75407,5,8,0:1:0:0:
260,0,75594,1,0,0:0:0:0:
327,195,75782,102,0,B|418:148|418:148|393:190,1,129.999994049073,2|2,3:1|0:0,0:0:0:0:
389,243,76063,1,2,0:0:0:0:
324,169,76157,2,0,L|193:149,1,129.999994049073,8|0,0:1|0:0,0:0:0:0:
400,13,76532,1,2,3:1:0:0:
124,93,76719,1,2,0:0:0:0:
362,243,76907,1,8,0:1:0:0:
195,287,77094,1,2,0:0:0:0:
309,381,77282,5,2,3:1:0:0:
392,158,77469,1,2,0:2:0:0:
311,179,77563,1,2,0:2:0:0:
411,179,77657,1,8,0:1:0:0:
351,22,77844,1,2,0:1:0:0:
273,20,78032,102,0,B|254:34|254:34|137:22,1,129.999994049073,2|2,3:1|0:0,0:0:0:0:
75,36,78282,5,0,0:0:0:0:
40,75,78344,101,0,0:0:0:0:
40,108,78407,5,8,0:1:0:0:
178,288,78594,1,0,0:0:0:0:
119,128,78782,2,0,L|91:270,1,129.999994049073,2|2,3:1|0:0,0:0:0:0:
74,349,79063,1,2,0:0:0:0:
56,270,79157,1,8,0:1:0:0:
38,191,79344,1,0,0:3:0:0:
77,367,79532,102,0,P|105:310|159:275,1,129.999994049073,2|2,3:1|0:0,0:0:0:0:
276,222,79782,5,0,0:0:0:0:
284,258,79844,101,0,0:0:0:0:
264,290,79907,6,0,L|136:317,1,129.999994049073,8|0,0:1|0:0,0:0:0:0:
365,292,80282,1,2,3:1:0:0:
357,330,80375,1,0,0:0:0:0:
348,368,80469,1,2,0:0:0:0:
512,264,80657,2,0,P|480:271|448:274,1,64.9999970245363,8|0,0:1|0:0,0:0:0:0:
317,46,80844,2,0,P|348:38|380:35,1,64.9999970245363,2|0,0:1|0:0,0:0:0:0:
477,167,81032,102,0,L|347:158,1,129.999994049073,2|2,3:1|0:0,0:0:0:0:
280,187,81282,5,0,0:0:0:0:
237,153,81344,101,0,0:0:0:0:
205,148,81407,5,10,0:1:0:0:
106,324,81594,1,0,0:0:0:0:
81,37,81782,2,0,B|105:138|105:138|101:163,1,129.999994049073,2|2,3:1|0:0,0:0:0:0:
32,206,82063,1,2,0:0:0:0:
115,188,82157,1,10,0:1:0:0:
192,222,82344,1,2,0:0:0:0:
291,384,82532,37,2,0:0:0:0:
362,364,82719,2,0,L|385:356,3,25.0000009536744
386,356,83282,6,0,L|389:319,1,37.5000014305115
417,324,83469,102,0,L|412:280,1,37.5000014305115,2|2,0:0|0:0,0:0:0:0:
344,280,83657,6,0,L|367:226,1,37.5000014305115,2|0,0:0|0:0,0:0:0:0:
460,258,83844,102,0,L|450:221,1,37.5000014305115
325,161,84032,54,0,B|377:183|411:142|411:142|445:99|494:118,1,189.999994926453,6|2,3:1|0:0,0:0:0:0:
424,95,84282,1,0,0:0:0:0:
424,95,84344,1,0,0:0:0:0:
424,95,84407,2,0,L|268:71,1,145.000004425049,10|0,0:1|0:0,0:0:0:0:
36,171,84782,2,0,B|95:162|95:162|114:148|114:148|175:138,1,145.000004425049,2|2,3:1|0:0,0:0:0:0:
250,146,85063,1,2,0:0:0:0:
166,128,85157,2,0,B|11:253|11:253|52:178,1,284.999992389679,10|0,0:1|0:0,0:0:0:0:
73,78,85532,6,0,B|53:41|82:48|64:8,1,72.5000022125245,2|0,3:1|0:0,0:0:0:0:
149,263,85719,2,0,L|196:269,2,48.3333348083497,2|0|0,0:0|0:0|0:0,0:0:0:0:
130,280,85907,2,0,P|132:347|198:384,1,145.000004425049,10|0,0:1|0:0,0:0:0:0:
440,197,86282,2,0,P|410:177|373:177,1,72.5000022125245,2|0,3:1|0:0,0:0:0:0:
280,284,86469,2,0,P|260:313|260:351,1,72.5000022125245,2|2,0:0|0:0,0:0:0:0:
459,348,86657,2,0,B|435:410|354:398|337:338|337:338|399:321|410:275|388:250,1,284.999992389679,10|0,0:1|0:0,0:0:0:0:
307,212,87032,102,0,L|137:177,1,145.000004425049,2|2,3:1|0:0,0:0:0:0:
253,154,87282,1,0,0:0:0:0:
253,154,87344,1,0,0:0:0:0:
253,154,87407,2,0,B|235:176|235:176|367:158,1,145.000004425049,8|0,0:1|0:1,0:0:0:0:
464,14,87782,2,0,L|386:25,1,72.5000022125245,2|0,3:1|0:0,0:0:0:0:
414,239,87969,1,2,0:0:0:0:
410,217,88063,1,2,0:0:0:0:
419,198,88157,2,0,B|445:150|412:113|412:113|433:60|392:23,1,189.999994926453,8|10,0:1|0:1,0:0:0:0:
500,201,88532,6,0,P|427:239|378:304,1,165.000001573563,10|8,3:1|0:1,0:0:0:0:
362,378,88782,1,0,0:0:0:0:
362,378,88844,1,0,0:0:0:0:
362,378,88907,2,0,P|397:383|428:366,1,72.5000022125245,10|0,0:1|0:0,0:0:0:0:
502,361,89094,2,0,P|494:326|466:303,1,72.5000022125245,8|0,0:1|0:1,0:0:0:0:
332,234,89282,102,0,L|264:261,1,72.5000022125245,10|0,3:1|0:0,0:0:0:0:
126,322,89469,1,8,0:1:0:0:
196,347,89563,1,8,0:1:0:0:
113,340,89657,1,8,0:1:0:0:
76,126,89844,1,8,0:1:0:0:
135,171,90032,6,0,B|181:200|181:200|269:181,1,145.000004425049,6|2,3:1|0:0,0:0:0:0:
350,163,90282,1,0,0:0:0:0:
350,163,90344,1,0,0:0:0:0:
350,163,90407,2,0,B|394:105|394:105|429:178,1,145.000004425049,10|0,0:1|0:0,0:0:0:0:
283,325,90782,2,0,L|270:180,1,145.000004425049,2|2,3:1|0:0,0:0:0:0:
283,98,91063,1,2,0:0:0:0:
286,102,91157,2,0,B|235:85|204:133|204:133|175:176|121:161,1,189.999994926453,10|0,0:1|0:0,0:0:0:0:
36,289,91532,102,0,P|104:271|168:302,1,145.000004425049,2|2,3:1|0:0,0:0:0:0:
243,338,91782,1,0,0:0:0:0:
243,338,91844,1,0,0:0:0:0:
243,338,91907,2,0,L|386:318,1,145.000004425049,10|0,0:1|0:0,0:0:0:0:
206,130,92282,2,0,L|349:149,1,145.000004425049,2|2,3:1|0:0,0:0:0:0:
427,161,92563,1,2,0:0:0:0:
358,181,92657,1,10,0:1:0:0:
455,20,92844,1,0,0:0:0:0:
468,225,93032,6,0,B|458:340|458:340|436:361,1,145.000004425049,2|2,3:1|0:0,0:0:0:0:
388,305,93282,1,0,0:0:0:0:
388,305,93344,1,0,0:0:0:0:
388,305,93407,2,0,L|223:335,1,145.000004425049,8|0,0:1|0:0,0:0:0:0:
31,69,93782,2,0,B|41:184|41:184|63:205,1,145.000004425049,2|2,3:1|0:0,0:0:0:0:
111,149,94063,1,2,0:0:0:0:
114,153,94157,2,0,L|279:183,1,145.000004425049,8|2,0:1|0:1,0:0:0:0:
480,76,94532,102,0,L|483:34,6,25,2|0|0|0|0|0|0,0:1|0:0|0:0|0:0|0:0|0:0|0:0,0:0:0:0:
388,71,94907,2,0,L|391:113,6,25,0|0|0|0|0|0|0,0:0|0:0|0:0|0:0|3:0|0:0|0:0,0:0:0:0:
316,26,95282,1,8,0:1:0:0:
132,77,95469,1,8,0:1:0:0:
135,81,95563,1,8,0:1:0:0:
138,85,95657,1,12,0:1:0:0:
201,43,96032,86,0,B|244:16|244:16|187:204|187:204|166:155,1,300.000011444092,2|4,0:0|3:1,0:0:0:0:
6,313,96594,1,0,0:0:0:0:
9,317,96688,2,0,L|57:269,1,50,0|2,1:0|3:1,0:0:0:0:
94,234,96875,2,0,L|142:282,1,50,0|0,1:0|0:0,0:0:0:0:
183,316,97063,2,0,L|231:268,1,50,0|8,1:0|0:0,0:0:0:0:
265,229,97250,1,0,1:0:0:0:
268,233,97344,2,0,L|316:281,1,50,0|0,1:0|0:0,0:0:0:0:
357,315,97532,6,0,L|405:267,1,50,2|0,3:1|0:0,0:0:0:0:
439,226,97719,2,0,L|391:178,1,50,0|0,1:0|0:0,0:0:0:0:
357,137,97907,2,0,L|405:89,1,50,8|0,1:2|0:0,0:0:0:0:
439,48,98094,2,0,L|391:0,1,50,0|0,1:0|0:0,0:0:0:0:
389,97,98282,1,2,3:1:0:0:
392,101,98375,2,0,L|357:137,1,50,0|0,1:0|0:0,0:0:0:0:
305,188,98563,2,0,L|269:152,1,50,0|8,1:0|0:0,0:0:0:0:
215,99,98750,1,0,1:0:0:0:
218,103,98844,2,0,L|182:138,1,50,0|0,1:0|0:0,0:0:0:0:
130,189,99032,101,2,3:1:0:0:
130,189,99407,1,8,0:0:0:0:
136,261,99594,1,0,0:0:0:0:
139,265,99688,2,0,L|174:300,1,50,0|2,1:0|3:1,0:0:0:0:
231,342,99876,2,0,L|266:306,1,50,0|0,1:0|0:0,0:0:0:0:
317,259,100063,2,0,L|281:223,1,50,0|8,1:0|0:0,0:0:0:0:
231,167,100250,1,0,1:0:0:0:
234,171,100344,2,0,L|269:135,1,50,0|0,1:0|0:0,0:0:0:0:
321,87,100532,6,0,L|357:123,1,50,2|0,3:1|0:0,0:0:0:0:
408,169,100719,1,0,1:0:0:0:
411,173,100813,2,0,L|446:137,1,50,0|8,1:0|0:0,0:0:0:0:
493,85,101000,1,0,1:0:0:0:
496,89,101094,1,0,1:0:0:0:
248,63,101282,101,2,3:1:0:0:
180,78,101469,1,0,1:0:0:0:
112,93,101657,1,8,1:2:0:0:
44,108,101844,1,0,1:0:0:0:
95,180,102032,6,0,B|139:284|139:284|73:386|73:386|50:324,1,300.000011444092,0|8,3:0|0:0,0:0:0:0:
192,224,102594,1,0,0:0:0:0:
195,228,102688,2,0,L|174:179,1,50,0|2,1:0|3:1,0:0:0:0:
146,118,102875,2,0,L|195:97,1,50,0|0,1:0|0:0,0:0:0:0:
245,37,103063,2,0,L|264:82,1,50,0|8,1:0|0:2,0:0:0:0:
238,151,103250,1,0,1:0:0:0:
241,155,103344,2,0,L|260:200,1,50,0|0,1:0|0:0,0:0:0:0:
294,263,103532,102,0,L|343:242,1,50,2|0,3:1|0:0,0:0:0:0:
402,211,103719,2,0,L|421:256,1,50,0|0,1:0|0:0,0:0:0:0:
373,308,103907,2,0,L|327:327,1,50,8|0,1:2|0:0,0:0:0:0:
442,327,104094,2,0,L|487:307,1,50,0|0,1:0|0:0,0:0:0:0:
418,252,104282,1,2,3:1:0:0:
422,257,104375,2,0,L|402:211,1,50,0|0,1:0|0:0,0:0:0:0:
367,149,104563,2,0,L|322:169,1,50,0|8,1:0|0:2,0:0:0:0:
282,106,104750,1,0,1:0:0:0:
285,110,104844,2,0,L|265:64,1,50,0|0,1:0|0:0,0:0:0:0:
233,0,105032,5,2,3:1:0:0:
233,0,105407,1,8,0:0:0:0:
188,61,105594,101,0,0:0:0:0:
191,65,105688,2,0,L|132:45,1,50,0|2,1:0|3:1,0:0:0:0:
77,25,105875,2,0,L|57:84,1,50,0|0,1:0|0:0,0:0:0:0:
36,139,106063,2,0,L|95:159,1,50,0|8,1:0|0:2,0:0:0:0:
152,177,106250,1,0,1:0:0:0:
155,181,106344,2,0,L|135:240,1,50,0|0,1:0|0:0,0:0:0:0:
120,296,106532,6,0,L|179:316,1,50,2|0,3:1|0:0,0:0:0:0:
233,334,106719,1,0,1:0:0:0:
236,338,106813,2,0,L|256:279,1,50,0|8,1:0|0:0,0:0:0:0:
217,224,107000,1,0,1:0:0:0:
220,228,107094,2,0,L|240:169,1,50,0|0,1:0|0:0,0:0:0:0:
303,202,107282,2,0,L|362:222,1,50,2|0,3:1|0:0,0:0:0:0:
287,127,107469,2,0,L|239:110,1,50,0|0,1:0|0:0,0:0:0:0:
462,55,107657,1,12,0:1:0:0:
462,55,108032,102,0,B|399:17|399:17|366:176|366:176|418:212,2,300.000011444092,2|8|2,0:0|0:0|3:1,0:0:0:0:
453,136,108875,2,0,L|494:164,1,50,0|0,1:0|0:0,0:0:0:0:
490,235,109063,2,0,L|461:276,1,50,0|8,1:0|0:2,0:0:0:0:
393,297,109250,1,0,1:0:0:0:
396,301,109344,2,0,L|354:272,1,50,0|0,1:0|0:0,0:0:0:0:
313,330,109532,6,2,L|284:371,1,50,2|0,3:1|0:0,0:1:0:0:
228,328,109719,2,0,L|186:299,1,50,0|0,1:0|0:0,0:0:0:0:
227,241,109907,2,0,L|255:199,1,50,8|0,1:2|0:0,0:0:0:0:
197,160,110094,2,0,L|168:201,1,50,0|0,1:0|0:0,0:0:0:0:
123,254,110282,1,2,3:1:0:0:
126,258,110375,2,2,L|84:229,1,50,0|0,1:0|0:0,0:1:0:0:
27,187,110563,2,0,L|-1:228,1,50,0|8,1:0|0:2,0:0:0:0:
40,285,110750,1,0,1:0:0:0:
43,289,110844,2,0,L|84:317,1,50,0|0,1:0|0:0,0:0:0:0:
140,362,111032,101,8,1:2:0:0:
140,362,111407,1,8,0:2:0:0:
209,356,111593,1,0,0:0:0:0:
212,361,111688,2,0,L|216:283,1,50,0|2,1:0|3:1,0:0:0:0:
285,316,111875,2,0,L|363:320,1,50,0|0,1:0|0:0,0:0:0:0:
512,277,112063,2,0,L|462:274,1,50,0|8,1:0|0:2,0:0:0:0:
388,270,112250,1,0,1:0:0:0:
391,274,112344,2,0,L|395:196,1,50,0|0,1:0|0:0,0:0:0:0:
397,153,112532,6,2,L|401:75,1,50,2|0,3:1|0:0,0:1:0:0:
317,194,112719,1,0,1:0:0:0:
320,198,112813,2,0,L|316:276,1,50,0|8,1:0|0:2,0:0:0:0:
327,317,113000,1,0,1:0:0:0:
330,321,113094,2,0,L|252:317,1,50,0|0,1:0|0:0,0:0:0:0:
84,317,113282,101,2,3:1:0:0:
99,249,113469,1,0,1:0:0:0:
114,181,113657,1,8,1:2:0:0:
129,113,113844,1,0,1:0:0:0:
144,45,114032,86,0,L|132:-3,7,50,2|0|0|0|8|0|0|0,3:1|0:0|0:0|0:0|0:0|0:0|0:0|0:0,0:0:0:0:
178,241,114782,2,0,L|166:289,7,50,2|0|0|0|8|0|0|0,3:1|0:0|0:0|0:0|0:0|0:0|0:0|0:0,0:0:0:0:
224,63,115532,6,0,L|212:15,3,50,2|0|0|0,3:1|1:0|1:0|1:0,0:0:0:0:
293,51,115907,2,0,L|281:3,3,50,8|0|0|0,1:2|0:0|0:0|0:0,0:0:0:0:
271,204,116282,2,0,L|259:252,3,50,2|0|0|0,3:1|1:0|1:0|1:0,0:0:0:0:
340,216,116657,2,0,L|328:264,3,50,8|0|0|0,1:2|0:0|0:0|0:0,0:0:0:0:
390,62,117032,101,2,3:1:0:0:
399,64,117125,1,0,1:0:0:0:
408,67,117219,1,0,1:0:0:0:
417,69,117313,1,0,1:0:0:0:
426,72,117407,2,0,L|414:24,3,50,8|0|0|0,1:2|1:0|1:0|0:0,0:0:0:0:
435,153,117782,5,2,3:1:0:0:
426,151,117875,1,0,1:0:0:0:
417,148,117969,1,0,1:0:0:0:
408,146,118063,1,0,1:0:0:0:
399,143,118157,2,0,L|411:191,3,50,8|0|0|0,1:2|1:0|1:0|0:0,0:0:0:0:
478,232,118532,101,2,3:1:0:0:
486,250,118625,1,0,1:0:0:0:
487,269,118719,1,0,1:0:0:0:
479,287,118813,1,0,1:0:0:0:
464,300,118907,2,0,L|412:292,1,50,8|0,1:2|1:0,0:0:0:0:
434,368,119094,2,0,L|382:360,1,50,0|0,1:0|1:0,0:0:0:0:
341,276,119282,5,2,3:1:0:0:
298,250,119375,1,0,1:0:0:0:
248,254,119469,1,0,1:0:0:0:
207,283,119563,1,0,1:0:0:0:
193,331,119657,2,0,L|200:380,1,50,8|0,1:2|1:0,0:0:0:0:
113,315,119844,2,0,L|120:364,1,50,0|0,1:0|1:0,0:0:0:0:
0,239,120032,102,2,P|36:231|72:221,1,75.0000028610231,4|0,3:2|0:0,0:1:0:0:
192,64,120219,1,0,1:3:0:0:
154,37,120313,1,0,1:0:0:0:
120,67,120407,1,8,1:2:0:0:
79,86,120500,1,0,1:0:0:0:
88,131,120594,1,2,1:1:0:0:
88,253,120782,1,2,3:2:0:0:
79,298,120876,1,0,1:0:0:0:
120,317,120969,1,0,1:0:0:0:
154,347,121063,1,0,1:0:0:0:
192,320,121157,1,8,1:2:0:0:
171,143,121344,1,0,1:0:0:0:
174,147,121438,1,0,1:0:0:0:
177,151,121532,5,0,3:0:0:0:
183,237,121719,1,0,1:0:0:0:
226,248,121813,1,0,1:0:0:0:
268,232,121907,1,8,1:2:0:0:
310,216,122000,1,0,1:0:0:0:
353,227,122094,1,2,1:1:0:0:
493,50,122282,1,2,3:2:0:0:
450,61,122376,1,0,1:0:0:0:
408,45,122470,1,0,1:0:0:0:
366,29,122563,1,0,1:0:0:0:
323,40,122657,1,8,1:2:0:0:
318,84,122750,1,0,1:0:0:0:
341,122,122844,1,0,1:0:0:0:
382,140,122937,1,0,1:0:0:0:
423,159,123031,101,0,3:0:0:0:
321,364,123219,1,0,1:0:0:0:
334,320,123313,1,0,1:0:0:0:
344,276,123407,1,8,1:2:0:0:
387,285,123500,1,0,1:0:0:0:
430,297,123594,1,2,1:1:0:0:
272,214,123782,1,2,3:2:0:0:
259,170,123876,1,0,1:0:0:0:
249,126,123970,1,0,1:0:0:0:
206,135,124063,1,0,1:0:0:0:
163,147,124157,1,8,1:2:0:0:
30,40,124344,1,0,1:0:0:0:
33,44,124438,1,0,1:0:0:0:
105,27,124532,5,0,3:0:0:0:
100,71,124625,1,0,1:0:0:0:
75,109,124719,1,0,1:0:0:0:
70,153,124813,1,0,1:0:0:0:
43,189,124907,1,8,1:2:0:0:
71,224,125000,1,0,1:0:0:0:
80,269,125094,1,2,1:1:0:0:
107,303,125188,1,0,1:0:0:0:
128,360,125282,101,2,3:2:0:0:
161,308,125375,1,0,1:0:0:0:
219,289,125469,1,0,1:0:0:0:
245,233,125563,1,0,1:0:0:0:
304,218,125657,1,8,1:2:0:0:
350,178,125750,1,0,1:0:0:0:
407,200,125844,1,0,1:0:0:0:
468,195,125938,1,0,1:0:0:0:
500,247,126032,5,4,3:1:0:0:
316,375,126219,1,0,1:0:0:0:
359,320,126313,1,0,1:0:0:0:
307,276,126407,1,8,1:2:0:0:
330,249,126500,1,0,1:0:0:0:
300,207,126594,1,2,1:1:0:0:
148,60,126782,1,2,3:2:0:0:
105,115,126876,1,0,1:0:0:0:
157,159,126970,1,0,1:0:0:0:
134,186,127063,1,0,1:0:0:0:
164,228,127157,1,8,1:2:0:0:
296,97,127344,1,2,1:1:0:0:
368,75,127438,1,0,1:0:0:0:
296,76,127532,101,2,3:2:0:0:
429,176,127719,1,0,1:0:0:0:
426,198,127813,1,0,1:0:0:0:
404,228,127907,1,8,1:2:0:0:
358,242,128000,1,0,1:0:0:0:
300,207,128094,1,2,1:1:0:0:
215,87,128282,1,2,3:2:0:0:
157,52,128376,1,0,1:0:0:0:
111,66,128469,1,0,1:0:0:0:
89,96,128563,1,0,1:0:0:0:
86,118,128657,1,8,1:2:0:0:
57,342,128844,2,0,P|94:348|130:338,1,75.0000028610231,2|0,1:1|0:0,0:0:0:0:
162,152,129032,5,2,3:2:0:0:
104,198,129125,1,0,1:0:0:0:
43,212,129219,1,2,1:1:0:0:
95,215,129313,1,0,1:0:0:0:
128,232,129407,1,10,3:2:0:0:
149,257,129500,1,0,1:0:0:0:
166,278,129594,1,2,1:1:0:0:
188,285,129688,1,0,1:0:0:0:
201,282,129782,101,2,3:2:0:0:
218,263,129875,1,0,1:0:0:0:
224,231,129969,1,2,1:1:0:0:
217,190,130063,1,0,1:0:0:0:
231,144,130157,1,10,3:2:0:0:
283,117,130250,1,0,1:0:0:0:
325,65,130344,1,2,1:1:0:0:
306,131,130438,1,0,1:0:0:0:
302,205,130532,5,0,3:0:0:0:
123,231,130907,102,0,B|106:263|42:284|7:234|43:175|114:227|120:273|109:301|92:327,1,226.66667098999,0|0,1:0|0:0,0:0:0:0:
141,148,131282,5,8,1:2:0:0:
53,158,131407,101,0,1:0:0:0:
160,164,131532,5,0,1:0:0:0:
102,33,131657,101,8,1:0:0:0:
92,326,132032,69,4,0:0:0:0:
387,278,132782,102,0,P|421:293|460:291,2,75.0000028610231,8|0|2,0:0|3:0|0:0,0:0:0:0:
297,344,133344,1,0,0:0:0:0:
300,348,133532,2,0,B|297:393|347:348|298:268|255:240,1,150.000005722046,4|2,3:2|0:0,0:0:0:0:
174,217,134094,1,0,3:0:0:0:
41,228,134282,2,0,L|96:224,1,37.5000014305115,8|0,0:1|0:0,0:0:0:0:
78,225,134657,2,0,P|81:170|72:114,1,112.500004291535,2|0,3:2|0:0,0:0:0:0:
77,31,135032,6,0,B|131:60|131:60|142:87|142:87|197:121,2,150.000005722046,2|0|8,3:2|0:0|1:1,0:0:0:0:
206,39,135907,2,0,L|255:39,1,50.0000019073487,0|0,1:0|1:0,0:0:0:0:
320,89,136157,1,0,1:0:0:0:
323,93,136282,2,0,L|372:93,1,50.0000019073487,0|0,1:0|1:0,0:0:0:0:
471,98,136532,102,0,P|400:117|370:183,1,150.000005722046,2|0,3:2|0:0,0:0:0:0:
373,262,137094,1,0,3:0:0:0:
376,266,137282,2,0,B|333:255|311:293|311:293|289:330|247:315,2,150.000005722046,8|4|6,0:1|0:3|3:2,0:0:0:0:
376,266,138594,6,2,B|395:278|395:278|466:248,1,75.0000028610231,0|0,0:0|3:0,0:1:0:0:
325,342,138969,1,8,0:1:0:0:
248,315,139157,2,0,L|229:309,2,18.7500007152558
327,347,139344,1,0,0:0:0:0:
288,222,139532,102,0,B|300:172|300:172|318:154|318:154|332:82,1,150.000005722046,2|0,3:2|0:0,0:0:0:0:
332,82,140000,1,0,0:0:0:0:
332,82,140094,1,0,3:0:0:0:
246,113,140282,1,8,0:1:0:0:
159,82,140657,1,0,3:0:0:0:
83,105,140844,1,8,0:1:0:0:
162,86,141032,2,0,L|156:56,14,18.7500007152558,6|0|0|0|0|0|0|0|0|0|0|0|0|0|0,3:2|0:0|0:0|0:0|0:0|0:0|0:0|0:0|0:0|0:0|0:0|0:0|0:0|0:0|0:0,0:0:0:0:
163,161,141782,5,8,0:1:0:0:
2,125,141969,1,2,0:0:0:0:
23,272,142157,1,2,0:0:0:0:
101,244,142344,1,0,0:0:0:0:
209,309,142532,102,0,P|195:274|196:237,1,75.0000028610231,2|0,3:2|0:0,0:0:0:0:
315,146,142907,2,0,P|316:109|303:75,1,75.0000028610231,2|0,0:0|3:0,0:0:0:0:
209,74,143282,2,0,P|195:109|196:146,1,75.0000028610231,10|0,0:1|0:0,0:0:0:0:
315,237,143657,2,0,P|316:274|303:309,1,75.0000028610231,2|0,3:1|0:0,0:0:0:0:
338,377,144032,86,0,B|388:370|388:370|409:349|409:349|507:335,1,179.999994506836,6|0,3:2|0:0,0:0:0:0:
507,335,144407,2,0,B|491:350|491:350|510:253,1,119.999996337891,8|0,0:0|0:0,0:0:0:0:
448,202,144688,1,0,1:0:0:0:
451,206,144782,2,0,L|391:212,1,59.9999981689454,0|0,1:0|1:0,0:0:0:0:
498,149,144969,1,0,1:0:0:0:
305,39,145157,1,2,0:0:0:0:
401,98,145344,1,2,0:0:0:0:
392,102,145407,1,2,0:0:0:0:
383,106,145469,1,2,0:0:0:0:
374,111,145532,6,0,B|332:128|299:89|299:89|266:49|212:72,1,179.999994506836,2|0,3:2|0:0,0:0:0:0:
199,85,145907,1,8,0:0:0:0:
179,217,146094,1,0,3:0:0:0:
202,207,146188,1,0,1:0:0:0:
221,191,146282,1,0,1:0:0:0:
236,171,146375,1,0,1:0:0:0:
246,148,146469,1,0,1:0:0:0:
29,30,146657,1,10,0:0:0:0:
58,141,146844,1,2,0:0:0:0:
66,135,146907,1,2,0:0:0:0:
75,131,146969,1,2,0:0:0:0:
83,124,147032,102,0,P|71:207|62:308,1,179.999994506836,2|0,3:2|0:0,0:0:0:0:
62,303,147407,2,0,P|102:239|27:233,1,179.999994506836,8|0,0:0|1:0,0:0:0:0:
15,357,147782,2,0,P|41:373|70:375,1,59.9999981689454,0|0,1:0|1:0,0:0:0:0:
183,345,147969,1,2,1:2:0:0:
192,347,148032,1,2,0:0:0:0:
202,347,148094,1,2,0:0:0:0:
211,349,148157,2,0,B|304:331|304:331|263:323,1,119.999996337891,10|2,0:0|0:0,0:0:0:0:
370,375,148532,6,0,P|310:312|313:225,1,179.999994506836,6|0,3:2|0:0,0:0:0:0:
349,151,148907,2,0,B|366:160|368:178|368:178|359:168|349:163,1,59.9999981689454,8|0,0:0|0:0,0:0:0:0:
213,257,149094,1,0,3:0:0:0:
216,261,149188,1,0,1:0:0:0:
219,265,149282,2,0,L|145:269,1,59.9999981689454,2|0,1:2|1:0,0:0:0:0:
75,275,149469,1,0,1:0:0:0:
207,97,149657,2,0,P|223:71|229:42,1,59.9999981689454,8|0,0:0|0:0,0:0:0:0:
229,42,150032,102,0,B|258:92|258:92|316:71,1,119.999996337891,2|0,3:2|1:0,0:0:0:0:
512,42,150407,2,0,L|442:27,1,59.9999981689454,8|0,0:0|0:0,0:0:0:0:
373,17,150594,1,0,1:0:0:0:
376,21,150688,1,0,1:0:0:0:
379,25,150782,2,0,L|394:83,1,59.9999981689454,0|0,1:0|1:0,0:0:0:0:
438,219,150969,1,2,1:2:0:0:
442,210,151032,1,2,0:0:0:0:
445,200,151094,1,2,0:0:0:0:
446,189,151157,2,0,P|386:125|299:117,1,179.999994506836,10|0,0:0|0:0,0:0:0:0:
174,160,151532,6,0,L|54:167,1,119.999996337891,2|0,3:2|0:0,0:0:0:0:
238,235,151907,2,0,P|244:205|251:176,1,59.9999981689454,8|0,0:0|0:0,0:0:0:0:
118,19,152094,1,0,3:0:0:0:
121,23,152188,1,0,1:0:0:0:
124,27,152282,2,0,P|117:56|110:85,1,59.9999981689454,0|0,1:0|1:0,0:0:0:0:
169,269,152469,1,2,1:2:0:0:
164,259,152532,1,2,0:0:0:0:
161,250,152594,1,2,0:0:0:0:
160,240,152657,102,0,B|261:259|261:259|282:291|282:291|379:308,1,240,10|0,0:0|0:0,0:0:0:0:
452,320,153032,6,0,P|462:292|466:262,1,59.9999981689454,2|0,3:2|1:2,0:0:0:0:
412,181,153219,2,0,P|384:170|354:166,1,59.9999981689454,0|0,1:2|1:2,0:0:0:0:
452,320,153407,2,0,P|479:330|509:334,1,59.9999981689454,10|0,1:2|1:2,0:0:0:0:
488,188,153594,2,0,P|498:160|502:130,1,59.9999981689454,0|0,1:2|1:2,0:0:0:0:
365,251,153782,2,0,P|368:280|379:308,1,59.9999981689454,2|0,1:2|1:2,0:0:0:0:
397,99,153969,2,0,P|385:71|366:48,1,59.9999981689454,0|0,1:2|1:2,0:0:0:0:
271,176,154157,2,0,P|259:203|254:233,1,59.9999981689454,10|0,1:2|1:2,0:0:0:0:
271,176,154344,2,0,P|266:146|254:118,1,59.9999981689454,0|0,1:2|1:2,0:0:0:0:
185,168,154532,101,2,0:0:0:0:
57,333,155282,69,0,0:0:0:0:
126,129,155657,1,0,0:0:0:0:
342,147,156032,102,0,L|471:160,1,129.999994049073,6|0,3:2|0:0,0:0:0:0:
57,332,156407,2,0,P|68:302|69:270,1,64.9999970245363,8|0,0:0|0:0,0:0:0:0:
126,129,156594,2,0,P|156:117|188:116,1,64.9999970245363
342,147,156782,1,2,3:2:0:0:
406,175,156875,1,2,0:3:0:0:
472,153,156969,1,2,0:3:0:0:
441,179,157063,1,0,3:0:0:0:
429,217,157157,1,8,0:0:0:0:
411,56,157344,1,0,3:0:0:0:
356,346,157532,6,0,P|352:286|346:226,1,120,2|0,3:2|0:0,0:0:0:0:
309,217,157719,102,0,P|328:232|339:254,1,50
192,287,157907,6,0,P|195:227|201:167,1,120,10|0,0:0|0:0,0:0:0:0:
238,158,158094,102,0,P|218:173|207:195,1,50
93,291,158282,2,0,L|100:355,1,64.9999970245363,2|2,3:2|0:3,0:0:0:0:
43,155,158469,1,2,0:3:0:0:
27,245,158563,1,0,3:0:0:0:
17,198,158657,1,8,0:0:0:0:
93,93,158844,2,0,L|100:28,1,64.9999970245363,0|0,3:0|0:0,0:0:0:0:
176,10,159032,6,0,P|188:72|161:130,1,129.999994049073,2|0,3:2|0:0,0:0:0:0:
27,245,159407,2,0,L|91:237,1,64.9999970245363,8|0,0:0|0:0,0:0:0:0:
254,260,159594,2,0,L|261:324,1,64.9999970245363
337,342,159782,102,0,P|349:279|322:221,1,129.999994049073,2|2,3:2|0:3,0:0:0:0:
258,188,160063,1,0,3:0:0:0:
230,120,160157,2,0,P|228:88|240:58,1,64.9999970245363,8|0,0:0|0:0,0:0:0:0:
340,122,160344,1,0,3:0:0:0:
167,280,160532,6,0,P|164:312|176:342,1,64.9999970245363,2|0,3:2|0:0,0:0:0:0:
157,159,160719,2,0,P|130:141|98:136,1,64.9999970245363
167,280,160907,2,0,P|195:265|215:240,1,64.9999970245363,10|0,0:2|0:0,0:0:0:0:
20,218,161094,2,0,P|46:235|78:240,1,64.9999970245363
216,240,161282,2,0,L|280:235,1,64.9999970245363,2|2,3:2|0:0,0:0:0:0:
362,229,161469,1,2,0:1:0:0:
409,281,161563,1,2,3:1:0:0:
382,162,161657,1,10,0:1:0:0:
312,348,161844,1,0,3:0:0:0:
360,30,162032,102,0,L|347:93,1,64.9999970245363,2|0,3:2|0:0,0:0:0:0:
382,162,162219,2,0,L|445:173,1,64.9999970245363,0|0,3:0|0:0,0:0:0:0:
208,75,162407,2,0,L|272:87,1,64.9999970245363,8|0,0:0|0:0,0:0:0:0:
306,155,162594,2,0,L|294:219,1,64.9999970245363,0|0,3:0|0:0,0:0:0:0:
152,354,162782,6,0,L|164:290,1,64.9999970245363,2|0,3:2|0:0,0:0:0:0:
130,222,162969,2,0,L|66:210,1,64.9999970245363,0|0,3:0|0:0,0:0:0:0:
304,309,163157,2,0,L|239:296,1,64.9999970245363,8|0,0:0|0:0,0:0:0:0:
206,229,163344,2,0,L|217:164,1,64.9999970245363,0|0,3:0|0:0,0:0:0:0:
176,9,163532,102,0,P|132:28|92:54,1,94.9999974632264,2|0,3:2|0:0,0:0:0:0:
419,54,163719,2,0,P|379:28|335:9,1,94.9999974632264,0|0,3:0|0:0,0:0:0:0:
158,114,163907,6,0,P|136:147|121:184,1,80,10|0,0:0|0:0,0:0:0:0:
390,184,164094,2,0,P|375:147|354:114,1,80,0|0,3:0|0:0,0:0:0:0:
166,257,164282,102,0,P|158:288|157:320,1,64.9999970245363,2|0,3:2|0:0,0:0:0:0:
354,320,164469,2,0,P|353:288|346:257,1,64.9999970245363,0|0,3:0|0:0,0:0:0:0:
240,336,164657,6,0,L|256:384,1,50,8|0,0:0|0:0,0:0:0:0:
256,384,164844,2,0,L|272:336,1,50,0|0,3:0|0:0,0:0:0:0:
256,228,165032,101,2,3:2:0:0:
216,221,165125,1,0,3:0:0:0:
189,191,165219,1,0,3:0:0:0:
186,150,165313,1,0,3:0:0:0:
210,118,165407,1,8,3:2:0:0:
249,111,165500,1,0,3:0:0:0:
284,129,165594,1,0,3:0:0:0:
297,166,165688,1,0,3:0:0:0:
336,169,165782,5,2,3:2:0:0:
314,202,165875,1,0,3:0:0:0:
320,241,165969,1,0,3:0:0:0:
351,266,166063,1,0,3:0:0:0:
387,282,166157,1,8,3:2:0:0:
409,314,166250,1,0,3:0:0:0:
401,353,166344,1,0,3:0:0:0:
371,380,166438,1,0,3:0:0:0:
331,376,166532,102,0,B|406:-2|406:-2|420:-5,1,400,2|0,0:2|0:0,0:0:0:0:
44,7,167657,5,4,3:1:0:0:
53,325,168032,6,0,L|67:251,1,75.0000028610231,6|0,3:2|0:0,0:0:0:0:
135,109,168219,1,0,1:0:0:0:
119,61,168313,1,2,3:2:0:0:
72,80,168406,1,8,1:2:0:0:
25,102,168500,1,0,1:0:0:0:
52,145,168594,1,2,3:2:0:0:
157,319,168782,1,2,3:2:0:0:
196,348,168875,1,0,1:0:0:0:
228,308,168969,1,0,1:0:0:0:
268,338,169063,1,2,3:2:0:0:
300,298,169157,1,8,1:2:0:0:
198,173,169344,1,2,3:2:0:0:
213,221,169438,1,0,1:0:0:0:
247,182,169532,5,2,3:2:0:0:
377,109,169719,1,0,1:0:0:0:
393,61,169813,1,2,3:2:0:0:
440,80,169906,1,8,1:2:0:0:
487,102,170000,1,0,1:0:0:0:
460,145,170094,1,2,3:2:0:0:
298,243,170282,101,2,3:2:0:0:
346,229,170375,1,0,1:0:0:0:
389,256,170469,1,0,1:0:0:0:
438,242,170563,1,2,3:2:0:0:
491,297,170657,5,8,1:2:0:0:
418,294,170750,1,0,1:0:0:0:
345,291,170844,1,2,3:2:0:0:
272,288,170938,1,0,1:0:0:0:
304,364,171032,101,2,3:2:0:0:
207,239,171219,1,0,1:0:0:0:
182,283,171313,1,2,3:2:0:0:
132,270,171407,1,8,1:2:0:0:
83,257,171500,1,0,1:0:0:0:
52,298,171594,1,2,3:2:0:0:
35,105,171782,1,2,3:2:0:0:
83,120,171875,1,0,1:0:0:0:
131,136,171969,1,0,1:0:0:0:
166,99,172063,1,2,3:2:0:0:
118,83,172157,1,8,1:2:0:0:
288,29,172344,5,2,3:2:0:0:
291,33,172438,1,0,1:0:0:0:
361,16,172532,101,2,3:2:0:0:
358,60,172625,1,0,1:0:0:0:
329,95,172719,1,0,1:0:0:0:
336,139,172813,1,2,3:2:0:0:
366,172,172907,1,8,1:2:0:0:
341,209,173000,1,0,1:0:0:0:
298,224,173094,1,2,3:2:0:0:
313,266,173188,1,0,1:0:0:0:
372,274,173282,5,2,3:2:0:0:
337,322,173375,1,0,1:0:0:0:
314,377,173469,1,0,1:0:0:0:
254,382,173563,1,2,3:2:0:0:
219,332,173657,1,8,1:2:0:0:
159,329,173750,1,0,1:0:0:0:
132,274,173844,1,6,3:2:0:0:
87,233,173938,1,0,1:0:0:0:
99,174,174032,101,6,3:2:0:0:
271,8,174219,1,2,3:1:0:0:
309,66,174313,1,2,1:2:0:0:
350,22,174407,1,8,1:2:0:0:
381,52,174500,1,2,1:2:0:0:
414,34,174594,1,2,3:1:0:0:
512,188,174782,1,2,3:2:0:0:
474,130,174876,1,0,1:0:0:0:
433,174,174970,1,2,3:1:0:0:
402,144,175063,1,2,1:2:0:0:
369,162,175157,6,0,B|336:184|336:184|325:216|325:216|284:233|250:205,1,150.000005722046,0|0,1:0|0:0,0:0:0:0:
20,26,175532,102,0,L|97:47,1,75.0000028610231,6|0,3:2|0:0,0:0:0:0:
186,96,175719,1,2,3:1:0:0:
124,126,175813,1,2,1:2:0:0:
182,167,175907,1,8,1:2:0:0:
144,197,176001,1,2,1:2:0:0:
161,226,176094,1,2,3:1:0:0:
352,359,176282,1,2,3:2:0:0:
290,329,176376,1,0,1:0:0:0:
348,288,176470,1,2,3:1:0:0:
310,258,176564,1,2,1:2:0:0:
331,225,176657,6,0,B|337:209|337:209|336:187,3,37.5000014305115
258,198,177032,101,6,3:2:0:0:
186,218,177125,1,0,3:0:0:0:
143,271,177219,1,2,3:1:0:0:
124,320,177313,1,2,3:2:0:0:
92,346,177407,1,8,3:2:0:0:
62,345,177500,1,2,3:2:0:0:
43,333,177594,1,2,3:1:0:0:
35,315,177688,1,2,3:2:0:0:
39,301,177782,5,2,3:2:0:0:
66,284,177875,1,0,3:0:0:0:
73,247,177969,1,2,3:1:0:0:
60,207,178063,1,2,3:2:0:0:
69,160,178157,1,0,3:0:0:0:
105,115,178250,1,0,3:0:0:0:
169,112,178344,1,2,3:1:0:0:
229,77,178438,1,2,3:2:0:0:
249,8,178532,102,0,B|226:0|226:0|150:2,2,100.000003814697
409,87,178907,2,0,B|386:95|386:95|310:92,2,100.000003814697
480,26,179282,5,0,0:0:0:0:
483,30,179469,1,0,0:0:0:0:
487,241,179657,37,6,1:1:0:0:
511,311,180032,6,0,B|504:285|475:279|475:279|388:289|388:289|360:288|353:269,1,179.999994506836,6|2,3:1|0:0,0:0:0:0:
348,248,180282,1,0,0:0:0:0:
354,226,180344,1,0,0:0:0:0:
373,214,180407,2,0,L|444:205,1,72.5000022125245,10|0,0:1|0:0,0:0:0:0:
325,147,180594,2,0,L|253:138,1,72.5000022125245
0,173,180782,2,0,P|71:173|132:210,1,145.000004425049,2|2,3:1|0:0,0:0:0:0:
142,286,181063,1,2,0:0:0:0:
145,290,181157,2,0,L|73:281,1,72.5000022125245,10|0,0:1|0:0,0:0:0:0:
204,242,181344,2,0,L|275:233,1,72.5000022125245
166,121,181532,102,0,B|114:84|140:24|140:24|172:47,1,145.000004425049,2|2,3:1|0:0,0:0:0:0:
242,94,181782,1,0,0:0:0:0:
242,94,181844,1,0,0:0:0:0:
242,94,181907,2,0,P|248:130|236:164,1,72.5000022125245,10|0,0:1|0:0,0:0:0:0:
58,84,182094,2,0,P|52:48|63:13,1,72.5000022125245
168,44,182282,6,0,P|244:53|320:64,1,145.000004425049,2|2,3:1|0:0,0:0:0:0:
380,122,182563,1,2,0:0:0:0:
388,144,182657,2,0,P|416:95|377:-6,1,145.000004425049,10|0,0:1|0:0,0:0:0:0:
471,215,183032,102,0,B|429:206|409:244|409:244|391:278|350:272,1,145.000004425049,2|2,3:1|0:0,0:0:0:0:
336,301,183282,1,0,0:0:0:0:
315,289,183344,1,0,0:0:0:0:
290,290,183407,2,0,P|255:294|218:294,1,72.5000022125245,8|0,0:1|0:0,0:0:0:0:
407,349,183594,2,0,P|442:353|479:357,1,72.5000022125245
344,196,183782,2,0,B|371:96|371:96|335:116,1,145.000004425049,2|2,3:1|0:0,0:0:0:0:
148,159,184063,1,2,0:0:0:0:
131,176,184157,2,0,P|215:165|284:161,1,145.000004425049,8|10,0:1|0:1,0:0:0:0:
124,9,184532,6,0,P|53:12|25:81,1,145.000004425049,10|2,3:1|0:0,0:0:0:0:
46,151,184782,1,0,0:0:0:0:
46,151,184844,1,0,0:0:0:0:
46,151,184907,2,0,P|43:190|32:261,1,72.5000022125245,10|0,0:1|0:0,0:0:0:0:
152,359,185094,2,0,P|147:323|145:286,1,72.5000022125245
208,190,185282,101,2,3:1:0:0:
354,334,185469,1,8,0:1:0:0:
273,318,185563,1,8,0:1:0:0:
354,309,185657,1,8,0:1:0:0:
295,126,185844,1,0,0:0:0:0:
420,148,186032,6,0,B|365:166|365:166|350:194|350:194|294:215,1,145.000004425049,6|2,3:1|0:0,0:0:0:0:
279,244,186282,1,0,0:0:0:0:
256,249,186344,1,0,0:0:0:0:
233,241,186407,2,0,P|231:205|225:170,1,72.5000022125245,10|0,0:1|0:0,0:0:0:0:
372,17,186594,2,0,P|365:52|364:88,1,72.5000022125245
445,210,186782,1,2,3:1:0:0:
295,126,186969,1,2,0:0:0:0:
301,155,187063,1,2,0:0:0:0:
318,179,187157,2,0,B|363:166|363:166|385:182|385:182|412:180|412:180|445:210,1,145.000004425049,10|0,0:1|0:0,0:0:0:0:
351,368,187532,102,0,B|311:305|311:305|364:258,1,145.000004425049,2|2,3:1|0:0,0:0:0:0:
420,326,187782,1,0,0:0:0:0:
420,326,187844,1,0,0:0:0:0:
420,326,187907,2,0,P|455:334|491:339,1,72.5000022125245,10|0,0:1|0:0,0:0:0:0:
391,159,188094,2,0,P|399:123|404:87,1,72.5000022125245
298,302,188282,2,0,B|255:303|218:272|247:268|211:239|173:244,1,145.000004425049,2|2,3:1|0:0,0:0:0:0:
50,256,188563,1,2,0:0:0:0:
94,319,188657,2,0,B|137:287|137:287|112:184,1,145.000004425049,10|0,0:1|0:0,0:0:0:0:
76,26,189032,6,0,B|49:10|49:10|18:42|25:91|60:106,1,145.000004425049,2|2,3:1|0:0,0:0:0:0:
83,135,189282,1,0,0:0:0:0:
104,127,189344,1,0,0:0:0:0:
127,129,189407,2,0,P|161:133|199:134,1,72.5000022125245,8|0,0:1|0:0,0:0:0:0:
406,47,189594,2,0,P|371:42|333:41,1,72.5000022125245
178,41,189782,1,2,3:1:0:0:
256,248,189969,1,2,0:0:0:0:
259,252,190063,1,2,0:0:0:0:
262,256,190157,1,8,0:1:0:0:
313,135,190344,1,0,0:1:0:0:
152,231,190532,38,0,P|156:271|164:322,1,80,0|0,0:0|1:0,0:0:0:0:
91,342,190813,1,0,1:0:0:0:
94,346,190907,2,0,L|39:361,1,40,0|0,1:0|0:0,0:0:0:0:
149,227,191094,2,0,L|204:242,1,40
299,344,191282,5,0,0:0:0:0:
311,335,191375,1,0,0:0:0:0:
325,340,191469,1,2,0:1:0:0:
337,331,191563,1,2,0:1:0:0:
351,336,191657,1,2,0:1:0:0:
363,327,191750,1,0,0:0:0:0:
377,332,191844,1,0,0:0:0:0:
389,323,191938,1,0,0:0:0:0:
401,329,192032,38,0,B|452:298|425:242|425:242|381:223|380:183,1,179.999994506836,6|2,3:1|0:0,0:0:0:0:
358,158,192282,1,0,0:0:0:0:
367,145,192344,1,0,0:0:0:0:
370,129,192407,2,0,P|367:92|365:56,1,72.5000022125245,10|0,0:1|0:0,0:0:0:0:
263,201,192594,2,0,P|265:237|267:273,1,72.5000022125245
439,77,192782,2,0,L|261:109,1,145.000004425049,2|2,3:1|0:0,0:0:0:0:
212,132,193063,1,2,0:0:0:0:
188,146,193157,2,0,P|189:75|234:21,1,145.000004425049,10|0,0:1|0:0,0:0:0:0:
52,9,193532,6,0,B|71:64|71:64|62:87|62:87|81:149,1,145.000004425049,2|2,3:1|0:0,0:0:0:0:
115,224,193782,1,0,0:0:0:0:
115,224,193844,1,0,0:0:0:0:
115,224,193907,2,0,P|79:217|43:213,1,72.5000022125245,10|0,0:1|0:0,0:0:0:0:
238,340,194094,2,0,P|274:336|309:329,1,72.5000022125245
134,300,194282,1,2,3:1:0:0:
151,149,194469,1,2,0:0:0:0:
154,153,194563,1,2,0:0:0:0:
157,157,194657,2,0,L|134:306,1,145.000004425049,10|0,0:1|0:0,0:0:0:0:
311,251,195032,102,0,B|355:254|375:284|375:284|393:316|433:316,1,145.000004425049,2|2,3:1|0:0,0:0:0:0:
463,342,195282,1,0,0:0:0:0:
485,336,195344,1,0,0:0:0:0:
501,319,195407,2,0,P|492:283|486:247,1,72.5000022125245,8|0,0:1|0:0,0:0:0:0:
309,329,195594,2,0,P|274:336|238:339,1,72.5000022125245
396,196,195782,2,0,B|379:157|408:123|408:123|415:48,1,145.000004425049,2|2,3:1|0:0,0:0:0:0:
487,155,196063,1,2,0:0:0:0:
467,172,196157,2,0,P|353:161|301:150,1,145.000004425049,8|10,0:1|0:1,0:0:0:0:
150,101,196532,6,0,P|163:138|184:177,1,72.5000022125245,10|0,3:1|0:0,0:0:0:0:
300,258,196719,2,0,B|384:275,1,72.5000022125245,2|0,0:0|0:0,0:0:0:0:
280,27,196907,2,0,P|268:64|250:104,1,72.5000022125245,10|0,0:1|0:0,0:0:0:0:
143,266,197094,2,0,B|59:283,1,72.5000022125245
254,190,197282,1,2,3:1:0:0:
135,353,197469,1,8,0:1:0:0:
217,347,197563,1,8,0:1:0:0:
134,376,197657,1,8,0:1:0:0:
375,268,197844,1,0,0:0:0:0:
168,58,198032,101,6,3:1:0:0:
85,49,198219,5,2,0:0:0:0:
85,49,198282,101,0,0:0:0:0:
85,49,198344,5,0,0:0:0:0:
85,49,198407,102,0,P|50:39|13:31,1,75.0000028610231,10|0,0:1|0:0,0:0:0:0:
96,135,198594,2,0,P|59:133|22:132,1,75.0000028610231
317,86,198782,5,2,3:1:0:0:
422,55,198969,1,2,0:0:0:0:
398,62,199063,1,2,0:0:0:0:
416,48,199157,102,0,P|459:35|504:27,1,89.9999972534181,10|0,0:1|0:0,0:0:0:0:
405,134,199344,2,0,P|450:132|495:137,1,89.9999972534181
282,227,199532,5,2,3:1:0:0:
145,197,199719,1,2,0:0:0:0:
179,234,199813,1,0,0:0:0:0:
100,213,199907,2,0,P|41:199|-6:181,1,104.999996795654,10|0,0:1|0:0,0:0:0:0:
120,294,200094,2,0,P|61:306|11:308,1,104.999996795654
215,350,200282,101,2,3:1:0:0:
347,253,200469,1,8,0:1:0:0:
299,306,200563,1,8,0:1:0:0:
412,282,200657,2,0,P|471:268|518:250,1,104.999996795654,10|0,0:1|0:0,0:0:0:0:
391,362,200844,2,0,P|451:374|501:376,1,104.999996795654,8|0,0:1|0:0,0:0:0:0:
443,164,201032,6,0,P|477:143|504:114,1,80,2|0,3:1|0:0,0:0:0:0:
443,164,201219,2,0,P|413:137|377:120,1,80,2|2,0:0|0:0,0:0:0:0:
233,230,201407,2,0,P|270:217|303:194,1,80,8|0,0:1|0:0,0:0:0:0:
284,15,201594,2,0,P|275:54|279:93,1,80,2|0,0:0|0:0,0:0:0:0:
339,264,201782,2,0,P|326:226|303:193,1,80,2|0,0:1|0:0,0:0:0:0:
214,51,201969,2,0,P|251:38|284:15,1,80,2|2,0:0|0:0,0:0:0:0:
505,38,202157,2,0,P|465:40|427:54,1,80,8|0,0:1|0:0,0:0:0:0:
339,264,202344,2,0,P|317:296|305:335,1,80,2|0,0:0|0:0,0:0:0:0:
443,164,202532,37,0,0:0:0:0:
476,360,202719,2,0,L|483:384,2,25.0000009536744
449,289,202907,6,2,B|407:295|405:332|405:332|405:367|370:384|336:367|336:332|336:332|336:299|301:281|267:299|267:332|267:332|267:367|232:384|198:367|198:332|198:332|198:299|232:281|249:299|293:263|255:198|194:201|180:258|180:258|169:298|127:292,1,674.999979400635,0|0,0:0|0:0,0:1:0:0:
128,293,203657,102,0,P|114:276|133:267,3,50,4|0|0|0,1:3|1:0|1:0|1:0,0:0:0:0:
60,364,204032,22,0,P|87:248|84:128,1,239.999992675781,12|2,1:1|0:1,0:0:0:0:
130,56,204313,1,2,0:1:0:0:
137,34,204407,2,0,P|180:144|267:226,1,239.999992675781,8|2,1:0|0:1,0:0:0:0:
483,325,204782,2,0,B|288:301|288:301|244:315,1,239.999992675781,8|2,1:1|0:1,0:0:0:0:
188,367,205063,1,10,1:2:0:0:
186,384,205157,1,8,0:0:0:0:
147,300,205344,1,2,1:1:0:0:
463,124,205532,6,0,P|423:237|406:355,1,239.999992675781,14|2,1:0|0:1,0:0:0:0:
439,276,205813,1,2,0:1:0:0:
455,297,205907,2,0,P|432:179|388:68,1,239.999992675781,8|2,1:0|0:1,0:0:0:0:
68,28,206282,2,0,L|307:40,1,239.999992675781,8|2,1:1|0:1,0:0:0:0:
387,67,206563,1,10,1:2:0:0:
387,67,206657,1,8,0:0:0:0:
450,16,206844,1,2,1:1:0:0:
357,258,207032,102,0,P|256:261|126:347,1,239.999992675781,12|2,1:1|0:1,0:0:0:0:
39,327,207313,1,2,0:1:0:0:
48,348,207407,2,0,P|86:210|71:105,1,239.999992675781,8|2,1:0|0:1,0:0:0:0:
388,169,207782,2,0,B|358:185|358:185|156:142,1,239.999992675781,8|2,1:1|0:1,0:0:0:0:
74,115,208063,1,10,1:2:0:0:
74,115,208157,1,8,0:0:0:0:
51,33,208344,1,2,1:1:0:0:
209,283,208532,6,0,B|224:308|224:308|215:188,1,135.000000514984,12|0,1:0|0:0,0:0:0:0:
196,66,208719,1,2,0:1:0:0:
199,70,208813,1,2,0:1:0:0:
202,74,208907,2,0,L|46:123,1,135.000000514984,10|0,1:0|0:0,0:0:0:0:
310,133,209094,2,0,L|438:92,1,135.000000514984,2|0,0:1|0:0,0:0:0:0:
486,210,209282,2,0,P|372:236|301:330,1,239.999992675781,10|2,1:0|0:1,0:0:0:0:
383,344,209563,1,2,0:1:0:0:
396,367,209657,2,0,P|411:309|401:251,1,119.999996337891,8|0,1:0|0:0,0:0:0:0:
225,156,209844,2,0,P|214:214|230:271,1,119.999996337891,8|0,1:0|0:0,0:0:0:0:
386,139,210032,102,0,B|356:118|356:118|119:139,1,270.000001029968,12|2,1:0|0:1,0:0:0:0:
212,32,210313,1,2,0:1:0:0:
227,50,210407,2,0,L|519:24,1,270.000001029968,8|2,1:0|0:1,0:0:0:0:
409,366,210782,2,0,B|434:313|434:313|469:86,1,270.000001029968,8|2,1:0|0:1,0:0:0:0:
194,119,211063,1,10,1:2:0:0:
203,149,211157,1,8,0:0:0:0:
363,38,211344,1,2,1:1:0:0:
59,37,211532,6,0,B|122:294|122:294|104:347,1,310.000002365112,12|2,1:0|0:1,0:0:0:0:
426,274,211907,2,0,B|463:14|463:14|475:59,1,310.000002365112,8|2,1:0|0:1,0:0:0:0:
490,321,212282,2,0,L|355:20,1,310.000002365112,8|2,1:0|0:1,0:0:0:0:
331,196,212563,1,10,1:2:0:0:
353,200,212657,1,8,0:0:0:0:
43,288,212844,1,2,1:1:0:0:
210,44,213032,102,0,P|175:112|182:189,1,155.000001182556,14|0,1:0|0:0,0:0:0:0:
296,332,213219,1,2,0:1:0:0:
299,336,213313,1,2,0:1:0:0:
302,340,213407,2,0,P|337:272|330:195,1,155.000001182556,10|0,1:0|0:0,0:0:0:0:
106,243,213594,6,0,B|226:278|226:278|253:266,1,155.000001182556,2|0,1:1|0:0,0:0:0:0:
312,7,213782,2,0,L|252:175,1,155.000001182556,14|0,1:0|0:0,0:0:0:0:
482,289,213969,1,2,0:1:0:0:
485,293,214063,1,2,0:1:0:0:
488,297,214157,2,0,B|368:262|368:262|341:274,1,155.000001182556,10|0,1:0|0:0,0:0:0:0:
113,331,214344,2,0,L|267:260,1,155.000001182556,10|0,1:0|0:0,0:0:0:0:
481,149,214532,69,0,0:0:0:0:
457,62,214719,1,0,0:0:0:0:
366,58,214907,1,0,0:0:0:0:
334,143,215094,1,0,0:0:0:0:
406,198,215282,1,0,0:0:0:0:
405,119,215469,1,2,0:1:0:0:
408,123,215563,1,2,0:1:0:0:
411,127,215657,1,2,0:1:0:0:
99,74,216032,6,0,B|104:94|96:113|96:113|102:157|150:173|179:151,1,150,4|0,3:2|0:0,0:0:0:0:
179,151,216407,2,0,L|254:154,1,75.0000028610231,8|0,1:2|0:0,0:0:0:0:
24,88,216594,2,0,B|1:82|1:82|26:74,1,50,2|0,0:1|0:0,0:0:0:0:
174,70,216782,1,2,3:0:0:0:
177,74,216875,1,2,0:3:0:0:
180,78,216969,2,0,L|240:80,1,50,2|2,0:3|1:3,0:0:0:0:
448,73,217157,2,0,P|431:10|370:37,1,150.000005722046,8|0,1:0|0:0,0:0:0:0:
293,31,217532,102,0,L|279:21,1,16.6666666666667,2|0,3:2|0:0,0:0:0:0:
429,144,217719,2,0,L|442:153,1,16.6666666666667,2|0,0:0|0:0,0:0:0:0:
370,37,217907,2,0,P|376:73|363:108,1,75.0000028610231,8|0,1:2|0:0,0:0:0:0:
316,212,218094,2,0,B|326:235|326:235|324:210,1,50,2|0,0:1|0:0,0:0:0:0:
249,123,218282,2,0,L|297:136,2,50,0|0|0,3:0|0:0|0:0,0:0:0:0:
175,97,218563,2,0,L|180:81,1,16.6666666666667,2|0,0:0|0:0,0:0:0:0:
175,97,218657,5,10,1:0:0:0:
62,222,218844,2,0,L|67:206,1,16.6666666666667,2|0,0:0|0:0,0:0:0:0:
191,180,219032,102,0,B|135:167|135:167|109:125|57:126,1,150,0|0,3:0|0:0,0:0:0:0:
57,127,219407,2,0,L|72:25,1,75.0000028610231,8|0,1:0|0:0,0:0:0:0:
263,205,219594,2,0,B|288:206|288:206|266:194,1,50,2|0,0:1|0:0,0:0:0:0:
137,69,219782,1,2,3:0:0:0:
140,73,219875,1,2,0:3:0:0:
143,77,219969,2,0,L|135:125,1,50,2|2,0:3|1:3,0:0:0:0:
64,311,220157,2,0,P|81:374|142:347,1,150.000005722046,8|0,1:0|0:0,0:0:0:0:
52,235,220532,6,0,L|35:236,1,16.6666666666667,2|0,3:2|0:0,0:0:0:0:
216,333,220719,2,0,L|217:349,1,16.6666666666667,2|0,0:0|0:0,0:0:0:0:
134,210,220907,2,0,P|138:246|164:273,1,75.0000028610231,8|0,1:2|0:0,0:0:0:0:
293,342,221094,2,0,B|318:342|318:342|295:329,1,50,2|0,0:1|0:0,0:0:0:0:
246,257,221282,2,0,L|260:209,2,50,2|0|0,3:2|0:0|0:0,0:0:0:0:
327,265,221563,2,0,L|343:263,1,16.6666666666667,2|0,0:0|0:0,0:0:0:0:
327,265,221657,101,10,1:0:0:0:
189,160,221844,2,0,L|205:158,1,16.6666666666667,2|0,0:0|0:0,0:0:0:0:
476,111,222032,6,0,P|407:84|339:111,1,150,4|0,3:2|0:0,0:0:0:0:
339,111,222407,2,0,P|375:108|407:128,1,75.0000028610231,8|0,1:2|0:0,0:0:0:0:
390,250,222594,2,0,B|385:274|385:274|376:251,1,50,2|0,0:1|0:0,0:0:0:0:
309,202,222782,1,2,3:0:0:0:
312,206,222875,1,2,0:3:0:0:
315,210,222969,2,0,P|331:191|355:182,1,50,2|2,0:3|1:3,0:0:0:0:
447,310,223157,2,0,P|428:374|369:346,1,150.000005722046,8|0,1:0|0:0,0:0:0:0:
305,294,223532,102,0,L|288:295,1,16.6666666666667,2|0,3:2|0:0,0:0:0:0:
110,304,223719,2,0,L|93:305,1,16.6666666666667,2|0,0:0|0:0,0:0:0:0:
235,365,223907,2,0,P|211:336|201:301,1,75.0000028610231,8|0,1:2|0:0,0:0:0:0:
218,153,224094,2,0,B|227:130|227:130|227:155,1,50,2|0,0:1|0:0,0:0:0:0:
203,226,224282,2,0,L|154:236,2,50,0|0|0,3:0|0:0|0:0,0:0:0:0:
270,272,224563,2,0,L|291:276,1,16.6666666666667,2|0,0:0|0:0,0:0:0:0:
273,276,224657,5,8,1:0:0:0:
145,165,224844,2,0,L|124:161,1,16.6666666666667,2|0,0:0|0:0,0:0:0:0:
295,132,225032,102,0,B|340:123|363:153|363:153|386:185|429:176,1,150,0|0,3:0|0:0,0:0:0:0:
429,175,225407,2,0,L|418:88,1,75.0000028610231,8|0,1:2|0:0,0:0:0:0:
253,66,225594,2,0,B|247:42|247:42|263:61,1,50,2|0,0:1|0:0,0:0:0:0:
310,204,225782,1,2,3:0:0:0:
313,208,225875,1,2,0:3:0:0:
315,212,225969,2,0,P|290:213|266:206,1,50,2|2,0:3|1:3,0:0:0:0:
64,73,226157,2,0,P|83:9|143:38,1,150.000005722046,8|0,1:0|0:0,0:0:0:0:
133,115,226532,6,0,L|129:136,1,16.6666666666667,2|0,0:0|0:0,0:0:0:0:
115,222,226719,2,0,L|111:243,1,16.6666666666667,2|0,0:0|0:0,0:0:0:0:
137,384,226907,2,0,P|130:347|103:322,1,75.0000028610231,8|0,0:0|0:0,0:0:0:0:
31,344,227094,2,0,B|12:362|12:362|35:358,1,50,2|0,0:1|0:0,0:0:0:0:
115,242,227282,2,0,L|118:225,1,16.6666666666667,2|0,0:0|0:0,0:0:0:0:
256,367,227563,2,0,L|256:350,1,16.6666666666667,2|0,0:0|0:0,0:0:0:0:
259,371,227657,102,0,L|321:367,1,50,10|0,1:0|1:0,0:0:0:0:
374,331,227844,2,0,L|436:327,1,50,2|0,1:2|1:0,0:0:0:0:
329,104,228032,6,0,P|346:164|358:225,1,125,4|2,3:1|0:0,0:0:0:0:
358,225,228313,2,0,L|420:232,1,62.5,0|8,1:0|1:2,0:0:0:0:
423,156,228500,2,0,P|416:125|406:95,1,62.5,0|2,1:0|0:1,0:0:0:0:
427,21,228688,1,0,0:0:0:0:
430,25,228782,1,0,3:0:0:0:
300,175,228969,2,0,B|268:179|268:179|240:167,1,62.5,2|0,0:0|0:0,0:0:0:0:
252,93,229157,2,0,L|243:31,1,62.5,10|0,1:2|0:0,0:0:0:0:
80,50,229344,1,0,1:0:0:0:
80,50,229438,1,0,1:0:0:0:
80,50,229532,102,0,P|121:97|131:158,1,125,4|2,3:1|0:0,0:0:0:0:
131,158,229813,2,0,L|69:164,1,62.5,0|8,1:0|1:2,0:0:0:0:
22,247,230000,2,0,L|84:240,1,62.5,0|2,1:0|0:1,0:0:0:0:
157,229,230188,1,0,0:0:0:0:
160,233,230282,1,0,3:0:0:0:
321,310,230469,2,0,L|309:378,1,62.5,2|0,0:0|0:0,0:0:0:0:
398,315,230657,2,0,L|421:379,1,62.5,10|0,1:2|0:0,0:0:0:0:
455,263,230844,2,0,L|507:307,1,62.5,2|0,0:0|0:0,0:0:0:0:
290,243,231032,6,0,B|261:258|253:284|253:284|185:296,1,125,4|0,3:1|0:0,0:0:0:0:
186,296,231313,2,0,L|175:362,1,62.5,0|8,1:0|1:2,0:0:0:0:
97,363,231500,2,0,L|108:301,1,62.5,0|2,1:0|0:1,0:0:0:0:
47,255,231688,1,0,0:0:0:0:
50,259,231782,1,0,3:0:0:0:
130,24,231969,2,0,P|121:53|127:84,1,62.5,2|0,0:0|0:0,0:0:0:0:
68,125,232157,2,0,P|46:102|16:93,1,62.5,10|0,1:2|0:0,0:0:0:0:
197,57,232344,1,0,1:0:0:0:
200,61,232438,1,0,1:0:0:0:
203,65,232532,102,0,L|265:72,2,62.5,4|0|0,3:1|1:0|1:0,0:0:0:0:
182,138,232813,1,0,0:0:0:0:
182,138,232907,2,0,B|175:169|175:169|186:197,1,62.5,10|0,1:2|0:0,0:0:0:0:
233,258,233094,2,0,L|225:320,1,62.5,2|0,0:2|0:0,0:0:0:0:
176,377,233282,1,0,3:0:0:0:
405,274,233469,1,2,0:0:0:0:
316,245,233563,1,2,0:0:0:0:
367,240,233657,1,10,1:2:0:0:
327,372,233844,1,2,0:2:0:0:
406,169,234032,6,2,B|422:85|422:85|405:49,1,125,4|0,3:1|0:0,0:1:0:0:
405,49,234313,2,0,L|344:56,1,62.5,0|8,1:0|1:2,0:0:0:0:
307,129,234500,2,0,P|321:156|323:187,1,62.5,0|2,1:0|0:1,0:0:0:0:
293,257,234688,1,0,0:0:0:0:
296,261,234782,1,0,3:0:0:0:
451,243,234969,2,0,L|512:234,1,62.5,2|0,0:0|0:0,0:0:0:0:
422,307,235157,2,0,L|361:298,1,62.5,10|0,1:2|0:0,0:0:0:0:
99,199,235344,1,0,1:0:0:0:
102,203,235438,1,0,1:0:0:0:
105,207,235532,102,2,B|89:291|89:291|107:326,1,125,4|0,3:1|0:0,0:1:0:0:
107,326,235813,2,0,L|168:319,1,62.5,0|8,1:0|1:2,0:0:0:0:
206,246,236000,2,0,P|192:219|190:188,1,62.5,0|2,1:0|0:1,0:0:0:0:
216,117,236188,1,0,0:0:0:0:
219,121,236282,1,0,3:0:0:0:
64,144,236469,2,0,L|0:152,1,62.5,2|0,0:0|0:0,0:0:0:0:
90,77,236657,2,0,L|152:85,1,62.5,10|0,1:2|0:0,0:0:0:0:
390,45,236844,1,0,0:0:0:0:
393,49,236938,1,0,0:0:0:0:
396,52,237032,6,2,P|388:95|398:138,1,87.500000834465,12|0,3:1|0:0,0:1:0:0:
446,212,237219,2,0,P|463:172|494:141,1,87.500000834465,2|0,1:2|0:0,0:0:0:0:
446,212,237407,2,0,P|402:216|360:205,1,87.500000834465,8|0,1:2|1:0,0:0:0:0:
467,368,237594,2,0,P|455:325|430:290,1,87.500000834465,2|0,1:1|1:0,0:0:0:0:
261,205,237782,2,0,P|272:162|297:127,1,87.500000834465,2|0,3:1|1:0,0:0:0:0:
467,368,237969,2,0,P|423:372|381:361,1,87.500000834465,0|0,1:0|1:0,0:0:0:0:
213,134,238157,2,0,P|243:164|261:204,1,87.500000834465,8|0,1:2|1:0,0:0:0:0:
313,298,238344,2,0,P|269:293|227:304,1,87.500000834465,0|0,1:0|1:0,0:0:0:0:
109,352,238532,102,0,L|9:341,2,100,0|0|0,3:0|0:0|0:0,0:0:0:0:
183,362,239657,1,0,0:0:0:0:
256,192,240032,5,2,3:2:0:0:
256,192,240078,12,0,244532,0:0:0:0:
