osu file format v14

[General]
AudioFilename: audio.mp3
AudioLeadIn: 0
PreviewTime: 47132
Countdown: 0
SampleSet: Soft
StackLeniency: 0.2
Mode: 0
LetterboxInBreaks: 0
WidescreenStoryboard: 1

[Editor]
Bookmarks: -54250,-23,11976,23976,35976,47976,59976,71976,83976,95976,107976,119976,131976,143976,155976,167976,179976,191976,203976,215976,227976,239976
DistanceSpacing: 0.3
BeatDivisor: 8
GridSize: 16
TimelineZoom: 3.05

[Metadata]
Title:Cardinal Rave
TitleUnicode:Cardinal Rave
Artist:TAROLIN feat. Katakiri Rekka
ArtistUnicode:TAROLIN feat. 片霧烈火
Creator:Yusomi
Version:Cub's Insane
Source:
Tags:shota on osu cubbby cubby -keitaro japanese electronic
BeatmapID:2355610
BeatmapSetID:1116399

[Difficulty]
HPDrainRate:4
CircleSize:5
OverallDifficulty:8
ApproachRate:9
SliderMultiplier:1.6
SliderTickRate:1

[Events]
//Background and Video events
0,0,"Konachan.com - 301504flipped.jpg",0,0
//Break Periods
2,24231,32057
2,132232,143432
//Storyboard Layer 0 (Background)
//Storyboard Layer 1 (Fail)
//Storyboard Layer 2 (Pass)
//Storyboard Layer 3 (Foreground)
//Storyboard Layer 4 (Overlay)
//Storyboard Sound Samples

[TimingPoints]
32,375,4,2,1,65,1,0
2657,-83.3333333333333,4,2,1,65,0,0
3032,-100,4,2,1,65,0,0
8657,-83.3333333333333,4,2,1,65,0,0
9032,-100,4,2,1,65,0,0
12032,-83.3333333333333,4,2,1,65,0,0
22532,-83.3333333333333,4,2,2,50,0,0
23657,-83.3333333333333,4,2,2,65,0,0
24032,750,4,2,1,45,1,0
33032,-100,4,2,1,45,0,0
36032,375,4,2,1,65,1,0
36032,-133.333333333333,4,2,1,65,0,0
38282,-100,4,2,1,65,0,0
38657,-133.333333333333,4,2,1,65,0,0
45032,-100,4,2,1,65,0,0
45407,-125,4,2,1,65,0,0
45782,-166.666666666667,4,2,1,65,0,0
46532,-166.666666666667,4,2,1,65,0,0
48032,-100,4,2,1,75,0,0
49719,-100,4,2,1,75,0,0
50094,-100,4,2,1,75,0,0
58532,-100,4,2,1,65,0,0
59282,-100,4,2,1,0,0,0
59657,-100,4,2,2,65,0,0
60032,-83.3333333333333,4,2,1,65,0,0
70532,-133.333333333333,4,2,1,65,0,0
71313,-133.333333333333,4,2,1,20,0,0
71657,-133.333333333333,4,2,2,65,0,0
72032,-74.0740740740741,4,2,2,65,0,0
72125,-74.0740740740741,4,2,2,65,0,0
72219,-74.0740740740741,4,2,2,65,0,0
72875,-74.0740740740741,4,2,1,65,0,0
72969,-74.0740740740741,4,2,2,65,0,0
74000,-74.0740740740741,4,2,1,65,0,0
74094,-74.0740740740741,4,2,2,65,0,0
74375,-74.0740740740741,4,2,1,65,0,0
74469,-74.0740740740741,4,2,2,65,0,0
74750,-74.0740740740741,4,2,2,65,0,0
74844,-74.0740740740741,4,2,2,65,0,0
74938,-74.0740740740741,4,2,1,65,0,0
75032,-74.0740740740741,4,2,2,65,0,0
75688,-74.0740740740741,4,2,1,65,0,0
75782,-74.0740740740741,4,2,2,65,0,0
76250,-74.0740740740741,4,2,1,65,0,0
76344,-74.0740740740741,4,2,2,65,0,0
77938,-74.0740740740741,4,2,1,65,0,0
78032,-74.0740740740741,4,2,2,65,0,0
78500,-74.0740740740741,4,2,1,65,0,0
78594,-74.0740740740741,4,2,2,65,0,0
78688,-74.0740740740741,4,2,1,65,0,0
78782,-74.0740740740741,4,2,2,65,0,0
80750,-74.0740740740741,4,2,1,65,0,0
80844,-74.0740740740741,4,2,2,65,0,0
81875,-74.0740740740741,4,2,1,65,0,0
81969,-74.0740740740741,4,2,2,65,0,0
82532,-133.333333333333,4,2,2,55,0,0
83094,-133.333333333333,4,2,2,55,0,0
83282,-133.333333333333,4,2,1,45,0,0
83469,-133.333333333333,4,2,2,45,0,0
83750,-133.333333333333,4,2,1,45,0,0
84032,-74.0740740740741,4,2,2,87,0,1
84125,-74.0740740740741,4,2,1,70,0,1
84219,-74.0740740740741,4,2,2,87,0,1
84313,-74.0740740740741,4,2,2,87,0,1
84407,-74.0740740740741,4,2,2,87,0,1
84688,-74.0740740740741,4,2,1,70,0,1
84782,-74.0740740740741,4,2,2,87,0,1
84875,-74.0740740740741,4,2,1,70,0,1
84969,-74.0740740740741,4,2,2,87,0,1
85250,-74.0740740740741,4,2,1,70,0,1
85344,-74.0740740740741,4,2,2,87,0,1
85438,-74.0740740740741,4,2,1,70,0,1
85532,-74.0740740740741,4,2,2,87,0,1
85625,-74.0740740740741,4,2,1,70,0,1
85719,-74.0740740740741,4,2,2,87,0,1
86000,-74.0740740740741,4,2,1,70,0,1
86094,-74.0740740740741,4,2,2,87,0,1
86188,-74.0740740740741,4,2,1,70,0,1
86283,-74.0740740740741,4,2,2,87,0,1
86375,-74.0740740740741,4,2,1,70,0,1
86469,-74.0740740740741,4,2,2,87,0,1
86938,-74.0740740740741,4,2,1,70,0,1
87032,-74.0740740740741,4,2,2,87,0,1
87125,-74.0740740740741,4,2,1,70,0,1
87219,-74.0740740740741,4,2,2,87,0,1
87313,-74.0740740740741,4,2,2,87,0,1
87407,-74.0740740740741,4,2,2,87,0,1
87688,-74.0740740740741,4,2,1,70,0,1
87782,-74.0740740740741,4,2,2,87,0,1
87875,-74.0740740740741,4,2,1,70,0,1
87969,-74.0740740740741,4,2,2,87,0,1
88625,-74.0740740740741,4,2,1,70,0,1
88719,-74.0740740740741,4,2,2,87,0,1
89000,-74.0740740740741,4,2,1,70,0,1
89094,-74.0740740740741,4,2,2,87,0,1
89188,-74.0740740740741,4,2,1,70,0,1
89282,-74.0740740740741,4,2,2,87,0,1
89375,-74.0740740740741,4,2,1,70,0,1
89469,-74.0740740740741,4,2,2,87,0,1
89750,-74.0740740740741,4,2,1,70,0,1
89844,-74.0740740740741,4,2,2,87,0,1
89938,-74.0740740740741,4,2,2,87,0,1
90032,-74.0740740740741,4,2,2,87,0,1
90125,-74.0740740740741,4,2,1,70,0,1
90219,-74.0740740740741,4,2,2,87,0,1
90313,-74.0740740740741,4,2,2,87,0,1
90407,-74.0740740740741,4,2,2,87,0,1
90688,-74.0740740740741,4,2,1,70,0,1
90782,-74.0740740740741,4,2,2,87,0,1
90875,-74.0740740740741,4,2,1,70,0,1
90969,-74.0740740740741,4,2,2,87,0,1
91250,-74.0740740740741,4,2,1,70,0,1
91344,-74.0740740740741,4,2,2,87,0,1
91438,-74.0740740740741,4,2,1,70,0,1
91532,-74.0740740740741,4,2,2,87,0,1
91625,-74.0740740740741,4,2,1,70,0,1
91719,-74.0740740740741,4,2,2,87,0,1
92000,-74.0740740740741,4,2,1,70,0,1
92094,-74.0740740740741,4,2,2,87,0,1
92188,-74.0740740740741,4,2,1,70,0,1
92282,-74.0740740740741,4,2,2,87,0,1
92375,-74.0740740740741,4,2,1,70,0,1
92469,-74.0740740740741,4,2,2,87,0,1
92938,-74.0740740740741,4,2,1,70,0,1
93032,-74.0740740740741,4,2,2,87,0,1
93125,-74.0740740740741,4,2,1,70,0,1
93219,-74.0740740740741,4,2,2,87,0,1
93688,-74.0740740740741,4,2,1,70,0,1
93782,-74.0740740740741,4,2,2,87,0,1
93875,-74.0740740740741,4,2,1,70,0,1
93969,-74.0740740740741,4,2,2,87,0,1
94438,-74.0740740740741,4,2,2,87,0,1
94532,-74.0740740740741,4,2,2,65,0,0
94578,-74.0740740740741,4,2,2,40,0,0
94907,-74.0740740740741,4,2,2,65,0,0
94953,-74.0740740740741,4,2,2,40,0,0
95282,-74.0740740740741,4,2,2,65,0,0
96032,-74.0740740740741,4,2,1,70,0,0
96407,-83.3333333333333,4,2,1,70,0,0
96782,-83.3333333333333,4,2,1,50,0,0
96875,-83.3333333333333,4,2,1,70,0,0
96969,-83.3333333333333,4,2,1,50,0,0
97063,-83.3333333333333,4,2,1,70,0,0
97157,-83.3333333333333,4,2,1,50,0,0
97250,-83.3333333333333,4,2,1,70,0,0
97438,-83.3333333333333,4,2,1,50,0,0
97532,-83.3333333333333,4,2,1,70,0,0
97625,-83.3333333333333,4,2,1,50,0,0
97719,-83.3333333333333,4,2,1,70,0,0
97813,-83.3333333333333,4,2,1,50,0,0
97907,-83.3333333333333,4,2,1,70,0,0
98000,-83.3333333333333,4,2,1,50,0,0
98094,-83.3333333333333,4,2,1,70,0,0
98188,-83.3333333333333,4,2,1,50,0,0
98282,-83.3333333333333,4,2,1,70,0,0
98469,-83.3333333333333,4,2,1,50,0,0
98563,-83.3333333333333,4,2,1,70,0,0
98657,-83.3333333333333,4,2,1,50,0,0
98750,-83.3333333333333,4,2,1,70,0,0
98938,-83.3333333333333,4,2,1,50,0,0
99032,-83.3333333333333,4,2,1,70,0,0
99782,-83.3333333333333,4,2,1,50,0,0
99875,-83.3333333333333,4,2,1,70,0,0
99969,-83.3333333333333,4,2,1,50,0,0
100063,-83.3333333333333,4,2,1,70,0,0
100157,-83.3333333333333,4,2,1,50,0,0
100250,-83.3333333333333,4,2,1,70,0,0
100438,-83.3333333333333,4,2,1,50,0,0
100532,-83.3333333333333,4,2,1,70,0,0
100625,-83.3333333333333,4,2,1,50,0,0
100719,-83.3333333333333,4,2,1,70,0,0
100907,-83.3333333333333,4,2,1,50,0,0
101000,-83.3333333333333,4,2,1,70,0,0
101188,-83.3333333333333,4,2,1,50,0,0
101282,-83.3333333333333,4,2,1,70,0,0
101375,-83.3333333333333,4,2,1,50,0,0
101469,-83.3333333333333,4,2,1,70,0,0
101563,-83.3333333333333,4,2,1,50,0,0
101657,-83.3333333333333,4,2,1,70,0,0
101750,-83.3333333333333,4,2,1,50,0,0
101844,-83.3333333333333,4,2,1,70,0,0
101938,-83.3333333333333,4,2,1,50,0,0
102032,-74.0740740740741,4,2,1,70,0,0
102407,-83.3333333333333,4,2,1,70,0,0
102782,-83.3333333333333,4,2,1,50,0,0
102875,-83.3333333333333,4,2,1,70,0,0
102969,-83.3333333333333,4,2,1,50,0,0
103063,-83.3333333333333,4,2,1,70,0,0
103157,-83.3333333333333,4,2,1,50,0,0
103250,-83.3333333333333,4,2,1,70,0,0
103438,-83.3333333333333,4,2,1,50,0,0
103532,-83.3333333333333,4,2,1,70,0,0
103625,-83.3333333333333,4,2,1,50,0,0
103719,-83.3333333333333,4,2,1,70,0,0
103813,-83.3333333333333,4,2,1,50,0,0
103907,-83.3333333333333,4,2,1,70,0,0
104000,-83.3333333333333,4,2,1,50,0,0
104094,-83.3333333333333,4,2,1,70,0,0
104188,-83.3333333333333,4,2,1,50,0,0
104282,-83.3333333333333,4,2,1,70,0,0
104469,-83.3333333333333,4,2,1,50,0,0
104563,-83.3333333333333,4,2,1,70,0,0
104657,-83.3333333333333,4,2,1,50,0,0
104750,-83.3333333333333,4,2,1,70,0,0
104938,-83.3333333333333,4,2,1,50,0,0
105032,-83.3333333333333,4,2,1,70,0,0
105782,-83.3333333333333,4,2,1,50,0,0
105875,-83.3333333333333,4,2,1,70,0,0
105969,-83.3333333333333,4,2,1,50,0,0
106063,-83.3333333333333,4,2,1,70,0,0
106157,-83.3333333333333,4,2,1,50,0,0
106250,-83.3333333333333,4,2,1,70,0,0
106438,-83.3333333333333,4,2,1,50,0,0
106532,-83.3333333333333,4,2,1,70,0,0
106625,-83.3333333333333,4,2,1,50,0,0
106719,-83.3333333333333,4,2,1,70,0,0
106907,-83.3333333333333,4,2,1,50,0,0
107000,-83.3333333333333,4,2,1,70,0,0
107188,-83.3333333333333,4,2,1,50,0,0
107282,-83.3333333333333,4,2,1,70,0,0
107375,-83.3333333333333,4,2,1,50,0,0
107469,-83.3333333333333,4,2,1,70,0,0
107563,-83.3333333333333,4,2,1,50,0,0
107657,-66.6666666666667,4,2,1,70,0,0
108032,-76.9230769230769,4,2,1,70,0,0
108782,-68.9655172413793,4,2,1,70,0,0
109157,-83.3333333333333,4,2,1,50,0,0
109250,-83.3333333333333,4,2,1,70,0,0
109438,-83.3333333333333,4,2,1,50,0,0
109532,-68.9655172413793,4,2,1,70,0,0
109625,-68.9655172413793,4,2,1,50,0,0
109719,-68.9655172413793,4,2,1,70,0,0
109813,-68.9655172413793,4,2,1,50,0,0
109907,-68.9655172413793,4,2,1,70,0,0
110000,-68.9655172413793,4,2,1,50,0,0
110094,-68.9655172413793,4,2,1,70,0,0
110188,-68.9655172413793,4,2,1,50,0,0
110282,-68.9655172413793,4,2,1,70,0,0
110469,-68.9655172413793,4,2,1,50,0,0
110563,-68.9655172413793,4,2,1,70,0,0
110657,-68.9655172413793,4,2,1,50,0,0
110750,-68.9655172413793,4,2,1,70,0,0
110938,-68.9655172413793,4,2,1,50,0,0
111032,-68.9655172413793,4,2,1,70,0,0
111594,-83.3333333333333,4,2,1,70,0,0
111782,-83.3333333333333,4,2,1,50,0,0
111875,-83.3333333333333,4,2,1,70,0,0
111969,-83.3333333333333,4,2,1,50,0,0
112063,-83.3333333333333,4,2,1,70,0,0
112157,-83.3333333333333,4,2,1,50,0,0
112250,-83.3333333333333,4,2,1,70,0,0
112438,-83.3333333333333,4,2,1,50,0,0
112532,-68.9655172413793,4,2,1,70,0,0
112625,-68.9655172413793,4,2,1,50,0,0
112719,-68.9655172413793,4,2,1,70,0,0
112907,-83.3333333333333,4,2,1,50,0,0
113000,-83.3333333333333,4,2,1,70,0,0
113188,-83.3333333333333,4,2,1,50,0,0
113282,-76.9230769230769,4,2,1,65,0,0
113375,-76.9230769230769,4,2,1,50,0,0
113469,-76.9230769230769,4,2,1,65,0,0
113563,-76.9230769230769,4,2,1,50,0,0
113657,-71.4285714285714,4,2,1,65,0,0
113750,-71.4285714285714,4,2,1,50,0,0
113844,-71.4285714285714,4,2,1,65,0,0
113938,-71.4285714285714,4,2,1,50,0,0
114032,-68.9655172413793,4,2,1,50,0,0
120032,-64.5161290322581,4,2,1,65,0,0
130907,-50,4,2,1,65,0,0
131282,-100,4,2,1,65,0,0
132782,-100,4,2,1,45,0,0
135078,-100,4,2,1,27,0,0
135407,-100,4,2,1,45,0,0
135453,-100,4,2,1,27,0,0
135782,-100,4,2,1,45,0,0
136578,-100,4,2,1,27,0,0
136907,-100,4,2,1,45,0,0
136953,-100,4,2,1,27,0,0
137094,-100,4,2,1,45,0,0
137141,-100,4,2,1,27,0,0
137282,-100,4,2,1,45,0,0
139203,-100,4,2,1,27,0,0
139344,-100,4,2,1,45,0,0
139391,-100,4,2,1,0,0,0
139532,-100,4,2,1,45,0,0
139907,-100,4,2,2,45,0,0
140094,-100,4,2,1,45,0,0
141078,-100,4,2,1,27,0,0
141782,-100,4,2,1,45,0,0
144032,-100,4,2,1,53,0,0
145188,-100,4,2,1,30,0,0
145344,-100,4,2,1,53,0,0
153032,-100,4,2,1,48,0,0
153407,-83.3333333333333,4,2,1,48,0,0
155282,-133.333333333333,4,2,1,48,0,0
156032,-100,4,2,1,75,0,0
157719,-100,4,2,1,75,0,0
158094,-100,4,2,1,75,0,0
166532,-100,4,2,1,65,0,0
167657,-66.6666666666667,4,2,1,65,0,0
168032,-71.4285714285714,4,2,1,65,0,0
178532,-71.4285714285714,4,2,2,65,0,0
179657,-66.6666666666667,4,2,1,75,0,0
180032,-66.6666666666667,4,2,2,85,0,1
180125,-66.6666666666667,4,2,1,70,0,1
180219,-66.6666666666667,4,2,2,85,0,1
180313,-66.6666666666667,4,2,2,85,0,1
180407,-66.6666666666667,4,2,2,85,0,1
180500,-66.6666666666667,4,2,2,85,0,1
180594,-66.6666666666667,4,2,2,85,0,1
180688,-66.6666666666667,4,2,1,70,0,1
180782,-66.6666666666667,4,2,2,85,0,1
180875,-66.6666666666667,4,2,1,70,0,1
180969,-66.6666666666667,4,2,2,85,0,1
181250,-66.6666666666667,4,2,1,70,0,1
181344,-66.6666666666667,4,2,2,85,0,1
181438,-66.6666666666667,4,2,1,70,0,1
181532,-66.6666666666667,4,2,2,85,0,1
181625,-66.6666666666667,4,2,1,70,0,1
181719,-66.6666666666667,4,2,2,85,0,1
181969,-66.6666666666667,4,2,2,85,0,1
182000,-66.6666666666667,4,2,1,70,0,1
182094,-66.6666666666667,4,2,2,85,0,1
182188,-66.6666666666667,4,2,1,70,0,1
182282,-66.6666666666667,4,2,2,85,0,1
182375,-66.6666666666667,4,2,1,70,0,1
182469,-66.6666666666667,4,2,2,85,0,1
182938,-66.6666666666667,4,2,1,70,0,1
183032,-66.6666666666667,4,2,2,85,0,1
183125,-66.6666666666667,4,2,1,70,0,1
183219,-66.6666666666667,4,2,2,85,0,1
183313,-66.6666666666667,4,2,2,85,0,1
183407,-66.6666666666667,4,2,2,85,0,1
183500,-66.6666666666667,4,2,2,85,0,1
183594,-66.6666666666667,4,2,2,85,0,1
183688,-66.6666666666667,4,2,1,70,0,1
183782,-66.6666666666667,4,2,2,85,0,1
183875,-66.6666666666667,4,2,1,70,0,1
183969,-66.6666666666667,4,2,2,85,0,1
184625,-66.6666666666667,4,2,1,70,0,1
184719,-66.6666666666667,4,2,2,85,0,1
185000,-66.6666666666667,4,2,1,70,0,1
185094,-66.6666666666667,4,2,2,85,0,1
185188,-66.6666666666667,4,2,1,70,0,1
185282,-66.6666666666667,4,2,2,85,0,1
185375,-66.6666666666667,4,2,1,70,0,1
185469,-66.6666666666667,4,2,2,85,0,1
185938,-66.6666666666667,4,2,2,85,0,1
186032,-66.6666666666667,4,2,2,85,0,1
186125,-66.6666666666667,4,2,1,70,0,1
186219,-66.6666666666667,4,2,2,85,0,1
186313,-66.6666666666667,4,2,2,85,0,1
186407,-66.6666666666667,4,2,2,85,0,1
186688,-66.6666666666667,4,2,1,70,0,1
186782,-66.6666666666667,4,2,2,85,0,1
186875,-66.6666666666667,4,2,1,70,0,1
186969,-66.6666666666667,4,2,2,85,0,1
187250,-66.6666666666667,4,2,1,70,0,1
187344,-66.6666666666667,4,2,2,85,0,1
187438,-66.6666666666667,4,2,1,70,0,1
187532,-66.6666666666667,4,2,2,85,0,1
187626,-66.6666666666667,4,2,1,70,0,1
187719,-66.6666666666667,4,2,2,85,0,1
188000,-66.6666666666667,4,2,1,70,0,1
188094,-66.6666666666667,4,2,2,85,0,1
188188,-66.6666666666667,4,2,1,70,0,1
188282,-66.6666666666667,4,2,2,85,0,1
188375,-66.6666666666667,4,2,1,70,0,1
188469,-66.6666666666667,4,2,2,85,0,1
188938,-66.6666666666667,4,2,1,70,0,1
189032,-66.6666666666667,4,2,2,85,0,1
189125,-66.6666666666667,4,2,1,70,0,1
189219,-66.6666666666667,4,2,2,85,0,1
189500,-66.6666666666667,4,2,2,85,0,1
189594,-66.6666666666667,4,2,2,85,0,1
189688,-66.6666666666667,4,2,1,70,0,1
189782,-66.6666666666667,4,2,2,85,0,1
189875,-66.6666666666667,4,2,1,70,0,1
189969,-66.6666666666667,4,2,2,85,0,1
190250,-66.6666666666667,4,2,2,85,0,1
190344,-66.6666666666667,4,2,2,85,0,1
190437,-66.6666666666667,4,2,2,85,0,1
190532,-100,4,2,1,65,0,0
191282,-100,4,2,1,45,0,0
192032,-66.6666666666667,4,2,2,85,0,1
192125,-66.6666666666667,4,2,1,70,0,1
192219,-66.6666666666667,4,2,2,85,0,1
192313,-66.6666666666667,4,2,2,85,0,1
192407,-66.6666666666667,4,2,2,85,0,1
192688,-66.6666666666667,4,2,1,70,0,1
192782,-66.6666666666667,4,2,2,85,0,1
192876,-66.6666666666667,4,2,1,70,0,1
192969,-66.6666666666667,4,2,2,85,0,1
193250,-66.6666666666667,4,2,1,70,0,1
193344,-66.6666666666667,4,2,2,85,0,1
193438,-66.6666666666667,4,2,1,70,0,1
193532,-66.6666666666667,4,2,2,85,0,1
193625,-66.6666666666667,4,2,1,70,0,1
193719,-66.6666666666667,4,2,2,85,0,1
193781,-66.6666666666667,4,2,2,85,0,1
193907,-66.6666666666667,4,2,2,85,0,1
194000,-66.6666666666667,4,2,1,70,0,1
194094,-66.6666666666667,4,2,2,85,0,1
194188,-66.6666666666667,4,2,1,70,0,1
194282,-66.6666666666667,4,2,2,85,0,1
194375,-66.6666666666667,4,2,1,70,0,1
194469,-66.6666666666667,4,2,2,85,0,1
194938,-66.6666666666667,4,2,1,70,0,1
195032,-66.6666666666667,4,2,2,85,0,1
195125,-66.6666666666667,4,2,1,70,0,1
195219,-66.6666666666667,4,2,2,85,0,1
195313,-66.6666666666667,4,2,2,85,0,1
195407,-66.6666666666667,4,2,2,85,0,1
195688,-66.6666666666667,4,2,1,70,0,1
195782,-66.6666666666667,4,2,2,85,0,1
195875,-66.6666666666667,4,2,1,70,0,1
195969,-66.6666666666667,4,2,2,85,0,1
196625,-66.6666666666667,4,2,1,70,0,1
196719,-66.6666666666667,4,2,2,85,0,1
197000,-66.6666666666667,4,2,1,70,0,1
197094,-66.6666666666667,4,2,2,85,0,1
197187,-66.6666666666667,4,2,1,70,0,1
197282,-66.6666666666667,4,2,2,85,0,1
197375,-66.6666666666667,4,2,1,70,0,1
197469,-66.6666666666667,4,2,2,85,0,1
197750,-66.6666666666667,4,2,1,70,0,1
197844,-66.6666666666667,4,2,2,85,0,1
197938,-66.6666666666667,4,2,2,85,0,1
198032,-66.6666666666667,4,2,2,85,0,1
198500,-66.6666666666667,4,2,1,70,0,1
198594,-66.6666666666667,4,2,2,85,0,1
198688,-66.6666666666667,4,2,1,70,0,1
198782,-66.6666666666667,4,2,2,85,0,1
199250,-66.6666666666667,4,2,1,70,0,1
199344,-66.6666666666667,4,2,2,85,0,1
199438,-66.6666666666667,4,2,1,70,0,1
199532,-66.6666666666667,4,2,2,85,0,1
200000,-66.6666666666667,4,2,1,70,0,1
200094,-66.6666666666667,4,2,2,85,0,1
200188,-66.6666666666667,4,2,1,70,0,1
200282,-66.6666666666667,4,2,2,85,0,1
200750,-66.6666666666667,4,2,1,70,0,1
200844,-66.6666666666667,4,2,2,85,0,1
200938,-66.6666666666667,4,2,1,70,0,1
201032,-66.6666666666667,4,2,2,85,0,1
202532,-66.6666666666667,4,2,1,65,0,0
202782,-66.6666666666667,4,2,1,30,0,0
202907,-50,4,2,1,65,0,0
203610,-50,4,2,1,0,0,0
203657,-50,4,2,1,65,0,0
204032,-62.5,4,2,1,75,0,0
214532,-62.5,4,2,1,50,0,0
216032,-100,4,2,1,65,0,0
218657,-83.3333333333333,4,2,1,65,0,0
219032,-100,4,2,1,65,0,0
224657,-83.3333333333333,4,2,1,65,0,0
225032,-100,4,2,1,65,0,0
228219,-83.3333333333333,4,2,1,65,0,0
238532,-83.3333333333333,4,2,2,50,0,0
239657,-83.3333333333333,4,2,2,65,0,0
240031,-83.3333333333333,4,2,1,65,0,0
240078,-83.3333333333333,4,2,2,45,0,0
240782,-83.3333333333333,4,2,1,33,0,0
241157,-83.3333333333333,4,2,2,30,0,0
241532,-83.3333333333333,4,2,1,27,0,0
241907,-83.3333333333333,4,2,2,24,0,0
242282,-83.3333333333333,4,2,1,21,0,0
242657,-83.3333333333333,4,2,2,18,0,0
243032,-83.3333333333333,4,2,1,15,0,0
243782,-83.3333333333333,4,2,2,12,0,0
244157,-83.3333333333333,4,2,1,10,0,0
244532,-83.3333333333333,4,2,2,0,0,0

[Colours]
Combo1 : 155,88,200
Combo2 : 221,255,157
Combo3 : 176,242,230
Combo4 : 255,51,51
Combo5 : 119,186,255
Combo6 : 252,108,255
Combo7 : 255,193,255
Combo8 : 252,255,106

[HitObjects]
39,57,32,6,0,L|172:68,1,120,4|0,3:2|0:0,0:0:0:0:
229,77,407,1,8,1:2:0:0:
134,134,594,1,2,0:1:0:0:
229,77,782,6,0,L|362:66,1,120,2|2,3:0|1:3,0:0:0:0:
419,59,1157,2,0,L|414:114,1,40,8|0,1:1|0:0,0:0:0:0:
405,164,1344,1,0,0:0:0:0:
387,271,1532,101,2,3:2:0:0:
387,271,1719,5,2,0:0:0:0:
484,238,1907,1,8,1:0:0:0:
466,328,2094,1,2,0:1:0:0:
405,164,2282,102,0,L|272:153,1,120,0|2,3:0|0:0,0:0:0:0:
285,154,2657,6,0,B|315:167|309:198|309:198|299:254|299:254|295:277|327:283,1,143.999995605469,8|0,1:1|0:0,0:0:0:0:
313,279,3032,2,0,L|180:290,1,120,0|0,3:0|0:0,0:0:0:0:
124,295,3407,1,8,1:2:0:0:
153,232,3594,1,2,0:1:0:0:
77,346,3782,102,0,P|50:294|76:243,1,120,2|2,3:0|1:3,0:0:0:0:
107,155,4157,6,0,L|67:151,1,40,8|0,1:1|0:0,0:0:0:0:
0,144,4344,1,0,0:0:0:0:
69,66,4532,101,2,3:2:0:0:
69,66,4719,5,2,0:0:0:0:
107,155,4907,1,8,0:0:0:0:
165,77,5094,1,2,0:1:0:0:
160,214,5282,102,0,B|146:246|112:239|112:239|52:229|52:229|28:224|21:259,1,160,2|10,3:2|1:1,0:0:0:0:
1,317,5844,1,2,0:0:0:0:
69,380,6032,2,0,L|78:276,1,80,4|0,3:2|0:0,0:0:0:0:
23,250,6407,1,8,1:2:0:0:
149,282,6594,1,2,0:1:0:0:
237,194,6782,2,0,P|214:140|244:91,2,120,2|2|0,3:0|1:3|0:0,0:0:0:0:
355,54,7532,5,2,3:2:0:0:
355,54,7719,101,2,0:0:0:0:
281,143,7907,1,8,1:2:0:0:
395,162,8094,1,2,0:1:0:0:
324,252,8282,6,0,L|314:371,1,120,0|2,3:0|0:0,0:0:0:0:
314,371,8657,102,0,B|276:392|237:362|237:362|213:341|177:349,1,143.999995605469,8|0,1:1|0:0,0:0:0:0:
179,349,9032,6,0,L|46:360,1,120,0|0,3:0|0:0,0:0:0:0:
9,301,9407,1,8,1:2:0:0:
82,288,9594,1,2,0:1:0:0:
5,195,9782,101,2,3:0:0:0:
6,175,9875,1,2,0:3:0:0:
8,155,9969,1,2,0:3:0:0:
10,135,10063,1,2,1:3:0:0:
11,115,10157,6,0,L|16:51,1,40,8|0,1:0|0:0,0:0:0:0:
85,41,10344,1,0,0:0:0:0:
85,171,10532,101,2,3:2:0:0:
85,171,10719,5,2,0:0:0:0:
85,41,10907,1,8,1:2:0:0:
197,106,11094,1,2,0:1:0:0:
26,229,11282,102,0,B|40:261|74:254|74:254|134:244|134:244|158:239|165:274,1,160,2|2,3:2|1:0,0:0:0:0:
176,339,11750,1,0,1:0:0:0:
176,339,11843,1,2,1:2:0:0:
176,339,11937,1,0,1:0:0:0:
176,339,12031,1,4,3:1:0:0:
236,294,12219,6,0,L|242:222,1,47.9999985351563,2|0,0:0|1:0,0:0:0:0:
248,179,12407,1,8,1:2:0:0:
181,201,12594,1,2,0:1:0:0:
317,262,12782,102,0,L|323:190,1,47.9999985351563,0|0,3:0|0:0,0:0:0:0:
324,144,12969,2,0,L|330:72,1,47.9999985351563,2|0,0:0|0:0,0:0:0:0:
333,29,13157,1,10,1:2:0:0:
405,119,13344,1,0,1:0:0:0:
406,95,13437,1,0,1:0:0:0:
408,71,13531,1,4,3:1:0:0:
333,29,13719,6,0,L|261:35,1,47.9999985351563,2|0,0:0|1:0,0:0:0:0:
215,40,13907,1,8,1:2:0:0:
258,96,14094,1,2,0:1:0:0:
144,47,14282,2,0,L|72:53,2,47.9999985351563,0|0|2,3:0|0:0|0:0,0:0:0:0:
125,129,14657,102,0,L|119:192,1,47.9999985351563,10|0,1:2|0:0,0:0:0:0:
48,169,14844,2,0,L|42:232,1,47.9999985351563,2|0,1:2|0:0,0:0:0:0:
36,284,15032,1,4,3:1:0:0:
28,362,15219,6,0,L|91:356,1,47.9999985351563,2|0,0:0|1:0,0:0:0:0:
144,355,15407,1,8,1:2:0:0:
102,300,15594,1,2,0:1:0:0:
217,350,15782,102,0,L|280:344,2,47.9999985351563,0|0|2,3:0|0:0|0:0,0:0:0:0:
144,355,16063,1,0,0:0:0:0:
144,355,16157,2,0,P|133:309|157:269,1,95.9999970703126,10|0,1:2|1:0,0:0:0:0:
194,201,16532,1,4,3:1:0:0:
146,205,16625,1,0,1:0:0:0:
98,209,16719,1,0,1:0:0:0:
146,115,16907,6,0,L|150:67,1,47.9999985351563,10|0,1:2|0:0,0:0:0:0:
153,2,17094,1,2,0:0:0:0:
78,137,17282,1,0,3:0:0:0:
216,96,17469,101,2,0:0:0:0:
219,48,17562,1,2,0:0:0:0:
223,0,17656,1,10,1:2:0:0:
146,115,17844,1,2,0:0:0:0:
290,77,18032,5,4,3:1:0:0:
290,77,18219,2,0,L|286:125,1,47.9999985351563,2|0,0:0|1:0,0:0:0:0:
282,191,18407,1,8,1:2:0:0:
348,159,18594,1,2,0:1:0:0:
215,224,18782,102,0,L|211:272,1,47.9999985351563,0|0,3:0|0:0,0:0:0:0:
141,308,18969,2,0,L|137:356,1,47.9999985351563,2|0,0:0|0:0,0:0:0:0:
207,341,19157,1,10,1:2:0:0:
70,277,19344,1,0,1:0:0:0:
68,300,19437,1,0,1:0:0:0:
66,324,19531,1,4,3:1:0:0:
141,308,19719,6,0,L|145:260,1,47.9999985351563,2|0,0:0|1:0,0:0:0:0:
149,186,19907,1,8,1:2:0:0:
215,224,20094,1,2,0:1:0:0:
153,117,20282,2,0,L|157:69,2,47.9999985351563,0|0|2,3:0|0:0|0:0,0:0:0:0:
121,14,20657,102,0,P|166:2|206:25,1,95.9999970703126,10|0,1:2|1:0,0:0:0:0:
310,28,21032,5,12,3:1:0:0:
308,52,21125,1,0,1:0:0:0:
306,75,21219,1,2,1:2:0:0:
304,99,21313,1,0,1:0:0:0:
302,123,21407,1,8,1:2:0:0:
325,121,21500,1,0,1:0:0:0:
349,119,21594,1,2,1:0:0:0:
373,117,21688,1,0,1:0:0:0:
397,115,21782,101,2,3:1:0:0:
400,142,21875,1,0,1:0:0:0:
402,171,21969,1,2,1:2:0:0:
405,200,22063,1,0,1:0:0:0:
407,228,22157,1,8,1:2:0:0:
380,225,22250,1,2,1:2:0:0:
351,223,22344,1,2,1:2:0:0:
322,220,22438,1,2,1:2:0:0:
294,218,22532,5,0,3:0:0:0:
294,218,22907,101,0,0:0:0:0:
294,218,23282,5,0,0:0:0:0:
294,218,23657,102,0,B|255:183|187:214|219:248|172:275|117:249,1,191.999994140625,0|2,0:0|0:0,0:0:0:0:
184,48,32657,69,0,0:0:0:0:
328,48,32844,101,0,0:0:0:0:
256,16,33032,6,0,L|256:144,1,120,2|0,0:0|0:0,0:0:0:0:
248,208,33782,101,0,0:0:0:0:
340,189,33969,5,0,0:0:0:0:
407,227,34157,101,0,0:0:0:0:
424,294,34344,5,0,0:0:0:0:
423,323,34532,101,2,0:0:0:0:
89,323,34907,5,2,0:0:0:0:
256,216,35282,101,2,0:0:0:0:
256,368,35657,5,2,0:0:0:0:
256,216,36032,70,0,L|256:176,3,30.0000011444092,4|0|0|0,3:2|0:0|0:0|0:0,0:0:0:0:
329,200,36407,6,0,L|400:206,1,60.0000022888184,8|0,0:0|3:0,0:0:0:0:
457,214,36688,1,0,0:0:0:0:
457,214,36782,1,0,0:0:0:0:
380,134,36969,2,0,L|451:140,1,60.0000022888184,8|2,0:0|0:1,0:0:0:0:
422,62,37344,1,2,3:2:0:0:
422,62,37438,1,2,0:0:0:0:
422,62,37532,2,0,L|424:32,3,30.0000011444092,4|0|0|0,3:2|0:0|0:0|0:0,0:0:0:0:
336,48,37907,102,0,L|265:54,1,60.0000022888184,8|0,0:0|3:0,0:0:0:0:
206,60,38188,1,0,0:0:0:0:
206,60,38282,2,0,L|181:62,4,20,0|0|0|0|8,0:0|0:0|0:0|0:0|0:0,0:0:0:0:
85,73,38657,5,2,0:1:0:0:
39,135,38844,1,10,0:0:0:0:
40,152,38938,1,2,0:0:0:0:
42,170,39032,2,0,L|48:241,1,60.0000022888184,4|0,3:2|0:0,0:0:0:0:
7,313,39407,102,0,L|78:319,1,60.0000022888184,8|0,0:0|3:0,0:0:0:0:
130,365,39688,1,0,1:0:0:0:
130,365,39782,1,0,1:0:0:0:
208,276,39969,6,0,L|210:244,3,20.0000007629395,10|2|2|0,0:2|0:0|0:0|1:0,0:0:0:0:
201,345,40344,1,0,3:0:0:0:
270,315,40532,1,2,0:0:0:0:
336,281,40719,1,0,0:0:0:0:
337,350,40907,101,0,1:0:0:0:
337,350,41000,2,0,L|386:354,2,30.0000011444092,0|0|0,1:0|3:0|1:0,0:0:0:0:
443,358,41282,5,2,1:1:0:0:
336,281,41469,1,8,0:0:0:0:
336,281,41657,2,0,L|333:251,3,30.0000011444092,0|0|8|0,1:0|1:0|0:0|0:0,0:0:0:0:
327,175,42032,102,0,L|398:181,1,60.0000022888184,6|0,3:2|0:0,0:0:0:0:
459,189,42407,1,8,0:0:0:0:
459,189,42594,1,0,3:0:0:0:
424,122,42782,1,0,0:0:0:0:
389,61,42969,2,0,L|387:41,2,20.0000007629395,10|2|2,0:0|0:0|0:0,0:0:0:0:
380,73,43157,6,0,P|339:54|298:68,1,90.0000034332277,2|0,0:0|0:0,0:0:0:0:
247,121,43532,2,0,L|253:200,1,60.0000022888184,4|0,3:2|0:0,0:0:0:0:
256,248,43907,1,8,0:0:0:0:
191,217,44094,1,0,3:0:0:0:
194,286,44282,102,0,L|196:312,6,15.0000005722046,0|0|0|0|2|0|0,0:0|0:0|0:0|0:0|0:0|0:0|0:0,0:0:0:0:
203,365,44657,1,10,0:0:0:0:
242,383,44750,1,0,1:0:0:0:
275,357,44844,1,0,3:0:0:0:
304,327,44938,1,0,1:0:0:0:
338,346,45032,6,0,P|366:295|343:242,1,120,6|0,3:2|0:0,0:0:0:0:
402,187,45407,102,0,P|378:146|333:139,1,96,2|0,1:2|0:0,0:0:0:0:
255,134,45782,6,0,B|235:105|251:77|269:78|290:41|258:7|258:7|220:19|227:50,1,191.999994140625,2|2,1:2|0:0,0:0:0:0:
14,51,47282,54,0,P|54:74|100:63,1,95.9999970703126
100,62,48032,102,0,P|69:112|86:170,1,120,6|0,3:2|0:0,0:0:0:0:
153,192,48407,1,8,0:0:0:0:
154,122,48594,1,0,0:0:0:0:
88,244,48782,6,0,L|79:339,1,80,2|2,3:2|0:3,0:0:0:0:
81,323,49063,1,0,3:0:0:0:
81,323,49157,1,8,0:0:0:0:
177,294,49344,1,0,3:0:0:0:
223,368,49532,102,0,P|279:352|329:383,1,120,6|0,3:2|0:0,0:0:0:0:
330,288,49907,2,0,P|386:302|414:353,1,120,10|0,0:0|0:0,0:0:0:0:
465,268,50282,2,0,P|506:308|505:367,1,120,2|0,3:2|3:0,0:0:0:0:
414,353,50657,1,8,0:0:0:0:
330,288,50844,1,0,3:0:0:0:
385,200,51032,6,0,L|289:192,1,80,6|0,3:2|0:0,0:0:0:0:
232,184,51407,1,8,0:0:0:0:
271,125,51594,1,0,0:0:0:0:
262,258,51782,102,0,L|166:250,1,80,2|2,3:2|0:3,0:0:0:0:
182,251,52063,1,0,3:0:0:0:
182,251,52157,1,8,0:0:0:0:
306,193,52344,1,0,3:0:0:0:
255,329,52532,5,6,3:2:0:0:
255,329,52719,2,0,L|250:376,1,40
342,328,52907,101,10,0:0:0:0:
342,328,53094,2,0,L|337:375,1,40
429,327,53282,5,2,3:2:0:0:
435,252,53469,1,2,0:1:0:0:
437,232,53562,1,2,3:1:0:0:
438,213,53656,1,10,0:1:0:0:
444,138,53844,1,0,3:0:0:0:
368,176,54032,101,6,3:2:0:0:
368,176,54219,1,0,3:0:0:0:
275,80,54407,5,8,0:0:0:0:
275,80,54594,1,0,3:0:0:0:
155,139,54782,101,2,3:2:0:0:
155,139,54969,1,0,3:0:0:0:
174,270,55157,5,8,0:0:0:0:
174,270,55344,1,0,3:0:0:0:
305,293,55532,101,6,3:2:0:0:
305,293,55719,1,0,3:0:0:0:
257,187,55907,5,10,0:0:0:0:
257,187,56094,1,0,3:0:0:0:
174,270,56282,102,0,L|169:325,2,40,2|0|0,3:2|0:0|3:0,0:0:0:0:
152,141,56657,1,8,0:0:0:0:
275,80,56844,1,0,3:0:0:0:
271,207,57032,5,6,3:2:0:0:
258,212,57125,1,0,3:0:0:0:
245,207,57219,1,0,3:0:0:0:
239,194,57313,1,0,3:0:0:0:
245,181,57407,1,8,3:2:0:0:
258,175,57500,1,0,3:0:0:0:
271,181,57594,1,0,3:0:0:0:
276,194,57688,1,0,3:0:0:0:
289,229,57782,101,2,3:2:0:0:
259,239,57875,1,0,3:0:0:0:
230,229,57969,1,0,3:0:0:0:
217,199,58063,1,0,3:0:0:0:
230,170,58157,1,8,3:2:0:0:
259,157,58250,1,0,3:0:0:0:
289,170,58344,1,0,3:0:0:0:
299,199,58438,1,0,3:0:0:0:
289,229,58532,6,0,B|261:292|194:278|194:278|75:258|75:258|28:248|14:317,1,320,2|0,3:2|0:0,0:0:0:0:
256,24,59657,101,0,0:0:0:0:
20,60,60032,22,0,P|64:46|107:66,1,95.9999970703126,4|0,3:1|0:0,0:0:0:0:
61,119,60313,1,0,3:0:0:0:
60,134,60407,2,0,L|55:181,2,47.9999985351563,8|0|2,1:2|1:0|3:2,0:0:0:0:
52,260,60782,5,0,3:0:0:0:
76,257,60875,1,0,1:0:0:0:
100,255,60969,1,0,1:0:0:0:
124,253,61063,1,0,3:0:0:0:
148,251,61157,1,8,1:0:0:0:
189,324,61344,101,2,3:2:0:0:
213,325,61438,1,0,1:0:0:0:
237,328,61532,2,0,L|225:200,1,95.9999970703126,2|0,3:2|0:0,0:0:0:0:
220,165,61813,1,0,3:0:0:0:
219,150,61907,2,0,L|214:103,2,47.9999985351563,8|0|2,1:2|1:0|3:2,0:0:0:0:
210,23,62282,5,0,3:0:0:0:
234,26,62375,1,0,1:0:0:0:
258,28,62469,1,0,1:0:0:0:
282,30,62563,1,0,3:0:0:0:
306,32,62657,101,8,1:2:0:0:
309,56,62750,1,0,1:0:0:0:
311,80,62844,1,2,3:2:0:0:
313,104,62938,1,0,1:0:0:0:
315,128,63032,2,0,L|325:247,1,95.9999970703126,2|0,3:2|1:0,0:0:0:0:
331,289,63313,1,0,3:0:0:0:
332,304,63407,2,0,L|337:351,2,47.9999985351563,8|0|2,1:2|1:0|3:2,0:0:0:0:
416,272,63782,5,0,3:0:0:0:
440,275,63875,1,0,1:0:0:0:
464,277,63969,1,0,1:0:0:0:
488,279,64063,1,0,3:0:0:0:
512,281,64157,1,8,1:2:0:0:
500,204,64344,2,0,L|495:148,1,47.9999985351563,2|0,3:2|0:0,0:0:0:0:
464,128,64532,101,2,3:2:0:0:
467,104,64625,1,0,1:0:0:0:
469,80,64719,1,0,1:0:0:0:
471,56,64813,1,0,3:0:0:0:
473,32,64907,1,8,1:2:0:0:
385,75,65094,5,0,3:0:0:0:
397,155,65282,1,2,3:2:0:0:
399,179,65376,1,0,1:0:0:0:
401,203,65470,1,0,1:0:0:0:
403,227,65564,1,0,3:0:0:0:
406,251,65657,1,8,1:2:0:0:
421,350,65844,1,2,3:2:0:0:
327,313,66032,101,4,3:1:0:0:
327,313,66219,1,2,3:2:0:0:
161,289,66407,5,8,1:2:0:0:
161,289,66594,1,0,3:0:0:0:
133,132,66782,101,0,3:0:0:0:
133,132,66969,1,2,3:2:0:0:
274,57,67157,5,8,1:2:0:0:
274,57,67344,1,0,3:0:0:0:
389,168,67532,101,0,3:0:0:0:
389,168,67719,1,2,3:2:0:0:
259,189,67907,5,8,1:2:0:0:
259,189,68094,1,0,3:0:0:0:
274,57,68282,1,0,3:0:0:0:
389,168,68469,1,2,3:2:0:0:
274,57,68657,1,8,1:2:0:0:
133,132,68844,1,0,3:0:0:0:
266,200,69032,101,0,3:0:0:0:
253,205,69125,1,0,3:0:0:0:
240,200,69219,1,2,3:2:0:0:
234,187,69313,1,0,3:0:0:0:
240,174,69407,1,8,3:2:0:0:
253,168,69500,1,0,3:0:0:0:
266,174,69594,1,2,3:2:0:0:
271,187,69688,1,0,3:0:0:0:
284,222,69782,5,0,3:0:0:0:
254,232,69875,1,0,3:0:0:0:
225,222,69969,1,2,3:2:0:0:
212,192,70063,1,0,3:0:0:0:
225,163,70157,1,8,3:2:0:0:
254,150,70250,1,0,3:0:0:0:
284,163,70344,1,2,3:2:0:0:
294,192,70438,1,0,3:0:0:0:
284,222,70532,102,0,B|263:241|263:241|275:312,2,90.0000034332277,2|2|2,3:0|3:0|3:0,0:0:0:0:
232,351,71282,6,0,P|288:363|332:326,1,120.000004577637,2|6,3:0|3:2,0:0:0:0:
273,301,71844,1,2,0:3:0:0:
422,256,72032,54,0,L|417:309,1,54.0000002059937,6|0,3:1|0:0,0:0:0:0:
414,337,72219,2,0,L|467:332,2,36.0000001373291,2|0|0,0:0|0:0|0:0,0:0:0:0:
412,355,72407,101,8,0:1:0:0:
432,183,72594,1,0,0:0:0:0:
362,222,72782,6,0,B|351:243|381:248|381:248|464:263|464:263|488:267|488:241,1,162.000000617981,2|2,3:1|0:0,0:0:0:0:
432,183,73157,2,0,L|443:55,1,108.000000411987,8|0,0:1|0:0,0:0:0:0:
447,9,73532,1,2,3:1:0:0:
347,30,73719,2,0,L|290:26,2,36.0000001373291,2|0|0,0:0|0:0|0:0,0:0:0:0:
346,44,73907,102,0,L|337:151,1,108.000000411987,8|0,0:1|0:0,0:0:0:0:
216,240,74282,2,0,L|207:132,1,108.000000411987,2|2,3:1|0:0,0:0:0:0:
194,21,74657,6,0,L|140:16,1,54.0000002059937,8|0,0:1|0:0,0:0:0:0:
71,6,74844,1,2,0:1:0:0:
123,126,75032,101,2,3:1:0:0:
60,188,75219,2,0,L|3:184,2,36.0000001373291,2|0|0,0:0|0:0|0:0,0:0:0:0:
76,191,75407,2,0,L|85:298,1,108.000000411987,8|0,0:1|0:0,0:0:0:0:
37,363,75782,5,2,3:1:0:0:
146,346,75969,1,2,0:0:0:0:
279,296,76157,102,0,L|333:291,1,54.0000002059937,8|0,0:1|0:0,0:0:0:0:
333,304,76344,1,0,0:0:0:0:
232,349,76532,6,0,P|208:302|225:252,1,108.000000411987,2|2,3:1|0:0,0:0:0:0:
168,169,76907,2,0,P|118:186|71:162,1,108.000000411987,8|2,0:1|0:0,0:0:0:0:
122,114,77282,1,2,3:1:0:0:
130,287,77469,1,2,0:2:0:0:
130,287,77563,1,2,0:2:0:0:
130,287,77657,1,8,0:1:0:0:
275,193,77844,1,2,0:1:0:0:
167,201,78032,101,2,3:1:0:0:
122,114,78219,2,0,L|126:57,2,36.0000001373291,2|0|0,0:0|0:0|0:0,0:0:0:0:
123,131,78407,6,0,P|169:107|219:124,1,108.000000411987,8|0,0:1|0:0,0:0:0:0:
274,192,78782,2,0,P|324:209|371:186,1,108.000000411987,2|2,3:1|0:0,0:0:0:0:
476,101,79157,102,0,L|465:220,1,108.000000411987,8|0,0:1|0:3,0:0:0:0:
461,284,79532,1,2,3:1:0:0:
459,362,79719,2,0,L|516:358,2,36.0000001373291,2|0|0,0:0|0:0|0:0,0:0:0:0:
444,362,79907,6,0,P|394:344|346:368,1,108.000000411987,8|0,0:1|0:0,0:0:0:0:
227,268,80282,2,0,P|276:250|324:274,1,108.000000411987,2|2,3:1|0:0,0:0:0:0:
474,161,80657,102,0,L|468:214,1,54.0000002059937,8|0,0:1|0:0,0:0:0:0:
461,284,80844,1,2,0:1:0:0:
396,178,81032,1,2,3:1:0:0:
484,86,81219,6,0,L|488:29,2,36.0000001373291,2|0|0,0:0|0:0|0:0,0:0:0:0:
470,85,81407,2,0,B|425:56|425:56|372:71,1,108.000000411987,10|0,0:1|0:0,0:0:0:0:
217,152,81782,2,0,B|261:123|261:123|314:138,1,108.000000411987,2|2,3:1|0:0,0:0:0:0:
369,263,82157,1,10,0:1:0:0:
396,178,82344,1,2,0:0:0:0:
389,336,82532,38,0,B|346:356|294:324|320:297|273:271|228:289,1,180.000006866455,2|0,0:0|0:0,0:0:0:0:
147,303,83282,6,0,L|151:255,3,30.0000011444092,0|0|2|2,0:0|0:0|0:0|0:0,0:0:0:0:
67,280,83657,101,2,0:0:0:0:
67,268,83750,1,0,0:0:0:0:
68,257,83844,1,0,0:0:0:0:
69,246,83938,1,0,0:0:0:0:
70,235,84032,54,0,L|85:59,1,162.000000617981,6|0,3:1|0:0,0:0:0:0:
165,136,84407,2,0,B|228:124|228:124|263:142|263:142|326:131,1,162.000000617981,10|0,0:1|0:0,0:0:0:0:
377,70,84782,2,0,B|409:116|409:116|389:226,1,162.000000617981,2|2,3:1|0:0,0:0:0:0:
306,304,85157,2,0,B|369:292|369:292|404:310|404:310|467:299,1,162.000000617981,10|0,0:1|0:0,0:0:0:0:
497,358,85532,6,0,P|526:310|458:232,1,162.000000617981,2|0,3:1|0:0,0:0:0:0:
390,112,85907,2,0,B|365:157|365:157|475:138,1,162.000000617981,10|0,0:1|0:0,0:0:0:0:
392,21,86283,2,0,L|230:6,1,162.000000617981,2|2,3:1|0:0,0:0:0:0:
107,39,86657,102,0,B|152:14|152:14|133:124,1,162.000000617981,10|0,0:1|0:0,0:0:0:0:
51,206,87032,2,0,L|213:191,1,162.000000617981,2|0,3:1|0:0,0:0:0:0:
220,270,87407,2,0,L|382:285,1,162.000000617981,8|0,0:1|0:0,0:0:0:0:
409,354,87782,6,0,P|455:292|421:223,1,162.000000617981,2|2,3:1|0:0,0:0:0:0:
357,98,88157,2,0,B|420:146|420:146|494:109,1,162.000000617981,8|8,0:1|0:1,0:0:0:0:
412,16,88532,102,0,L|228:32,1,162.000000617981,10|0,3:1|0:0,0:0:0:0:
139,8,88907,2,0,B|187:71|187:71|150:145,1,162.000000617981,10|0,0:1|0:1,0:0:0:0:
100,84,89282,1,10,3:1:0:0:
23,205,89469,1,8,0:1:0:0:
55,208,89563,1,8,0:1:0:0:
88,211,89657,2,0,L|271:227,1,162.000000617981,8|0,0:1|0:0,0:0:0:0:
280,164,90032,6,0,P|319:229|277:293,1,162.000000617981,6|0,3:1|0:0,0:0:0:0:
295,360,90407,2,0,B|256:377|210:349|233:325|191:302|151:318,1,162.000000617981,10|0,0:1|0:0,0:0:0:0:
69,369,90782,102,0,L|53:186,1,162.000000617981,2|2,3:1|0:0,0:0:0:0:
0,134,91157,2,0,B|38:151|84:123|61:99|103:76|143:92,1,162.000000617981,10|0,0:1|0:0,0:0:0:0:
260,52,91532,6,0,P|220:117|262:181,1,162.000000617981,2|0,3:1|0:0,0:0:0:0:
405,185,91907,2,0,P|368:117|291:122,1,162.000000617981,10|0,0:1|0:0,0:0:0:0:
222,244,92282,2,0,P|298:245|333:177,1,162.000000617981,2|2,3:1|0:0,0:0:0:0:
291,122,92657,102,0,B|220:134|220:134|193:122|193:122|130:134,1,162.000000617981,10|0,0:1|0:0,0:0:0:0:
68,146,93032,1,2,3:1:0:0:
3,158,93219,2,0,L|-1:205,2,36.0000001373291,2|0|0,0:0|0:0|0:0,0:0:0:0:
7,145,93407,6,0,B|125:124|125:124|152:156,1,162.000000617981,8|0,0:1|0:0,0:0:0:0:
177,219,93782,2,0,B|203:251|203:251|322:230,1,162.000000617981,2|2,3:1|0:0,0:0:0:0:
430,149,94157,102,0,B|396:222|396:222|444:288,1,162.000000617981,8|0,0:1|0:0,0:0:0:0:
491,213,94532,1,2,0:1:0:0:
256,192,94625,12,12,95657,0:1:0:0:
78,57,96032,86,0,L|46:54,9,18.0000000686646,2|0|0|0|0|0|0|0|0|0,0:0|0:0|0:0|0:0|0:0|0:0|0:0|0:0|0:0|0:0,0:0:0:0:
143,65,96407,2,0,L|151:160,1,95.9999970703126,4|0,3:1|0:0,0:0:0:0:
158,229,96688,1,0,1:0:0:0:
158,229,96782,2,0,L|210:231,1,47.9999985351563,2|0,3:1|1:0,0:0:0:0:
168,302,97063,1,0,1:0:0:0:
168,302,97157,2,0,L|234:307,2,47.9999985351563,8|0|0,0:0|1:0|1:0,0:0:0:0:
324,356,97532,5,2,3:1:0:0:
332,260,97719,1,0,1:0:0:0:
340,164,97907,1,8,1:2:0:0:
349,69,98094,1,0,1:0:0:0:
272,110,98282,1,2,3:1:0:0:
272,110,98375,2,0,L|177:118,1,95.9999970703126,0|0,1:0|1:0,0:0:0:0:
103,123,98657,1,8,0:0:0:0:
103,123,98751,2,0,L|101:71,1,47.9999985351563,0|0,1:0|1:0,0:0:0:0:
30,137,99032,102,0,L|25:184,1,47.9999985351563,2|0,3:1|0:0,0:0:0:0:
143,181,99407,6,0,L|132:295,1,95.9999970703126,8|0,0:0|0:0,0:0:0:0:
215,349,99688,1,0,1:0:0:0:
215,349,99782,2,0,P|208:326|215:303,2,47.9999985351563,2|0|0,3:1|1:0|0:0,0:0:0:0:
284,355,100063,1,0,1:0:0:0:
284,355,100157,2,0,P|294:333|291:310,2,47.9999985351563,8|0|0,0:0|1:0|1:0,0:0:0:0:
257,248,100532,101,2,3:1:0:0:
266,179,100719,1,0,1:0:0:0:
266,179,100813,2,0,L|271:113,2,47.9999985351563,0|8|0,1:0|0:0|1:0,0:0:0:0:
257,248,101094,1,0,1:0:0:0:
327,221,101282,1,2,3:1:0:0:
327,221,101469,1,0,1:0:0:0:
191,208,101657,5,8,1:2:0:0:
191,208,101844,1,0,1:0:0:0:
250,318,102032,2,0,L|247:350,9,18.0000000686646,0|0|0|0|0|0|0|0|0|0,3:0|0:0|0:0|0:0|0:0|0:0|0:0|0:0|0:0|0:0,0:0:0:0:
335,347,102407,102,0,L|446:356,1,95.9999970703126,8|0,0:0|0:0,0:0:0:0:
498,361,102688,1,0,1:0:0:0:
498,361,102782,2,0,P|516:317|499:274,1,95.9999970703126,2|0,3:1|0:0,0:0:0:0:
473,211,103063,1,0,1:0:0:0:
473,211,103157,2,0,L|407:206,2,47.9999985351563,8|0|0,0:2|1:0|1:0,0:0:0:0:
328,299,103532,5,2,3:1:0:0:
323,212,103719,1,0,1:0:0:0:
243,248,103907,1,8,1:2:0:0:
248,335,104094,1,0,1:0:0:0:
243,248,104282,101,2,3:1:0:0:
243,248,104375,2,0,P|199:229|156:246,1,95.9999970703126,0|0,1:0|1:0,0:0:0:0:
150,319,104657,1,8,0:2:0:0:
150,319,104751,2,0,L|145:385,2,47.9999985351563,0|0|0,1:0|1:0|0:0,0:0:0:0:
156,245,105032,1,2,3:1:0:0:
27,75,105407,6,0,P|68:97|113:85,1,95.9999970703126,8|0,0:0|0:0,0:0:0:0:
186,43,105688,1,0,1:0:0:0:
186,43,105782,2,0,L|182:90,2,47.9999985351563,2|0|0,3:1|1:0|0:0,0:0:0:0:
259,59,106063,101,0,1:0:0:0:
259,59,106157,2,0,L|264:-7,2,47.9999985351563,8|0|0,0:2|1:0|1:0,0:0:0:0:
203,112,106532,1,2,3:1:0:0:
332,108,106719,5,0,1:0:0:0:
332,108,106813,2,0,L|337:42,1,47.9999985351563,0|8,1:0|0:0,0:0:0:0:
405,157,107000,101,0,1:0:0:0:
405,157,107094,2,0,L|410:91,1,47.9999985351563,0|0,1:0|0:0,0:0:0:0:
409,36,107282,5,2,3:1:0:0:
477,73,107469,1,0,1:0:0:0:
323,180,107657,102,0,B|275:188|275:188|242:275|242:275|202:282,1,180.000006866455,12|0,0:1|0:0,0:0:0:0:
135,292,108032,6,0,L|132:323,9,17.3333325398763,2|0|0|0|0|0|0|0|0|0,0:0|0:0|0:0|0:0|0:0|0:0|0:0|0:0|0:0|0:0,0:0:0:0:
62,302,108407,2,0,L|59:333,9,17.3333325398763,8|0|0|0|0|0|0|0|0|0,0:0|0:0|0:0|0:0|0:0|0:0|0:0|0:0|0:0|0:0,0:0:0:0:
81,197,108782,102,0,B|74:187|74:187|11:176,2,58.0000017700196,2|0|0,3:1|1:0|0:0,0:0:0:0:
150,173,109063,1,0,1:0:0:0:
139,244,109157,2,0,L|133:307,2,47.9999985351563,8|0|0,0:2|1:0|1:0,0:0:0:0:
155,95,109532,6,2,B|161:85|161:85|224:74,1,58.0000017700196,2|0,3:1|0:0,0:1:0:0:
272,64,109719,1,0,1:0:0:0:
272,64,109813,2,0,B|278:73|278:73|341:84,1,58.0000017700196,0|8,1:0|1:2,0:0:0:0:
391,97,110000,1,0,1:0:0:0:
392,114,110093,1,0,1:0:0:0:
394,131,110187,1,0,1:0:0:0:
395,149,110281,101,2,3:1:0:0:
395,149,110375,2,2,B|385:155|385:155|374:218,2,58.0000017700196,0|0|0,1:0|0:0|1:0,0:1:0:0:
403,265,110657,1,8,1:2:0:0:
379,267,110750,1,0,1:0:0:0:
356,269,110844,1,0,1:0:0:0:
282,332,111032,6,0,B|276:322|276:322|213:311,1,58.0000017700196,8|0,1:2|0:0,0:0:0:0:
160,335,111219,1,0,1:0:0:0:
160,335,111313,2,0,B|154:344|154:344|91:355,1,58.0000017700196,0|8,1:0|0:2,0:0:0:0:
46,347,111500,1,0,1:0:0:0:
47,329,111594,1,0,1:0:0:0:
49,312,111688,1,0,1:0:0:0:
50,295,111782,102,0,L|56:215,2,47.9999985351563,2|0|0,3:1|1:0|0:0,0:0:0:0:
56,176,112063,1,0,1:0:0:0:
56,176,112157,2,0,L|62:96,2,47.9999985351563,8|0|0,0:2|1:0|1:0,0:0:0:0:
61,58,112438,5,0,1:0:0:0:
61,58,112532,2,2,B|70:65|70:65|133:54,1,58.0000017700196,2|0,3:1|0:0,0:1:0:0:
191,46,112719,1,0,1:0:0:0:
191,46,112813,1,0,1:0:0:0:
191,46,112907,102,0,L|195:93,3,47.9999985351563,8|0|0|0,1:2|1:0|1:0|0:0,0:0:0:0:
283,78,113282,6,0,L|288:129,3,51.999997619629,2|0|0|0,3:1|0:0|1:0|0:0,0:0:0:0:
376,127,113657,102,0,L|382:193,3,55.9999982910157,8|0|0|0,1:2|0:0|1:0|0:0,0:0:0:0:
493,235,114032,86,0,B|484:242|484:242|421:231,1,58.0000017700196,2|0,3:1|0:0,0:0:0:0:
387,294,114219,1,0,1:0:0:0:
387,294,114313,2,0,B|378:301|378:301|332:292,1,58.0000017700196,0|8,1:0|0:0,0:0:0:0:
256,176,114594,5,0,1:0:0:0:
256,234,114687,1,0,1:0:0:0:
256,292,114782,2,0,B|256:372,1,58.0000017700196,2|0,3:1|0:0,0:0:0:0:
180,292,114969,2,0,B|134:301|134:301|125:294,1,58.0000017700196,0|0,1:0|0:0,0:0:0:0:
76,235,115157,1,8,0:0:0:0:
47,304,115344,1,0,0:0:0:0:
105,167,115532,102,0,B|119:155|119:155|166:147,1,58.0000017700196,2|0,3:1|1:0,0:0:0:0:
234,164,115719,1,0,1:0:0:0:
234,164,115813,2,0,B|248:175|248:175|295:183,1,58.0000017700196,0|8,1:0|1:2,0:0:0:0:
361,155,116000,1,0,1:0:0:0:
361,155,116094,2,0,L|367:75,1,58.0000017700196,0|0,1:0|0:0,0:0:0:0:
365,25,116282,6,0,L|307:29,3,58.0000017700196,2|0|0|0,3:1|0:0|0:0|0:0,0:0:0:0:
445,75,116657,1,8,1:2:0:0:
459,76,116750,1,0,1:0:0:0:
473,77,116844,1,0,1:0:0:0:
488,78,116938,1,0,1:0:0:0:
503,79,117032,102,0,B|509:96|509:96|500:143,1,58.0000017700196,2|0,3:1|1:0,0:0:0:0:
454,197,117219,1,0,1:0:0:0:
454,197,117313,2,0,B|447:214|447:214|456:261,1,58.0000017700196,0|8,1:0|1:2,0:0:0:0:
464,340,117500,1,0,1:0:0:0:
464,340,117594,2,0,L|406:334,1,58.0000017700196,0|0,1:0|0:0,0:0:0:0:
330,337,117782,5,2,3:1:0:0:
313,338,117875,1,0,1:0:0:0:
296,339,117969,1,0,1:0:0:0:
278,340,118063,1,0,1:0:0:0:
258,340,118157,2,0,B|210:344|210:344|195:361|195:361|84:371,1,174.000005310059,8|0,1:2|0:0,0:0:0:0:
29,329,118532,2,0,L|34:265,3,58.0000017700196,2|0|0|0,3:1|0:0|0:0|0:0,0:0:0:0:
96,157,118907,101,8,1:2:0:0:
114,179,119000,1,0,1:0:0:0:
121,207,119094,1,0,1:0:0:0:
117,235,119188,1,0,1:0:0:0:
102,259,119282,5,2,3:1:0:0:
128,237,119375,1,0,1:0:0:0:
162,229,119469,1,0,1:0:0:0:
195,233,119563,1,0,1:0:0:0:
224,251,119657,101,8,1:2:0:0:
258,273,119751,1,0,1:0:0:0:
298,278,119845,1,0,1:0:0:0:
339,268,119939,1,0,1:0:0:0:
370,242,120032,5,4,3:2:0:0:
314,183,120219,1,0,1:3:0:0:
308,162,120313,1,0,1:0:0:0:
286,161,120406,1,8,1:2:0:0:
279,182,120500,1,0,1:0:0:0:
296,195,120594,1,2,1:1:0:0:
444,110,120782,101,2,3:2:0:0:
449,89,120876,1,0,1:0:0:0:
430,77,120969,1,0,1:0:0:0:
414,91,121063,1,0,1:0:0:0:
422,112,121157,1,8,1:2:0:0:
448,216,121344,5,0,1:0:0:0:
445,246,121437,1,0,1:0:0:0:
442,277,121531,1,0,3:0:0:0:
332,327,121719,101,0,1:0:0:0:
314,340,121813,1,0,1:0:0:0:
322,361,121907,1,8,1:2:0:0:
344,360,122000,1,0,1:0:0:0:
349,339,122094,1,2,1:1:0:0:
274,254,122282,5,2,3:2:0:0:
272,235,122375,1,0,1:0:0:0:
270,216,122469,1,0,1:0:0:0:
269,198,122563,1,0,1:0:0:0:
247,164,122657,101,8,1:2:0:0:
248,141,122750,1,0,1:0:0:0:
250,118,122844,1,0,1:0:0:0:
251,96,122938,1,0,1:0:0:0:
274,69,123032,5,0,3:0:0:0:
378,157,123219,1,0,1:0:0:0:
383,136,123313,1,0,1:0:0:0:
405,135,123406,1,8,1:2:0:0:
413,156,123500,1,0,1:0:0:0:
395,169,123594,1,2,1:1:0:0:
334,278,123782,101,2,3:2:0:0:
354,272,123876,1,0,1:0:0:0:
366,291,123969,1,0,1:0:0:0:
352,307,124063,1,0,1:0:0:0:
331,299,124157,1,8,1:2:0:0:
445,226,124344,5,0,1:0:0:0:
448,195,124438,1,0,1:0:0:0:
451,165,124532,1,0,3:0:0:0:
432,166,124625,1,0,1:0:0:0:
413,168,124719,1,0,1:0:0:0:
395,169,124813,1,0,1:0:0:0:
361,187,124907,101,8,1:2:0:0:
339,188,125001,1,0,1:0:0:0:
316,190,125095,1,2,1:1:0:0:
293,191,125188,1,0,1:0:0:0:
270,192,125282,6,0,L|265:254,3,62.0000004730225,2|0|0|0,3:2|1:0|1:0|1:0,0:0:0:0:
170,223,125657,102,0,L|165:285,3,62.0000004730225,8|0|0|0,1:2|1:0|1:0|1:0,0:0:0:0:
61,278,126032,5,4,3:1:0:0:
61,278,126219,1,0,1:0:0:0:
80,96,126407,101,8,1:2:0:0:
80,96,126594,1,2,1:1:0:0:
258,57,126782,5,2,3:2:0:0:
258,57,126969,1,0,1:0:0:0:
350,214,127157,101,8,1:2:0:0:
350,214,127344,1,2,1:1:0:0:
229,350,127532,5,2,3:2:0:0:
229,350,127719,1,0,1:0:0:0:
204,221,127907,101,8,1:2:0:0:
186,215,128000,1,0,1:0:0:0:
186,196,128094,1,2,1:1:0:0:
204,190,128188,1,0,1:0:0:0:
214,205,128282,6,0,L|205:300,2,62.0000004730225,2|0|0,3:2|1:0|1:0,0:0:0:0:
224,115,128563,1,0,1:0:0:0:
224,115,128657,2,0,L|229:53,1,62.0000004730225,8|0,1:2|0:0,0:0:0:0:
315,51,128844,2,0,L|376:45,1,62.0000004730225,2|0,1:1|0:0,0:0:0:0:
461,77,129032,101,2,3:2:0:0:
439,100,129125,1,0,1:0:0:0:
430,129,129219,1,2,1:1:0:0:
433,159,129313,1,0,1:0:0:0:
449,186,129407,5,10,3:2:0:0:
476,212,129500,1,0,1:0:0:0:
487,247,129594,1,2,1:1:0:0:
483,283,129688,1,0,1:0:0:0:
464,315,129782,101,2,3:2:0:0:
432,342,129875,1,0,1:0:0:0:
389,344,129969,1,2,1:1:0:0:
355,319,130063,1,0,1:0:0:0:
344,278,130157,5,10,3:2:0:0:
325,233,130250,1,0,1:0:0:0:
281,212,130344,1,2,1:1:0:0:
234,225,130438,1,0,1:0:0:0:
208,266,130532,1,0,3:0:0:0:
87,229,130907,102,0,B|141:219|141:219|157:229|146:246|146:246|78:258|78:258|66:275|82:286|82:286|151:274,1,240,0|0,1:0|0:0,0:0:0:0:
208,266,131282,6,0,L|201:345,2,53.3333333333333,8|0|0,1:2|1:0|1:0,0:0:0:0:
213,192,131657,1,8,1:0:0:0:
198,384,132032,53,4,0:0:0:0:
113,23,144032,70,0,L|207:15,1,80,6|0,3:2|0:0,0:0:0:0:
175,95,144407,1,8,0:0:0:0:
158,166,144594,1,0,0:0:0:0:
234,149,144782,2,0,L|300:143,2,40,0|0|0,1:0|1:0|1:0,0:0:0:0:
138,242,145157,6,0,L|106:239,4,20,2|0|0|0|2,0:0|0:0|0:0|0:0|0:0,0:0:0:0:
210,258,145532,2,0,L|218:353,1,80,2|0,3:2|0:0,0:0:0:0:
292,360,145907,101,8,0:0:0:0:
357,318,146094,1,0,3:0:0:0:
432,341,146282,1,0,1:0:0:0:
497,299,146469,1,0,1:0:0:0:
512,186,146657,6,0,L|385:175,1,120,10|0,0:0|0:0,0:0:0:0:
335,229,147032,102,0,P|316:154|374:99,2,160,2|8|0,3:2|0:0|1:0,0:0:0:0:
335,229,148157,2,0,L|208:240,1,120,10|0,0:0|0:0,0:0:0:0:
166,174,148532,2,0,B|131:197|131:197|153:323,2,160,6|8|2,3:2|0:0|1:2,0:0:0:0:
51,0,149657,6,0,B|59:47|59:47|46:65|46:65|54:114,1,120,8|0,0:0|0:0,0:0:0:0:
64,182,150032,1,2,3:2:0:0:
64,182,150219,1,0,1:0:0:0:
125,140,150407,2,0,L|204:146,1,80,8|0,0:0|1:0,0:0:0:0:
269,154,150688,1,0,1:0:0:0:
269,154,150782,1,0,1:0:0:0:
200,72,150969,1,2,1:2:0:0:
125,140,151157,2,0,L|128:172,4,20,10|0|0|0|0,0:0|0:0|0:0|0:0|0:0,0:0:0:0:
131,263,151532,101,2,3:2:0:0:
131,263,151719,1,0,0:0:0:0:
137,363,151907,1,8,0:0:0:0:
221,311,152094,1,0,3:0:0:0:
221,311,152188,1,0,1:0:0:0:
221,311,152282,2,0,P|269:341|318:311,1,120,0|0,1:0|0:0,0:0:0:0:
319,241,152657,6,0,L|315:201,2,40,10|0|0,0:0|0:0|0:0,0:0:0:0:
306,133,153032,102,0,L|258:137,3,40,2|0|0|0,3:2|1:2|1:2|1:2,0:0:0:0:
300,54,153407,2,0,L|347:49,3,47.9999985351563,10|0|0|0,1:2|1:2|1:2|1:2,0:0:0:0:
419,42,153782,5,2,1:2:0:0:
421,65,153875,1,0,1:2:0:0:
423,89,153969,1,0,1:2:0:0:
425,113,154063,1,0,1:2:0:0:
427,137,154157,101,10,1:2:0:0:
430,164,154250,1,0,1:2:0:0:
432,193,154344,1,0,1:2:0:0:
434,222,154438,1,0,1:2:0:0:
437,251,154532,1,2,0:0:0:0:
33,324,155282,70,0,P|86:347|134:314,1,120.000004577637
133,314,156032,102,0,L|143:189,1,120,6|0,3:2|0:0,0:0:0:0:
150,130,156407,1,8,0:0:0:0:
205,175,156594,1,0,0:0:0:0:
154,64,156782,6,0,L|233:57,1,80,2|2,3:2|0:3,0:0:0:0:
306,52,157063,1,0,3:0:0:0:
306,52,157157,1,8,0:0:0:0:
276,116,157344,1,0,3:0:0:0:
355,2,157532,102,0,P|379:55|350:110,1,120,2|0,3:2|0:0,0:0:0:0:
407,162,157907,2,0,P|373:209|311:212,1,120,10|0,0:0|0:0,0:0:0:0:
292,286,158282,2,0,P|252:285|223:259,1,80,2|2,3:2|0:3,0:0:0:0:
188,197,158563,1,0,3:0:0:0:
188,197,158657,1,8,0:0:0:0:
148,262,158844,1,0,3:0:0:0:
211,355,159032,6,0,L|67:342,1,120,2|0,3:2|0:0,0:0:0:0:
21,332,159407,1,8,0:0:0:0:
66,276,159594,1,0,0:0:0:0:
0,186,159782,102,0,L|8:90,1,80,2|2,3:2|0:3,0:0:0:0:
16,36,160063,1,0,3:0:0:0:
16,36,160157,1,8,0:0:0:0:
73,80,160344,1,0,3:0:0:0:
0,186,160532,5,2,3:2:0:0:
0,186,160719,2,0,P|-6:204|-6:224,1,40
85,236,160907,101,10,0:2:0:0:
85,236,161094,2,0,P|88:255|98:272,1,40
182,231,161282,5,2,3:2:0:0:
0,186,161469,1,2,0:1:0:0:
0,186,161563,1,2,3:1:0:0:
0,186,161657,1,10,0:1:0:0:
47,354,161844,1,0,3:0:0:0:
98,272,162032,101,2,3:2:0:0:
98,272,162219,1,0,3:0:0:0:
98,112,162407,5,8,0:0:0:0:
98,112,162594,1,0,3:0:0:0:
256,16,162782,101,2,3:2:0:0:
256,16,162969,1,0,3:0:0:0:
414,112,163157,5,8,0:0:0:0:
414,112,163344,1,0,3:0:0:0:
414,272,163532,101,2,3:2:0:0:
414,272,163719,1,0,3:0:0:0:
256,368,163907,5,10,0:0:0:0:
256,368,164094,1,0,3:0:0:0:
256,192,164282,101,2,3:2:0:0:
256,192,164469,1,0,3:0:0:0:
256,368,164657,1,8,0:0:0:0:
414,272,164844,1,0,3:0:0:0:
272,211,165032,5,2,3:2:0:0:
259,216,165125,1,0,3:0:0:0:
246,211,165219,1,0,3:0:0:0:
240,198,165313,1,0,3:0:0:0:
246,185,165407,1,8,3:2:0:0:
259,179,165500,1,0,3:0:0:0:
272,185,165594,1,0,3:0:0:0:
277,198,165688,1,0,3:0:0:0:
290,233,165782,101,2,3:2:0:0:
260,243,165875,1,0,3:0:0:0:
231,233,165969,1,0,3:0:0:0:
218,203,166063,1,0,3:0:0:0:
231,174,166157,1,8,3:2:0:0:
260,161,166250,1,0,3:0:0:0:
290,174,166344,1,0,3:0:0:0:
300,203,166438,1,0,3:0:0:0:
289,234,166532,6,0,B|259:252|220:231|220:231|158:257|177:330|177:330|121:394|67:345,1,320,2|0,0:2|0:0,0:0:0:0:
68,345,167657,102,0,B|95:306|79:242|47:290|31:210|62:178,1,180.000006866455,4|0,3:1|0:0,0:0:0:0:
52,119,168032,21,6,3:2:0:0:
121,82,168219,1,0,1:0:0:0:
132,62,168313,1,2,3:2:0:0:
142,83,168407,1,8,1:2:0:0:
155,64,168500,1,0,1:0:0:0:
165,85,168594,1,2,3:2:0:0:
256,122,168782,5,2,3:2:0:0:
266,101,168876,1,0,1:0:0:0:
279,120,168969,1,0,1:0:0:0:
289,99,169063,1,2,3:2:0:0:
300,119,169157,1,8,1:2:0:0:
370,50,169344,101,2,3:2:0:0:
394,49,169438,1,0,1:0:0:0:
418,46,169532,2,0,L|406:176,1,111.999996582031,2|0,3:2|1:0,0:0:0:0:
401,226,169813,1,2,3:2:0:0:
400,241,169907,2,0,L|395:306,2,55.9999982910157,8|0|2,1:2|1:0|3:2,0:0:0:0:
340,345,170282,5,2,3:2:0:0:
330,324,170376,1,0,1:0:0:0:
317,343,170469,1,0,1:0:0:0:
307,322,170563,1,2,3:2:0:0:
296,342,170657,101,8,1:2:0:0:
282,366,170750,1,0,1:0:0:0:
270,340,170844,1,2,3:2:0:0:
255,363,170937,1,0,1:0:0:0:
243,338,171032,6,0,L|111:328,1,111.999996582031,2|0,3:2|0:0,0:0:0:0:
71,325,171313,1,2,3:2:0:0:
56,324,171407,2,0,L|-7:317,2,55.9999982910157,8|0|2,1:2|1:0|3:2,0:0:0:0:
64,218,171782,101,2,3:2:0:0:
43,208,171876,1,0,1:0:0:0:
62,195,171969,1,0,1:0:0:0:
41,185,172063,1,2,3:2:0:0:
61,174,172157,1,8,1:2:0:0:
49,56,172344,6,0,L|112:61,1,55.9999982910157,2|0,3:2|0:0,0:0:0:0:
134,86,172532,1,2,3:2:0:0:
144,65,172626,1,0,1:0:0:0:
157,84,172719,1,0,1:0:0:0:
167,63,172813,1,2,3:2:0:0:
178,83,172907,1,8,1:2:0:0:
256,16,173094,101,2,3:2:0:0:
334,83,173282,1,2,3:2:0:0:
345,63,173376,1,0,1:0:0:0:
355,84,173470,1,0,1:0:0:0:
368,65,173563,1,2,3:2:0:0:
378,86,173657,1,8,1:2:0:0:
464,160,173844,1,6,3:2:0:0:
383,259,174032,5,6,3:2:0:0:
383,259,174219,1,2,3:1:0:0:
256,352,174407,101,8,1:2:0:0:
256,352,174594,1,2,3:1:0:0:
129,259,174782,5,2,3:2:0:0:
129,259,174969,1,2,3:1:0:0:
129,125,175157,102,0,L|-3:133,1,111.999996582031,0|0,1:0|0:0,0:0:0:0:
129,125,175532,5,6,3:2:0:0:
129,125,175719,1,2,3:1:0:0:
256,32,175907,101,8,1:2:0:0:
256,32,176094,1,2,3:1:0:0:
383,125,176282,5,2,3:2:0:0:
383,125,176469,1,2,3:1:0:0:
366,192,176657,102,0,L|361:229,1,27.9999991455078,0|0,1:0|0:0,0:0:0:0:
405,198,176750,2,0,L|429:227,1,27.9999991455078,0|0,1:0|0:0,0:0:0:0:
440,177,176844,2,0,L|477:178,1,27.9999991455078,0|0,1:0|0:0,0:0:0:0:
456,146,176938,2,0,L|488:124,1,27.9999991455078,0|0,1:0|0:0,0:0:0:0:
450,108,177032,5,6,3:2:0:0:
452,85,177125,1,0,3:0:0:0:
454,61,177219,1,2,3:1:0:0:
456,37,177313,1,2,3:2:0:0:
458,13,177407,101,8,3:2:0:0:
430,15,177500,1,2,3:2:0:0:
401,17,177594,1,2,3:1:0:0:
372,20,177688,1,2,3:2:0:0:
344,22,177782,5,2,3:2:0:0:
341,55,177875,1,0,3:0:0:0:
339,90,177969,1,2,3:1:0:0:
335,125,178063,1,2,3:2:0:0:
333,158,178157,101,0,3:0:0:0:
293,161,178250,1,0,3:0:0:0:
251,164,178344,1,2,3:1:0:0:
209,168,178438,1,2,3:2:0:0:
169,170,178532,6,0,P|133:165|118:132,2,74.6666643880209
112,239,178907,2,0,P|124:272|103:301,2,74.6666643880209
199,254,179282,102,0,P|221:226|301:239,1,111.999996582031
417,326,179657,54,2,B|397:360|348:317|342:239|440:195,1,180.000006866455,6|0,1:1|0:0,0:1:0:0:
502,107,180032,6,0,B|461:82|406:103|438:136|361:152|337:116,1,180.000006866455,6|0,3:1|0:0,0:0:0:0:
271,85,180407,2,0,L|264:164,1,60.0000022888184,10|0,0:1|0:0,0:0:0:0:
260,212,180594,1,0,0:0:0:0:
203,49,180782,2,0,L|184:256,1,180.000006866455,2|2,3:1|0:0,0:0:0:0:
210,340,181157,102,0,B|226:356|258:345|249:280|151:284|111:340,1,180.000006866455,10|0,0:1|0:0,0:0:0:0:
48,380,181532,1,2,3:1:0:0:
22,244,181719,1,2,0:0:0:0:
113,337,181907,2,0,L|118:273,3,40.000001525879,10|0|0|0,0:1|0:0|0:0|0:0,0:0:0:0:
140,224,182282,5,2,3:1:0:0:
163,226,182375,1,0,3:0:0:0:
187,228,182469,1,2,3:2:0:0:
291,303,182657,102,0,B|306:348|306:348|349:343|395:287|365:220,1,180.000006866455,10|0,0:1|0:0,0:0:0:0:
442,273,183032,2,0,B|489:282|489:282|505:242|480:174|407:167,1,180.000006866455,2|0,3:1|0:0,0:0:0:0:
452,101,183407,2,0,L|392:106,1,60.0000022888184,8|0,0:1|0:0,0:0:0:0:
323,113,183594,1,0,0:0:0:0:
348,315,183782,6,0,B|342:363|397:382|397:382|439:344|416:304,1,180.000006866455,2|2,3:1|0:0,0:0:0:0:
373,249,184157,2,0,B|328:231|277:261|315:288|250:313|212:286,1,180.000006866455,8|8,0:1|0:1,0:0:0:0:
163,345,184532,102,0,P|140:261|215:214,1,180.000006866455,10|0,3:1|0:0,0:0:0:0:
209,139,184907,2,0,L|149:144,1,60.0000022888184,10|0,0:1|0:0,0:0:0:0:
77,151,185094,1,0,0:0:0:0:
214,63,185282,1,2,3:1:0:0:
206,213,185469,1,8,0:1:0:0:
204,273,185562,1,8,0:1:0:0:
149,242,185657,2,0,B|22:219|22:219|50:226|68:243,1,180.000006866455,8|0,0:1|0:0,0:0:0:0:
185,341,186032,6,0,B|229:358|280:328|242:301|307:276|345:303,1,180.000006866455,6|0,3:1|0:0,0:0:0:0:
378,368,186407,2,0,P|414:289|349:229,1,180.000006866455,10|0,0:1|0:0,0:0:0:0:
284,212,186782,101,2,3:1:0:0:
285,194,186875,1,0,3:0:0:0:
286,176,186969,1,2,3:2:0:0:
166,60,187157,6,0,B|147:48|115:59|124:124|222:120|262:64,1,180.000006866455,10|0,0:1|0:0,0:0:0:0:
328,47,187532,1,2,3:1:0:0:
329,65,187626,1,0,3:0:0:0:
330,83,187719,1,2,3:2:0:0:
356,229,187907,102,0,L|451:237,1,60.0000022888184,10|0,0:1|0:0,0:0:0:0:
492,241,188094,1,0,0:0:0:0:
456,176,188282,1,2,3:1:0:0:
444,304,188469,1,2,0:0:0:0:
283,224,188657,6,0,B|238:206|187:236|225:263|160:288|122:261,1,180.000006866455,10|0,0:1|0:0,0:0:0:0:
55,241,189032,1,2,3:1:0:0:
114,151,189219,2,0,L|110:190,2,40.000001525879,2|0|0,0:0|0:0|0:0,0:0:0:0:
115,139,189407,102,0,L|119:79,1,60.0000022888184,8|0,0:1|0:0,0:0:0:0:
122,11,189594,1,0,0:0:0:0:
206,125,189782,5,2,3:1:0:0:
18,169,189969,1,2,0:0:0:0:
119,260,190157,2,0,L|115:319,1,60.0000022888184,8|0,0:1|0:0,0:0:0:0:
180,334,190344,1,0,0:1:0:0:
191,333,190437,1,0,0:0:0:0:
203,332,190532,2,0,L|208:397,2,40,0|0|0,0:0|0:0|1:0,0:0:0:0:
284,328,190813,37,0,1:0:0:0:
284,328,190907,2,0,P|333:358|386:335,1,120,0|0,1:0|0:0,0:0:0:0:
452,291,191282,5,0,1:0:0:0:
444,282,191375,1,0,1:0:0:0:
441,270,191469,1,2,1:1:0:0:
443,258,191563,1,2,1:1:0:0:
467,234,191657,101,2,1:1:0:0:
474,225,191750,1,0,1:0:0:0:
472,213,191844,1,0,1:0:0:0:
463,205,191938,1,0,1:0:0:0:
436,183,192032,54,0,B|392:166|341:196|379:223|314:248|276:221,1,180.000006866455,6|0,3:1|0:0,0:0:0:0:
201,201,192407,2,0,B|261:138|261:138|218:56,1,180.000006866455,10|0,0:1|0:0,0:0:0:0:
148,68,192782,1,2,3:1:0:0:
149,86,192876,1,0,3:0:0:0:
150,104,192969,1,2,3:2:0:0:
160,277,193157,6,0,B|222:337|222:337|304:294,1,180.000006866455,10|0,0:1|0:0,0:0:0:0:
370,256,193532,1,2,3:1:0:0:
440,336,193719,2,0,L|436:375,2,40.000001525879,2|0|0,0:0|0:0|0:0,0:0:0:0:
441,314,193907,102,0,B|501:252|501:252|458:170,1,180.000006866455,10|0,0:1|0:0,0:0:0:0:
434,107,194282,1,2,3:1:0:0:
416,108,194375,1,0,3:0:0:0:
398,109,194469,1,2,3:2:0:0:
232,98,194657,6,0,B|226:146|281:165|281:165|323:127|300:87,1,180.000006866455,10|0,0:1|0:0,0:0:0:0:
256,22,195032,2,0,L|64:5,1,180.000006866455,2|0,3:1|0:0,0:0:0:0:
16,48,195407,2,0,B|59:131|59:131|0:193,1,180.000006866455,8|0,0:1|0:0,0:0:0:0:
0,264,195782,1,2,3:1:0:0:
1,282,195875,1,0,3:0:0:0:
2,300,195969,1,2,3:2:0:0:
128,313,196157,102,0,B|84:229|84:229|144:167,1,180.000006866455,8|8,0:1|0:1,0:0:0:0:
144,96,196532,1,10,3:1:0:0:
144,96,196719,2,0,L|207:101,1,60.0000022888184,2|0,0:0|0:0,0:0:0:0:
368,96,196907,1,10,0:1:0:0:
368,96,197094,2,0,L|304:101,1,60.0000022888184
256,32,197282,5,2,3:1:0:0:
240,224,197469,1,8,0:1:0:0:
240,164,197563,1,8,0:1:0:0:
291,194,197657,2,0,L|275:373,1,180.000006866455,8|0,0:1|0:0,0:0:0:0:
203,354,198032,101,6,3:1:0:0:
203,354,198219,1,2,0:0:0:0:
367,284,198407,5,10,0:1:0:0:
367,284,198594,1,0,0:0:0:0:
203,214,198782,101,2,3:1:0:0:
203,214,198969,1,2,0:0:0:0:
367,144,199157,5,10,0:1:0:0:
367,144,199344,1,0,0:0:0:0:
244,71,199532,101,2,3:1:0:0:
244,71,199719,1,2,0:0:0:0:
137,165,199907,5,10,0:1:0:0:
137,165,200094,1,0,0:0:0:0:
194,296,200282,101,2,3:1:0:0:
194,296,200469,1,8,0:1:0:0:
335,282,200657,5,10,0:1:0:0:
335,282,200844,1,8,0:1:0:0:
271,200,201032,1,2,3:1:0:0:
259,204,201125,1,0,0:0:0:0:
248,200,201219,1,2,0:0:0:0:
244,188,201313,1,2,0:0:0:0:
248,177,201407,1,8,0:1:0:0:
259,173,201500,1,0,0:0:0:0:
271,177,201594,1,2,0:0:0:0:
275,188,201688,1,0,0:0:0:0:
296,235,201782,101,2,0:1:0:0:
257,251,201875,1,0,0:0:0:0:
218,235,201969,1,2,0:0:0:0:
202,196,202063,1,2,0:0:0:0:
218,157,202157,1,8,0:1:0:0:
257,141,202250,1,0,0:0:0:0:
296,157,202344,1,2,0:0:0:0:
312,196,202438,1,0,0:0:0:0:
296,235,202532,53,0,0:0:0:0:
110,238,202907,6,2,B|31:251|31:251|-5:227|19:192|19:192|98:179|98:179|106:153|90:127|90:127|11:141|11:141|-34:117|0:78|0:78|205:42,1,640,0|4,0:0|1:3,0:1:0:0:
278,41,204032,6,0,B|266:104|266:104|248:117|248:117|237:180|237:180|278:219,1,192,12|2,1:1|0:1,0:0:0:0:
308,318,204407,2,0,B|319:254|319:254|337:241|337:241|348:178|348:178|307:139,1,192,8|0,1:0|0:0,0:0:0:0:
267,208,204782,6,0,B|188:194|188:194|153:204|153:204|59:187,2,192,8|10|2,1:1|1:2|1:1,0:0:0:0:
308,318,205532,102,0,P|364:359|383:264,1,192,14|2,1:0|0:1,0:0:0:0:
512,183,205907,2,0,P|456:224|437:129,1,192,8|0,1:0|0:0,0:0:0:0:
372,57,206282,6,0,B|482:76|482:76|451:-26,2,192,8|10|2,1:1|1:2|1:1,0:0:0:0:
237,33,207032,102,0,L|242:96,1,64,12|0,1:1|0:0,0:0:0:0:
247,160,207219,1,2,0:1:0:0:
249,185,207312,1,2,0:1:0:0:
251,211,207407,6,0,B|232:223|232:223|59:193,1,192,8|0,1:0|0:0,0:0:0:0:
0,131,207782,2,0,B|-12:149|-12:149|17:322,2,192,8|10|2,1:1|1:2|1:1,0:0:0:0:
127,35,208532,102,0,B|140:16|140:16|282:41|282:41|288:65,1,192,12|2,1:0|0:1,0:0:0:0:
304,146,208907,2,0,B|317:164|317:164|459:139|459:139|465:115,1,192,10|0,1:0|0:0,0:0:0:0:
465,115,209282,6,0,P|425:178|516:165,2,192,10|2|8,1:0|0:1|1:0,0:0:0:0:
354,21,210032,101,12,1:0:0:0:
354,21,210219,1,2,0:1:0:0:
304,146,210407,5,8,1:0:0:0:
304,146,210594,1,2,0:1:0:0:
208,48,210782,101,8,1:0:0:0:
208,48,210969,1,2,0:1:0:0:
158,173,211157,5,8,0:0:0:0:
158,173,211344,1,2,1:1:0:0:
62,75,211532,101,12,1:0:0:0:
62,75,211719,1,2,0:1:0:0:
12,200,211907,5,8,1:0:0:0:
12,200,212094,1,2,0:1:0:0:
76,143,212282,101,8,1:0:0:0:
63,271,212469,2,0,L|57:334,2,42.6666666666667,2|0|0,0:1|0:0|0:0,0:0:0:0:
76,270,212657,2,0,L|219:257,1,128,8|2,0:0|1:1,0:0:0:0:
348,276,213032,5,14,1:0:0:0:
335,281,213125,1,0,0:0:0:0:
322,276,213219,1,2,0:1:0:0:
316,263,213313,1,2,0:1:0:0:
322,250,213407,1,10,1:0:0:0:
335,244,213500,1,0,0:0:0:0:
348,250,213594,1,2,1:1:0:0:
353,263,213688,1,0,0:0:0:0:
366,298,213782,101,14,1:0:0:0:
336,308,213875,1,0,0:0:0:0:
307,298,213969,1,2,0:1:0:0:
294,268,214063,1,2,0:1:0:0:
307,239,214157,1,10,1:0:0:0:
336,226,214250,1,0,0:0:0:0:
366,239,214344,1,10,1:0:0:0:
376,268,214438,1,0,0:0:0:0:
366,298,214532,85,0,0:0:0:0:
256,16,215469,5,2,0:1:0:0:
256,28,215562,1,2,0:1:0:0:
256,41,215657,2,0,B|256:73|256:73|252:89|252:89|260:89|260:89|256:105|256:105|256:160,1,128,2|0,0:1|0:0,0:0:0:0:
39,327,216032,102,0,L|172:316,1,120,4|0,3:2|0:0,0:0:0:0:
229,307,216407,1,8,1:2:0:0:
134,250,216594,1,2,0:1:0:0:
229,307,216782,6,0,L|362:318,1,120,2|2,3:0|1:3,0:0:0:0:
419,325,217157,2,0,L|414:270,1,40,8|0,1:0|0:0,0:0:0:0:
405,220,217344,1,0,0:0:0:0:
387,113,217532,101,2,3:2:0:0:
387,113,217719,5,2,0:0:0:0:
484,146,217907,1,8,1:2:0:0:
466,56,218094,1,2,0:1:0:0:
405,220,218282,102,0,L|272:231,1,120,0|2,3:0|0:0,0:0:0:0:
285,230,218657,6,0,B|315:217|309:186|309:186|299:130|299:130|295:107|327:101,1,143.999995605469,10|0,1:0|0:0,0:0:0:0:
313,105,219032,2,0,L|180:94,1,120,0|0,3:0|0:0,0:0:0:0:
124,89,219407,1,8,1:0:0:0:
153,152,219594,1,2,0:1:0:0:
77,38,219782,102,0,P|50:90|76:141,1,120,2|2,3:0|1:3,0:0:0:0:
107,229,220157,6,0,L|67:233,1,40,8|0,1:0|0:0,0:0:0:0:
0,240,220344,1,0,0:0:0:0:
69,318,220532,101,2,3:2:0:0:
69,318,220719,5,2,0:0:0:0:
107,229,220907,1,8,1:2:0:0:
165,307,221094,1,2,0:1:0:0:
160,170,221282,102,0,B|146:138|112:145|112:145|52:155|52:155|28:160|21:125,1,160,2|10,3:2|1:0,0:0:0:0:
1,67,221844,1,2,0:0:0:0:
69,4,222032,2,0,L|78:108,1,80,4|0,3:2|0:0,0:0:0:0:
23,134,222407,1,8,1:2:0:0:
149,102,222594,1,2,0:1:0:0:
237,190,222782,2,0,P|214:244|244:293,2,120,2|2|0,3:0|1:3|0:0,0:0:0:0:
355,330,223532,5,2,3:2:0:0:
355,330,223719,101,2,0:0:0:0:
281,241,223907,1,8,1:2:0:0:
395,222,224094,1,2,0:1:0:0:
324,132,224282,6,0,L|314:13,1,120,0|2,3:0|0:0,0:0:0:0:
314,13,224657,102,0,B|276:-8|237:22|237:22|213:43|177:35,1,143.999995605469,8|0,1:0|0:0,0:0:0:0:
179,35,225032,6,0,L|46:24,1,120,0|0,3:0|0:0,0:0:0:0:
9,83,225407,1,8,1:2:0:0:
82,96,225594,1,2,0:1:0:0:
5,189,225782,101,2,3:0:0:0:
6,209,225875,1,2,0:3:0:0:
8,229,225969,1,2,0:3:0:0:
10,249,226063,1,2,1:3:0:0:
11,269,226157,6,0,L|16:333,1,40,8|0,1:0|0:0,0:0:0:0:
85,343,226344,1,0,0:0:0:0:
85,213,226532,101,2,0:0:0:0:
85,213,226719,5,2,0:0:0:0:
85,343,226907,1,8,0:0:0:0:
197,278,227094,1,2,0:1:0:0:
26,155,227282,102,0,B|40:123|74:130|74:130|134:140|134:140|158:145|165:110,1,160,2|10,0:0|1:0,0:0:0:0:
176,45,227750,1,0,1:0:0:0:
176,45,227843,1,2,1:2:0:0:
176,45,227937,1,0,1:0:0:0:
176,45,228031,1,4,3:1:0:0:
236,90,228219,6,0,L|242:162,1,47.9999985351563,2|0,0:0|1:0,0:0:0:0:
248,205,228407,1,8,1:2:0:0:
181,183,228594,1,2,0:1:0:0:
317,122,228782,102,0,L|323:194,1,47.9999985351563,0|0,3:0|0:0,0:0:0:0:
324,240,228969,2,0,L|330:312,1,47.9999985351563,2|0,0:0|0:0,0:0:0:0:
333,355,229157,1,10,1:2:0:0:
405,265,229344,1,0,1:0:0:0:
406,289,229437,1,0,1:0:0:0:
408,313,229531,1,4,3:1:0:0:
333,355,229719,6,0,L|261:349,1,47.9999985351563,2|0,0:0|1:0,0:0:0:0:
215,344,229907,1,8,1:2:0:0:
258,288,230094,1,2,0:1:0:0:
144,337,230282,2,0,L|72:331,2,47.9999985351563,0|0|2,3:0|0:0|0:0,0:0:0:0:
125,255,230657,102,0,L|119:192,1,47.9999985351563,10|0,1:2|0:0,0:0:0:0:
48,215,230844,2,0,L|42:152,1,47.9999985351563,2|0,0:0|0:0,0:0:0:0:
36,100,231032,1,4,3:1:0:0:
28,22,231219,6,0,L|91:28,1,47.9999985351563,0|0,0:0|1:0,0:0:0:0:
144,29,231407,1,8,1:2:0:0:
102,84,231594,1,2,0:1:0:0:
217,34,231782,102,0,L|280:40,2,47.9999985351563,0|0|2,3:0|0:0|0:0,0:0:0:0:
144,29,232063,1,0,0:0:0:0:
144,29,232157,2,0,P|133:75|157:115,1,95.9999970703126,10|0,1:2|1:0,0:0:0:0:
194,183,232532,1,4,3:1:0:0:
146,179,232625,1,0,1:0:0:0:
98,175,232719,1,0,1:0:0:0:
146,269,232907,6,0,L|150:317,1,47.9999985351563,10|0,1:2|0:0,0:0:0:0:
153,382,233094,1,2,0:2:0:0:
78,247,233282,1,0,3:0:0:0:
216,288,233469,101,2,0:0:0:0:
219,336,233562,1,2,0:0:0:0:
223,384,233656,1,10,1:2:0:0:
146,269,233844,1,2,0:2:0:0:
290,307,234032,5,4,3:1:0:0:
290,307,234219,2,0,L|286:259,1,47.9999985351563,0|0,0:0|1:0,0:0:0:0:
282,193,234407,1,8,1:2:0:0:
348,225,234594,1,2,0:1:0:0:
215,160,234782,102,0,L|211:112,1,47.9999985351563,0|0,3:0|0:0,0:0:0:0:
141,76,234969,2,0,L|137:28,1,47.9999985351563,2|0,0:0|0:0,0:0:0:0:
207,43,235157,1,10,1:2:0:0:
70,107,235344,1,0,1:0:0:0:
68,84,235437,1,0,1:0:0:0:
66,60,235531,1,4,3:1:0:0:
141,76,235719,6,0,L|145:124,1,47.9999985351563,0|0,0:0|1:0,0:0:0:0:
149,198,235907,1,8,1:2:0:0:
215,160,236094,1,2,0:1:0:0:
153,267,236282,2,0,L|157:315,2,47.9999985351563,0|0|2,3:0|0:0|0:0,0:0:0:0:
121,370,236657,102,0,P|166:382|206:359,1,95.9999970703126,10|0,1:2|0:0,0:0:0:0:
310,356,237032,5,12,3:1:0:0:
308,332,237125,1,0,1:0:0:0:
306,309,237219,1,2,1:2:0:0:
304,285,237313,1,0,1:0:0:0:
302,261,237407,1,8,1:2:0:0:
325,263,237500,1,0,1:0:0:0:
349,265,237594,1,2,1:1:0:0:
373,267,237688,1,0,1:0:0:0:
397,269,237782,101,2,3:1:0:0:
400,242,237875,1,0,1:0:0:0:
402,213,237969,1,0,1:0:0:0:
405,184,238063,1,0,1:0:0:0:
407,156,238157,1,8,1:2:0:0:
380,159,238250,1,0,1:0:0:0:
351,161,238344,1,0,1:0:0:0:
322,164,238438,1,0,1:0:0:0:
294,166,238532,5,0,3:0:0:0:
294,166,238907,101,0,0:0:0:0:
294,166,239282,5,0,0:0:0:0:
294,166,239657,102,0,B|255:201|187:170|219:136|172:109|117:135,1,191.999994140625,0|2,0:0|3:2,0:0:0:0:
