osu file format v14

[General]
AudioFilename: audio.mp3
AudioLeadIn: 0
PreviewTime: 287182
Countdown: 0
SampleSet: Normal
StackLeniency: 0.7
Mode: 3
LetterboxInBreaks: 0
EpilepsyWarning: 1
SpecialStyle: 0
WidescreenStoryboard: 1

[Editor]
Bookmarks: 46292,256801,319852
DistanceSpacing: 2
BeatDivisor: 8
GridSize: 4
TimelineZoom: 2.400001

[Metadata]
Title:Paradise Lost -Avatar Battle-
TitleUnicode:Paradise Lost -Avatar Battle-
Artist:TARO KOBAYASHI
ArtistUnicode:小林太郎
Creator:Sandalphon
Version:Heritor of the Legacy // 4K
Source:グランブルーファンタジー
Tags:Critical_Star Kuo Kyoka GBF GRANBLUE FANTASY ORIGINAL SOUNDTRACK Paradise Lost - EP 成田勤
BeatmapID:1604009
BeatmapSetID:762953

[Difficulty]
HPDrainRate:8
CircleSize:4
OverallDifficulty:8.5
ApproachRate:5
SliderMultiplier:1.4
SliderTickRate:1

[Events]
//Background and Video events
0,0,"67707620_p0.jpg",0,0
//Break Periods
2,254967,267276
//Storyboard Layer 0 (Background)
//Storyboard Layer 1 (Fail)
//Storyboard Layer 2 (Pass)
//Storyboard Layer 3 (Foreground)
Sprite,Foreground,Centre,"storyboard\panel.png",320,240 M,0,530,784,510,600,510,400 M,0,784,351631,510,400 F,0,349852,350360,1,0
Sprite,Foreground,Centre,"storyboard\sage.png",320,240 M,0,530,784,480,600,480,400 M,0,784,238496,480,400 F,0,238496,,1
Sprite,Foreground,Centre,"storyboard\sandal.png",320,240 S,0,530,,0.25 M,0,530,784,530,600,530,400 M,0,784,238496,530,400 F,0,238496,,1
Sprite,Foreground,Centre,"storyboard\sage-glitched.png",320,240 M,0,238496,,480,400 F,0,238496,246631,1
Sprite,Foreground,Centre,"storyboard\sandal-glitched.png",320,240 M,0,238496,,530,400 S,0,238496,,0.25 F,0,238496,246631,1
Sprite,Foreground,Centre,"storyboard\sage-glitched.png",320,240 M,0,287309,319852,480,400 F,0,319343,319852,1,0
Sprite,Foreground,Centre,"storyboard\sandal-glitched.png",320,240 S,0,287309,,0.25 M,0,287309,319852,530,400 F,0,319343,319852,1,0
Sprite,Foreground,Centre,"storyboard\sage-glitched.png",320,240 L,0,15 P,0,287818,,A F,0,287818,288326,1,0 F,0,288326,288835,0 M,0,287818,,480,400
Sprite,Foreground,Centre,"storyboard\sandal-glitched.png",320,240 L,0,15 P,0,287818,,A F,0,287818,288326,1,0 F,0,288326,288835,0 M,0,287818,,530,400 S,0,287818,,0.25
Sprite,Foreground,Centre,"storyboard\sage-glitched.png",320,240 L,0,15 P,0,304089,,A F,0,304089,304597,1,0 F,0,304597,305106,0 M,0,304089,,480,400
Sprite,Foreground,Centre,"storyboard\sandal-glitched.png",320,240 L,0,15 P,0,304089,,A F,0,304089,304597,1,0 F,0,304597,305106,0 M,0,304089,,530,400 S,0,304089,,0.25
Sprite,Foreground,Centre,"storyboard\sage-glitched.png",320,240 L,0,8 F,0,286801,286864,1,0 M,0,286801,,480,400
Sprite,Foreground,Centre,"storyboard\sandal-glitched.png",320,240 L,0,8 F,0,286801,286864,1,0 M,0,286801,,530,400 S,0,286801,,0.25
Sprite,Foreground,Centre,"storyboard\sage-glitched.png",320,240 M,0,250699,,480,400 F,0,250699,254767,1
Sprite,Foreground,Centre,"storyboard\sandal-glitched.png",320,240 M,0,250699,,530,400 S,0,250699,,0.25 F,0,250699,254767,1
Sprite,Foreground,Centre,"storyboard\sage.png",320,240 M,0,246631,250699,480,400
Sprite,Foreground,Centre,"storyboard\sandal.png",320,240 S,0,246631,,0.25 M,0,246631,250699,530,400
Sprite,Foreground,Centre,"storyboard\sage.png",320,240 M,0,254767,286292,480,400 F,0,286038,286292,1,0
Sprite,Foreground,Centre,"storyboard\sandal.png",320,240 S,0,254767,,0.25 M,0,254767,286292,530,400 F,0,286038,286292,1,0
Sprite,Foreground,Centre,"storyboard\sage.png",320,240 F,0,319343,319852,0,1 M,0,319343,350360,480,400 F,0,319852,349852,1 F,0,349852,350360,1,0
Sprite,Foreground,Centre,"storyboard\sandal.png",320,240 S,0,319343,,0.25 F,0,319343,319852,0,1 M,0,319343,350360,530,400 F,0,319852,349852,1 F,0,349852,350360,1,0
Sprite,Foreground,Centre,"storyboard\sage.png",320,240 L,0,15 P,0,320360,,A F,0,320360,320868,1,0 F,0,320868,321377,0 M,0,320360,,480,400
Sprite,Foreground,Centre,"storyboard\sandal.png",320,240 L,0,15 P,0,320360,,A F,0,320360,320868,1,0 F,0,320868,321377,0 M,0,320360,,530,400 S,0,320360,,0.25
Sprite,Foreground,Centre,"storyboard\sage.png",320,240 L,0,15 P,0,86462,,A F,0,86462,86970,1,0 F,0,86970,87479,0 M,0,86462,,480,400
Sprite,Foreground,Centre,"storyboard\sage.png",320,240 L,0,15 P,0,102733,,A F,0,102733,103241,1,0 F,0,103241,103750,0 M,0,102733,,480,400
Sprite,Foreground,Centre,"storyboard\sandal.png",320,240 L,0,15 P,0,86462,,A F,0,86462,86970,1,0 F,0,86970,87479,0 M,0,86462,,530,400 S,0,86462,,0.25
Sprite,Foreground,Centre,"storyboard\sandal.png",320,240 L,0,15 P,0,102733,,A F,0,102733,103241,1,0 F,0,103241,103750,0 M,0,102733,,530,400 S,0,102733,,0.25
Sprite,Foreground,Centre,"storyboard\sage.png",320,240 L,0,15 F,0,154152,154216,1,0 M,0,154152,,480,400
Sprite,Foreground,Centre,"storyboard\sandal.png",320,240 L,0,15 F,0,154152,154216,1,0 M,0,154152,,530,400 S,0,154152,,0.25
Sprite,Foreground,Centre,"storyboard\sage.png",320,240 L,0,15 P,0,155614,,A F,0,155614,156123,1,0 F,0,156123,156631,0 M,0,155614,,480,400
Sprite,Foreground,Centre,"storyboard\sandal.png",320,240 L,0,15 P,0,155614,,A F,0,155614,156123,1,0 F,0,156123,156631,0 M,0,155614,,530,400 S,0,155614,,0.25
Sprite,Foreground,Centre,"storyboard\sage.png",320,240 L,0,15 P,0,171885,,A F,0,171885,172394,1,0 F,0,172394,172902,0 M,0,171885,,480,400
Sprite,Foreground,Centre,"storyboard\sandal.png",320,240 L,0,15 P,0,171885,,A F,0,171885,172394,1,0 F,0,172394,172902,0 M,0,171885,,530,400 S,0,171885,,0.25
Sprite,Foreground,Centre,"storyboard\difficulty-1.png",320,240 S,0,348835,,0.75 F,0,348835,349852,1 M,0,348835,350360,320,245 F,0,349852,350360,1,0
Sprite,Foreground,Centre,"storyboard\difficulty-1.png",320,240 S,0,348835,,0.75 P,0,348835,,A F,0,348835,349852,1 M,0,348835,350360,320,245 F,0,349852,350360,1,0
Sprite,Foreground,Centre,"storyboard\you.png",320,240 M,0,530,784,415,635,415,435 S,0,784,,1.75 M,0,784,351504,415,435 F,0,349852,350360,1,0
Sprite,Foreground,Centre,"storyboard\#1.png",320,240 M,0,530,784,405,572.5,405,372.5 S,0,784,,0.625 M,0,784,351504,405,372.5 F,0,349852,350360,1,0
Sprite,Foreground,Centre,"storyboard\medal.png",320,240 M,0,530,784,615,580,615,380 M,0,1546,351504,615,380 F,0,349852,350360,1,0
Sprite,Foreground,Centre,"storyboard\medal.png",320,240 L,0,15 P,0,86462,,A F,0,86462,86970,1,0 F,0,86970,87479,0 M,0,86462,,615,380
Sprite,Foreground,Centre,"storyboard\medal.png",320,240 L,0,15 P,0,102733,,A F,0,102733,103241,1,0 F,0,103241,103750,0 M,0,102733,,615,380
Sprite,Foreground,Centre,"storyboard\medal.png",320,240 L,0,15 P,0,155614,,A F,0,155614,156123,1,0 F,0,156123,156631,0 M,0,155614,,615,380
Sprite,Foreground,Centre,"storyboard\medal.png",320,240 L,0,15 P,0,171885,,A F,0,171885,172394,1,0 F,0,172394,172902,0 M,0,171885,,615,380
Sprite,Foreground,Centre,"storyboard\medal.png",320,240 L,0,15 P,0,287818,,A F,0,287818,288326,1,0 F,0,288326,288835,0 M,0,287818,,615,380
Sprite,Foreground,Centre,"storyboard\medal.png",320,240 L,0,15 P,0,304089,,A F,0,304089,304597,1,0 F,0,304597,305106,0 M,0,304089,,615,380
Sprite,Foreground,Centre,"storyboard\medal.png",320,240 L,0,15 P,0,320360,,A F,0,320360,320868,1,0 F,0,320868,321377,0 M,0,320360,,615,380
Sprite,Foreground,Centre,"storyboard\menu.png",320,240 M,0,530,784,1400,335,723.5,335 S,0,784,,1.5 M,0,784,351504,723.5,335 F,0,349852,350360,1,0
//Storyboard Sound Samples

[TimingPoints]
530,508.474576271186,4,1,1,50,1,0
16292,-66.6666666666667,4,1,1,50,0,0
16419,-200,4,1,1,50,0,0
16546,-66.6666666666667,4,1,1,50,0,0
16674,-200,4,1,1,50,0,0
16801,-100,4,1,1,50,0,0
69682,-40,4,1,1,50,0,0
69746,-200,4,1,1,50,0,0
69936,-40,4,1,1,50,0,0
70000,-200,4,1,1,50,0,0
70191,-100,4,1,1,50,0,0
70699,-40,4,1,1,50,0,0
70763,-200,4,1,1,50,0,0
70953,-40,4,1,1,50,0,0
71017,-200,4,1,1,50,0,0
71207,-100,4,1,1,50,0,0
71716,-40,4,1,1,50,0,0
71779,-200,4,1,1,50,0,0
71970,-40,4,1,1,50,0,0
72034,-200,4,1,1,50,0,0
72224,-100,4,1,1,50,0,0
73750,-40,4,1,1,50,0,0
73813,-200,4,1,1,50,0,0
74004,-40,4,1,1,50,0,0
74068,-200,4,1,1,50,0,0
74258,-100,4,1,1,50,0,0
74767,-40,4,1,1,50,0,0
74830,-200,4,1,1,50,0,0
75021,-40,4,1,1,50,0,0
75085,-200,4,1,1,50,0,0
75275,-100,4,1,1,50,0,0
75784,-40,4,1,1,50,0,0
75847,-200,4,1,1,50,0,0
76038,-40,4,1,1,50,0,0
76102,-200,4,1,1,50,0,0
76292,-100,4,1,1,50,0,0
77818,-40,4,1,1,50,0,0
77881,-200,4,1,1,50,0,0
78072,-40,4,1,1,50,0,0
78135,-200,4,1,1,50,0,0
78326,-100,4,1,1,50,0,0
78835,-40,4,1,1,50,0,0
78898,-200,4,1,1,50,0,0
79089,-40,4,1,1,50,0,0
79152,-200,4,1,1,50,0,0
79343,-100,4,1,1,50,0,0
79852,-40,4,1,1,50,0,0
79915,-200,4,1,1,50,0,0
80106,-40,4,1,1,50,0,0
80169,-200,4,1,1,50,0,0
80360,-100,4,1,1,50,0,0
81885,-40,4,1,1,50,0,0
81949,-200,4,1,1,50,0,0
82140,-40,4,1,1,50,0,0
82203,-200,4,1,1,50,0,0
82394,-100,4,1,1,50,0,0
82902,-40,4,1,1,50,0,0
82966,-200,4,1,1,50,0,0
83157,-40,4,1,1,50,0,0
83220,-200,4,1,1,50,0,0
83411,-100,4,1,1,50,0,0
83919,-40,4,1,1,50,0,0
83983,-200,4,1,1,50,0,0
84174,-40,4,1,1,50,0,0
84237,-200,4,1,1,50,0,0
84428,-100,4,1,1,50,0,0
85953,-100,4,1,1,70,0,1
118496,-100,4,1,1,50,0,0
138835,-40,4,1,1,50,0,0
138899,-200,4,1,1,50,0,0
139089,-40,4,1,1,50,0,0
139153,-200,4,1,1,50,0,0
139344,-100,4,1,1,50,0,0
139852,-40,4,1,1,50,0,0
139916,-200,4,1,1,50,0,0
140106,-40,4,1,1,50,0,0
140170,-200,4,1,1,50,0,0
140360,-100,4,1,1,50,0,0
140869,-40,4,1,1,50,0,0
140932,-200,4,1,1,50,0,0
141123,-40,4,1,1,50,0,0
141187,-200,4,1,1,50,0,0
141377,-100,4,1,1,50,0,0
142903,-40,4,1,1,50,0,0
142966,-200,4,1,1,50,0,0
143157,-40,4,1,1,50,0,0
143221,-200,4,1,1,50,0,0
143411,-100,4,1,1,50,0,0
143920,-40,4,1,1,50,0,0
143983,-200,4,1,1,50,0,0
144174,-40,4,1,1,50,0,0
144238,-200,4,1,1,50,0,0
144428,-100,4,1,1,50,0,0
144937,-40,4,1,1,50,0,0
145000,-200,4,1,1,50,0,0
145191,-40,4,1,1,50,0,0
145255,-200,4,1,1,50,0,0
145445,-100,4,1,1,50,0,0
146971,-40,4,1,1,50,0,0
147034,-200,4,1,1,50,0,0
147225,-40,4,1,1,50,0,0
147288,-200,4,1,1,50,0,0
147479,-100,4,1,1,50,0,0
147988,-40,4,1,1,50,0,0
148051,-200,4,1,1,50,0,0
148242,-40,4,1,1,50,0,0
148305,-200,4,1,1,50,0,0
148496,-100,4,1,1,50,0,0
149005,-40,4,1,1,50,0,0
149068,-200,4,1,1,50,0,0
149259,-40,4,1,1,50,0,0
149322,-200,4,1,1,50,0,0
149513,-100,4,1,1,50,0,0
151038,-40,4,1,1,50,0,0
151102,-200,4,1,1,50,0,0
151293,-40,4,1,1,50,0,0
151356,-200,4,1,1,50,0,0
151547,-100,4,1,1,50,0,0
152055,-40,4,1,1,50,0,0
152119,-200,4,1,1,50,0,0
152310,-40,4,1,1,50,0,0
152373,-200,4,1,1,50,0,0
152564,-100,4,1,1,50,0,0
153072,-40,4,1,1,50,0,0
153136,-200,4,1,1,50,0,0
153327,-40,4,1,1,50,0,0
153390,-200,4,1,1,50,0,0
153581,-100,4,1,1,50,0,0
155106,-100,4,1,1,70,0,1
187648,-100,4,1,1,50,0,0
287309,-100,4,1,1,70,0,1
318835,-100,4,1,1,70,0,0
319852,-100,4,1,1,70,0,1
336123,-100,4,1,1,50,0,0

[HitObjects]
64,192,530,5,0,0:0:0:0:
448,192,530,1,0,0:0:0:0:
320,192,657,1,0,0:0:0:0:
192,192,784,128,0,911:0:0:0:0:
448,192,911,1,0,0:0:0:0:
192,192,1038,1,0,0:0:0:0:
448,192,1165,128,0,1292:0:0:0:0:
192,192,1292,1,0,0:0:0:0:
320,192,1419,1,0,0:0:0:0:
64,192,1546,128,0,1674:0:0:0:0:
320,192,1674,1,0,0:0:0:0:
64,192,1801,1,0,0:0:0:0:
320,192,1928,128,0,2055:0:0:0:0:
64,192,2055,1,0,0:0:0:0:
448,192,2182,1,0,0:0:0:0:
64,192,2309,128,0,2436:0:0:0:0:
448,192,2436,1,0,0:0:0:0:
192,192,2563,1,0,0:0:0:0:
320,192,2691,1,0,0:0:0:0:
448,192,2818,128,0,2945:0:0:0:0:
192,192,2945,1,0,0:0:0:0:
320,192,3072,1,0,0:0:0:0:
64,192,3199,128,0,3326:0:0:0:0:
320,192,3326,1,0,0:0:0:0:
64,192,3453,1,0,0:0:0:0:
320,192,3580,128,0,3707:0:0:0:0:
64,192,3707,1,0,0:0:0:0:
320,192,3835,1,0,0:0:0:0:
64,192,3962,128,0,4089:0:0:0:0:
320,192,4089,1,0,0:0:0:0:
192,192,4216,1,0,0:0:0:0:
448,192,4343,128,0,4470:0:0:0:0:
64,192,4470,1,0,0:0:0:0:
320,192,4597,1,0,0:0:0:0:
192,192,4724,1,0,0:0:0:0:
448,192,4852,128,0,4979:0:0:0:0:
192,192,4979,1,0,0:0:0:0:
320,192,5106,1,0,0:0:0:0:
64,192,5233,128,0,5360:0:0:0:0:
448,192,5360,1,0,0:0:0:0:
192,192,5487,1,0,0:0:0:0:
320,192,5614,128,0,5741:0:0:0:0:
64,192,5741,1,0,0:0:0:0:
320,192,5868,1,0,0:0:0:0:
192,192,5996,128,0,6123:0:0:0:0:
448,192,6123,1,0,0:0:0:0:
192,192,6250,1,0,0:0:0:0:
448,192,6377,128,0,6504:0:0:0:0:
192,192,6504,1,0,0:0:0:0:
320,192,6631,1,0,0:0:0:0:
64,192,6758,1,0,0:0:0:0:
448,192,6885,128,0,7013:0:0:0:0:
64,192,7013,1,0,0:0:0:0:
320,192,7140,1,0,0:0:0:0:
192,192,7267,128,0,7394:0:0:0:0:
448,192,7394,1,0,0:0:0:0:
192,192,7521,1,0,0:0:0:0:
320,192,7648,128,0,7775:0:0:0:0:
64,192,7775,1,0,0:0:0:0:
320,192,7902,1,0,0:0:0:0:
64,192,8029,128,0,8157:0:0:0:0:
320,192,8157,1,0,0:0:0:0:
192,192,8284,1,0,0:0:0:0:
448,192,8411,128,0,8538:0:0:0:0:
64,192,8538,1,0,0:0:0:0:
320,192,8665,1,0,0:0:0:0:
192,192,8792,1,0,0:0:0:0:
64,192,8919,128,0,9046:0:0:0:0:
448,192,9046,1,0,0:0:0:0:
192,192,9174,1,0,0:0:0:0:
320,192,9301,128,0,9428:0:0:0:0:
64,192,9428,1,0,0:0:0:0:
320,192,9555,1,0,0:0:0:0:
192,192,9682,128,0,9809:0:0:0:0:
448,192,9809,1,0,0:0:0:0:
192,192,9936,1,0,0:0:0:0:
448,192,10063,128,0,10191:0:0:0:0:
192,192,10191,1,0,0:0:0:0:
448,192,10318,1,0,0:0:0:0:
192,192,10445,128,0,10572:0:0:0:0:
64,192,10572,1,0,0:0:0:0:
192,192,10699,1,0,0:0:0:0:
320,192,10826,1,0,0:0:0:0:
64,192,10953,128,0,11080:0:0:0:0:
320,192,11080,1,0,0:0:0:0:
192,192,11207,1,0,0:0:0:0:
448,192,11335,128,0,11462:0:0:0:0:
192,192,11462,1,0,0:0:0:0:
448,192,11589,1,0,0:0:0:0:
192,192,11716,128,0,11843:0:0:0:0:
320,192,11843,1,0,0:0:0:0:
64,192,11970,1,0,0:0:0:0:
320,192,12097,128,0,12224:0:0:0:0:
64,192,12224,1,0,0:0:0:0:
320,192,12352,1,0,0:0:0:0:
64,192,12479,128,0,12606:0:0:0:0:
448,192,12606,1,0,0:0:0:0:
192,192,12733,1,0,0:0:0:0:
320,192,12860,1,0,0:0:0:0:
448,192,12987,128,0,13114:0:0:0:0:
64,192,13114,1,0,0:0:0:0:
448,192,13241,1,0,0:0:0:0:
64,192,13368,128,0,13496:0:0:0:0:
320,192,13496,1,0,0:0:0:0:
192,192,13623,1,0,0:0:0:0:
320,192,13750,128,0,13877:0:0:0:0:
64,192,13877,1,0,0:0:0:0:
320,192,14004,1,0,0:0:0:0:
192,192,14131,128,0,14258:0:0:0:0:
448,192,14258,1,0,0:0:0:0:
192,192,14385,1,0,0:0:0:0:
448,192,14513,128,0,14640:0:0:0:0:
192,192,14640,1,0,0:0:0:0:
320,192,14767,1,0,0:0:0:0:
64,192,14894,1,0,0:0:0:0:
320,192,15021,128,0,15148:0:0:0:0:
64,192,15148,1,0,0:0:0:0:
320,192,15275,1,0,0:0:0:0:
64,192,15402,128,0,15529:0:0:0:0:
320,192,15529,1,0,0:0:0:0:
192,192,15657,1,0,0:0:0:0:
448,192,15784,128,0,16292:0:0:0:0:
320,192,15784,1,0,0:0:0:0:
64,192,16038,1,2,0:0:0:0:
320,192,16038,1,0,0:0:0:0:
192,192,16292,1,0,0:0:0:0:
64,192,16292,1,8,0:0:0:0:
320,192,16292,1,0,0:0:0:0:
320,192,16546,1,0,0:0:0:0:
192,192,16546,1,2,0:0:0:0:
320,192,16801,1,4,0:0:0:0:
192,192,16801,1,2,0:0:0:0:
64,192,16801,1,0,0:0:0:0:
448,192,16801,1,0,0:0:0:0:
448,192,16928,1,0,0:0:0:0:
64,192,17055,128,0,17182:0:0:0:0:
320,192,17182,1,0,0:0:0:0:
192,192,17309,1,0,0:0:0:0:
64,192,17309,1,8,0:0:0:0:
448,192,17309,1,0,0:0:0:0:
320,192,17436,128,0,17563:0:0:0:0:
192,192,17563,1,0,0:0:0:0:
320,192,17691,1,0,0:0:0:0:
192,192,17818,1,2,0:0:0:0:
64,192,17818,128,0,17945:0:0:0:0:
448,192,17945,1,0,0:0:0:0:
192,192,18072,1,2,0:0:0:0:
64,192,18072,1,0,0:0:0:0:
320,192,18199,128,0,18326:0:0:0:0:
448,192,18326,1,0,0:0:0:0:
64,192,18326,1,0,0:0:0:0:
192,192,18326,1,8,0:0:0:0:
320,192,18453,1,0,0:0:0:0:
64,192,18580,128,0,18707:0:0:0:0:
448,192,18707,1,0,0:0:0:0:
320,192,18835,1,2,0:0:0:0:
192,192,18835,1,0,0:0:0:0:
64,192,18962,1,0,0:0:0:0:
448,192,19089,128,0,19216:0:0:0:0:
192,192,19216,1,0,0:0:0:0:
64,192,19343,1,0,0:0:0:0:
448,192,19343,1,0,0:0:0:0:
320,192,19343,1,8,0:0:0:0:
192,192,19470,128,0,19597:0:0:0:0:
448,192,19597,1,0,0:0:0:0:
192,192,19724,1,2,0:0:0:0:
64,192,19724,1,0,0:0:0:0:
320,192,19852,128,0,19979:0:0:0:0:
192,192,19979,1,0,0:0:0:0:
64,192,20106,1,0,0:0:0:0:
448,192,20106,1,2,0:0:0:0:
192,192,20233,128,0,20360:0:0:0:0:
64,192,20360,1,0,0:0:0:0:
448,192,20360,1,0,0:0:0:0:
320,192,20360,1,8,0:0:0:0:
192,192,20487,1,0,0:0:0:0:
448,192,20614,128,0,20741:0:0:0:0:
192,192,20741,1,0,0:0:0:0:
320,192,20868,1,2,0:0:0:0:
64,192,20868,1,0,0:0:0:0:
448,192,20996,1,0,0:0:0:0:
64,192,21123,128,0,21250:0:0:0:0:
320,192,21250,1,0,0:0:0:0:
192,192,21377,1,8,0:0:0:0:
64,192,21377,1,0,0:0:0:0:
448,192,21377,1,0,0:0:0:0:
320,192,21504,128,0,21631:0:0:0:0:
64,192,21631,1,0,0:0:0:0:
192,192,21758,1,0,0:0:0:0:
320,192,21885,1,2,0:0:0:0:
448,192,21885,128,0,22013:0:0:0:0:
64,192,22013,1,0,0:0:0:0:
448,192,22140,1,0,0:0:0:0:
320,192,22140,1,2,0:0:0:0:
192,192,22267,128,0,22394:0:0:0:0:
448,192,22394,1,0,0:0:0:0:
64,192,22394,1,0,0:0:0:0:
320,192,22394,1,8,0:0:0:0:
192,192,22521,1,0,0:0:0:0:
64,192,22648,128,0,22775:0:0:0:0:
448,192,22775,1,0,0:0:0:0:
320,192,22902,1,2,0:0:0:0:
192,192,22902,1,0,0:0:0:0:
64,192,23029,1,0,0:0:0:0:
320,192,23157,128,0,23284:0:0:0:0:
192,192,23284,1,0,0:0:0:0:
64,192,23411,1,0,0:0:0:0:
448,192,23411,1,0,0:0:0:0:
320,192,23411,1,8,0:0:0:0:
192,192,23538,128,0,23665:0:0:0:0:
448,192,23665,1,0,0:0:0:0:
320,192,23792,1,2,0:0:0:0:
64,192,23792,1,0,0:0:0:0:
448,192,23919,128,0,24046:0:0:0:0:
64,192,24046,1,0,0:0:0:0:
192,192,24174,1,2,0:0:0:0:
320,192,24174,1,0,0:0:0:0:
448,192,24301,1,0,0:0:0:0:
64,192,24428,1,0,0:0:0:0:
320,192,24428,1,8,0:0:0:0:
448,192,24428,128,0,24555:0:0:0:0:
64,192,24555,1,0,0:0:0:0:
192,192,24555,128,0,24682:0:0:0:0:
320,192,24682,128,0,24809:0:0:0:0:
448,192,24682,1,0,0:0:0:0:
192,192,24809,1,0,0:0:0:0:
64,192,24809,1,8,0:0:0:0:
448,192,24936,1,0,0:0:0:0:
64,192,24936,1,2,0:0:0:0:
320,192,24936,1,4,0:0:0:0:
448,192,25063,1,0,0:0:0:0:
64,192,25191,128,0,25318:0:0:0:0:
320,192,25318,1,0,0:0:0:0:
64,192,25445,1,0,0:0:0:0:
448,192,25445,1,0,0:0:0:0:
192,192,25445,1,8,0:0:0:0:
320,192,25572,128,0,25699:0:0:0:0:
64,192,25699,1,0,0:0:0:0:
320,192,25826,1,0,0:0:0:0:
192,192,25953,128,0,26080:0:0:0:0:
448,192,26080,1,0,0:0:0:0:
64,192,26207,1,0,0:0:0:0:
192,192,26207,1,2,0:0:0:0:
320,192,26335,128,0,26462:0:0:0:0:
64,192,26462,1,0,0:0:0:0:
192,192,26462,1,8,0:0:0:0:
448,192,26462,1,0,0:0:0:0:
320,192,26589,1,0,0:0:0:0:
64,192,26716,128,0,26843:0:0:0:0:
320,192,26843,1,0,0:0:0:0:
64,192,26970,1,0,0:0:0:0:
192,192,26970,1,2,0:0:0:0:
448,192,27097,1,0,0:0:0:0:
320,192,27224,128,0,27352:0:0:0:0:
192,192,27352,1,0,0:0:0:0:
64,192,27479,1,0,0:0:0:0:
448,192,27479,1,8,0:0:0:0:
320,192,27479,1,0,0:0:0:0:
192,192,27606,128,0,27733:0:0:0:0:
448,192,27733,1,0,0:0:0:0:
192,192,27860,1,0,0:0:0:0:
320,192,27860,1,2,0:0:0:0:
64,192,27987,128,0,28114:0:0:0:0:
448,192,28114,1,0,0:0:0:0:
64,192,28241,1,0,0:0:0:0:
192,192,28241,1,2,0:0:0:0:
320,192,28368,128,0,28496:0:0:0:0:
64,192,28496,1,0,0:0:0:0:
192,192,28496,1,8,0:0:0:0:
448,192,28496,1,0,0:0:0:0:
320,192,28623,1,0,0:0:0:0:
64,192,28750,128,0,28877:0:0:0:0:
320,192,28877,1,0,0:0:0:0:
192,192,29004,1,0,0:0:0:0:
448,192,29004,1,2,0:0:0:0:
64,192,29131,1,0,0:0:0:0:
448,192,29258,128,0,29385:0:0:0:0:
192,192,29385,1,0,0:0:0:0:
64,192,29513,1,0,0:0:0:0:
448,192,29513,1,0,0:0:0:0:
320,192,29513,1,8,0:0:0:0:
192,192,29640,128,0,29767:0:0:0:0:
448,192,29767,1,0,0:0:0:0:
320,192,29894,1,0,0:0:0:0:
192,192,30021,1,2,0:0:0:0:
64,192,30021,128,0,30148:0:0:0:0:
448,192,30148,1,0,0:0:0:0:
320,192,30275,1,2,0:0:0:0:
192,192,30275,1,0,0:0:0:0:
448,192,30402,128,0,30529:0:0:0:0:
192,192,30529,1,0,0:0:0:0:
64,192,30529,1,0,0:0:0:0:
320,192,30529,1,8,0:0:0:0:
448,192,30657,1,0,0:0:0:0:
192,192,30784,128,0,30911:0:0:0:0:
448,192,30911,1,0,0:0:0:0:
64,192,31038,1,0,0:0:0:0:
320,192,31038,1,2,0:0:0:0:
192,192,31165,1,0,0:0:0:0:
448,192,31292,128,0,31419:0:0:0:0:
192,192,31419,1,0,0:0:0:0:
64,192,31546,1,0,0:0:0:0:
320,192,31546,1,8,0:0:0:0:
448,192,31546,1,0,0:0:0:0:
192,192,31674,128,0,31801:0:0:0:0:
64,192,31801,1,0,0:0:0:0:
192,192,31928,1,0,0:0:0:0:
320,192,31928,1,2,0:0:0:0:
448,192,32055,128,0,32182:0:0:0:0:
192,192,32182,1,2,0:0:0:0:
64,192,32182,1,0,0:0:0:0:
448,192,32309,1,0,0:0:0:0:
64,192,32436,1,0,0:0:0:0:
448,192,32563,1,8,0:0:0:0:
192,192,32563,1,0,0:0:0:0:
64,192,32563,128,0,32691:0:0:0:0:
448,192,32691,1,0,0:0:0:0:
320,192,32691,128,0,32818:0:0:0:0:
64,192,32818,1,0,0:0:0:0:
192,192,32818,128,0,32945:0:0:0:0:
320,192,32945,1,2,0:0:0:0:
448,192,32945,1,0,0:0:0:0:
192,192,33072,1,0,0:0:0:0:
64,192,33072,1,4,0:0:0:0:
448,192,33072,1,2,0:0:0:0:
64,192,33199,1,0,0:0:0:0:
320,192,33326,128,0,33453:0:0:0:0:
192,192,33453,1,0,0:0:0:0:
64,192,33580,1,0,0:0:0:0:
448,192,33580,1,8,0:0:0:0:
320,192,33580,1,0,0:0:0:0:
192,192,33707,128,0,33835:0:0:0:0:
448,192,33835,1,0,0:0:0:0:
320,192,33962,1,0,0:0:0:0:
192,192,34089,1,2,0:0:0:0:
64,192,34089,128,0,34216:0:0:0:0:
448,192,34216,1,0,0:0:0:0:
320,192,34343,1,2,0:0:0:0:
192,192,34343,1,0,0:0:0:0:
448,192,34470,128,0,34597:0:0:0:0:
320,192,34597,1,8,0:0:0:0:
192,192,34597,1,0,0:0:0:0:
64,192,34597,1,0,0:0:0:0:
448,192,34724,1,0,0:0:0:0:
192,192,34852,128,0,34979:0:0:0:0:
320,192,34979,1,0,0:0:0:0:
64,192,35106,1,0,0:0:0:0:
448,192,35106,1,2,0:0:0:0:
192,192,35233,1,0,0:0:0:0:
320,192,35360,128,0,35487:0:0:0:0:
64,192,35487,1,0,0:0:0:0:
320,192,35614,1,0,0:0:0:0:
192,192,35614,1,8,0:0:0:0:
448,192,35614,1,0,0:0:0:0:
64,192,35741,128,0,35868:0:0:0:0:
320,192,35868,1,0,0:0:0:0:
192,192,35996,1,0,0:0:0:0:
448,192,36123,1,2,0:0:0:0:
320,192,36123,128,0,36250:0:0:0:0:
192,192,36250,1,0,0:0:0:0:
320,192,36377,1,8,0:0:0:0:
448,192,36377,1,0,0:0:0:0:
64,192,36377,1,0,0:0:0:0:
192,192,36504,128,0,36631:0:0:0:0:
320,192,36631,1,2,0:0:0:0:
448,192,36631,1,0,0:0:0:0:
64,192,36758,1,0,0:0:0:0:
448,192,36758,1,0,0:0:0:0:
192,192,36758,1,8,0:0:0:0:
320,192,36885,1,0,0:0:0:0:
192,192,37013,1,0,0:0:0:0:
64,192,37140,128,0,37394:0:0:0:0:
320,192,37140,1,4,0:0:0:0:
448,192,37140,1,2,0:0:0:0:
448,192,37394,1,2,0:0:0:0:
320,192,37394,1,0,0:0:0:0:
64,192,37521,128,0,37775:0:0:0:0:
192,192,37521,1,0,0:0:0:0:
320,192,37648,1,0,0:0:0:0:
448,192,37648,1,8,0:0:0:0:
192,192,37775,1,0,0:0:0:0:
64,192,37902,128,0,38157:0:0:0:0:
448,192,37902,1,0,0:0:0:0:
192,192,38029,1,0,0:0:0:0:
320,192,38029,1,2,0:0:0:0:
448,192,38157,1,0,0:0:0:0:
64,192,38284,128,0,38538:0:0:0:0:
192,192,38284,1,0,0:0:0:0:
320,192,38411,1,2,0:0:0:0:
448,192,38411,1,0,0:0:0:0:
192,192,38538,1,0,0:0:0:0:
64,192,38665,128,0,38919:0:0:0:0:
320,192,38665,1,8,0:0:0:0:
448,192,38665,1,0,0:0:0:0:
448,192,38919,128,0,39174:0:0:0:0:
192,192,38919,1,2,0:0:0:0:
192,192,39174,128,0,39428:0:0:0:0:
64,192,39174,1,0,0:0:0:0:
320,192,39174,1,2,0:0:0:0:
448,192,39428,1,0,0:0:0:0:
320,192,39428,1,2,0:0:0:0:
192,192,39555,128,0,39809:0:0:0:0:
64,192,39555,1,0,0:0:0:0:
320,192,39682,1,8,0:0:0:0:
448,192,39682,1,0,0:0:0:0:
64,192,39809,1,0,0:0:0:0:
192,192,39936,128,0,40191:0:0:0:0:
448,192,39936,1,0,0:0:0:0:
320,192,40063,1,2,0:0:0:0:
64,192,40063,1,0,0:0:0:0:
448,192,40191,1,0,0:0:0:0:
192,192,40318,128,0,40572:0:0:0:0:
64,192,40318,1,0,0:0:0:0:
320,192,40445,1,2,0:0:0:0:
448,192,40445,1,0,0:0:0:0:
64,192,40572,1,0,0:0:0:0:
192,192,40699,128,0,40953:0:0:0:0:
320,192,40699,1,8,0:0:0:0:
448,192,40699,1,0,0:0:0:0:
320,192,40953,128,0,41207:0:0:0:0:
64,192,40953,1,2,0:0:0:0:
448,192,40953,1,0,0:0:0:0:
64,192,41080,1,8,0:0:0:0:
192,192,41080,1,0,0:0:0:0:
448,192,41207,128,0,41462:0:0:0:0:
192,192,41207,1,2,0:0:0:0:
64,192,41462,1,2,0:0:0:0:
192,192,41462,1,0,0:0:0:0:
448,192,41589,128,0,41843:0:0:0:0:
320,192,41589,1,0,0:0:0:0:
192,192,41716,1,0,0:0:0:0:
64,192,41716,1,8,0:0:0:0:
320,192,41843,1,0,0:0:0:0:
448,192,41970,128,0,42224:0:0:0:0:
64,192,41970,1,0,0:0:0:0:
192,192,42097,1,0,0:0:0:0:
320,192,42097,1,2,0:0:0:0:
64,192,42224,1,0,0:0:0:0:
448,192,42352,128,0,42606:0:0:0:0:
320,192,42352,1,0,0:0:0:0:
192,192,42479,1,2,0:0:0:0:
64,192,42479,1,0,0:0:0:0:
320,192,42606,1,0,0:0:0:0:
448,192,42733,128,0,42987:0:0:0:0:
192,192,42733,1,8,0:0:0:0:
64,192,42733,1,0,0:0:0:0:
64,192,42987,128,0,43241:0:0:0:0:
320,192,42987,1,2,0:0:0:0:
320,192,43241,128,0,43496:0:0:0:0:
448,192,43241,1,0,0:0:0:0:
192,192,43241,1,2,0:0:0:0:
192,192,43496,1,2,0:0:0:0:
64,192,43496,1,0,0:0:0:0:
320,192,43623,128,0,43877:0:0:0:0:
448,192,43623,1,0,0:0:0:0:
64,192,43750,1,0,0:0:0:0:
192,192,43750,1,8,0:0:0:0:
448,192,43877,1,0,0:0:0:0:
64,192,44004,1,0,0:0:0:0:
320,192,44004,128,0,44258:0:0:0:0:
448,192,44131,1,0,0:0:0:0:
192,192,44131,1,2,0:0:0:0:
64,192,44258,128,0,45148:0:0:0:0:
192,192,44258,1,4,0:0:0:0:
320,192,44385,1,0,0:0:0:0:
448,192,44385,1,8,0:0:0:0:
320,192,44513,1,2,0:0:0:0:
192,192,44513,128,0,45148:0:0:0:0:
448,192,44767,128,0,45148:0:0:0:0:
320,192,44894,128,0,45148:0:0:0:0:
448,192,45275,1,2,0:0:0:0:
64,192,45275,1,0,0:0:0:0:
320,192,45784,1,8,0:0:0:0:
64,192,45784,1,0,0:0:0:0:
192,192,46038,1,0,0:0:0:0:
64,192,46038,128,0,47818:0:0:0:0:
192,192,46801,1,8,0:0:0:0:
448,192,46801,1,0,0:0:0:0:
448,192,47818,1,0,0:0:0:0:
320,192,47818,1,8,0:0:0:0:
64,192,48072,1,2,0:0:0:0:
320,192,48072,128,0,49852:0:0:0:0:
64,192,48835,1,0,0:0:0:0:
192,192,48835,1,8,0:0:0:0:
192,192,49852,1,8,0:0:0:0:
64,192,49852,1,0,0:0:0:0:
320,192,50106,1,0,0:0:0:0:
448,192,50106,128,0,51885:0:0:0:0:
64,192,50868,1,0,0:0:0:0:
192,192,50868,1,8,0:0:0:0:
192,192,51885,1,8,0:0:0:0:
64,192,51885,1,0,0:0:0:0:
192,192,52140,128,0,53919:0:0:0:0:
448,192,52140,1,0,0:0:0:0:
448,192,52902,1,8,0:0:0:0:
64,192,52902,1,0,0:0:0:0:
64,192,53919,1,0,0:0:0:0:
448,192,53919,1,8,0:0:0:0:
192,192,54174,1,0,0:0:0:0:
64,192,54174,128,0,55953:0:0:0:0:
448,192,54936,1,0,0:0:0:0:
192,192,54936,1,8,0:0:0:0:
448,192,55953,1,0,0:0:0:0:
320,192,55953,1,8,0:0:0:0:
64,192,56207,1,0,0:0:0:0:
448,192,56207,128,0,57987:0:0:0:0:
64,192,56970,1,0,0:0:0:0:
320,192,56970,1,8,0:0:0:0:
192,192,57987,1,8,0:0:0:0:
64,192,57987,1,0,0:0:0:0:
448,192,58241,1,0,0:0:0:0:
192,192,58241,128,0,60021:0:0:0:0:
448,192,59004,1,8,0:0:0:0:
64,192,59004,1,0,0:0:0:0:
64,192,60021,1,0,0:0:0:0:
448,192,60021,1,8,0:0:0:0:
448,192,60275,1,0,0:0:0:0:
320,192,60275,128,0,61546:0:0:0:0:
64,192,61038,1,8,0:0:0:0:
448,192,61038,1,0,0:0:0:0:
192,192,61546,1,0,0:0:0:0:
448,192,61546,1,0,0:0:0:0:
64,192,61546,1,2,0:0:0:0:
192,192,61801,1,0,0:0:0:0:
64,192,62055,1,0,0:0:0:0:
320,192,62055,1,8,0:0:0:0:
320,192,62309,1,0,0:0:0:0:
448,192,62309,128,0,64089:0:0:0:0:
320,192,63072,1,0,0:0:0:0:
64,192,63072,1,8,0:0:0:0:
192,192,64089,1,8,0:0:0:0:
64,192,64089,1,0,0:0:0:0:
192,192,64343,128,0,66123:0:0:0:0:
448,192,64343,1,0,0:0:0:0:
64,192,65106,1,0,0:0:0:0:
448,192,65106,1,8,0:0:0:0:
320,192,66123,1,8,0:0:0:0:
448,192,66123,1,0,0:0:0:0:
192,192,66377,1,0,0:0:0:0:
64,192,66377,128,0,68157:0:0:0:0:
448,192,67140,1,0,0:0:0:0:
192,192,67140,1,8,0:0:0:0:
320,192,68157,1,8,0:0:0:0:
448,192,68157,1,0,0:0:0:0:
64,192,68411,1,0,0:0:0:0:
192,192,68411,1,0,0:0:0:0:
448,192,68538,1,0,0:0:0:0:
320,192,68538,1,2,0:0:0:0:
64,192,68792,1,8,0:0:0:0:
192,192,68792,1,0,0:0:0:0:
448,192,68919,1,2,0:0:0:0:
320,192,68919,128,0,69682:0:0:0:0:
64,192,69682,5,2,0:0:0:0:
448,192,69682,128,0,69936:0:0:0:0:
192,192,69682,1,4,0:0:0:0:
64,192,69936,128,0,70191:0:0:0:0:
320,192,69936,1,2,0:0:0:0:
320,192,70191,1,8,0:0:0:0:
448,192,70191,1,0,0:0:0:0:
320,192,70318,128,0,70445:0:0:0:0:
448,192,70318,128,0,70445:0:0:0:0:
64,192,70445,1,0,0:0:0:0:
320,192,70572,1,0,0:0:0:0:
192,192,70572,1,2,0:0:0:0:
64,192,70699,1,0,0:0:0:0:
448,192,70699,128,0,70953:0:0:0:0:
64,192,70953,1,2,0:0:0:0:
192,192,70953,128,0,71207:0:0:0:0:
64,192,71207,1,8,0:0:0:0:
448,192,71207,1,0,0:0:0:0:
192,192,71335,128,0,71462:0:0:0:0:
448,192,71335,128,0,71462:0:0:0:0:
64,192,71462,1,0,0:0:0:0:
192,192,71589,1,0,0:0:0:0:
320,192,71589,1,0,0:0:0:0:
448,192,71716,1,2,0:0:0:0:
64,192,71716,128,0,71970:0:0:0:0:
448,192,71970,128,0,72224:0:0:0:0:
320,192,71970,1,2,0:0:0:0:
192,192,72224,1,8,0:0:0:0:
64,192,72224,1,0,0:0:0:0:
192,192,72352,128,0,72479:0:0:0:0:
64,192,72352,128,0,72479:0:0:0:0:
448,192,72479,1,0,0:0:0:0:
320,192,72606,1,0,0:0:0:0:
192,192,72606,1,2,0:0:0:0:
64,192,72733,1,0,0:0:0:0:
320,192,72860,1,8,0:0:0:0:
448,192,72860,1,0,0:0:0:0:
192,192,72860,1,0,0:0:0:0:
192,192,72987,1,2,0:0:0:0:
64,192,72987,1,0,0:0:0:0:
320,192,73114,1,0,0:0:0:0:
448,192,73241,128,0,73368:0:0:0:0:
192,192,73241,1,8,0:0:0:0:
64,192,73241,1,0,0:0:0:0:
192,192,73368,128,0,73496:0:0:0:0:
320,192,73496,128,0,73623:0:0:0:0:
448,192,73496,1,2,0:0:0:0:
64,192,73623,128,0,73750:0:0:0:0:
320,192,73750,1,2,0:0:0:0:
448,192,73750,128,0,74004:0:0:0:0:
192,192,74004,128,0,74258:0:0:0:0:
64,192,74004,1,2,0:0:0:0:
64,192,74258,1,8,0:0:0:0:
320,192,74258,1,0,0:0:0:0:
64,192,74385,128,0,74513:0:0:0:0:
320,192,74385,128,0,74513:0:0:0:0:
448,192,74513,1,0,0:0:0:0:
192,192,74640,1,2,0:0:0:0:
320,192,74640,1,0,0:0:0:0:
448,192,74767,1,0,0:0:0:0:
64,192,74767,128,0,75021:0:0:0:0:
320,192,75021,128,0,75275:0:0:0:0:
448,192,75021,1,2,0:0:0:0:
192,192,75275,1,8,0:0:0:0:
64,192,75275,1,0,0:0:0:0:
64,192,75402,128,0,75529:0:0:0:0:
320,192,75402,128,0,75529:0:0:0:0:
192,192,75529,1,2,0:0:0:0:
320,192,75657,1,0,0:0:0:0:
448,192,75657,1,0,0:0:0:0:
64,192,75784,128,0,76038:0:0:0:0:
192,192,75784,1,2,0:0:0:0:
320,192,76038,1,2,0:0:0:0:
448,192,76038,128,0,76292:0:0:0:0:
64,192,76292,1,8,0:0:0:0:
192,192,76292,1,0,0:0:0:0:
448,192,76419,128,0,76546:0:0:0:0:
64,192,76419,128,0,76546:0:0:0:0:
192,192,76546,1,0,0:0:0:0:
320,192,76674,1,0,0:0:0:0:
448,192,76674,1,2,0:0:0:0:
192,192,76801,1,0,0:0:0:0:
320,192,76928,1,8,0:0:0:0:
448,192,76928,1,0,0:0:0:0:
64,192,76928,1,0,0:0:0:0:
64,192,77055,1,0,0:0:0:0:
192,192,77055,1,2,0:0:0:0:
320,192,77182,1,0,0:0:0:0:
448,192,77309,128,0,77436:0:0:0:0:
192,192,77309,1,8,0:0:0:0:
64,192,77309,1,0,0:0:0:0:
192,192,77436,128,0,77563:0:0:0:0:
448,192,77563,1,8,0:0:0:0:
320,192,77563,128,0,77691:0:0:0:0:
64,192,77691,1,0,0:0:0:0:
192,192,77691,1,8,0:0:0:0:
64,192,77818,1,2,0:0:0:0:
320,192,77818,1,4,0:0:0:0:
448,192,77818,128,0,78072:0:0:0:0:
192,192,78072,1,2,0:0:0:0:
64,192,78072,128,0,78326:0:0:0:0:
192,192,78326,1,8,0:0:0:0:
448,192,78326,1,0,0:0:0:0:
192,192,78453,128,0,78580:0:0:0:0:
448,192,78453,128,0,78580:0:0:0:0:
64,192,78580,1,0,0:0:0:0:
192,192,78707,1,2,0:0:0:0:
448,192,78707,1,0,0:0:0:0:
320,192,78835,128,0,79089:0:0:0:0:
64,192,78835,1,0,0:0:0:0:
64,192,79089,128,0,79343:0:0:0:0:
192,192,79089,1,2,0:0:0:0:
448,192,79343,1,8,0:0:0:0:
320,192,79343,1,0,0:0:0:0:
64,192,79470,128,0,79597:0:0:0:0:
320,192,79470,128,0,79597:0:0:0:0:
192,192,79597,1,2,0:0:0:0:
320,192,79724,1,0,0:0:0:0:
448,192,79724,1,0,0:0:0:0:
64,192,79852,1,2,0:0:0:0:
192,192,79852,128,0,80106:0:0:0:0:
448,192,80106,128,0,80360:0:0:0:0:
320,192,80106,1,2,0:0:0:0:
64,192,80360,1,8,0:0:0:0:
320,192,80360,1,0,0:0:0:0:
320,192,80487,128,0,80614:0:0:0:0:
448,192,80487,128,0,80614:0:0:0:0:
64,192,80614,1,0,0:0:0:0:
192,192,80741,1,0,0:0:0:0:
320,192,80741,1,2,0:0:0:0:
448,192,80868,1,0,0:0:0:0:
192,192,80996,1,0,0:0:0:0:
64,192,80996,1,0,0:0:0:0:
320,192,80996,1,8,0:0:0:0:
320,192,81123,1,0,0:0:0:0:
448,192,81123,1,2,0:0:0:0:
192,192,81250,1,0,0:0:0:0:
64,192,81377,1,0,0:0:0:0:
320,192,81377,1,8,0:0:0:0:
448,192,81377,128,0,81504:0:0:0:0:
192,192,81504,128,0,81631:0:0:0:0:
320,192,81631,128,0,81758:0:0:0:0:
448,192,81631,1,2,0:0:0:0:
64,192,81758,128,0,81885:0:0:0:0:
448,192,81885,1,2,0:0:0:0:
320,192,81885,128,0,82140:0:0:0:0:
64,192,82140,128,0,82394:0:0:0:0:
192,192,82140,1,2,0:0:0:0:
192,192,82394,1,8,0:0:0:0:
448,192,82394,1,0,0:0:0:0:
192,192,82521,128,0,82648:0:0:0:0:
448,192,82521,128,0,82648:0:0:0:0:
64,192,82648,1,0,0:0:0:0:
192,192,82775,1,2,0:0:0:0:
448,192,82775,1,0,0:0:0:0:
64,192,82902,128,0,83157:0:0:0:0:
320,192,82902,1,0,0:0:0:0:
320,192,83157,1,2,0:0:0:0:
448,192,83157,128,0,83411:0:0:0:0:
192,192,83411,1,8,0:0:0:0:
64,192,83411,1,0,0:0:0:0:
64,192,83538,128,0,83665:0:0:0:0:
192,192,83538,128,0,83665:0:0:0:0:
448,192,83665,1,2,0:0:0:0:
192,192,83792,1,0,0:0:0:0:
320,192,83792,1,0,0:0:0:0:
64,192,83919,1,2,0:0:0:0:
448,192,83919,128,0,84174:0:0:0:0:
192,192,84174,128,0,84428:0:0:0:0:
64,192,84174,1,2,0:0:0:0:
320,192,84428,1,8,0:0:0:0:
448,192,84428,1,0,0:0:0:0:
192,192,84555,128,0,84682:0:0:0:0:
448,192,84555,128,0,84682:0:0:0:0:
64,192,84682,1,0,0:0:0:0:
192,192,84809,5,2,0:0:0:0:
320,192,84809,1,0,0:0:0:0:
448,192,84936,1,4,0:0:0:0:
320,192,84936,1,2,0:0:0:0:
64,192,84936,1,0,0:0:0:0:
192,192,85063,1,0,0:0:0:0:
320,192,85191,1,8,0:0:0:0:
448,192,85191,1,0,0:0:0:0:
192,192,85318,1,8,0:0:0:0:
64,192,85318,1,0,0:0:0:0:
448,192,85445,1,0,0:0:0:0:
64,192,85445,1,2,0:0:0:0:
320,192,85572,1,2,0:0:0:0:
448,192,85572,1,0,0:0:0:0:
64,192,85699,1,0,0:0:0:0:
192,192,85699,1,2,0:0:0:0:
192,192,85826,1,0,0:0:0:0:
320,192,85826,1,2,0:0:0:0:
64,192,85953,5,0,0:0:0:0:
320,192,85953,1,2,0:0:0:0:
448,192,85953,1,4,0:0:0:0:
192,192,86080,1,0,0:0:0:0:
448,192,86207,1,2,0:0:0:0:
64,192,86207,128,0,86335:0:0:0:0:
320,192,86335,1,0,0:0:0:0:
64,192,86462,1,0,0:0:0:0:
448,192,86462,1,0,0:0:0:0:
192,192,86462,1,8,0:0:0:0:
192,192,86589,1,0,0:0:0:0:
320,192,86589,128,0,86716:0:0:0:0:
64,192,86716,1,0,0:0:0:0:
320,192,86843,1,2,0:0:0:0:
448,192,86843,1,0,0:0:0:0:
64,192,86970,1,0,0:0:0:0:
192,192,86970,128,0,87097:0:0:0:0:
320,192,87097,1,0,0:0:0:0:
448,192,87224,1,2,0:0:0:0:
64,192,87224,1,0,0:0:0:0:
192,192,87352,1,0,0:0:0:0:
320,192,87352,128,0,87479:0:0:0:0:
64,192,87479,1,8,0:0:0:0:
192,192,87479,1,0,0:0:0:0:
448,192,87479,1,0,0:0:0:0:
320,192,87606,1,0,0:0:0:0:
192,192,87733,1,0,0:0:0:0:
64,192,87733,128,0,87860:0:0:0:0:
448,192,87860,1,0,0:0:0:0:
192,192,87987,1,0,0:0:0:0:
320,192,87987,1,2,0:0:0:0:
64,192,88114,1,0,0:0:0:0:
320,192,88241,1,2,0:0:0:0:
448,192,88241,128,0,88368:0:0:0:0:
192,192,88368,1,0,0:0:0:0:
64,192,88496,1,0,0:0:0:0:
448,192,88496,1,0,0:0:0:0:
320,192,88496,1,8,0:0:0:0:
64,192,88623,1,0,0:0:0:0:
192,192,88623,128,0,88750:0:0:0:0:
448,192,88750,1,0,0:0:0:0:
192,192,88877,1,0,0:0:0:0:
320,192,88877,1,2,0:0:0:0:
64,192,89004,1,0,0:0:0:0:
448,192,89004,128,0,89131:0:0:0:0:
320,192,89131,1,0,0:0:0:0:
192,192,89258,1,2,0:0:0:0:
448,192,89258,1,0,0:0:0:0:
320,192,89385,128,0,89513:0:0:0:0:
64,192,89385,1,0,0:0:0:0:
192,192,89513,1,8,0:0:0:0:
64,192,89513,1,0,0:0:0:0:
448,192,89513,1,0,0:0:0:0:
320,192,89640,1,0,0:0:0:0:
64,192,89767,1,2,0:0:0:0:
192,192,89767,128,0,89894:0:0:0:0:
448,192,89894,1,0,0:0:0:0:
64,192,90021,1,0,0:0:0:0:
320,192,90021,1,2,0:0:0:0:
448,192,90148,1,0,0:0:0:0:
192,192,90275,1,2,0:0:0:0:
64,192,90275,128,0,90402:0:0:0:0:
320,192,90402,1,0,0:0:0:0:
192,192,90529,1,8,0:0:0:0:
64,192,90529,1,0,0:0:0:0:
448,192,90529,1,0,0:0:0:0:
320,192,90657,128,0,90784:0:0:0:0:
448,192,90657,1,0,0:0:0:0:
64,192,90784,1,0,0:0:0:0:
192,192,90911,1,2,0:0:0:0:
320,192,90911,1,0,0:0:0:0:
448,192,91038,1,0,0:0:0:0:
64,192,91038,128,0,91165:0:0:0:0:
192,192,91165,1,0,0:0:0:0:
64,192,91292,1,2,0:0:0:0:
448,192,91292,1,0,0:0:0:0:
192,192,91419,128,0,91546:0:0:0:0:
320,192,91419,1,0,0:0:0:0:
320,192,91546,1,8,0:0:0:0:
448,192,91546,1,0,0:0:0:0:
64,192,91546,1,0,0:0:0:0:
192,192,91674,1,0,0:0:0:0:
320,192,91801,1,0,0:0:0:0:
448,192,91801,128,0,91928:0:0:0:0:
64,192,91928,1,0,0:0:0:0:
192,192,92055,1,0,0:0:0:0:
320,192,92055,1,2,0:0:0:0:
448,192,92182,1,0,0:0:0:0:
64,192,92309,128,0,92436:0:0:0:0:
192,192,92309,1,2,0:0:0:0:
320,192,92436,1,0,0:0:0:0:
64,192,92563,1,0,0:0:0:0:
192,192,92563,1,8,0:0:0:0:
448,192,92563,1,0,0:0:0:0:
320,192,92691,128,0,92818:0:0:0:0:
448,192,92691,1,0,0:0:0:0:
64,192,92818,1,0,0:0:0:0:
192,192,92945,1,2,0:0:0:0:
320,192,92945,1,0,0:0:0:0:
64,192,93072,1,0,0:0:0:0:
448,192,93072,128,0,93199:0:0:0:0:
192,192,93199,1,8,0:0:0:0:
320,192,93199,1,0,0:0:0:0:
64,192,93199,1,0,0:0:0:0:
320,192,93326,1,0,0:0:0:0:
192,192,93326,1,2,0:0:0:0:
64,192,93453,128,0,93580:0:0:0:0:
448,192,93453,1,0,0:0:0:0:
320,192,93580,1,0,0:0:0:0:
192,192,93580,1,8,0:0:0:0:
448,192,93580,1,0,0:0:0:0:
64,192,93707,1,0,0:0:0:0:
320,192,93835,128,0,93962:0:0:0:0:
448,192,93835,1,2,0:0:0:0:
64,192,93962,1,0,0:0:0:0:
192,192,94089,1,0,0:0:0:0:
320,192,94089,1,2,0:0:0:0:
448,192,94216,1,0,0:0:0:0:
192,192,94343,1,2,0:0:0:0:
64,192,94343,128,0,94470:0:0:0:0:
320,192,94470,1,0,0:0:0:0:
448,192,94597,1,0,0:0:0:0:
192,192,94597,1,8,0:0:0:0:
64,192,94597,1,0,0:0:0:0:
448,192,94724,1,0,0:0:0:0:
320,192,94724,128,0,94852:0:0:0:0:
64,192,94852,1,0,0:0:0:0:
320,192,94979,1,2,0:0:0:0:
448,192,94979,1,0,0:0:0:0:
64,192,95106,1,0,0:0:0:0:
192,192,95106,128,0,95233:0:0:0:0:
448,192,95233,1,0,0:0:0:0:
320,192,95360,1,2,0:0:0:0:
64,192,95360,1,0,0:0:0:0:
192,192,95487,1,0,0:0:0:0:
448,192,95487,128,0,95614:0:0:0:0:
192,192,95614,1,0,0:0:0:0:
64,192,95614,1,0,0:0:0:0:
320,192,95614,1,8,0:0:0:0:
448,192,95741,1,0,0:0:0:0:
192,192,95868,1,0,0:0:0:0:
64,192,95868,128,0,95996:0:0:0:0:
448,192,95996,1,0,0:0:0:0:
64,192,96123,1,0,0:0:0:0:
192,192,96123,1,2,0:0:0:0:
320,192,96250,1,0,0:0:0:0:
64,192,96377,1,2,0:0:0:0:
448,192,96377,128,0,96504:0:0:0:0:
192,192,96504,1,0,0:0:0:0:
64,192,96631,1,0,0:0:0:0:
448,192,96631,1,0,0:0:0:0:
320,192,96631,1,8,0:0:0:0:
192,192,96758,1,0,0:0:0:0:
320,192,96758,128,0,96885:0:0:0:0:
448,192,96885,1,0,0:0:0:0:
64,192,97013,1,2,0:0:0:0:
320,192,97013,1,0,0:0:0:0:
192,192,97140,128,0,97267:0:0:0:0:
448,192,97140,1,0,0:0:0:0:
64,192,97267,1,0,0:0:0:0:
192,192,97394,1,2,0:0:0:0:
448,192,97394,1,0,0:0:0:0:
64,192,97521,1,0,0:0:0:0:
320,192,97521,128,0,97648:0:0:0:0:
64,192,97648,1,0,0:0:0:0:
192,192,97648,1,8,0:0:0:0:
448,192,97648,1,0,0:0:0:0:
320,192,97775,1,0,0:0:0:0:
192,192,97902,1,2,0:0:0:0:
64,192,97902,128,0,98029:0:0:0:0:
448,192,98029,1,0,0:0:0:0:
320,192,98157,1,0,0:0:0:0:
192,192,98157,1,2,0:0:0:0:
64,192,98284,1,0,0:0:0:0:
320,192,98411,128,0,98538:0:0:0:0:
448,192,98411,1,2,0:0:0:0:
64,192,98538,1,0,0:0:0:0:
192,192,98665,1,8,0:0:0:0:
320,192,98665,1,0,0:0:0:0:
448,192,98665,1,0,0:0:0:0:
64,192,98792,128,0,98919:0:0:0:0:
192,192,98792,1,0,0:0:0:0:
320,192,98919,1,0,0:0:0:0:
64,192,99046,1,2,0:0:0:0:
448,192,99046,1,0,0:0:0:0:
192,192,99174,128,0,99301:0:0:0:0:
320,192,99174,1,0,0:0:0:0:
320,192,99301,1,8,0:0:0:0:
448,192,99301,1,0,0:0:0:0:
64,192,99301,1,0,0:0:0:0:
64,192,99428,1,2,0:0:0:0:
448,192,99428,1,0,0:0:0:0:
192,192,99555,1,0,0:0:0:0:
320,192,99555,128,0,99682:0:0:0:0:
192,192,99682,1,8,0:0:0:0:
64,192,99682,1,0,0:0:0:0:
448,192,99682,1,0,0:0:0:0:
320,192,99809,1,0,0:0:0:0:
64,192,99936,1,2,0:0:0:0:
448,192,99936,1,0,0:0:0:0:
192,192,100063,1,0,0:0:0:0:
320,192,100191,1,0,0:0:0:0:
448,192,100191,128,2,100445:0:0:0:0:
64,192,100318,1,0,0:0:0:0:
64,192,100445,128,2,100699:0:0:0:0:
192,192,100445,1,0,0:0:0:0:
320,192,100572,1,0,0:0:0:0:
320,192,100699,128,8,100953:0:0:0:0:
448,192,100699,1,0,0:0:0:0:
192,192,100826,1,0,0:0:0:0:
192,192,100953,128,2,101207:0:0:0:0:
64,192,100953,1,0,0:0:0:0:
448,192,101080,1,0,0:0:0:0:
64,192,101207,1,4,0:0:0:0:
320,192,101207,1,8,0:0:0:0:
448,192,101207,1,0,0:0:0:0:
192,192,101335,1,0,0:0:0:0:
320,192,101462,1,2,0:0:0:0:
448,192,101462,1,0,0:0:0:0:
192,192,101589,1,2,0:0:0:0:
64,192,101589,1,0,0:0:0:0:
320,192,101716,1,2,0:0:0:0:
448,192,101716,1,0,0:0:0:0:
192,192,101843,1,0,0:0:0:0:
320,192,101843,1,2,0:0:0:0:
192,192,101970,1,2,0:0:0:0:
64,192,101970,1,0,0:0:0:0:
320,192,102097,1,2,0:0:0:0:
448,192,102097,1,0,0:0:0:0:
64,192,102224,1,2,0:0:0:0:
192,192,102224,1,4,0:0:0:0:
448,192,102224,1,0,0:0:0:0:
320,192,102352,1,0,0:0:0:0:
64,192,102479,128,0,102606:0:0:0:0:
448,192,102479,1,0,0:0:0:0:
192,192,102606,1,0,0:0:0:0:
320,192,102733,1,8,0:0:0:0:
448,192,102733,1,0,0:0:0:0:
64,192,102733,1,0,0:0:0:0:
192,192,102860,128,0,102987:0:0:0:0:
448,192,102860,1,0,0:0:0:0:
64,192,102987,1,0,0:0:0:0:
320,192,103114,1,2,0:0:0:0:
192,192,103114,1,0,0:0:0:0:
448,192,103241,128,0,103368:0:0:0:0:
64,192,103241,1,0,0:0:0:0:
320,192,103368,1,0,0:0:0:0:
448,192,103496,1,2,0:0:0:0:
64,192,103496,1,0,0:0:0:0:
320,192,103623,1,0,0:0:0:0:
192,192,103623,128,0,103750:0:0:0:0:
448,192,103750,1,0,0:0:0:0:
320,192,103750,1,8,0:0:0:0:
64,192,103750,1,0,0:0:0:0:
192,192,103877,1,0,0:0:0:0:
320,192,104004,128,0,104131:0:0:0:0:
448,192,104004,1,0,0:0:0:0:
64,192,104131,1,0,0:0:0:0:
192,192,104258,1,2,0:0:0:0:
448,192,104258,1,0,0:0:0:0:
320,192,104385,1,0,0:0:0:0:
192,192,104513,1,2,0:0:0:0:
64,192,104513,128,0,104640:0:0:0:0:
448,192,104640,1,0,0:0:0:0:
320,192,104767,1,0,0:0:0:0:
192,192,104767,1,8,0:0:0:0:
64,192,104767,1,0,0:0:0:0:
192,192,104894,1,0,0:0:0:0:
448,192,104894,128,0,105021:0:0:0:0:
64,192,105021,1,0,0:0:0:0:
320,192,105148,1,2,0:0:0:0:
448,192,105148,1,0,0:0:0:0:
192,192,105275,128,0,105402:0:0:0:0:
64,192,105275,1,0,0:0:0:0:
448,192,105402,1,0,0:0:0:0:
320,192,105529,1,2,0:0:0:0:
64,192,105529,1,0,0:0:0:0:
448,192,105657,1,0,0:0:0:0:
192,192,105657,128,0,105784:0:0:0:0:
320,192,105784,1,8,0:0:0:0:
448,192,105784,1,0,0:0:0:0:
64,192,105784,1,0,0:0:0:0:
192,192,105911,1,0,0:0:0:0:
64,192,106038,1,2,0:0:0:0:
320,192,106038,128,0,106165:0:0:0:0:
448,192,106165,1,0,0:0:0:0:
192,192,106292,1,2,0:0:0:0:
64,192,106292,1,0,0:0:0:0:
448,192,106419,1,0,0:0:0:0:
320,192,106546,1,2,0:0:0:0:
192,192,106546,128,0,106674:0:0:0:0:
64,192,106674,1,0,0:0:0:0:
320,192,106801,1,8,0:0:0:0:
192,192,106801,1,0,0:0:0:0:
448,192,106801,1,0,0:0:0:0:
448,192,106928,1,0,0:0:0:0:
64,192,106928,128,0,107055:0:0:0:0:
320,192,107055,1,0,0:0:0:0:
192,192,107182,1,2,0:0:0:0:
64,192,107182,1,0,0:0:0:0:
320,192,107309,1,0,0:0:0:0:
448,192,107309,128,0,107436:0:0:0:0:
192,192,107436,1,0,0:0:0:0:
448,192,107563,1,0,0:0:0:0:
64,192,107563,1,2,0:0:0:0:
192,192,107691,1,0,0:0:0:0:
320,192,107691,128,0,107818:0:0:0:0:
192,192,107818,1,8,0:0:0:0:
64,192,107818,1,0,0:0:0:0:
448,192,107818,1,0,0:0:0:0:
320,192,107945,1,0,0:0:0:0:
192,192,108072,128,0,108199:0:0:0:0:
64,192,108072,1,0,0:0:0:0:
448,192,108199,1,0,0:0:0:0:
64,192,108326,1,0,0:0:0:0:
192,192,108326,1,2,0:0:0:0:
448,192,108453,1,0,0:0:0:0:
320,192,108580,128,0,108707:0:0:0:0:
64,192,108580,1,2,0:0:0:0:
192,192,108707,1,0,0:0:0:0:
320,192,108835,1,0,0:0:0:0:
448,192,108835,1,0,0:0:0:0:
64,192,108835,1,8,0:0:0:0:
448,192,108962,1,0,0:0:0:0:
192,192,108962,128,0,109089:0:0:0:0:
64,192,109089,1,0,0:0:0:0:
320,192,109216,1,2,0:0:0:0:
192,192,109216,1,0,0:0:0:0:
64,192,109343,128,0,109470:0:0:0:0:
448,192,109343,1,0,0:0:0:0:
192,192,109470,1,0,0:0:0:0:
320,192,109470,1,8,0:0:0:0:
448,192,109470,1,0,0:0:0:0:
192,192,109597,1,0,0:0:0:0:
320,192,109597,1,2,0:0:0:0:
64,192,109724,1,0,0:0:0:0:
448,192,109724,128,0,109852:0:0:0:0:
64,192,109852,1,0,0:0:0:0:
192,192,109852,1,0,0:0:0:0:
320,192,109852,1,8,0:0:0:0:
448,192,109979,1,0,0:0:0:0:
64,192,110106,1,2,0:0:0:0:
192,192,110106,128,0,110233:0:0:0:0:
448,192,110233,1,0,0:0:0:0:
192,192,110360,1,2,0:0:0:0:
320,192,110360,1,4,0:0:0:0:
64,192,110360,1,0,0:0:0:0:
448,192,110487,1,0,0:0:0:0:
192,192,110614,1,2,0:0:0:0:
64,192,110614,128,0,110741:0:0:0:0:
320,192,110741,1,0,0:0:0:0:
192,192,110868,1,8,0:0:0:0:
64,192,110868,1,0,0:0:0:0:
448,192,110868,1,0,0:0:0:0:
320,192,110996,128,0,111123:0:0:0:0:
64,192,110996,1,0,0:0:0:0:
448,192,111123,1,0,0:0:0:0:
192,192,111250,1,2,0:0:0:0:
64,192,111250,1,0,0:0:0:0:
448,192,111377,128,0,111504:0:0:0:0:
320,192,111377,1,0,0:0:0:0:
64,192,111504,1,0,0:0:0:0:
192,192,111631,1,2,0:0:0:0:
448,192,111631,1,0,0:0:0:0:
320,192,111758,1,0,0:0:0:0:
64,192,111758,128,0,111885:0:0:0:0:
192,192,111885,1,8,0:0:0:0:
448,192,111885,1,0,0:0:0:0:
320,192,111885,1,0,0:0:0:0:
64,192,112013,1,0,0:0:0:0:
320,192,112140,1,0,0:0:0:0:
448,192,112140,128,2,112267:0:0:0:0:
64,192,112267,1,0,0:0:0:0:
192,192,112394,1,0,0:0:0:0:
320,192,112394,1,2,0:0:0:0:
448,192,112521,1,0,0:0:0:0:
64,192,112648,1,0,0:0:0:0:
320,192,112648,128,2,112775:0:0:0:0:
448,192,112775,1,0,0:0:0:0:
64,192,112902,1,0,0:0:0:0:
320,192,112902,1,0,0:0:0:0:
192,192,112902,1,8,0:0:0:0:
448,192,113029,1,0,0:0:0:0:
64,192,113029,128,0,113157:0:0:0:0:
192,192,113157,1,0,0:0:0:0:
320,192,113284,1,2,0:0:0:0:
448,192,113284,1,0,0:0:0:0:
64,192,113411,1,0,0:0:0:0:
192,192,113411,128,0,113538:0:0:0:0:
448,192,113538,1,0,0:0:0:0:
320,192,113665,1,2,0:0:0:0:
64,192,113665,1,0,0:0:0:0:
192,192,113792,1,0,0:0:0:0:
448,192,113792,128,0,113919:0:0:0:0:
192,192,113919,1,0,0:0:0:0:
64,192,113919,1,0,0:0:0:0:
320,192,113919,1,8,0:0:0:0:
448,192,114046,1,0,0:0:0:0:
64,192,114174,1,2,0:0:0:0:
192,192,114174,128,0,114301:0:0:0:0:
320,192,114301,1,0,0:0:0:0:
192,192,114428,1,4,0:0:0:0:
64,192,114428,1,0,0:0:0:0:
448,192,114428,1,2,0:0:0:0:
320,192,114555,1,0,0:0:0:0:
64,192,114682,1,2,0:0:0:0:
448,192,114682,128,0,114809:0:0:0:0:
192,192,114809,1,0,0:0:0:0:
64,192,114936,1,0,0:0:0:0:
448,192,114936,1,8,0:0:0:0:
192,192,115063,128,0,115191:0:0:0:0:
320,192,115063,1,0,0:0:0:0:
448,192,115191,1,0,0:0:0:0:
64,192,115318,1,0,0:0:0:0:
192,192,115318,1,2,0:0:0:0:
320,192,115445,128,0,115572:0:0:0:0:
448,192,115445,1,0,0:0:0:0:
64,192,115572,1,0,0:0:0:0:
448,192,115699,1,0,0:0:0:0:
192,192,115699,1,2,0:0:0:0:
64,192,115826,128,0,115953:0:0:0:0:
320,192,115826,1,0,0:0:0:0:
192,192,115953,1,0,0:0:0:0:
448,192,115953,1,0,0:0:0:0:
320,192,115953,1,8,0:0:0:0:
64,192,116080,1,0,0:0:0:0:
192,192,116207,1,2,0:0:0:0:
448,192,116207,128,0,116335:0:0:0:0:
320,192,116335,1,0,0:0:0:0:
192,192,116462,1,2,0:0:0:0:
64,192,116462,1,0,0:0:0:0:
448,192,116589,1,0,0:0:0:0:
192,192,116716,128,2,116843:0:0:0:0:
64,192,116716,1,0,0:0:0:0:
448,192,116843,1,0,0:0:0:0:
192,192,116970,1,8,0:0:0:0:
64,192,116970,1,0,0:0:0:0:
320,192,116970,1,0,0:0:0:0:
320,192,117097,1,0,0:0:0:0:
448,192,117097,128,0,117224:0:0:0:0:
64,192,117224,1,0,0:0:0:0:
192,192,117352,1,2,0:0:0:0:
320,192,117352,1,0,0:0:0:0:
64,192,117479,1,0,0:0:0:0:
192,192,117479,1,4,0:0:0:0:
448,192,117479,1,0,0:0:0:0:
64,192,117606,1,0,0:0:0:0:
448,192,117606,1,8,0:0:0:0:
320,192,117733,1,2,0:0:0:0:
192,192,117733,1,0,0:0:0:0:
448,192,117860,1,0,0:0:0:0:
64,192,117860,1,0,0:0:0:0:
192,192,117987,1,2,0:0:0:0:
64,192,117987,1,0,0:0:0:0:
320,192,118114,1,2,0:0:0:0:
448,192,118114,1,0,0:0:0:0:
192,192,118241,1,2,0:0:0:0:
64,192,118241,1,0,0:0:0:0:
192,192,118368,1,0,0:0:0:0:
320,192,118368,1,2,0:0:0:0:
448,192,118496,1,2,0:0:0:0:
320,192,118496,1,0,0:0:0:0:
64,192,118496,128,0,118877:0:0:0:0:
448,192,118750,1,0,0:0:0:0:
192,192,118877,1,0,0:0:0:0:
320,192,118877,128,0,119258:0:0:0:0:
64,192,119004,1,8,0:0:0:0:
448,192,119004,1,0,0:0:0:0:
64,192,119258,1,0,0:0:0:0:
192,192,119258,128,0,119640:0:0:0:0:
320,192,119385,1,2,0:0:0:0:
448,192,119385,1,0,0:0:0:0:
64,192,119513,1,0,0:0:0:0:
320,192,119640,1,0,0:0:0:0:
448,192,119640,128,0,120021:0:0:0:0:
192,192,119767,1,2,0:0:0:0:
64,192,119767,1,0,0:0:0:0:
192,192,120021,128,8,120148:0:0:0:0:
64,192,120021,128,0,120148:0:0:0:0:
192,192,120275,128,0,120402:0:0:0:0:
320,192,120275,128,0,120402:0:0:0:0:
448,192,120529,1,2,0:0:0:0:
64,192,120529,128,0,120911:0:0:0:0:
448,192,120784,1,0,0:0:0:0:
192,192,120911,128,0,121292:0:0:0:0:
320,192,120911,1,0,0:0:0:0:
448,192,121038,1,8,0:0:0:0:
64,192,121038,1,0,0:0:0:0:
320,192,121292,128,0,121674:0:0:0:0:
448,192,121292,1,2,0:0:0:0:
64,192,121546,1,0,0:0:0:0:
448,192,121674,128,0,122055:0:0:0:0:
192,192,121674,1,0,0:0:0:0:
64,192,121801,1,2,0:0:0:0:
320,192,121801,1,0,0:0:0:0:
64,192,122055,1,8,0:0:0:0:
192,192,122055,128,0,122309:0:0:0:0:
320,192,122309,128,0,122563:0:0:0:0:
448,192,122309,1,2,0:0:0:0:
192,192,122563,1,2,0:0:0:0:
64,192,122563,128,0,122945:0:0:0:0:
192,192,122818,1,0,0:0:0:0:
320,192,122945,128,0,123326:0:0:0:0:
448,192,122945,1,0,0:0:0:0:
64,192,123072,1,0,0:0:0:0:
192,192,123072,1,8,0:0:0:0:
64,192,123326,1,0,0:0:0:0:
192,192,123326,128,0,123707:0:0:0:0:
320,192,123453,1,2,0:0:0:0:
448,192,123453,1,0,0:0:0:0:
64,192,123580,1,0,0:0:0:0:
320,192,123707,1,0,0:0:0:0:
448,192,123707,128,0,124089:0:0:0:0:
192,192,123835,1,2,0:0:0:0:
64,192,123835,1,0,0:0:0:0:
64,192,124089,128,0,124216:0:0:0:0:
192,192,124089,128,8,124216:0:0:0:0:
320,192,124343,128,0,124470:0:0:0:0:
448,192,124343,128,0,124470:0:0:0:0:
64,192,124597,1,2,0:0:0:0:
192,192,124597,128,0,124979:0:0:0:0:
64,192,124852,1,0,0:0:0:0:
320,192,124979,1,0,0:0:0:0:
448,192,124979,128,0,125360:0:0:0:0:
192,192,125106,1,8,0:0:0:0:
64,192,125106,1,0,0:0:0:0:
64,192,125360,128,0,125741:0:0:0:0:
192,192,125360,1,0,0:0:0:0:
448,192,125614,1,0,0:0:0:0:
192,192,125614,1,2,0:0:0:0:
448,192,125741,1,0,0:0:0:0:
320,192,125741,128,0,126123:0:0:0:0:
192,192,125868,1,2,0:0:0:0:
64,192,125868,1,0,0:0:0:0:
448,192,126123,1,0,0:0:0:0:
64,192,126123,1,8,0:0:0:0:
192,192,126123,128,0,126377:0:0:0:0:
320,192,126377,128,0,126631:0:0:0:0:
448,192,126377,1,0,0:0:0:0:
448,192,126631,1,0,0:0:0:0:
192,192,126631,1,2,0:0:0:0:
64,192,126631,128,0,127013:0:0:0:0:
192,192,126885,1,0,0:0:0:0:
448,192,127013,1,0,0:0:0:0:
320,192,127013,128,0,127394:0:0:0:0:
64,192,127140,1,0,0:0:0:0:
192,192,127140,1,8,0:0:0:0:
192,192,127394,128,0,127775:0:0:0:0:
64,192,127394,1,0,0:0:0:0:
320,192,127521,1,2,0:0:0:0:
448,192,127521,1,0,0:0:0:0:
64,192,127648,1,0,0:0:0:0:
320,192,127775,1,0,0:0:0:0:
448,192,127775,128,0,128157:0:0:0:0:
192,192,127902,1,2,0:0:0:0:
64,192,127902,1,0,0:0:0:0:
64,192,128157,128,8,128284:0:0:0:0:
320,192,128157,128,0,128284:0:0:0:0:
320,192,128411,128,0,128538:0:0:0:0:
448,192,128411,128,0,128538:0:0:0:0:
192,192,128665,1,2,0:0:0:0:
64,192,128665,128,0,129046:0:0:0:0:
192,192,128919,1,0,0:0:0:0:
448,192,129046,128,0,129428:0:0:0:0:
320,192,129046,1,0,0:0:0:0:
64,192,129174,1,0,0:0:0:0:
192,192,129174,1,8,0:0:0:0:
192,192,129428,128,0,129809:0:0:0:0:
64,192,129428,1,0,0:0:0:0:
448,192,129555,1,2,0:0:0:0:
320,192,129555,1,0,0:0:0:0:
64,192,129682,1,0,0:0:0:0:
320,192,129809,128,0,130191:0:0:0:0:
448,192,129809,1,0,0:0:0:0:
192,192,129936,1,2,0:0:0:0:
64,192,129936,1,0,0:0:0:0:
64,192,130191,128,0,130445:0:0:0:0:
192,192,130191,1,8,0:0:0:0:
320,192,130445,1,0,0:0:0:0:
448,192,130445,128,0,130699:0:0:0:0:
320,192,130699,1,2,0:0:0:0:
192,192,130699,128,0,131080:0:0:0:0:
64,192,130953,1,0,0:0:0:0:
320,192,131080,128,0,131462:0:0:0:0:
448,192,131080,1,0,0:0:0:0:
192,192,131207,1,8,0:0:0:0:
64,192,131207,1,0,0:0:0:0:
64,192,131462,128,0,131843:0:0:0:0:
192,192,131462,1,0,0:0:0:0:
320,192,131589,1,2,0:0:0:0:
448,192,131589,1,0,0:0:0:0:
192,192,131716,1,0,0:0:0:0:
320,192,131843,128,0,132224:0:0:0:0:
448,192,131843,1,0,0:0:0:0:
192,192,131970,1,2,0:0:0:0:
64,192,131970,1,0,0:0:0:0:
64,192,132224,128,8,132352:0:0:0:0:
448,192,132224,128,0,132352:0:0:0:0:
192,192,132479,128,0,132606:0:0:0:0:
64,192,132479,128,0,132606:0:0:0:0:
64,192,132733,1,2,0:0:0:0:
448,192,132733,128,0,133114:0:0:0:0:
64,192,132987,1,0,0:0:0:0:
192,192,133114,128,0,133496:0:0:0:0:
320,192,133114,1,0,0:0:0:0:
64,192,133241,1,0,0:0:0:0:
448,192,133241,1,8,0:0:0:0:
448,192,133496,1,0,0:0:0:0:
320,192,133496,128,0,133877:0:0:0:0:
64,192,133623,1,0,0:0:0:0:
192,192,133623,1,2,0:0:0:0:
448,192,133750,1,0,0:0:0:0:
192,192,133877,128,0,134258:0:0:0:0:
64,192,133877,1,0,0:0:0:0:
320,192,134004,1,2,0:0:0:0:
448,192,134004,1,0,0:0:0:0:
64,192,134258,1,8,0:0:0:0:
320,192,134258,128,0,134513:0:0:0:0:
64,192,134513,128,0,134767:0:0:0:0:
448,192,134513,1,0,0:0:0:0:
448,192,134767,1,0,0:0:0:0:
192,192,134767,1,2,0:0:0:0:
320,192,134767,1,0,0:0:0:0:
192,192,135021,1,0,0:0:0:0:
320,192,135148,1,0,0:0:0:0:
448,192,135148,1,0,0:0:0:0:
448,192,135275,1,0,0:0:0:0:
192,192,135275,1,8,0:0:0:0:
64,192,135275,1,0,0:0:0:0:
64,192,135529,1,0,0:0:0:0:
448,192,135529,1,0,0:0:0:0:
320,192,135657,1,2,0:0:0:0:
192,192,135657,1,0,0:0:0:0:
64,192,135784,1,0,0:0:0:0:
320,192,135911,1,0,0:0:0:0:
448,192,135911,1,0,0:0:0:0:
64,192,136038,1,0,0:0:0:0:
192,192,136038,1,2,0:0:0:0:
320,192,136165,1,0,0:0:0:0:
64,192,136292,1,0,0:0:0:0:
192,192,136292,1,8,0:0:0:0:
448,192,136292,1,0,0:0:0:0:
64,192,136546,1,0,0:0:0:0:
448,192,136546,1,0,0:0:0:0:
192,192,136674,1,0,0:0:0:0:
320,192,136801,1,2,0:0:0:0:
448,192,136801,1,0,0:0:0:0:
64,192,137055,1,0,0:0:0:0:
192,192,137182,1,0,0:0:0:0:
320,192,137182,1,0,0:0:0:0:
64,192,137309,1,0,0:0:0:0:
320,192,137309,1,8,0:0:0:0:
448,192,137309,1,0,0:0:0:0:
64,192,137563,1,0,0:0:0:0:
448,192,137563,1,0,0:0:0:0:
320,192,137691,1,2,0:0:0:0:
448,192,137691,1,0,0:0:0:0:
64,192,137818,1,0,0:0:0:0:
192,192,137945,1,8,0:0:0:0:
64,192,137945,1,0,0:0:0:0:
320,192,138072,1,2,0:0:0:0:
448,192,138072,1,0,0:0:0:0:
64,192,138199,1,0,0:0:0:0:
192,192,138199,128,0,138835:0:0:0:0:
320,192,138835,1,2,0:0:0:0:
64,192,138835,1,4,0:0:0:0:
448,192,138835,128,0,139089:0:0:0:0:
192,192,139089,1,0,0:0:0:0:
64,192,139089,128,0,139343:0:0:0:0:
320,192,139343,1,8,0:0:0:0:
448,192,139343,1,0,0:0:0:0:
448,192,139470,128,0,139597:0:0:0:0:
64,192,139470,128,0,139597:0:0:0:0:
192,192,139597,1,0,0:0:0:0:
448,192,139724,1,0,0:0:0:0:
320,192,139724,1,2,0:0:0:0:
192,192,139852,128,0,140106:0:0:0:0:
64,192,139852,1,0,0:0:0:0:
448,192,140106,128,0,140360:0:0:0:0:
320,192,140106,1,2,0:0:0:0:
64,192,140360,1,8,0:0:0:0:
192,192,140360,1,0,0:0:0:0:
64,192,140487,128,0,140614:0:0:0:0:
448,192,140487,128,0,140614:0:0:0:0:
320,192,140614,1,0,0:0:0:0:
192,192,140741,1,0,0:0:0:0:
448,192,140741,1,0,0:0:0:0:
64,192,140868,128,0,141123:0:0:0:0:
320,192,140868,1,2,0:0:0:0:
320,192,141123,1,2,0:0:0:0:
448,192,141123,128,0,141377:0:0:0:0:
192,192,141377,1,8,0:0:0:0:
64,192,141377,1,0,0:0:0:0:
64,192,141504,128,0,141631:0:0:0:0:
192,192,141504,128,0,141631:0:0:0:0:
448,192,141631,1,0,0:0:0:0:
192,192,141758,1,2,0:0:0:0:
320,192,141758,1,0,0:0:0:0:
64,192,141885,1,0,0:0:0:0:
64,192,142013,1,0,0:0:0:0:
448,192,142013,1,0,0:0:0:0:
192,192,142013,1,8,0:0:0:0:
448,192,142140,1,0,0:0:0:0:
320,192,142140,1,2,0:0:0:0:
192,192,142267,1,0,0:0:0:0:
64,192,142394,1,0,0:0:0:0:
320,192,142394,1,8,0:0:0:0:
448,192,142394,128,0,142521:0:0:0:0:
192,192,142521,128,0,142648:0:0:0:0:
448,192,142648,1,2,0:0:0:0:
320,192,142648,128,0,142775:0:0:0:0:
64,192,142775,128,0,142902:0:0:0:0:
320,192,142902,128,0,143157:0:0:0:0:
448,192,142902,1,2,0:0:0:0:
64,192,143157,1,2,0:0:0:0:
192,192,143157,128,0,143411:0:0:0:0:
320,192,143411,1,8,0:0:0:0:
448,192,143411,1,0,0:0:0:0:
448,192,143538,128,0,143665:0:0:0:0:
192,192,143538,128,0,143665:0:0:0:0:
64,192,143665,1,0,0:0:0:0:
320,192,143792,1,0,0:0:0:0:
192,192,143792,1,2,0:0:0:0:
448,192,143919,128,0,144174:0:0:0:0:
64,192,143919,1,0,0:0:0:0:
64,192,144174,1,2,0:0:0:0:
192,192,144174,128,0,144428:0:0:0:0:
320,192,144428,1,8,0:0:0:0:
64,192,144428,1,0,0:0:0:0:
64,192,144555,128,0,144682:0:0:0:0:
320,192,144555,128,0,144682:0:0:0:0:
448,192,144682,1,2,0:0:0:0:
192,192,144809,1,0,0:0:0:0:
320,192,144809,1,0,0:0:0:0:
64,192,144936,1,2,0:0:0:0:
448,192,144936,128,0,145191:0:0:0:0:
192,192,145191,128,0,145445:0:0:0:0:
64,192,145191,1,2,0:0:0:0:
64,192,145445,1,8,0:0:0:0:
320,192,145445,1,0,0:0:0:0:
192,192,145572,128,0,145699:0:0:0:0:
320,192,145572,128,0,145699:0:0:0:0:
448,192,145699,1,0,0:0:0:0:
64,192,145826,1,2,0:0:0:0:
192,192,145826,1,0,0:0:0:0:
320,192,145953,1,0,0:0:0:0:
64,192,146080,1,0,0:0:0:0:
448,192,146080,1,8,0:0:0:0:
192,192,146080,1,0,0:0:0:0:
320,192,146207,1,0,0:0:0:0:
448,192,146207,1,2,0:0:0:0:
192,192,146335,1,0,0:0:0:0:
64,192,146462,1,0,0:0:0:0:
448,192,146462,128,0,146589:0:0:0:0:
320,192,146462,1,8,0:0:0:0:
192,192,146589,128,0,146716:0:0:0:0:
320,192,146716,128,0,146843:0:0:0:0:
448,192,146716,1,8,0:0:0:0:
192,192,146843,1,8,0:0:0:0:
64,192,146843,1,0,0:0:0:0:
448,192,146970,128,0,147224:0:0:0:0:
320,192,146970,1,4,0:0:0:0:
64,192,146970,1,2,0:0:0:0:
64,192,147224,128,0,147479:0:0:0:0:
192,192,147224,1,2,0:0:0:0:
448,192,147479,1,8,0:0:0:0:
192,192,147479,1,0,0:0:0:0:
192,192,147606,128,0,147733:0:0:0:0:
448,192,147606,128,0,147733:0:0:0:0:
64,192,147733,1,0,0:0:0:0:
192,192,147860,1,2,0:0:0:0:
320,192,147860,1,0,0:0:0:0:
64,192,147987,128,0,148241:0:0:0:0:
448,192,147987,1,0,0:0:0:0:
320,192,148241,1,2,0:0:0:0:
448,192,148241,128,0,148496:0:0:0:0:
192,192,148496,1,8,0:0:0:0:
64,192,148496,1,0,0:0:0:0:
64,192,148623,128,0,148750:0:0:0:0:
448,192,148623,128,0,148750:0:0:0:0:
192,192,148750,1,2,0:0:0:0:
448,192,148877,1,0,0:0:0:0:
320,192,148877,1,0,0:0:0:0:
192,192,149004,128,0,149258:0:0:0:0:
64,192,149004,1,2,0:0:0:0:
320,192,149258,128,0,149513:0:0:0:0:
448,192,149258,1,2,0:0:0:0:
64,192,149513,1,8,0:0:0:0:
192,192,149513,1,0,0:0:0:0:
192,192,149640,128,0,149767:0:0:0:0:
320,192,149640,128,0,149767:0:0:0:0:
64,192,149767,1,0,0:0:0:0:
448,192,149894,1,2,0:0:0:0:
320,192,149894,1,0,0:0:0:0:
192,192,150021,1,0,0:0:0:0:
64,192,150148,1,8,0:0:0:0:
448,192,150148,1,0,0:0:0:0:
320,192,150148,1,0,0:0:0:0:
64,192,150275,1,0,0:0:0:0:
192,192,150275,1,2,0:0:0:0:
320,192,150402,1,0,0:0:0:0:
64,192,150529,1,0,0:0:0:0:
192,192,150529,1,8,0:0:0:0:
448,192,150529,128,0,150657:0:0:0:0:
192,192,150657,128,0,150784:0:0:0:0:
448,192,150784,1,2,0:0:0:0:
320,192,150784,128,0,150911:0:0:0:0:
64,192,150911,128,0,151038:0:0:0:0:
320,192,151038,128,0,151292:0:0:0:0:
448,192,151038,1,2,0:0:0:0:
192,192,151292,1,2,0:0:0:0:
64,192,151292,128,0,151546:0:0:0:0:
448,192,151546,1,8,0:0:0:0:
320,192,151546,1,0,0:0:0:0:
64,192,151674,128,0,151801:0:0:0:0:
320,192,151674,128,0,151801:0:0:0:0:
192,192,151801,1,0,0:0:0:0:
320,192,151928,1,0,0:0:0:0:
448,192,151928,1,2,0:0:0:0:
192,192,152055,1,0,0:0:0:0:
64,192,152055,128,0,152309:0:0:0:0:
448,192,152309,128,0,152563:0:0:0:0:
320,192,152309,1,2,0:0:0:0:
192,192,152563,1,8,0:0:0:0:
64,192,152563,1,0,0:0:0:0:
192,192,152691,128,0,152818:0:0:0:0:
448,192,152691,128,0,152818:0:0:0:0:
64,192,152818,1,2,0:0:0:0:
320,192,152945,1,0,0:0:0:0:
192,192,152945,1,0,0:0:0:0:
448,192,153072,128,0,153326:0:0:0:0:
64,192,153072,1,2,0:0:0:0:
64,192,153326,1,2,0:0:0:0:
192,192,153326,128,0,153580:0:0:0:0:
448,192,153580,1,8,0:0:0:0:
64,192,153580,1,0,0:0:0:0:
192,192,153707,128,0,153835:0:0:0:0:
64,192,153707,128,0,153835:0:0:0:0:
448,192,153835,1,0,0:0:0:0:
192,192,153962,5,2,0:0:0:0:
320,192,153962,1,0,0:0:0:0:
64,192,154089,1,4,0:0:0:0:
192,192,154089,1,8,0:0:0:0:
448,192,154089,1,0,0:0:0:0:
320,192,154216,1,0,0:0:0:0:
448,192,154216,1,8,0:0:0:0:
64,192,154343,1,8,0:0:0:0:
192,192,154343,1,0,0:0:0:0:
448,192,154470,1,8,0:0:0:0:
320,192,154470,1,0,0:0:0:0:
64,192,154597,1,0,0:0:0:0:
448,192,154597,1,8,0:0:0:0:
64,192,154724,1,0,0:0:0:0:
192,192,154724,1,8,0:0:0:0:
320,192,154852,1,8,0:0:0:0:
448,192,154852,1,0,0:0:0:0:
192,192,154979,1,8,0:0:0:0:
320,192,154979,1,0,0:0:0:0:
448,192,155106,5,0,0:0:0:0:
64,192,155106,1,2,0:0:0:0:
192,192,155106,1,4,0:0:0:0:
320,192,155233,1,0,0:0:0:0:
64,192,155360,128,0,155487:0:0:0:0:
192,192,155360,1,2,0:0:0:0:
448,192,155487,1,0,0:0:0:0:
192,192,155614,1,8,0:0:0:0:
320,192,155614,1,0,0:0:0:0:
64,192,155614,1,0,0:0:0:0:
448,192,155741,128,0,155868:0:0:0:0:
320,192,155741,1,0,0:0:0:0:
64,192,155868,1,0,0:0:0:0:
448,192,155996,1,0,0:0:0:0:
320,192,155996,1,2,0:0:0:0:
64,192,156123,128,0,156250:0:0:0:0:
192,192,156123,1,0,0:0:0:0:
448,192,156250,1,0,0:0:0:0:
192,192,156377,1,0,0:0:0:0:
320,192,156377,1,2,0:0:0:0:
448,192,156504,128,0,156631:0:0:0:0:
64,192,156504,1,0,0:0:0:0:
64,192,156631,1,0,0:0:0:0:
320,192,156631,1,8,0:0:0:0:
192,192,156631,1,0,0:0:0:0:
448,192,156758,1,0,0:0:0:0:
192,192,156885,128,0,157013:0:0:0:0:
64,192,156885,1,0,0:0:0:0:
448,192,157013,1,0,0:0:0:0:
320,192,157140,1,2,0:0:0:0:
192,192,157140,1,0,0:0:0:0:
64,192,157267,1,0,0:0:0:0:
320,192,157394,128,2,157521:0:0:0:0:
448,192,157394,1,0,0:0:0:0:
64,192,157521,1,0,0:0:0:0:
320,192,157648,1,8,0:0:0:0:
448,192,157648,1,0,0:0:0:0:
192,192,157648,1,0,0:0:0:0:
192,192,157775,128,0,157902:0:0:0:0:
64,192,157775,1,0,0:0:0:0:
448,192,157902,1,0,0:0:0:0:
192,192,158029,1,2,0:0:0:0:
64,192,158029,1,0,0:0:0:0:
448,192,158157,128,0,158284:0:0:0:0:
320,192,158157,1,0,0:0:0:0:
64,192,158284,1,0,0:0:0:0:
320,192,158411,1,2,0:0:0:0:
192,192,158411,1,0,0:0:0:0:
448,192,158538,1,0,0:0:0:0:
64,192,158538,128,0,158665:0:0:0:0:
448,192,158665,1,0,0:0:0:0:
320,192,158665,1,8,0:0:0:0:
192,192,158665,1,0,0:0:0:0:
64,192,158792,1,0,0:0:0:0:
320,192,158919,128,0,159046:0:0:0:0:
448,192,158919,1,2,0:0:0:0:
192,192,159046,1,0,0:0:0:0:
448,192,159174,1,0,0:0:0:0:
64,192,159174,1,2,0:0:0:0:
320,192,159301,1,0,0:0:0:0:
64,192,159428,128,0,159555:0:0:0:0:
448,192,159428,1,2,0:0:0:0:
192,192,159555,1,0,0:0:0:0:
448,192,159682,1,0,0:0:0:0:
64,192,159682,1,0,0:0:0:0:
320,192,159682,1,8,0:0:0:0:
192,192,159809,1,0,0:0:0:0:
320,192,159809,128,0,159936:0:0:0:0:
448,192,159936,1,0,0:0:0:0:
64,192,160063,1,0,0:0:0:0:
192,192,160063,1,2,0:0:0:0:
448,192,160191,128,0,160318:0:0:0:0:
320,192,160191,1,0,0:0:0:0:
192,192,160318,1,0,0:0:0:0:
448,192,160445,1,2,0:0:0:0:
64,192,160445,1,0,0:0:0:0:
192,192,160572,1,0,0:0:0:0:
320,192,160572,128,0,160699:0:0:0:0:
64,192,160699,1,8,0:0:0:0:
448,192,160699,1,0,0:0:0:0:
192,192,160699,1,0,0:0:0:0:
320,192,160826,1,0,0:0:0:0:
64,192,160953,128,0,161080:0:0:0:0:
192,192,160953,1,0,0:0:0:0:
448,192,161080,1,0,0:0:0:0:
64,192,161207,1,0,0:0:0:0:
320,192,161207,1,2,0:0:0:0:
192,192,161335,1,0,0:0:0:0:
64,192,161462,1,0,0:0:0:0:
448,192,161462,128,2,161589:0:0:0:0:
320,192,161589,1,0,0:0:0:0:
448,192,161716,1,0,0:0:0:0:
192,192,161716,1,8,0:0:0:0:
64,192,161716,1,0,0:0:0:0:
320,192,161843,1,0,0:0:0:0:
192,192,161843,128,0,161970:0:0:0:0:
448,192,161970,1,0,0:0:0:0:
320,192,162097,1,2,0:0:0:0:
64,192,162097,1,0,0:0:0:0:
448,192,162224,128,0,162352:0:0:0:0:
192,192,162224,1,0,0:0:0:0:
64,192,162352,1,0,0:0:0:0:
320,192,162352,1,8,0:0:0:0:
192,192,162352,1,0,0:0:0:0:
64,192,162479,1,0,0:0:0:0:
320,192,162479,1,2,0:0:0:0:
448,192,162606,1,0,0:0:0:0:
192,192,162606,128,0,162733:0:0:0:0:
64,192,162733,1,0,0:0:0:0:
320,192,162733,1,8,0:0:0:0:
448,192,162733,1,0,0:0:0:0:
192,192,162860,1,0,0:0:0:0:
320,192,162987,1,0,0:0:0:0:
448,192,162987,128,2,163114:0:0:0:0:
64,192,163114,1,0,0:0:0:0:
448,192,163241,1,0,0:0:0:0:
192,192,163241,1,2,0:0:0:0:
64,192,163368,1,0,0:0:0:0:
320,192,163496,128,2,163623:0:0:0:0:
448,192,163496,1,0,0:0:0:0:
64,192,163623,1,0,0:0:0:0:
448,192,163750,1,0,0:0:0:0:
192,192,163750,1,8,0:0:0:0:
320,192,163750,1,0,0:0:0:0:
64,192,163877,128,0,164004:0:0:0:0:
448,192,163877,1,0,0:0:0:0:
320,192,164004,1,0,0:0:0:0:
448,192,164131,1,0,0:0:0:0:
64,192,164131,1,2,0:0:0:0:
320,192,164258,128,0,164385:0:0:0:0:
192,192,164258,1,0,0:0:0:0:
64,192,164385,1,0,0:0:0:0:
192,192,164513,1,2,0:0:0:0:
320,192,164513,1,0,0:0:0:0:
64,192,164640,128,0,164767:0:0:0:0:
448,192,164640,1,0,0:0:0:0:
192,192,164767,1,0,0:0:0:0:
448,192,164767,1,0,0:0:0:0:
320,192,164767,1,8,0:0:0:0:
64,192,164894,1,0,0:0:0:0:
320,192,165021,128,0,165148:0:0:0:0:
448,192,165021,1,0,0:0:0:0:
64,192,165148,1,0,0:0:0:0:
448,192,165275,1,0,0:0:0:0:
320,192,165275,1,2,0:0:0:0:
192,192,165402,1,0,0:0:0:0:
448,192,165529,128,2,165657:0:0:0:0:
64,192,165529,1,0,0:0:0:0:
320,192,165657,1,0,0:0:0:0:
192,192,165784,1,8,0:0:0:0:
448,192,165784,1,0,0:0:0:0:
64,192,165784,1,0,0:0:0:0:
320,192,165911,128,0,166038:0:0:0:0:
64,192,165911,1,0,0:0:0:0:
448,192,166038,1,0,0:0:0:0:
64,192,166165,1,2,0:0:0:0:
320,192,166165,1,0,0:0:0:0:
448,192,166292,1,0,0:0:0:0:
192,192,166292,128,0,166419:0:0:0:0:
64,192,166419,1,0,0:0:0:0:
320,192,166546,1,2,0:0:0:0:
192,192,166546,1,0,0:0:0:0:
448,192,166674,128,0,166801:0:0:0:0:
64,192,166674,1,0,0:0:0:0:
320,192,166801,1,8,0:0:0:0:
192,192,166801,1,0,0:0:0:0:
64,192,166801,1,0,0:0:0:0:
448,192,166928,1,0,0:0:0:0:
64,192,167055,128,0,167182:0:0:0:0:
320,192,167055,1,2,0:0:0:0:
192,192,167182,1,0,0:0:0:0:
448,192,167309,1,2,0:0:0:0:
320,192,167309,1,0,0:0:0:0:
64,192,167436,1,0,0:0:0:0:
192,192,167563,1,0,0:0:0:0:
448,192,167563,128,2,167691:0:0:0:0:
320,192,167691,1,0,0:0:0:0:
448,192,167818,1,0,0:0:0:0:
64,192,167818,1,0,0:0:0:0:
192,192,167818,1,8,0:0:0:0:
448,192,167945,1,0,0:0:0:0:
320,192,167945,128,0,168072:0:0:0:0:
64,192,168072,1,0,0:0:0:0:
448,192,168199,1,0,0:0:0:0:
192,192,168199,1,2,0:0:0:0:
320,192,168326,1,0,0:0:0:0:
64,192,168326,128,0,168453:0:0:0:0:
320,192,168453,1,0,0:0:0:0:
448,192,168453,1,0,0:0:0:0:
192,192,168453,1,8,0:0:0:0:
448,192,168580,1,0,0:0:0:0:
192,192,168580,1,2,0:0:0:0:
320,192,168707,128,0,168835:0:0:0:0:
64,192,168707,1,0,0:0:0:0:
448,192,168835,1,0,0:0:0:0:
64,192,168835,1,0,0:0:0:0:
192,192,168835,1,8,0:0:0:0:
320,192,168962,1,0,0:0:0:0:
192,192,169089,1,2,0:0:0:0:
64,192,169089,1,0,0:0:0:0:
448,192,169216,1,0,0:0:0:0:
64,192,169343,128,2,169597:0:0:0:0:
192,192,169343,1,0,0:0:0:0:
448,192,169470,1,0,0:0:0:0:
320,192,169597,1,0,0:0:0:0:
448,192,169597,128,2,169852:0:0:0:0:
192,192,169724,1,0,0:0:0:0:
64,192,169852,1,0,0:0:0:0:
192,192,169852,128,8,170106:0:0:0:0:
320,192,169979,1,0,0:0:0:0:
448,192,170106,1,0,0:0:0:0:
320,192,170106,128,2,170360:0:0:0:0:
64,192,170233,1,0,0:0:0:0:
64,192,170360,1,2,0:0:0:0:
192,192,170360,1,4,0:0:0:0:
448,192,170360,1,0,0:0:0:0:
320,192,170487,1,0,0:0:0:0:
64,192,170614,1,2,0:0:0:0:
448,192,170614,1,0,0:0:0:0:
320,192,170741,1,0,0:0:0:0:
192,192,170741,1,2,0:0:0:0:
448,192,170868,1,0,0:0:0:0:
64,192,170868,1,2,0:0:0:0:
192,192,170996,1,2,0:0:0:0:
64,192,170996,1,0,0:0:0:0:
320,192,171123,1,2,0:0:0:0:
192,192,171123,1,0,0:0:0:0:
448,192,171250,1,0,0:0:0:0:
320,192,171250,1,2,0:0:0:0:
448,192,171377,1,0,0:0:0:0:
192,192,171377,1,4,0:0:0:0:
64,192,171377,1,2,0:0:0:0:
320,192,171504,1,0,0:0:0:0:
192,192,171631,1,2,0:0:0:0:
64,192,171631,128,0,171758:0:0:0:0:
448,192,171758,1,0,0:0:0:0:
64,192,171885,1,0,0:0:0:0:
320,192,171885,1,0,0:0:0:0:
192,192,171885,1,8,0:0:0:0:
448,192,172013,1,0,0:0:0:0:
192,192,172013,128,0,172140:0:0:0:0:
64,192,172140,1,0,0:0:0:0:
192,192,172267,1,0,0:0:0:0:
320,192,172267,1,2,0:0:0:0:
64,192,172394,1,0,0:0:0:0:
448,192,172394,128,0,172521:0:0:0:0:
320,192,172521,1,0,0:0:0:0:
64,192,172648,1,2,0:0:0:0:
448,192,172648,1,0,0:0:0:0:
320,192,172775,128,0,172902:0:0:0:0:
192,192,172775,1,0,0:0:0:0:
64,192,172902,1,0,0:0:0:0:
192,192,172902,1,8,0:0:0:0:
448,192,172902,1,0,0:0:0:0:
320,192,173029,1,0,0:0:0:0:
64,192,173157,1,0,0:0:0:0:
192,192,173157,128,0,173284:0:0:0:0:
448,192,173284,1,0,0:0:0:0:
64,192,173411,1,0,0:0:0:0:
192,192,173411,1,2,0:0:0:0:
320,192,173538,1,0,0:0:0:0:
64,192,173665,128,0,173792:0:0:0:0:
448,192,173665,1,2,0:0:0:0:
192,192,173792,1,0,0:0:0:0:
448,192,173919,1,0,0:0:0:0:
320,192,173919,1,8,0:0:0:0:
64,192,173919,1,0,0:0:0:0:
448,192,174046,128,0,174174:0:0:0:0:
192,192,174046,1,0,0:0:0:0:
320,192,174174,1,0,0:0:0:0:
64,192,174301,1,2,0:0:0:0:
448,192,174301,1,0,0:0:0:0:
320,192,174428,1,0,0:0:0:0:
192,192,174428,128,0,174555:0:0:0:0:
64,192,174555,1,0,0:0:0:0:
192,192,174682,1,0,0:0:0:0:
320,192,174682,1,2,0:0:0:0:
64,192,174809,128,0,174936:0:0:0:0:
448,192,174809,1,0,0:0:0:0:
192,192,174936,1,0,0:0:0:0:
448,192,174936,1,0,0:0:0:0:
320,192,174936,1,8,0:0:0:0:
64,192,175063,1,0,0:0:0:0:
448,192,175191,128,2,175318:0:0:0:0:
320,192,175191,1,0,0:0:0:0:
64,192,175318,1,0,0:0:0:0:
320,192,175445,1,2,0:0:0:0:
192,192,175445,1,0,0:0:0:0:
448,192,175572,1,0,0:0:0:0:
192,192,175699,128,0,175826:0:0:0:0:
64,192,175699,1,2,0:0:0:0:
448,192,175826,1,0,0:0:0:0:
64,192,175953,1,0,0:0:0:0:
320,192,175953,1,0,0:0:0:0:
192,192,175953,1,8,0:0:0:0:
64,192,176080,128,0,176207:0:0:0:0:
448,192,176080,1,0,0:0:0:0:
320,192,176207,1,0,0:0:0:0:
64,192,176335,1,0,0:0:0:0:
192,192,176335,1,2,0:0:0:0:
320,192,176462,1,0,0:0:0:0:
448,192,176462,128,0,176589:0:0:0:0:
64,192,176589,1,0,0:0:0:0:
192,192,176716,1,2,0:0:0:0:
448,192,176716,1,0,0:0:0:0:
320,192,176843,128,0,176970:0:0:0:0:
64,192,176843,1,0,0:0:0:0:
64,192,176970,1,0,0:0:0:0:
448,192,176970,1,0,0:0:0:0:
192,192,176970,1,8,0:0:0:0:
320,192,177097,1,0,0:0:0:0:
448,192,177224,1,0,0:0:0:0:
192,192,177224,128,0,177352:0:0:0:0:
64,192,177352,1,0,0:0:0:0:
320,192,177479,1,2,0:0:0:0:
192,192,177479,1,0,0:0:0:0:
448,192,177606,1,0,0:0:0:0:
192,192,177733,1,0,0:0:0:0:
64,192,177733,128,2,177860:0:0:0:0:
320,192,177860,1,0,0:0:0:0:
64,192,177987,1,0,0:0:0:0:
448,192,177987,1,0,0:0:0:0:
192,192,177987,1,8,0:0:0:0:
320,192,178114,128,0,178241:0:0:0:0:
64,192,178114,1,0,0:0:0:0:
448,192,178241,1,0,0:0:0:0:
64,192,178368,1,0,0:0:0:0:
320,192,178368,1,2,0:0:0:0:
192,192,178496,1,0,0:0:0:0:
448,192,178496,128,0,178623:0:0:0:0:
64,192,178623,1,0,0:0:0:0:
192,192,178623,1,0,0:0:0:0:
320,192,178623,1,8,0:0:0:0:
320,192,178750,1,2,0:0:0:0:
64,192,178750,1,0,0:0:0:0:
192,192,178877,128,0,179004:0:0:0:0:
448,192,178877,1,0,0:0:0:0:
64,192,179004,1,0,0:0:0:0:
320,192,179004,1,8,0:0:0:0:
448,192,179004,1,0,0:0:0:0:
192,192,179131,1,0,0:0:0:0:
64,192,179258,128,0,179385:0:0:0:0:
448,192,179258,1,2,0:0:0:0:
320,192,179385,1,0,0:0:0:0:
64,192,179513,1,0,0:0:0:0:
192,192,179513,1,2,0:0:0:0:
448,192,179513,1,4,0:0:0:0:
320,192,179640,1,0,0:0:0:0:
192,192,179767,128,0,179894:0:0:0:0:
64,192,179767,1,2,0:0:0:0:
448,192,179894,1,0,0:0:0:0:
320,192,180021,1,8,0:0:0:0:
64,192,180021,1,0,0:0:0:0:
192,192,180021,1,0,0:0:0:0:
448,192,180148,1,0,0:0:0:0:
320,192,180148,128,0,180275:0:0:0:0:
64,192,180275,1,0,0:0:0:0:
192,192,180402,1,2,0:0:0:0:
320,192,180402,1,0,0:0:0:0:
64,192,180529,128,0,180657:0:0:0:0:
448,192,180529,1,0,0:0:0:0:
192,192,180657,1,0,0:0:0:0:
64,192,180784,1,0,0:0:0:0:
448,192,180784,1,2,0:0:0:0:
320,192,180911,128,0,181038:0:0:0:0:
192,192,180911,1,0,0:0:0:0:
192,192,181038,1,8,0:0:0:0:
448,192,181038,1,0,0:0:0:0:
64,192,181038,1,0,0:0:0:0:
320,192,181165,1,0,0:0:0:0:
192,192,181292,128,2,181419:0:0:0:0:
64,192,181292,1,0,0:0:0:0:
448,192,181419,1,0,0:0:0:0:
320,192,181546,1,2,0:0:0:0:
192,192,181546,1,0,0:0:0:0:
64,192,181674,1,0,0:0:0:0:
448,192,181801,128,2,181928:0:0:0:0:
320,192,181801,1,0,0:0:0:0:
192,192,181928,1,0,0:0:0:0:
448,192,182055,1,0,0:0:0:0:
320,192,182055,1,8,0:0:0:0:
64,192,182055,1,0,0:0:0:0:
64,192,182182,128,0,182309:0:0:0:0:
192,192,182182,1,0,0:0:0:0:
448,192,182309,1,0,0:0:0:0:
192,192,182436,1,2,0:0:0:0:
320,192,182436,1,0,0:0:0:0:
448,192,182563,128,0,182691:0:0:0:0:
64,192,182563,1,0,0:0:0:0:
320,192,182691,1,0,0:0:0:0:
64,192,182818,1,2,0:0:0:0:
448,192,182818,1,0,0:0:0:0:
192,192,182945,128,0,183072:0:0:0:0:
320,192,182945,1,0,0:0:0:0:
64,192,183072,1,0,0:0:0:0:
448,192,183072,1,8,0:0:0:0:
320,192,183072,1,0,0:0:0:0:
192,192,183199,1,0,0:0:0:0:
64,192,183326,128,2,183453:0:0:0:0:
448,192,183326,1,0,0:0:0:0:
192,192,183453,1,0,0:0:0:0:
64,192,183580,1,0,0:0:0:0:
448,192,183580,1,2,0:0:0:0:
320,192,183580,1,4,0:0:0:0:
192,192,183707,1,0,0:0:0:0:
320,192,183835,128,0,183962:0:0:0:0:
448,192,183835,1,2,0:0:0:0:
64,192,183962,1,0,0:0:0:0:
320,192,184089,1,0,0:0:0:0:
192,192,184089,1,8,0:0:0:0:
448,192,184089,1,0,0:0:0:0:
64,192,184216,1,0,0:0:0:0:
448,192,184216,128,0,184343:0:0:0:0:
320,192,184343,1,0,0:0:0:0:
448,192,184470,1,0,0:0:0:0:
64,192,184470,1,2,0:0:0:0:
320,192,184597,1,0,0:0:0:0:
192,192,184597,128,0,184724:0:0:0:0:
64,192,184724,1,0,0:0:0:0:
192,192,184852,1,0,0:0:0:0:
320,192,184852,1,2,0:0:0:0:
64,192,184979,1,0,0:0:0:0:
448,192,184979,128,0,185106:0:0:0:0:
192,192,185106,1,8,0:0:0:0:
64,192,185106,1,0,0:0:0:0:
320,192,185106,1,0,0:0:0:0:
320,192,185233,1,0,0:0:0:0:
64,192,185360,128,0,185487:0:0:0:0:
192,192,185360,1,2,0:0:0:0:
448,192,185487,1,0,0:0:0:0:
320,192,185614,1,0,0:0:0:0:
192,192,185614,1,2,0:0:0:0:
64,192,185741,1,0,0:0:0:0:
448,192,185868,1,2,0:0:0:0:
320,192,185868,128,0,185996:0:0:0:0:
192,192,185996,1,0,0:0:0:0:
320,192,186123,1,0,0:0:0:0:
64,192,186123,1,0,0:0:0:0:
448,192,186123,1,8,0:0:0:0:
192,192,186250,128,0,186377:0:0:0:0:
320,192,186250,1,0,0:0:0:0:
64,192,186377,1,0,0:0:0:0:
320,192,186504,5,2,0:0:0:0:
448,192,186504,1,0,0:0:0:0:
448,192,186631,1,0,0:0:0:0:
64,192,186631,1,2,0:0:0:0:
192,192,186631,1,4,0:0:0:0:
192,192,186758,1,8,0:0:0:0:
64,192,186758,1,0,0:0:0:0:
448,192,186885,1,0,0:0:0:0:
320,192,186885,1,2,0:0:0:0:
448,192,187013,1,0,0:0:0:0:
64,192,187013,1,0,0:0:0:0:
64,192,187140,1,0,0:0:0:0:
192,192,187140,1,2,0:0:0:0:
448,192,187267,1,0,0:0:0:0:
320,192,187267,1,2,0:0:0:0:
320,192,187394,1,2,0:0:0:0:
192,192,187394,1,0,0:0:0:0:
64,192,187521,1,0,0:0:0:0:
192,192,187521,1,2,0:0:0:0:
64,192,187648,128,0,187902:0:0:0:0:
448,192,187648,128,0,187902:0:0:0:0:
320,192,187648,128,2,187902:0:0:0:0:
192,192,187902,1,0,0:0:0:0:
64,192,188029,128,2,188284:0:0:0:0:
320,192,188029,128,0,188284:0:0:0:0:
448,192,188029,128,0,188284:0:0:0:0:
192,192,188284,1,0,0:0:0:0:
64,192,188411,128,2,188665:0:0:0:0:
448,192,188411,128,0,188665:0:0:0:0:
320,192,188411,128,0,188665:0:0:0:0:
192,192,188665,1,0,0:0:0:0:
64,192,188792,128,2,189046:0:0:0:0:
448,192,188792,128,0,189046:0:0:0:0:
320,192,188792,128,0,189046:0:0:0:0:
192,192,189046,1,0,0:0:0:0:
64,192,189174,128,2,189428:0:0:0:0:
448,192,189174,128,0,189428:0:0:0:0:
320,192,189174,128,0,189428:0:0:0:0:
192,192,189428,1,8,0:0:0:0:
320,192,189555,1,0,0:0:0:0:
448,192,189555,1,0,0:0:0:0:
64,192,189682,128,0,189936:0:0:0:0:
192,192,189682,128,0,189936:0:0:0:0:
320,192,189682,128,2,189936:0:0:0:0:
448,192,189936,1,0,0:0:0:0:
64,192,190063,128,0,190318:0:0:0:0:
192,192,190063,128,0,190318:0:0:0:0:
320,192,190063,128,2,190318:0:0:0:0:
448,192,190318,1,0,0:0:0:0:
64,192,190445,128,0,190699:0:0:0:0:
192,192,190445,128,0,190699:0:0:0:0:
320,192,190445,128,2,190699:0:0:0:0:
448,192,190699,1,0,0:0:0:0:
64,192,190826,128,0,191080:0:0:0:0:
192,192,190826,128,0,191080:0:0:0:0:
320,192,190826,128,2,191080:0:0:0:0:
448,192,191080,1,0,0:0:0:0:
64,192,191207,128,0,191462:0:0:0:0:
192,192,191207,128,0,191462:0:0:0:0:
320,192,191207,128,2,191462:0:0:0:0:
448,192,191462,1,8,0:0:0:0:
192,192,191589,1,0,0:0:0:0:
64,192,191589,1,0,0:0:0:0:
192,192,191716,128,0,191970:0:0:0:0:
320,192,191716,128,2,191970:0:0:0:0:
448,192,191716,128,0,191970:0:0:0:0:
64,192,191970,1,0,0:0:0:0:
320,192,192097,128,2,192352:0:0:0:0:
448,192,192097,128,0,192352:0:0:0:0:
192,192,192097,128,0,192352:0:0:0:0:
64,192,192352,1,0,0:0:0:0:
192,192,192479,128,0,192733:0:0:0:0:
448,192,192479,128,0,192733:0:0:0:0:
320,192,192479,128,2,192733:0:0:0:0:
64,192,192733,1,0,0:0:0:0:
320,192,192860,128,2,193114:0:0:0:0:
448,192,192860,128,0,193114:0:0:0:0:
192,192,192860,128,0,193114:0:0:0:0:
64,192,193114,1,0,0:0:0:0:
192,192,193241,128,0,193496:0:0:0:0:
448,192,193241,128,0,193496:0:0:0:0:
320,192,193241,128,2,193496:0:0:0:0:
64,192,193496,1,8,0:0:0:0:
320,192,193623,1,0,0:0:0:0:
448,192,193623,1,0,0:0:0:0:
448,192,193750,128,0,194004:0:0:0:0:
192,192,193750,128,2,194004:0:0:0:0:
64,192,193750,128,0,194004:0:0:0:0:
320,192,194004,1,0,0:0:0:0:
192,192,194131,128,2,194385:0:0:0:0:
64,192,194131,128,0,194385:0:0:0:0:
448,192,194131,128,0,194385:0:0:0:0:
320,192,194385,1,0,0:0:0:0:
192,192,194513,128,2,194767:0:0:0:0:
64,192,194513,128,0,194767:0:0:0:0:
448,192,194513,128,0,194767:0:0:0:0:
320,192,194767,1,0,0:0:0:0:
448,192,194894,128,0,195148:0:0:0:0:
64,192,194894,128,0,195148:0:0:0:0:
192,192,194894,128,2,195148:0:0:0:0:
320,192,195148,1,0,0:0:0:0:
192,192,195275,128,2,195402:0:0:0:0:
64,192,195275,128,0,195402:0:0:0:0:
448,192,195275,128,0,195402:0:0:0:0:
320,192,195402,1,0,0:0:0:0:
64,192,195529,1,0,0:0:0:0:
192,192,195529,1,4,0:0:0:0:
448,192,195529,1,0,0:0:0:0:
64,192,195784,1,2,0:0:0:0:
448,192,195784,1,0,0:0:0:0:
192,192,195868,1,0,0:0:0:0:
320,192,195953,1,0,0:0:0:0:
448,192,196038,1,0,0:0:0:0:
192,192,196123,1,0,0:0:0:0:
320,192,196207,1,0,0:0:0:0:
64,192,196292,1,0,0:0:0:0:
192,192,196377,1,0,0:0:0:0:
320,192,196462,1,0,0:0:0:0:
448,192,196546,1,0,0:0:0:0:
192,192,196631,1,0,0:0:0:0:
320,192,196716,1,0,0:0:0:0:
64,192,196801,1,0,0:0:0:0:
192,192,196885,1,0,0:0:0:0:
320,192,196970,1,0,0:0:0:0:
448,192,197055,1,0,0:0:0:0:
192,192,197140,1,0,0:0:0:0:
320,192,197224,1,0,0:0:0:0:
64,192,197309,1,0,0:0:0:0:
192,192,197394,1,0,0:0:0:0:
320,192,197479,1,0,0:0:0:0:
448,192,197563,1,0,0:0:0:0:
192,192,197648,1,0,0:0:0:0:
320,192,197733,1,0,0:0:0:0:
64,192,197818,1,2,0:0:0:0:
448,192,197818,1,0,0:0:0:0:
192,192,197902,1,0,0:0:0:0:
320,192,197987,1,0,0:0:0:0:
64,192,198072,1,0,0:0:0:0:
192,192,198157,1,0,0:0:0:0:
448,192,198241,1,0,0:0:0:0:
320,192,198326,1,0,0:0:0:0:
192,192,198411,1,0,0:0:0:0:
448,192,198496,1,0,0:0:0:0:
320,192,198580,1,0,0:0:0:0:
64,192,198665,1,0,0:0:0:0:
192,192,198750,1,0,0:0:0:0:
320,192,198835,1,0,0:0:0:0:
64,192,198919,1,0,0:0:0:0:
192,192,199004,1,0,0:0:0:0:
448,192,199089,1,0,0:0:0:0:
320,192,199174,1,0,0:0:0:0:
192,192,199258,1,0,0:0:0:0:
448,192,199343,1,0,0:0:0:0:
320,192,199428,1,0,0:0:0:0:
64,192,199513,1,0,0:0:0:0:
192,192,199597,1,0,0:0:0:0:
320,192,199682,1,0,0:0:0:0:
192,192,199767,1,0,0:0:0:0:
64,192,199852,1,0,0:0:0:0:
448,192,199852,1,2,0:0:0:0:
320,192,199936,1,0,0:0:0:0:
192,192,200021,1,0,0:0:0:0:
64,192,200106,1,0,0:0:0:0:
320,192,200191,1,0,0:0:0:0:
192,192,200275,1,0,0:0:0:0:
448,192,200360,1,0,0:0:0:0:
320,192,200445,1,0,0:0:0:0:
192,192,200529,1,0,0:0:0:0:
64,192,200614,1,0,0:0:0:0:
320,192,200699,1,0,0:0:0:0:
192,192,200784,1,0,0:0:0:0:
448,192,200868,1,0,0:0:0:0:
320,192,200953,1,0,0:0:0:0:
192,192,201038,1,0,0:0:0:0:
64,192,201123,1,0,0:0:0:0:
320,192,201207,1,0,0:0:0:0:
192,192,201292,1,0,0:0:0:0:
448,192,201377,1,0,0:0:0:0:
320,192,201462,1,0,0:0:0:0:
192,192,201546,1,0,0:0:0:0:
64,192,201631,1,0,0:0:0:0:
320,192,201716,1,0,0:0:0:0:
192,192,201801,1,0,0:0:0:0:
64,192,201885,1,2,0:0:0:0:
448,192,201885,1,0,0:0:0:0:
320,192,201970,1,0,0:0:0:0:
192,192,202055,1,0,0:0:0:0:
448,192,202140,1,0,0:0:0:0:
320,192,202224,1,0,0:0:0:0:
64,192,202309,1,0,0:0:0:0:
192,192,202394,1,0,0:0:0:0:
320,192,202479,1,0,0:0:0:0:
64,192,202563,1,0,0:0:0:0:
192,192,202648,1,0,0:0:0:0:
448,192,202733,1,0,0:0:0:0:
320,192,202818,1,0,0:0:0:0:
192,192,202902,1,0,0:0:0:0:
448,192,202987,1,0,0:0:0:0:
320,192,203072,1,0,0:0:0:0:
64,192,203157,1,0,0:0:0:0:
192,192,203241,1,0,0:0:0:0:
320,192,203326,1,0,0:0:0:0:
64,192,203411,1,0,0:0:0:0:
192,192,203496,1,0,0:0:0:0:
448,192,203580,1,0,0:0:0:0:
320,192,203665,1,0,0:0:0:0:
192,192,203750,1,0,0:0:0:0:
320,192,203835,1,0,0:0:0:0:
448,192,203919,1,2,0:0:0:0:
64,192,203919,1,0,0:0:0:0:
192,192,204004,1,0,0:0:0:0:
320,192,204089,1,0,0:0:0:0:
64,192,204174,1,0,0:0:0:0:
448,192,204258,1,0,0:0:0:0:
192,192,204343,1,0,0:0:0:0:
320,192,204428,1,0,0:0:0:0:
64,192,204513,1,0,0:0:0:0:
448,192,204597,1,0,0:0:0:0:
192,192,204682,1,0,0:0:0:0:
320,192,204767,1,0,0:0:0:0:
64,192,204852,1,0,0:0:0:0:
448,192,204936,1,0,0:0:0:0:
192,192,205021,1,0,0:0:0:0:
320,192,205106,1,0,0:0:0:0:
64,192,205191,1,0,0:0:0:0:
448,192,205275,1,0,0:0:0:0:
192,192,205360,1,0,0:0:0:0:
320,192,205445,1,0,0:0:0:0:
64,192,205529,1,0,0:0:0:0:
448,192,205614,1,0,0:0:0:0:
192,192,205699,1,0,0:0:0:0:
320,192,205784,1,0,0:0:0:0:
64,192,205868,1,0,0:0:0:0:
448,192,205953,1,0,0:0:0:0:
320,192,205953,1,2,0:0:0:0:
64,192,206038,1,0,0:0:0:0:
320,192,206123,1,0,0:0:0:0:
192,192,206207,1,0,0:0:0:0:
448,192,206292,1,0,0:0:0:0:
192,192,206377,1,0,0:0:0:0:
320,192,206462,1,0,0:0:0:0:
64,192,206546,1,0,0:0:0:0:
320,192,206631,1,0,0:0:0:0:
192,192,206716,1,0,0:0:0:0:
448,192,206801,1,0,0:0:0:0:
192,192,206885,1,0,0:0:0:0:
320,192,206970,1,0,0:0:0:0:
64,192,207055,1,0,0:0:0:0:
320,192,207140,1,0,0:0:0:0:
192,192,207224,1,0,0:0:0:0:
448,192,207309,1,0,0:0:0:0:
192,192,207394,1,0,0:0:0:0:
320,192,207479,1,0,0:0:0:0:
64,192,207563,1,0,0:0:0:0:
320,192,207648,1,0,0:0:0:0:
192,192,207733,1,0,0:0:0:0:
448,192,207818,1,0,0:0:0:0:
320,192,207902,1,0,0:0:0:0:
64,192,207987,1,0,0:0:0:0:
192,192,207987,1,2,0:0:0:0:
448,192,208072,1,0,0:0:0:0:
192,192,208157,1,0,0:0:0:0:
320,192,208241,1,0,0:0:0:0:
64,192,208326,1,0,0:0:0:0:
320,192,208411,1,0,0:0:0:0:
192,192,208496,1,0,0:0:0:0:
448,192,208580,1,0,0:0:0:0:
192,192,208665,1,0,0:0:0:0:
320,192,208750,1,0,0:0:0:0:
64,192,208835,1,0,0:0:0:0:
320,192,208919,1,0,0:0:0:0:
192,192,209004,1,0,0:0:0:0:
448,192,209089,1,0,0:0:0:0:
192,192,209174,1,0,0:0:0:0:
320,192,209258,1,0,0:0:0:0:
64,192,209343,1,0,0:0:0:0:
320,192,209428,1,0,0:0:0:0:
192,192,209513,1,0,0:0:0:0:
448,192,209597,1,0,0:0:0:0:
192,192,209682,1,0,0:0:0:0:
320,192,209767,1,0,0:0:0:0:
64,192,209852,1,0,0:0:0:0:
192,192,209936,1,0,0:0:0:0:
448,192,210021,1,2,0:0:0:0:
64,192,210021,1,0,0:0:0:0:
320,192,210106,1,0,0:0:0:0:
192,192,210191,1,0,0:0:0:0:
448,192,210275,1,0,0:0:0:0:
64,192,210360,1,0,0:0:0:0:
320,192,210445,1,0,0:0:0:0:
192,192,210529,1,0,0:0:0:0:
448,192,210614,1,0,0:0:0:0:
64,192,210699,1,0,0:0:0:0:
320,192,210784,1,0,0:0:0:0:
192,192,210868,1,0,0:0:0:0:
448,192,210953,1,0,0:0:0:0:
64,192,211038,1,0,0:0:0:0:
320,192,211123,1,0,0:0:0:0:
192,192,211207,1,0,0:0:0:0:
448,192,211292,1,0,0:0:0:0:
64,192,211377,1,0,0:0:0:0:
320,192,211462,1,0,0:0:0:0:
192,192,211546,1,0,0:0:0:0:
448,192,211631,1,0,0:0:0:0:
64,192,211716,1,0,0:0:0:0:
320,192,211801,1,0,0:0:0:0:
192,192,211885,1,0,0:0:0:0:
448,192,211970,1,0,0:0:0:0:
192,192,212055,1,2,0:0:0:0:
64,192,212055,128,0,214089:0:0:0:0:
448,192,212140,1,0,0:0:0:0:
320,192,212224,1,0,0:0:0:0:
192,192,212309,1,0,0:0:0:0:
448,192,212394,1,0,0:0:0:0:
320,192,212479,1,0,0:0:0:0:
192,192,212563,1,0,0:0:0:0:
448,192,212648,1,0,0:0:0:0:
320,192,212733,1,0,0:0:0:0:
192,192,212818,1,0,0:0:0:0:
448,192,212902,1,0,0:0:0:0:
320,192,212987,1,0,0:0:0:0:
192,192,213072,1,0,0:0:0:0:
448,192,213157,1,0,0:0:0:0:
320,192,213241,1,0,0:0:0:0:
192,192,213326,1,0,0:0:0:0:
448,192,213411,1,0,0:0:0:0:
320,192,213496,1,0,0:0:0:0:
192,192,213580,1,0,0:0:0:0:
448,192,213665,1,0,0:0:0:0:
320,192,213750,1,0,0:0:0:0:
192,192,213835,1,0,0:0:0:0:
448,192,213919,1,0,0:0:0:0:
192,192,214004,1,0,0:0:0:0:
448,192,214089,128,0,216123:0:0:0:0:
320,192,214089,1,2,0:0:0:0:
64,192,214174,1,0,0:0:0:0:
192,192,214258,1,0,0:0:0:0:
320,192,214343,1,0,0:0:0:0:
64,192,214428,1,0,0:0:0:0:
192,192,214513,1,0,0:0:0:0:
320,192,214597,1,0,0:0:0:0:
64,192,214682,1,0,0:0:0:0:
192,192,214767,1,0,0:0:0:0:
320,192,214852,1,0,0:0:0:0:
64,192,214936,1,0,0:0:0:0:
192,192,215021,1,0,0:0:0:0:
320,192,215106,1,0,0:0:0:0:
64,192,215191,1,0,0:0:0:0:
192,192,215275,1,0,0:0:0:0:
320,192,215360,1,0,0:0:0:0:
64,192,215445,1,0,0:0:0:0:
192,192,215529,1,0,0:0:0:0:
320,192,215614,1,0,0:0:0:0:
64,192,215699,1,0,0:0:0:0:
192,192,215784,1,0,0:0:0:0:
320,192,215868,1,0,0:0:0:0:
64,192,215953,1,0,0:0:0:0:
320,192,216038,1,0,0:0:0:0:
64,192,216123,128,0,218157:0:0:0:0:
192,192,216123,1,2,0:0:0:0:
448,192,216207,1,0,0:0:0:0:
320,192,216292,1,0,0:0:0:0:
192,192,216377,1,0,0:0:0:0:
448,192,216462,1,0,0:0:0:0:
192,192,216546,1,0,0:0:0:0:
320,192,216631,1,0,0:0:0:0:
448,192,216716,1,0,0:0:0:0:
192,192,216801,1,0,0:0:0:0:
448,192,216885,1,0,0:0:0:0:
320,192,216970,1,0,0:0:0:0:
192,192,217055,1,0,0:0:0:0:
448,192,217140,1,0,0:0:0:0:
192,192,217224,1,0,0:0:0:0:
320,192,217309,1,0,0:0:0:0:
448,192,217394,1,0,0:0:0:0:
192,192,217479,1,0,0:0:0:0:
448,192,217563,1,0,0:0:0:0:
320,192,217648,1,0,0:0:0:0:
192,192,217733,1,0,0:0:0:0:
448,192,217818,1,0,0:0:0:0:
192,192,217902,1,0,0:0:0:0:
448,192,217987,1,0,0:0:0:0:
192,192,218072,1,0,0:0:0:0:
448,192,218157,128,0,220191:0:0:0:0:
320,192,218157,1,2,0:0:0:0:
64,192,218241,1,0,0:0:0:0:
192,192,218326,1,0,0:0:0:0:
320,192,218411,1,0,0:0:0:0:
64,192,218496,1,0,0:0:0:0:
320,192,218580,1,0,0:0:0:0:
192,192,218665,1,0,0:0:0:0:
64,192,218750,1,0,0:0:0:0:
320,192,218835,1,0,0:0:0:0:
64,192,218919,1,0,0:0:0:0:
192,192,219004,1,0,0:0:0:0:
320,192,219089,1,0,0:0:0:0:
64,192,219174,1,0,0:0:0:0:
320,192,219258,1,0,0:0:0:0:
192,192,219343,1,0,0:0:0:0:
64,192,219428,1,0,0:0:0:0:
320,192,219513,1,0,0:0:0:0:
64,192,219597,1,0,0:0:0:0:
192,192,219682,1,0,0:0:0:0:
320,192,219767,1,0,0:0:0:0:
64,192,219852,1,0,0:0:0:0:
320,192,219936,1,0,0:0:0:0:
64,192,220021,1,0,0:0:0:0:
320,192,220106,1,0,0:0:0:0:
192,192,220191,1,2,0:0:0:0:
64,192,220191,1,0,0:0:0:0:
64,192,220445,1,0,0:0:0:0:
64,192,220699,1,0,0:0:0:0:
64,192,220953,1,0,0:0:0:0:
64,192,221207,1,0,0:0:0:0:
64,192,221462,1,0,0:0:0:0:
64,192,221716,1,0,0:0:0:0:
64,192,221970,1,0,0:0:0:0:
192,192,222224,1,2,0:0:0:0:
320,192,222224,1,4,0:0:0:0:
64,192,222224,128,0,223114:0:0:0:0:
448,192,222224,1,0,0:0:0:0:
448,192,222352,1,0,0:0:0:0:
320,192,222479,1,0,0:0:0:0:
192,192,222479,1,0,0:0:0:0:
448,192,222606,1,0,0:0:0:0:
320,192,222733,1,0,0:0:0:0:
192,192,222733,1,8,0:0:0:0:
320,192,222860,1,0,0:0:0:0:
448,192,222860,1,0,0:0:0:0:
192,192,222987,1,0,0:0:0:0:
320,192,223114,128,0,223750:0:0:0:0:
448,192,223114,1,2,0:0:0:0:
64,192,223241,1,0,0:0:0:0:
192,192,223241,1,0,0:0:0:0:
448,192,223368,1,0,0:0:0:0:
192,192,223496,1,0,0:0:0:0:
64,192,223496,1,2,0:0:0:0:
448,192,223623,1,0,0:0:0:0:
192,192,223750,1,8,0:0:0:0:
64,192,223750,128,0,223877:0:0:0:0:
448,192,223877,1,0,0:0:0:0:
320,192,223877,1,0,0:0:0:0:
192,192,224004,1,0,0:0:0:0:
64,192,224004,128,0,224258:0:0:0:0:
448,192,224131,1,0,0:0:0:0:
192,192,224258,1,0,0:0:0:0:
320,192,224258,1,2,0:0:0:0:
64,192,224385,128,0,225275:0:0:0:0:
448,192,224385,1,0,0:0:0:0:
320,192,224513,1,0,0:0:0:0:
192,192,224513,1,0,0:0:0:0:
448,192,224640,1,0,0:0:0:0:
320,192,224767,1,8,0:0:0:0:
192,192,224767,1,0,0:0:0:0:
320,192,224894,1,0,0:0:0:0:
448,192,224894,1,0,0:0:0:0:
192,192,225021,1,0,0:0:0:0:
320,192,225148,1,2,0:0:0:0:
448,192,225148,1,0,0:0:0:0:
192,192,225275,1,0,0:0:0:0:
320,192,225402,1,0,0:0:0:0:
192,192,225402,1,8,0:0:0:0:
64,192,225529,1,2,0:0:0:0:
448,192,225529,128,0,225911:0:0:0:0:
320,192,225657,1,0,0:0:0:0:
64,192,225784,1,0,0:0:0:0:
192,192,225784,1,8,0:0:0:0:
192,192,225911,128,0,226292:0:0:0:0:
320,192,225911,1,0,0:0:0:0:
64,192,226038,1,2,0:0:0:0:
448,192,226038,1,0,0:0:0:0:
320,192,226165,1,0,0:0:0:0:
64,192,226292,128,0,226801:0:0:0:0:
448,192,226292,1,2,0:0:0:0:
192,192,226419,1,0,0:0:0:0:
320,192,226546,1,0,0:0:0:0:
448,192,226546,1,0,0:0:0:0:
192,192,226674,1,0,0:0:0:0:
320,192,226801,128,0,227055:0:0:0:0:
448,192,226801,1,8,0:0:0:0:
64,192,226928,1,0,0:0:0:0:
192,192,226928,1,0,0:0:0:0:
192,192,227055,128,0,227563:0:0:0:0:
448,192,227055,1,0,0:0:0:0:
320,192,227182,1,2,0:0:0:0:
64,192,227182,1,0,0:0:0:0:
448,192,227309,1,0,0:0:0:0:
320,192,227309,1,0,0:0:0:0:
64,192,227436,1,0,0:0:0:0:
448,192,227563,128,0,228199:0:0:0:0:
320,192,227563,1,2,0:0:0:0:
64,192,227691,1,0,0:0:0:0:
320,192,227818,1,8,0:0:0:0:
192,192,227818,1,0,0:0:0:0:
64,192,227945,1,0,0:0:0:0:
192,192,227945,1,0,0:0:0:0:
320,192,228072,1,0,0:0:0:0:
192,192,228199,128,0,228580:0:0:0:0:
64,192,228199,1,0,0:0:0:0:
320,192,228326,1,2,0:0:0:0:
448,192,228326,1,0,0:0:0:0:
64,192,228453,1,0,0:0:0:0:
320,192,228580,128,0,228835:0:0:0:0:
448,192,228580,1,2,0:0:0:0:
192,192,228707,1,0,0:0:0:0:
64,192,228835,128,0,229089:0:0:0:0:
448,192,228835,1,8,0:0:0:0:
320,192,228962,1,0,0:0:0:0:
192,192,228962,1,0,0:0:0:0:
448,192,229089,128,0,229343:0:0:0:0:
320,192,229089,1,0,0:0:0:0:
64,192,229216,1,0,0:0:0:0:
192,192,229216,1,2,0:0:0:0:
192,192,229343,128,0,230106:0:0:0:0:
320,192,229343,1,0,0:0:0:0:
64,192,229470,1,0,0:0:0:0:
448,192,229470,1,8,0:0:0:0:
320,192,229597,1,2,0:0:0:0:
448,192,229597,1,0,0:0:0:0:
64,192,229724,1,0,0:0:0:0:
320,192,229852,1,4,0:0:0:0:
448,192,229852,1,8,0:0:0:0:
64,192,229852,1,0,0:0:0:0:
320,192,229979,1,0,0:0:0:0:
320,192,230106,1,4,0:0:0:0:
448,192,230106,1,8,0:0:0:0:
64,192,230106,1,0,0:0:0:0:
192,192,230233,1,0,0:0:0:0:
448,192,230360,128,0,230868:0:0:0:0:
64,192,230360,1,2,0:0:0:0:
320,192,230360,1,4,0:0:0:0:
192,192,230487,1,0,0:0:0:0:
64,192,230614,1,2,0:0:0:0:
320,192,230614,1,0,0:0:0:0:
192,192,230741,1,0,0:0:0:0:
320,192,230868,128,0,231123:0:0:0:0:
64,192,230868,1,8,0:0:0:0:
192,192,230996,1,0,0:0:0:0:
448,192,230996,1,0,0:0:0:0:
64,192,231123,128,0,231631:0:0:0:0:
192,192,231123,1,0,0:0:0:0:
320,192,231250,1,2,0:0:0:0:
448,192,231250,1,0,0:0:0:0:
192,192,231377,1,0,0:0:0:0:
448,192,231377,1,0,0:0:0:0:
320,192,231504,1,0,0:0:0:0:
448,192,231631,128,0,232140:0:0:0:0:
192,192,231631,1,2,0:0:0:0:
320,192,231758,1,0,0:0:0:0:
192,192,231885,1,8,0:0:0:0:
64,192,231885,1,0,0:0:0:0:
320,192,232013,1,0,0:0:0:0:
192,192,232013,1,0,0:0:0:0:
64,192,232140,128,0,232648:0:0:0:0:
320,192,232140,1,0,0:0:0:0:
192,192,232267,1,0,0:0:0:0:
320,192,232394,1,0,0:0:0:0:
448,192,232394,1,2,0:0:0:0:
192,192,232521,1,0,0:0:0:0:
320,192,232648,128,0,233157:0:0:0:0:
448,192,232648,1,0,0:0:0:0:
64,192,232775,1,0,0:0:0:0:
192,192,232902,1,8,0:0:0:0:
448,192,232902,1,0,0:0:0:0:
192,192,233029,1,0,0:0:0:0:
64,192,233029,1,0,0:0:0:0:
64,192,233157,128,0,233665:0:0:0:0:
448,192,233157,1,0,0:0:0:0:
320,192,233284,1,2,0:0:0:0:
192,192,233284,1,0,0:0:0:0:
448,192,233411,1,0,0:0:0:0:
192,192,233538,1,0,0:0:0:0:
320,192,233538,1,8,0:0:0:0:
320,192,233665,128,0,234046:0:0:0:0:
448,192,233665,1,2,0:0:0:0:
64,192,233792,1,0,0:0:0:0:
192,192,233919,1,8,0:0:0:0:
448,192,233919,1,0,0:0:0:0:
192,192,234046,128,0,234428:0:0:0:0:
64,192,234046,1,0,0:0:0:0:
448,192,234174,1,0,0:0:0:0:
320,192,234174,1,2,0:0:0:0:
64,192,234301,1,0,0:0:0:0:
448,192,234428,128,0,234809:0:0:0:0:
320,192,234428,1,2,0:0:0:0:
64,192,234555,1,0,0:0:0:0:
192,192,234682,1,0,0:0:0:0:
320,192,234682,1,2,0:0:0:0:
64,192,234809,128,0,235191:0:0:0:0:
192,192,234809,1,0,0:0:0:0:
448,192,234936,1,0,0:0:0:0:
320,192,234936,1,8,0:0:0:0:
320,192,235063,1,0,0:0:0:0:
192,192,235063,1,0,0:0:0:0:
448,192,235191,128,0,235445:0:0:0:0:
192,192,235191,1,0,0:0:0:0:
64,192,235318,1,0,0:0:0:0:
320,192,235318,1,2,0:0:0:0:
192,192,235445,128,0,235826:0:0:0:0:
320,192,235445,1,0,0:0:0:0:
64,192,235572,1,0,0:0:0:0:
320,192,235699,1,2,0:0:0:0:
448,192,235699,1,0,0:0:0:0:
448,192,235826,128,0,236207:0:0:0:0:
64,192,235826,1,0,0:0:0:0:
192,192,235953,1,8,0:0:0:0:
320,192,235953,1,0,0:0:0:0:
64,192,236080,1,0,0:0:0:0:
192,192,236080,1,0,0:0:0:0:
64,192,236207,128,0,237479:0:0:0:0:
320,192,236207,1,2,0:0:0:0:
448,192,236335,1,0,0:0:0:0:
320,192,236462,1,2,0:0:0:0:
192,192,236462,1,0,0:0:0:0:
448,192,236589,1,0,0:0:0:0:
320,192,236716,1,2,0:0:0:0:
192,192,236716,1,0,0:0:0:0:
448,192,236843,1,0,0:0:0:0:
320,192,236970,1,8,0:0:0:0:
192,192,236970,1,0,0:0:0:0:
320,192,237097,1,0,0:0:0:0:
448,192,237097,1,0,0:0:0:0:
192,192,237224,1,0,0:0:0:0:
320,192,237352,1,0,0:0:0:0:
448,192,237352,1,2,0:0:0:0:
320,192,237479,5,4,0:0:0:0:
192,192,237479,1,0,0:0:0:0:
64,192,237606,1,8,0:0:0:0:
448,192,237606,1,0,0:0:0:0:
320,192,237669,1,0,0:0:0:0:
192,192,237733,1,2,0:0:0:0:
64,192,237733,1,0,0:0:0:0:
448,192,237796,1,0,0:0:0:0:
320,192,237860,1,0,0:0:0:0:
192,192,237924,1,0,0:0:0:0:
320,192,237987,1,0,0:0:0:0:
64,192,237987,1,0,0:0:0:0:
448,192,237987,1,8,0:0:0:0:
192,192,238114,1,0,0:0:0:0:
64,192,238114,1,8,0:0:0:0:
448,192,238241,1,8,0:0:0:0:
320,192,238241,1,0,0:0:0:0:
64,192,238368,1,0,0:0:0:0:
192,192,238368,1,8,0:0:0:0:
64,192,238496,1,2,0:0:0:0:
448,192,238496,1,4,0:0:0:0:
192,192,238559,1,0,0:0:0:0:
320,192,238623,1,0,0:0:0:0:
64,192,238686,1,0,0:0:0:0:
320,192,238750,1,0,0:0:0:0:
448,192,238750,1,0,0:0:0:0:
64,192,238813,1,0,0:0:0:0:
192,192,238877,1,0,0:0:0:0:
320,192,238941,1,0,0:0:0:0:
448,192,239004,1,8,0:0:0:0:
64,192,239004,1,0,0:0:0:0:
192,192,239068,1,0,0:0:0:0:
448,192,239131,1,0,0:0:0:0:
320,192,239131,1,0,0:0:0:0:
64,192,239195,1,0,0:0:0:0:
320,192,239258,1,0,0:0:0:0:
192,192,239322,1,0,0:0:0:0:
448,192,239385,1,0,0:0:0:0:
64,192,239385,1,2,0:0:0:0:
320,192,239449,1,0,0:0:0:0:
192,192,239513,1,0,0:0:0:0:
64,192,239513,1,0,0:0:0:0:
448,192,239576,1,0,0:0:0:0:
192,192,239640,1,0,0:0:0:0:
320,192,239703,1,0,0:0:0:0:
448,192,239767,1,2,0:0:0:0:
64,192,239767,1,0,0:0:0:0:
192,192,239830,1,0,0:0:0:0:
320,192,239894,1,0,0:0:0:0:
192,192,239957,1,0,0:0:0:0:
448,192,240021,1,0,0:0:0:0:
64,192,240021,1,8,0:0:0:0:
320,192,240085,1,0,0:0:0:0:
192,192,240148,1,0,0:0:0:0:
64,192,240148,1,0,0:0:0:0:
448,192,240212,1,0,0:0:0:0:
192,192,240275,1,0,0:0:0:0:
320,192,240275,1,2,0:0:0:0:
64,192,240339,1,0,0:0:0:0:
448,192,240402,1,0,0:0:0:0:
320,192,240466,1,0,0:0:0:0:
192,192,240529,1,2,0:0:0:0:
64,192,240529,1,0,0:0:0:0:
448,192,240593,1,0,0:0:0:0:
320,192,240657,1,0,0:0:0:0:
192,192,240720,1,0,0:0:0:0:
448,192,240784,1,2,0:0:0:0:
64,192,240784,1,0,0:0:0:0:
320,192,240847,1,0,0:0:0:0:
192,192,240911,1,0,0:0:0:0:
320,192,240974,1,0,0:0:0:0:
448,192,241038,1,8,0:0:0:0:
64,192,241038,1,0,0:0:0:0:
192,192,241102,1,0,0:0:0:0:
448,192,241165,1,0,0:0:0:0:
320,192,241165,1,0,0:0:0:0:
64,192,241229,1,0,0:0:0:0:
320,192,241292,1,0,0:0:0:0:
192,192,241356,1,0,0:0:0:0:
64,192,241419,1,2,0:0:0:0:
448,192,241419,1,0,0:0:0:0:
320,192,241483,1,0,0:0:0:0:
64,192,241546,1,0,0:0:0:0:
192,192,241546,1,0,0:0:0:0:
448,192,241610,1,0,0:0:0:0:
320,192,241674,1,8,0:0:0:0:
64,192,241674,1,0,0:0:0:0:
192,192,241737,1,0,0:0:0:0:
320,192,241801,1,0,0:0:0:0:
448,192,241801,1,2,0:0:0:0:
64,192,241864,1,0,0:0:0:0:
192,192,241928,1,0,0:0:0:0:
320,192,241991,1,0,0:0:0:0:
64,192,242055,1,8,0:0:0:0:
448,192,242055,1,0,0:0:0:0:
192,192,242118,1,0,0:0:0:0:
448,192,242182,1,0,0:0:0:0:
320,192,242182,1,0,0:0:0:0:
64,192,242246,1,0,0:0:0:0:
320,192,242309,1,2,0:0:0:0:
448,192,242309,1,0,0:0:0:0:
64,192,242373,1,0,0:0:0:0:
320,192,242436,1,0,0:0:0:0:
192,192,242500,1,0,0:0:0:0:
64,192,242563,1,0,0:0:0:0:
448,192,242563,1,2,0:0:0:0:
320,192,242627,1,0,0:0:0:0:
192,192,242691,1,0,0:0:0:0:
320,192,242754,1,0,0:0:0:0:
64,192,242818,1,0,0:0:0:0:
448,192,242818,1,2,0:0:0:0:
192,192,242881,1,0,0:0:0:0:
320,192,242945,1,0,0:0:0:0:
192,192,243008,1,0,0:0:0:0:
448,192,243072,1,0,0:0:0:0:
64,192,243072,1,8,0:0:0:0:
320,192,243135,1,0,0:0:0:0:
192,192,243199,1,0,0:0:0:0:
64,192,243199,1,0,0:0:0:0:
448,192,243263,1,0,0:0:0:0:
192,192,243326,1,0,0:0:0:0:
320,192,243390,1,0,0:0:0:0:
64,192,243453,1,2,0:0:0:0:
448,192,243453,1,0,0:0:0:0:
192,192,243517,1,0,0:0:0:0:
320,192,243580,1,0,0:0:0:0:
448,192,243580,1,0,0:0:0:0:
64,192,243644,1,0,0:0:0:0:
192,192,243707,1,0,0:0:0:0:
320,192,243771,1,0,0:0:0:0:
64,192,243835,1,2,0:0:0:0:
448,192,243835,1,0,0:0:0:0:
192,192,243898,1,0,0:0:0:0:
320,192,243962,1,0,0:0:0:0:
64,192,244025,1,0,0:0:0:0:
320,192,244089,1,8,0:0:0:0:
448,192,244089,1,0,0:0:0:0:
64,192,244152,1,0,0:0:0:0:
448,192,244216,1,0,0:0:0:0:
320,192,244216,1,0,0:0:0:0:
192,192,244279,1,0,0:0:0:0:
64,192,244343,1,0,0:0:0:0:
448,192,244343,1,2,0:0:0:0:
320,192,244407,1,0,0:0:0:0:
192,192,244470,1,0,0:0:0:0:
320,192,244534,1,0,0:0:0:0:
64,192,244597,1,2,0:0:0:0:
448,192,244597,1,0,0:0:0:0:
192,192,244661,1,0,0:0:0:0:
320,192,244724,1,0,0:0:0:0:
64,192,244788,1,0,0:0:0:0:
448,192,244852,1,0,0:0:0:0:
320,192,244852,1,2,0:0:0:0:
64,192,244915,1,0,0:0:0:0:
192,192,244979,1,0,0:0:0:0:
320,192,245042,1,0,0:0:0:0:
64,192,245106,1,0,0:0:0:0:
448,192,245106,1,8,0:0:0:0:
192,192,245169,1,0,0:0:0:0:
320,192,245233,1,0,0:0:0:0:
448,192,245233,1,0,0:0:0:0:
64,192,245296,1,0,0:0:0:0:
320,192,245360,1,0,0:0:0:0:
192,192,245424,1,0,0:0:0:0:
448,192,245487,5,0,0:0:0:0:
64,192,245487,1,2,0:0:0:0:
320,192,245551,1,0,0:0:0:0:
192,192,245614,1,0,0:0:0:0:
64,192,245614,1,0,0:0:0:0:
320,192,245678,1,0,0:0:0:0:
448,192,245741,1,8,0:0:0:0:
64,192,245741,1,0,0:0:0:0:
192,192,245805,1,0,0:0:0:0:
448,192,245868,1,2,0:0:0:0:
320,192,245868,1,0,0:0:0:0:
64,192,245932,1,0,0:0:0:0:
192,192,245996,1,0,0:0:0:0:
320,192,246059,1,0,0:0:0:0:
192,192,246123,5,0,0:0:0:0:
64,192,246123,1,8,0:0:0:0:
448,192,246123,128,0,246250:0:0:0:0:
192,192,246250,128,0,246377:0:0:0:0:
448,192,246377,1,8,0:0:0:0:
320,192,246377,128,0,246504:0:0:0:0:
64,192,246504,1,0,0:0:0:0:
192,192,246504,1,8,0:0:0:0:
64,192,246631,128,2,247712:0:0:0:0:
320,192,246631,128,0,247013:0:0:0:0:
448,192,246631,128,0,247013:0:0:0:0:
192,192,246631,1,4,0:0:0:0:
192,192,247013,128,0,248029:0:0:0:0:
448,192,247140,1,0,0:0:0:0:
320,192,247140,1,8,0:0:0:0:
448,192,247394,128,0,248665:0:0:0:0:
320,192,247394,1,0,0:0:0:0:
320,192,247712,128,0,248029:0:0:0:0:
64,192,248029,128,0,249046:0:0:0:0:
192,192,248157,1,0,0:0:0:0:
320,192,248157,1,8,0:0:0:0:
192,192,248411,128,0,249046:0:0:0:0:
320,192,248411,1,2,0:0:0:0:
320,192,248665,128,2,249682:0:0:0:0:
448,192,249046,128,0,249682:0:0:0:0:
192,192,249174,1,8,0:0:0:0:
64,192,249174,1,0,0:0:0:0:
64,192,249491,128,0,250572:0:0:0:0:
192,192,249491,1,0,0:0:0:0:
192,192,249809,128,0,250572:0:0:0:0:
448,192,249809,1,8,0:0:0:0:
320,192,249809,1,0,0:0:0:0:
448,192,249936,1,2,0:0:0:0:
320,192,250191,1,8,0:0:0:0:
448,192,250191,128,0,250572:0:0:0:0:
320,192,250445,1,2,0:0:0:0:
64,192,250699,1,4,0:0:0:0:
192,192,250699,1,2,0:0:0:0:
448,192,250699,1,0,0:0:0:0:
320,192,250784,1,0,0:0:0:0:
192,192,250868,1,0,0:0:0:0:
448,192,250953,1,2,0:0:0:0:
64,192,250953,1,0,0:0:0:0:
320,192,251038,1,0,0:0:0:0:
192,192,251123,1,0,0:0:0:0:
64,192,251207,1,0,0:0:0:0:
448,192,251207,1,8,0:0:0:0:
320,192,251207,1,0,0:0:0:0:
192,192,251292,1,0,0:0:0:0:
320,192,251377,1,0,0:0:0:0:
64,192,251462,1,0,0:0:0:0:
448,192,251462,1,0,0:0:0:0:
192,192,251546,1,0,0:0:0:0:
320,192,251631,1,0,0:0:0:0:
448,192,251716,1,0,0:0:0:0:
64,192,251716,1,0,0:0:0:0:
192,192,251716,1,0,0:0:0:0:
320,192,251801,1,0,0:0:0:0:
192,192,251885,1,0,0:0:0:0:
448,192,251970,1,2,0:0:0:0:
64,192,251970,1,0,0:0:0:0:
320,192,252055,1,0,0:0:0:0:
192,192,252140,1,0,0:0:0:0:
64,192,252224,1,0,0:0:0:0:
448,192,252224,1,8,0:0:0:0:
320,192,252224,1,0,0:0:0:0:
192,192,252309,1,0,0:0:0:0:
320,192,252394,1,0,0:0:0:0:
64,192,252479,1,2,0:0:0:0:
448,192,252479,1,0,0:0:0:0:
192,192,252563,1,0,0:0:0:0:
320,192,252648,1,0,0:0:0:0:
448,192,252733,1,2,0:0:0:0:
64,192,252733,1,0,0:0:0:0:
192,192,252733,1,0,0:0:0:0:
320,192,252818,1,0,0:0:0:0:
192,192,252902,1,0,0:0:0:0:
320,192,252987,1,4,0:0:0:0:
448,192,252987,1,2,0:0:0:0:
64,192,252987,1,0,0:0:0:0:
192,192,253072,1,0,0:0:0:0:
320,192,253157,1,0,0:0:0:0:
64,192,253241,1,0,0:0:0:0:
448,192,253241,1,2,0:0:0:0:
192,192,253241,1,0,0:0:0:0:
448,192,253368,1,0,0:0:0:0:
64,192,253368,1,4,0:0:0:0:
192,192,253368,1,2,0:0:0:0:
448,192,253496,1,0,0:0:0:0:
320,192,253496,1,0,0:0:0:0:
192,192,253580,1,0,0:0:0:0:
64,192,253580,1,0,0:0:0:0:
448,192,253665,1,0,0:0:0:0:
320,192,253665,1,0,0:0:0:0:
192,192,253750,128,2,254385:0:0:0:0:
64,192,253750,128,0,254767:0:0:0:0:
448,192,253750,128,4,254004:0:0:0:0:
320,192,254004,1,2,0:0:0:0:
448,192,254131,1,10,0:0:0:0:
320,192,254131,128,4,254385:0:0:0:0:
448,192,254385,1,0,0:0:0:0:
192,192,254513,128,0,254767:0:0:0:0:
320,192,254767,1,0,0:0:0:0:
448,192,254767,1,0,0:0:0:0:
64,192,268496,132,0,269004:0:0:0:0:
320,192,269004,128,0,269385:0:0:0:0:
192,192,269385,128,0,269767:0:0:0:0:
448,192,269767,128,0,270148:0:0:0:0:
64,192,270148,128,0,270529:0:0:0:0:
320,192,270529,128,0,270784:0:0:0:0:
192,192,270784,128,0,271038:0:0:0:0:
320,192,271038,1,2,0:0:0:0:
448,192,271038,1,0,0:0:0:0:
64,192,271038,1,0,0:0:0:0:
192,192,271292,1,0,0:0:0:0:
320,192,271546,1,0,0:0:0:0:
448,192,271801,1,0,0:0:0:0:
64,192,271801,1,2,0:0:0:0:
192,192,272055,1,0,0:0:0:0:
320,192,272309,1,0,0:0:0:0:
64,192,272563,1,0,0:0:0:0:
448,192,272818,1,0,0:0:0:0:
320,192,273072,1,2,0:0:0:0:
192,192,273072,1,0,0:0:0:0:
64,192,273326,1,0,0:0:0:0:
320,192,273580,1,0,0:0:0:0:
64,192,273835,1,0,0:0:0:0:
192,192,273835,1,2,0:0:0:0:
448,192,274089,1,0,0:0:0:0:
320,192,274343,1,2,0:0:0:0:
64,192,274343,1,0,0:0:0:0:
448,192,274597,1,0,0:0:0:0:
192,192,274597,1,8,0:0:0:0:
64,192,274597,1,0,0:0:0:0:
320,192,274852,1,0,0:0:0:0:
64,192,275106,1,0,0:0:0:0:
192,192,275106,1,2,0:0:0:0:
448,192,275360,1,0,0:0:0:0:
320,192,275614,1,0,0:0:0:0:
192,192,275868,1,2,0:0:0:0:
64,192,275868,1,0,0:0:0:0:
448,192,276123,1,0,0:0:0:0:
192,192,276377,1,0,0:0:0:0:
320,192,276631,1,0,0:0:0:0:
64,192,276885,1,0,0:0:0:0:
320,192,277140,1,2,0:0:0:0:
448,192,277140,1,0,0:0:0:0:
64,192,277394,1,0,0:0:0:0:
320,192,277648,1,0,0:0:0:0:
192,192,277902,1,2,0:0:0:0:
64,192,277902,1,0,0:0:0:0:
448,192,278157,1,0,0:0:0:0:
64,192,278411,1,0,0:0:0:0:
192,192,278411,1,2,0:0:0:0:
320,192,278665,1,8,0:0:0:0:
448,192,278665,1,0,0:0:0:0:
64,192,278665,1,0,0:0:0:0:
192,192,278919,1,0,0:0:0:0:
320,192,279174,1,2,0:0:0:0:
64,192,279174,1,0,0:0:0:0:
448,192,279174,1,0,0:0:0:0:
448,192,279428,1,0,0:0:0:0:
64,192,279682,1,0,0:0:0:0:
192,192,279936,1,2,0:0:0:0:
320,192,279936,1,0,0:0:0:0:
448,192,280191,1,0,0:0:0:0:
64,192,280445,1,0,0:0:0:0:
320,192,280699,1,0,0:0:0:0:
64,192,280953,1,0,0:0:0:0:
320,192,281207,1,2,0:0:0:0:
448,192,281207,1,0,0:0:0:0:
192,192,281462,1,0,0:0:0:0:
64,192,281716,1,0,0:0:0:0:
320,192,281970,1,2,0:0:0:0:
192,192,281970,1,0,0:0:0:0:
448,192,282224,1,0,0:0:0:0:
320,192,282479,1,0,0:0:0:0:
192,192,282733,1,8,0:0:0:0:
64,192,282733,1,0,0:0:0:0:
448,192,282733,128,0,282987:0:0:0:0:
192,192,282987,128,0,283241:0:0:0:0:
448,192,283241,1,2,0:0:0:0:
64,192,283241,1,0,0:0:0:0:
320,192,283241,1,4,0:0:0:0:
192,192,283368,1,0,0:0:0:0:
64,192,283496,1,0,0:0:0:0:
448,192,283496,1,2,0:0:0:0:
320,192,283623,1,0,0:0:0:0:
64,192,283750,1,0,0:0:0:0:
448,192,283750,1,8,0:0:0:0:
192,192,283750,1,0,0:0:0:0:
320,192,283877,1,0,0:0:0:0:
448,192,284004,1,0,0:0:0:0:
64,192,284004,1,2,0:0:0:0:
192,192,284131,1,0,0:0:0:0:
64,192,284258,1,6,0:0:0:0:
448,192,284258,1,0,0:0:0:0:
320,192,284343,1,0,0:0:0:0:
64,192,284428,1,0,0:0:0:0:
192,192,284428,1,0,0:0:0:0:
448,192,284513,1,0,0:0:0:0:
320,192,284597,1,0,0:0:0:0:
192,192,284597,1,0,0:0:0:0:
64,192,284682,1,0,0:0:0:0:
320,192,284767,1,0,0:0:0:0:
448,192,284767,1,0,0:0:0:0:
64,192,284852,1,0,0:0:0:0:
192,192,284852,1,0,0:0:0:0:
320,192,284936,1,0,0:0:0:0:
448,192,284936,1,0,0:0:0:0:
192,192,285021,1,0,0:0:0:0:
64,192,285021,1,0,0:0:0:0:
320,192,285106,1,0,0:0:0:0:
448,192,285106,1,0,0:0:0:0:
192,192,285191,1,0,0:0:0:0:
64,192,285191,1,0,0:0:0:0:
64,192,285275,1,0,0:0:0:0:
320,192,285275,1,4,0:0:0:0:
448,192,285275,1,2,0:0:0:0:
192,192,285402,1,0,0:0:0:0:
448,192,285529,1,0,0:0:0:0:
320,192,285529,1,2,0:0:0:0:
448,192,285657,1,0,0:0:0:0:
192,192,285657,1,4,0:0:0:0:
64,192,285657,1,0,0:0:0:0:
320,192,285784,1,0,0:0:0:0:
192,192,285911,1,2,0:0:0:0:
64,192,285911,1,0,0:0:0:0:
320,192,286038,1,4,0:0:0:0:
448,192,286038,1,0,0:0:0:0:
64,192,286038,1,0,0:0:0:0:
192,192,286165,5,0,0:0:0:0:
320,192,286292,1,2,0:0:0:0:
448,192,286292,1,0,0:0:0:0:
192,192,286419,1,8,0:0:0:0:
64,192,286419,1,0,0:0:0:0:
448,192,286546,1,0,0:0:0:0:
192,192,286674,1,2,0:0:0:0:
64,192,286674,1,0,0:0:0:0:
448,192,286801,1,8,0:0:0:0:
64,192,286801,1,0,0:0:0:0:
320,192,286801,1,0,0:0:0:0:
320,192,286928,1,0,0:0:0:0:
448,192,286928,1,8,0:0:0:0:
448,192,287055,1,0,0:0:0:0:
192,192,287055,1,0,0:0:0:0:
64,192,287055,1,8,0:0:0:0:
192,192,287182,1,0,0:0:0:0:
64,192,287182,1,8,0:0:0:0:
64,192,287309,128,0,287436:0:0:0:0:
320,192,287309,1,4,0:0:0:0:
448,192,287309,1,2,0:0:0:0:
192,192,287436,1,0,0:0:0:0:
64,192,287563,128,0,287691:0:0:0:0:
448,192,287563,1,2,0:0:0:0:
320,192,287563,1,0,0:0:0:0:
192,192,287691,1,0,0:0:0:0:
64,192,287818,128,0,287945:0:0:0:0:
320,192,287818,1,8,0:0:0:0:
448,192,287818,1,0,0:0:0:0:
192,192,287945,1,0,0:0:0:0:
320,192,287945,1,0,0:0:0:0:
64,192,288072,1,0,0:0:0:0:
448,192,288072,1,0,0:0:0:0:
320,192,288199,1,2,0:0:0:0:
448,192,288199,1,0,0:0:0:0:
64,192,288326,1,0,0:0:0:0:
192,192,288326,1,0,0:0:0:0:
448,192,288453,1,0,0:0:0:0:
320,192,288453,1,0,0:0:0:0:
64,192,288580,1,2,0:0:0:0:
448,192,288580,1,0,0:0:0:0:
192,192,288707,1,0,0:0:0:0:
320,192,288707,1,0,0:0:0:0:
448,192,288835,1,0,0:0:0:0:
192,192,288835,1,8,0:0:0:0:
64,192,288835,1,0,0:0:0:0:
320,192,288962,1,0,0:0:0:0:
64,192,289089,1,0,0:0:0:0:
192,192,289089,1,0,0:0:0:0:
448,192,289216,1,0,0:0:0:0:
192,192,289343,128,0,289470:0:0:0:0:
320,192,289343,1,2,0:0:0:0:
64,192,289343,1,0,0:0:0:0:
448,192,289470,1,0,0:0:0:0:
192,192,289597,128,0,289724:0:0:0:0:
64,192,289597,1,0,0:0:0:0:
320,192,289597,1,2,0:0:0:0:
448,192,289724,1,0,0:0:0:0:
192,192,289852,128,0,289979:0:0:0:0:
320,192,289852,1,8,0:0:0:0:
64,192,289852,1,0,0:0:0:0:
320,192,289979,1,0,0:0:0:0:
448,192,289979,1,0,0:0:0:0:
192,192,290106,1,0,0:0:0:0:
64,192,290106,1,0,0:0:0:0:
320,192,290233,1,2,0:0:0:0:
64,192,290233,1,0,0:0:0:0:
448,192,290360,1,0,0:0:0:0:
192,192,290360,1,0,0:0:0:0:
320,192,290487,1,0,0:0:0:0:
64,192,290487,1,0,0:0:0:0:
192,192,290614,1,2,0:0:0:0:
64,192,290614,1,0,0:0:0:0:
448,192,290741,1,0,0:0:0:0:
320,192,290741,1,0,0:0:0:0:
64,192,290868,1,0,0:0:0:0:
192,192,290868,1,8,0:0:0:0:
448,192,290868,1,0,0:0:0:0:
320,192,290996,1,0,0:0:0:0:
64,192,291123,1,0,0:0:0:0:
448,192,291123,1,2,0:0:0:0:
192,192,291250,1,0,0:0:0:0:
64,192,291377,1,0,0:0:0:0:
448,192,291377,1,2,0:0:0:0:
320,192,291377,128,0,291504:0:0:0:0:
192,192,291504,1,0,0:0:0:0:
320,192,291631,128,0,291758:0:0:0:0:
64,192,291631,1,0,0:0:0:0:
448,192,291631,1,2,0:0:0:0:
192,192,291758,1,0,0:0:0:0:
320,192,291885,128,0,292013:0:0:0:0:
64,192,291885,1,0,0:0:0:0:
448,192,291885,1,8,0:0:0:0:
64,192,292013,1,0,0:0:0:0:
192,192,292013,1,0,0:0:0:0:
320,192,292140,1,0,0:0:0:0:
448,192,292140,1,0,0:0:0:0:
64,192,292267,1,0,0:0:0:0:
448,192,292267,1,2,0:0:0:0:
320,192,292394,1,0,0:0:0:0:
192,192,292394,1,0,0:0:0:0:
448,192,292521,1,0,0:0:0:0:
64,192,292521,1,0,0:0:0:0:
64,192,292648,1,2,0:0:0:0:
192,192,292648,1,0,0:0:0:0:
320,192,292775,1,0,0:0:0:0:
448,192,292775,1,0,0:0:0:0:
64,192,292902,1,0,0:0:0:0:
192,192,292902,1,0,0:0:0:0:
320,192,292902,1,8,0:0:0:0:
448,192,293029,1,0,0:0:0:0:
64,192,293157,1,0,0:0:0:0:
192,192,293157,1,0,0:0:0:0:
320,192,293284,1,0,0:0:0:0:
448,192,293411,128,0,293538:0:0:0:0:
192,192,293411,1,2,0:0:0:0:
64,192,293411,1,0,0:0:0:0:
320,192,293538,1,0,0:0:0:0:
448,192,293665,128,0,293792:0:0:0:0:
64,192,293665,1,0,0:0:0:0:
192,192,293665,1,2,0:0:0:0:
320,192,293792,1,0,0:0:0:0:
448,192,293919,128,0,294046:0:0:0:0:
192,192,293919,1,8,0:0:0:0:
64,192,293919,1,0,0:0:0:0:
320,192,294046,1,0,0:0:0:0:
192,192,294046,1,0,0:0:0:0:
64,192,294174,1,0,0:0:0:0:
448,192,294174,1,0,0:0:0:0:
64,192,294301,1,0,0:0:0:0:
192,192,294301,1,2,0:0:0:0:
320,192,294428,1,0,0:0:0:0:
448,192,294428,1,0,0:0:0:0:
192,192,294555,1,8,0:0:0:0:
64,192,294555,1,0,0:0:0:0:
64,192,294682,1,2,0:0:0:0:
448,192,294682,1,0,0:0:0:0:
320,192,294809,1,0,0:0:0:0:
192,192,294809,1,0,0:0:0:0:
448,192,294936,1,8,0:0:0:0:
320,192,294936,1,0,0:0:0:0:
64,192,294936,1,0,0:0:0:0:
192,192,295063,1,0,0:0:0:0:
448,192,295191,1,2,0:0:0:0:
64,192,295191,1,0,0:0:0:0:
320,192,295318,1,0,0:0:0:0:
192,192,295445,128,0,295572:0:0:0:0:
64,192,295445,1,0,0:0:0:0:
448,192,295445,1,2,0:0:0:0:
320,192,295572,1,0,0:0:0:0:
64,192,295699,1,0,0:0:0:0:
448,192,295699,1,2,0:0:0:0:
192,192,295699,128,0,295826:0:0:0:0:
320,192,295826,1,0,0:0:0:0:
448,192,295953,1,8,0:0:0:0:
192,192,295953,128,0,296080:0:0:0:0:
64,192,295953,1,0,0:0:0:0:
320,192,296080,1,0,0:0:0:0:
448,192,296080,1,0,0:0:0:0:
192,192,296207,1,0,0:0:0:0:
64,192,296207,1,0,0:0:0:0:
448,192,296335,1,0,0:0:0:0:
192,192,296335,1,2,0:0:0:0:
64,192,296462,1,0,0:0:0:0:
320,192,296462,1,0,0:0:0:0:
192,192,296589,1,0,0:0:0:0:
448,192,296589,1,0,0:0:0:0:
192,192,296716,1,2,0:0:0:0:
64,192,296716,1,0,0:0:0:0:
320,192,296843,1,0,0:0:0:0:
448,192,296843,1,0,0:0:0:0:
64,192,296970,1,0,0:0:0:0:
320,192,296970,1,8,0:0:0:0:
448,192,296970,1,0,0:0:0:0:
192,192,297097,1,0,0:0:0:0:
448,192,297224,1,0,0:0:0:0:
320,192,297224,1,0,0:0:0:0:
64,192,297352,1,0,0:0:0:0:
192,192,297479,1,2,0:0:0:0:
448,192,297479,1,0,0:0:0:0:
320,192,297479,128,0,297606:0:0:0:0:
64,192,297606,1,0,0:0:0:0:
192,192,297733,1,2,0:0:0:0:
448,192,297733,1,0,0:0:0:0:
320,192,297733,128,0,297860:0:0:0:0:
64,192,297860,1,0,0:0:0:0:
448,192,297987,1,0,0:0:0:0:
320,192,297987,128,0,298114:0:0:0:0:
192,192,297987,1,8,0:0:0:0:
64,192,298114,1,0,0:0:0:0:
192,192,298114,1,0,0:0:0:0:
448,192,298241,1,0,0:0:0:0:
320,192,298241,1,0,0:0:0:0:
320,192,298368,1,0,0:0:0:0:
192,192,298368,1,2,0:0:0:0:
64,192,298496,1,0,0:0:0:0:
448,192,298496,1,0,0:0:0:0:
192,192,298623,1,0,0:0:0:0:
320,192,298623,1,0,0:0:0:0:
64,192,298750,1,0,0:0:0:0:
192,192,298750,1,2,0:0:0:0:
320,192,298877,1,0,0:0:0:0:
448,192,298877,1,0,0:0:0:0:
64,192,299004,1,0,0:0:0:0:
192,192,299004,1,0,0:0:0:0:
320,192,299004,1,8,0:0:0:0:
448,192,299131,1,0,0:0:0:0:
64,192,299258,1,0,0:0:0:0:
192,192,299258,1,2,0:0:0:0:
320,192,299385,1,0,0:0:0:0:
192,192,299513,1,2,0:0:0:0:
448,192,299513,1,0,0:0:0:0:
64,192,299513,128,0,299640:0:0:0:0:
320,192,299640,1,0,0:0:0:0:
64,192,299767,128,0,299894:0:0:0:0:
448,192,299767,1,0,0:0:0:0:
192,192,299767,1,2,0:0:0:0:
320,192,299894,1,0,0:0:0:0:
64,192,300021,128,0,300148:0:0:0:0:
192,192,300021,1,8,0:0:0:0:
448,192,300021,1,0,0:0:0:0:
448,192,300148,1,0,0:0:0:0:
320,192,300148,1,0,0:0:0:0:
64,192,300275,1,0,0:0:0:0:
192,192,300275,1,0,0:0:0:0:
192,192,300402,1,0,0:0:0:0:
448,192,300402,1,2,0:0:0:0:
320,192,300529,1,0,0:0:0:0:
64,192,300529,1,0,0:0:0:0:
192,192,300657,1,8,0:0:0:0:
448,192,300657,1,0,0:0:0:0:
320,192,300784,1,2,0:0:0:0:
448,192,300784,1,0,0:0:0:0:
192,192,300911,1,0,0:0:0:0:
64,192,300911,1,0,0:0:0:0:
448,192,301038,1,0,0:0:0:0:
320,192,301038,1,0,0:0:0:0:
192,192,301038,1,8,0:0:0:0:
64,192,301165,1,0,0:0:0:0:
320,192,301292,1,2,0:0:0:0:
448,192,301292,1,0,0:0:0:0:
192,192,301419,1,0,0:0:0:0:
448,192,301546,128,0,301674:0:0:0:0:
320,192,301546,1,2,0:0:0:0:
64,192,301546,1,0,0:0:0:0:
192,192,301674,1,0,0:0:0:0:
448,192,301801,128,0,301928:0:0:0:0:
64,192,301801,1,0,0:0:0:0:
320,192,301801,1,2,0:0:0:0:
192,192,301928,1,0,0:0:0:0:
448,192,302055,128,0,302182:0:0:0:0:
64,192,302055,1,0,0:0:0:0:
320,192,302055,1,8,0:0:0:0:
64,192,302182,1,0,0:0:0:0:
192,192,302182,1,0,0:0:0:0:
320,192,302309,1,2,0:0:0:0:
448,192,302309,1,0,0:0:0:0:
320,192,302436,1,0,0:0:0:0:
192,192,302436,1,0,0:0:0:0:
64,192,302563,1,4,0:0:0:0:
192,192,302563,1,8,0:0:0:0:
448,192,302563,1,2,0:0:0:0:
320,192,302691,1,0,0:0:0:0:
64,192,302818,1,2,0:0:0:0:
448,192,302818,1,0,0:0:0:0:
320,192,302945,1,0,0:0:0:0:
192,192,302945,1,2,0:0:0:0:
64,192,303072,1,2,0:0:0:0:
448,192,303072,1,0,0:0:0:0:
320,192,303199,1,2,0:0:0:0:
64,192,303199,1,0,0:0:0:0:
192,192,303326,1,0,0:0:0:0:
320,192,303326,1,2,0:0:0:0:
448,192,303453,1,0,0:0:0:0:
192,192,303453,1,2,0:0:0:0:
64,192,303580,128,0,303707:0:0:0:0:
448,192,303580,1,2,0:0:0:0:
320,192,303580,1,4,0:0:0:0:
192,192,303707,1,0,0:0:0:0:
320,192,303835,1,0,0:0:0:0:
448,192,303835,1,2,0:0:0:0:
64,192,303835,128,0,303962:0:0:0:0:
192,192,303962,1,0,0:0:0:0:
320,192,304089,1,0,0:0:0:0:
448,192,304089,1,8,0:0:0:0:
64,192,304089,128,0,304216:0:0:0:0:
192,192,304216,1,0,0:0:0:0:
320,192,304216,1,0,0:0:0:0:
448,192,304343,1,0,0:0:0:0:
64,192,304343,1,0,0:0:0:0:
320,192,304470,1,2,0:0:0:0:
448,192,304470,1,0,0:0:0:0:
192,192,304597,1,0,0:0:0:0:
64,192,304597,1,0,0:0:0:0:
448,192,304724,1,0,0:0:0:0:
320,192,304724,1,0,0:0:0:0:
64,192,304852,1,2,0:0:0:0:
448,192,304852,1,0,0:0:0:0:
320,192,304979,1,0,0:0:0:0:
192,192,304979,1,0,0:0:0:0:
64,192,305106,1,0,0:0:0:0:
320,192,305106,1,8,0:0:0:0:
448,192,305106,1,0,0:0:0:0:
192,192,305233,1,0,0:0:0:0:
448,192,305360,1,0,0:0:0:0:
320,192,305360,1,0,0:0:0:0:
64,192,305487,1,0,0:0:0:0:
192,192,305614,1,0,0:0:0:0:
320,192,305614,1,2,0:0:0:0:
448,192,305614,128,0,305741:0:0:0:0:
64,192,305741,1,0,0:0:0:0:
320,192,305868,1,2,0:0:0:0:
192,192,305868,1,0,0:0:0:0:
448,192,305868,128,0,305996:0:0:0:0:
64,192,305996,1,0,0:0:0:0:
192,192,306123,1,0,0:0:0:0:
448,192,306123,128,0,306250:0:0:0:0:
320,192,306123,1,8,0:0:0:0:
192,192,306250,1,0,0:0:0:0:
64,192,306250,1,0,0:0:0:0:
448,192,306377,1,0,0:0:0:0:
320,192,306377,1,0,0:0:0:0:
192,192,306504,1,2,0:0:0:0:
320,192,306504,1,0,0:0:0:0:
448,192,306631,1,0,0:0:0:0:
64,192,306631,1,0,0:0:0:0:
320,192,306758,1,0,0:0:0:0:
192,192,306758,1,0,0:0:0:0:
64,192,306885,1,2,0:0:0:0:
192,192,306885,1,0,0:0:0:0:
320,192,307013,1,0,0:0:0:0:
448,192,307013,1,0,0:0:0:0:
320,192,307140,1,8,0:0:0:0:
192,192,307140,1,0,0:0:0:0:
64,192,307140,1,0,0:0:0:0:
448,192,307267,1,0,0:0:0:0:
192,192,307394,1,2,0:0:0:0:
64,192,307394,1,0,0:0:0:0:
320,192,307521,1,0,0:0:0:0:
64,192,307648,1,0,0:0:0:0:
448,192,307648,1,2,0:0:0:0:
192,192,307648,128,0,307775:0:0:0:0:
320,192,307775,1,0,0:0:0:0:
192,192,307902,128,0,308029:0:0:0:0:
448,192,307902,1,2,0:0:0:0:
64,192,307902,1,0,0:0:0:0:
320,192,308029,1,0,0:0:0:0:
192,192,308157,128,0,308284:0:0:0:0:
64,192,308157,1,0,0:0:0:0:
448,192,308157,1,8,0:0:0:0:
448,192,308284,1,0,0:0:0:0:
320,192,308284,1,0,0:0:0:0:
192,192,308411,1,0,0:0:0:0:
64,192,308411,1,0,0:0:0:0:
320,192,308538,1,2,0:0:0:0:
64,192,308538,1,0,0:0:0:0:
192,192,308665,1,0,0:0:0:0:
448,192,308665,1,0,0:0:0:0:
320,192,308792,1,0,0:0:0:0:
64,192,308792,1,0,0:0:0:0:
448,192,308919,1,0,0:0:0:0:
320,192,308919,1,2,0:0:0:0:
64,192,309046,1,0,0:0:0:0:
192,192,309046,1,0,0:0:0:0:
448,192,309174,1,0,0:0:0:0:
320,192,309174,1,8,0:0:0:0:
64,192,309174,1,0,0:0:0:0:
192,192,309301,1,0,0:0:0:0:
448,192,309428,1,0,0:0:0:0:
320,192,309428,1,0,0:0:0:0:
64,192,309555,1,0,0:0:0:0:
320,192,309682,128,0,309809:0:0:0:0:
448,192,309682,1,2,0:0:0:0:
192,192,309682,1,0,0:0:0:0:
64,192,309809,1,0,0:0:0:0:
320,192,309936,128,0,310063:0:0:0:0:
192,192,309936,1,0,0:0:0:0:
448,192,309936,1,2,0:0:0:0:
64,192,310063,1,0,0:0:0:0:
320,192,310191,128,0,310318:0:0:0:0:
192,192,310191,1,0,0:0:0:0:
448,192,310191,1,8,0:0:0:0:
192,192,310318,1,0,0:0:0:0:
64,192,310318,1,0,0:0:0:0:
448,192,310445,1,0,0:0:0:0:
320,192,310445,1,0,0:0:0:0:
448,192,310572,1,0,0:0:0:0:
64,192,310572,1,2,0:0:0:0:
320,192,310699,1,0,0:0:0:0:
192,192,310699,1,0,0:0:0:0:
64,192,310826,1,0,0:0:0:0:
448,192,310826,1,8,0:0:0:0:
448,192,310953,1,0,0:0:0:0:
320,192,310953,1,2,0:0:0:0:
192,192,311080,1,0,0:0:0:0:
64,192,311080,1,0,0:0:0:0:
64,192,311207,1,0,0:0:0:0:
320,192,311207,1,8,0:0:0:0:
448,192,311207,1,0,0:0:0:0:
192,192,311335,1,0,0:0:0:0:
64,192,311462,1,2,0:0:0:0:
448,192,311462,1,0,0:0:0:0:
320,192,311589,1,0,0:0:0:0:
448,192,311716,128,0,311843:0:0:0:0:
64,192,311716,1,4,0:0:0:0:
192,192,311716,1,2,0:0:0:0:
320,192,311843,1,0,0:0:0:0:
192,192,311970,1,2,0:0:0:0:
64,192,311970,1,0,0:0:0:0:
448,192,311970,128,0,312097:0:0:0:0:
320,192,312097,1,0,0:0:0:0:
192,192,312224,1,8,0:0:0:0:
64,192,312224,1,0,0:0:0:0:
448,192,312224,128,0,312352:0:0:0:0:
320,192,312352,1,0,0:0:0:0:
64,192,312352,1,0,0:0:0:0:
448,192,312479,1,0,0:0:0:0:
192,192,312479,1,0,0:0:0:0:
192,192,312606,1,2,0:0:0:0:
64,192,312606,1,0,0:0:0:0:
320,192,312733,1,0,0:0:0:0:
448,192,312733,1,0,0:0:0:0:
64,192,312860,1,0,0:0:0:0:
192,192,312860,1,0,0:0:0:0:
448,192,312987,1,0,0:0:0:0:
192,192,312987,1,2,0:0:0:0:
320,192,313114,1,0,0:0:0:0:
64,192,313114,1,0,0:0:0:0:
64,192,313241,1,0,0:0:0:0:
320,192,313241,1,8,0:0:0:0:
448,192,313241,1,0,0:0:0:0:
192,192,313368,1,0,0:0:0:0:
448,192,313496,1,2,0:0:0:0:
64,192,313496,1,0,0:0:0:0:
320,192,313623,1,0,0:0:0:0:
192,192,313750,1,0,0:0:0:0:
448,192,313750,1,2,0:0:0:0:
64,192,313750,128,0,313877:0:0:0:0:
320,192,313877,1,0,0:0:0:0:
448,192,314004,1,2,0:0:0:0:
192,192,314004,1,0,0:0:0:0:
64,192,314004,128,0,314131:0:0:0:0:
320,192,314131,1,0,0:0:0:0:
192,192,314258,1,0,0:0:0:0:
448,192,314258,1,8,0:0:0:0:
64,192,314258,128,0,314385:0:0:0:0:
320,192,314385,1,0,0:0:0:0:
448,192,314385,1,0,0:0:0:0:
192,192,314513,1,0,0:0:0:0:
64,192,314513,1,0,0:0:0:0:
192,192,314640,1,2,0:0:0:0:
448,192,314640,1,0,0:0:0:0:
320,192,314767,1,0,0:0:0:0:
64,192,314767,1,0,0:0:0:0:
448,192,314894,1,0,0:0:0:0:
192,192,314894,1,0,0:0:0:0:
320,192,315021,1,2,0:0:0:0:
192,192,315021,1,0,0:0:0:0:
64,192,315148,1,0,0:0:0:0:
448,192,315148,1,0,0:0:0:0:
192,192,315275,1,0,0:0:0:0:
320,192,315275,1,8,0:0:0:0:
64,192,315275,1,0,0:0:0:0:
448,192,315402,1,0,0:0:0:0:
192,192,315529,1,0,0:0:0:0:
320,192,315529,1,2,0:0:0:0:
64,192,315657,1,0,0:0:0:0:
448,192,315784,1,2,0:0:0:0:
192,192,315784,128,0,315911:0:0:0:0:
320,192,315784,1,4,0:0:0:0:
64,192,315911,1,0,0:0:0:0:
192,192,316038,128,0,316165:0:0:0:0:
448,192,316038,1,2,0:0:0:0:
320,192,316038,1,0,0:0:0:0:
64,192,316165,1,0,0:0:0:0:
192,192,316292,128,0,316419:0:0:0:0:
320,192,316292,1,0,0:0:0:0:
448,192,316292,1,8,0:0:0:0:
448,192,316419,1,0,0:0:0:0:
64,192,316419,1,0,0:0:0:0:
320,192,316546,1,0,0:0:0:0:
192,192,316546,1,0,0:0:0:0:
64,192,316674,1,0,0:0:0:0:
320,192,316674,1,2,0:0:0:0:
192,192,316801,1,0,0:0:0:0:
448,192,316801,1,0,0:0:0:0:
320,192,316928,1,0,0:0:0:0:
64,192,316928,1,0,0:0:0:0:
320,192,317055,1,2,0:0:0:0:
192,192,317055,1,0,0:0:0:0:
448,192,317182,1,0,0:0:0:0:
64,192,317182,1,0,0:0:0:0:
448,192,317309,1,0,0:0:0:0:
320,192,317309,1,8,0:0:0:0:
192,192,317309,1,0,0:0:0:0:
64,192,317436,1,0,0:0:0:0:
192,192,317563,1,2,0:0:0:0:
320,192,317563,1,0,0:0:0:0:
448,192,317691,1,0,0:0:0:0:
320,192,317818,128,0,317945:0:0:0:0:
192,192,317818,1,2,0:0:0:0:
64,192,317818,1,0,0:0:0:0:
448,192,317945,1,0,0:0:0:0:
320,192,318072,128,0,318199:0:0:0:0:
64,192,318072,1,0,0:0:0:0:
192,192,318072,1,2,0:0:0:0:
448,192,318199,1,0,0:0:0:0:
320,192,318326,128,0,318453:0:0:0:0:
192,192,318326,1,8,0:0:0:0:
64,192,318326,1,0,0:0:0:0:
448,192,318453,1,0,0:0:0:0:
64,192,318453,1,0,0:0:0:0:
320,192,318580,1,0,0:0:0:0:
192,192,318580,1,0,0:0:0:0:
64,192,318707,1,0,0:0:0:0:
448,192,318707,1,2,0:0:0:0:
448,192,318835,1,4,0:0:0:0:
192,192,318835,1,0,0:0:0:0:
64,192,318835,1,0,0:0:0:0:
320,192,318835,1,8,0:0:0:0:
320,192,318962,1,8,0:0:0:0:
192,192,318962,1,0,0:0:0:0:
448,192,319089,1,8,0:0:0:0:
64,192,319089,1,0,0:0:0:0:
192,192,319216,1,0,0:0:0:0:
320,192,319216,1,8,0:0:0:0:
64,192,319343,1,2,0:0:0:0:
448,192,319343,1,0,0:0:0:0:
320,192,319407,1,0,0:0:0:0:
192,192,319470,1,0,0:0:0:0:
64,192,319470,1,2,0:0:0:0:
320,192,319597,1,2,0:0:0:0:
448,192,319597,1,0,0:0:0:0:
192,192,319724,1,2,0:0:0:0:
64,192,319724,1,0,0:0:0:0:
192,192,319852,1,4,0:0:0:0:
320,192,319852,1,2,0:0:0:0:
448,192,319852,1,0,0:0:0:0:
64,192,319852,128,0,319979:0:0:0:0:
448,192,319979,1,0,0:0:0:0:
320,192,320106,1,2,0:0:0:0:
192,192,320106,128,0,320233:0:0:0:0:
64,192,320233,1,0,0:0:0:0:
448,192,320360,1,8,0:0:0:0:
320,192,320360,128,0,320487:0:0:0:0:
192,192,320487,1,0,0:0:0:0:
64,192,320487,1,0,0:0:0:0:
448,192,320614,1,0,0:0:0:0:
320,192,320741,1,2,0:0:0:0:
192,192,320741,128,0,320868:0:0:0:0:
64,192,320868,1,0,0:0:0:0:
448,192,320868,1,0,0:0:0:0:
192,192,320996,1,0,0:0:0:0:
320,192,321123,1,2,0:0:0:0:
448,192,321123,1,0,0:0:0:0:
192,192,321250,1,0,0:0:0:0:
64,192,321250,1,0,0:0:0:0:
320,192,321377,1,8,0:0:0:0:
448,192,321377,1,0,0:0:0:0:
64,192,321504,1,0,0:0:0:0:
192,192,321631,1,0,0:0:0:0:
448,192,321631,1,0,0:0:0:0:
320,192,321758,1,0,0:0:0:0:
192,192,321885,1,2,0:0:0:0:
64,192,321885,128,0,322013:0:0:0:0:
448,192,322013,1,0,0:0:0:0:
320,192,322140,1,2,0:0:0:0:
192,192,322140,128,0,322267:0:0:0:0:
64,192,322267,1,0,0:0:0:0:
448,192,322394,1,8,0:0:0:0:
320,192,322394,128,0,322521:0:0:0:0:
192,192,322521,1,0,0:0:0:0:
64,192,322521,1,0,0:0:0:0:
448,192,322648,1,0,0:0:0:0:
192,192,322775,1,2,0:0:0:0:
64,192,322775,128,0,322902:0:0:0:0:
320,192,322902,1,0,0:0:0:0:
448,192,322902,1,0,0:0:0:0:
192,192,323029,1,0,0:0:0:0:
64,192,323157,1,2,0:0:0:0:
448,192,323157,1,0,0:0:0:0:
192,192,323284,1,0,0:0:0:0:
320,192,323284,1,0,0:0:0:0:
448,192,323411,1,8,0:0:0:0:
64,192,323411,1,0,0:0:0:0:
192,192,323538,1,0,0:0:0:0:
320,192,323665,1,2,0:0:0:0:
448,192,323665,1,0,0:0:0:0:
64,192,323792,1,0,0:0:0:0:
320,192,323919,1,2,0:0:0:0:
192,192,323919,128,0,324046:0:0:0:0:
448,192,324046,1,0,0:0:0:0:
192,192,324174,1,0,0:0:0:0:
64,192,324174,128,2,324301:0:0:0:0:
448,192,324301,1,0,0:0:0:0:
320,192,324428,1,8,0:0:0:0:
192,192,324428,128,0,324555:0:0:0:0:
64,192,324555,1,0,0:0:0:0:
448,192,324555,1,0,0:0:0:0:
192,192,324682,1,0,0:0:0:0:
320,192,324809,1,2,0:0:0:0:
448,192,324809,128,0,324936:0:0:0:0:
64,192,324936,1,0,0:0:0:0:
192,192,324936,1,0,0:0:0:0:
448,192,325063,1,0,0:0:0:0:
320,192,325191,1,2,0:0:0:0:
64,192,325191,1,0,0:0:0:0:
192,192,325318,1,0,0:0:0:0:
448,192,325318,1,0,0:0:0:0:
320,192,325445,1,8,0:0:0:0:
64,192,325445,1,0,0:0:0:0:
448,192,325572,1,0,0:0:0:0:
192,192,325699,1,0,0:0:0:0:
64,192,325699,1,0,0:0:0:0:
320,192,325826,1,0,0:0:0:0:
448,192,325953,1,2,0:0:0:0:
64,192,325953,128,0,326080:0:0:0:0:
192,192,326080,1,0,0:0:0:0:
64,192,326207,1,2,0:0:0:0:
448,192,326207,128,0,326335:0:0:0:0:
320,192,326335,1,0,0:0:0:0:
192,192,326462,1,8,0:0:0:0:
64,192,326462,128,0,326589:0:0:0:0:
448,192,326589,1,0,0:0:0:0:
320,192,326589,1,0,0:0:0:0:
64,192,326716,1,0,0:0:0:0:
320,192,326843,1,2,0:0:0:0:
448,192,326843,128,0,326970:0:0:0:0:
192,192,326970,1,0,0:0:0:0:
64,192,326970,1,0,0:0:0:0:
448,192,327097,1,8,0:0:0:0:
320,192,327097,1,0,0:0:0:0:
64,192,327224,1,2,0:0:0:0:
448,192,327224,1,0,0:0:0:0:
192,192,327352,1,0,0:0:0:0:
320,192,327352,1,0,0:0:0:0:
448,192,327479,1,8,0:0:0:0:
64,192,327479,1,0,0:0:0:0:
320,192,327606,1,0,0:0:0:0:
192,192,327733,1,2,0:0:0:0:
64,192,327733,1,0,0:0:0:0:
448,192,327860,1,0,0:0:0:0:
320,192,327987,1,2,0:0:0:0:
64,192,327987,128,0,328114:0:0:0:0:
192,192,328114,1,0,0:0:0:0:
320,192,328241,1,2,0:0:0:0:
448,192,328241,128,0,328368:0:0:0:0:
64,192,328368,1,0,0:0:0:0:
448,192,328496,1,8,0:0:0:0:
320,192,328496,128,0,328623:0:0:0:0:
64,192,328623,1,0,0:0:0:0:
192,192,328623,1,0,0:0:0:0:
448,192,328750,1,0,0:0:0:0:
320,192,328877,1,2,0:0:0:0:
192,192,328877,128,0,329004:0:0:0:0:
64,192,329004,1,0,0:0:0:0:
448,192,329004,1,0,0:0:0:0:
192,192,329131,1,0,0:0:0:0:
320,192,329258,1,2,0:0:0:0:
448,192,329258,1,0,0:0:0:0:
64,192,329385,1,0,0:0:0:0:
192,192,329385,1,0,0:0:0:0:
320,192,329513,1,0,0:0:0:0:
448,192,329513,1,8,0:0:0:0:
64,192,329640,1,0,0:0:0:0:
192,192,329767,1,0,0:0:0:0:
448,192,329767,1,0,0:0:0:0:
320,192,329894,1,0,0:0:0:0:
192,192,330021,1,2,0:0:0:0:
64,192,330021,128,0,330148:0:0:0:0:
448,192,330148,1,0,0:0:0:0:
64,192,330275,1,2,0:0:0:0:
320,192,330275,128,0,330402:0:0:0:0:
448,192,330402,1,0,0:0:0:0:
64,192,330529,1,8,0:0:0:0:
192,192,330529,128,0,330657:0:0:0:0:
320,192,330657,1,0,0:0:0:0:
448,192,330657,1,0,0:0:0:0:
192,192,330784,1,0,0:0:0:0:
64,192,330911,1,2,0:0:0:0:
448,192,330911,128,0,331038:0:0:0:0:
320,192,331038,1,0,0:0:0:0:
192,192,331038,1,0,0:0:0:0:
448,192,331165,1,0,0:0:0:0:
192,192,331292,1,2,0:0:0:0:
64,192,331292,1,0,0:0:0:0:
320,192,331419,1,0,0:0:0:0:
448,192,331419,1,0,0:0:0:0:
64,192,331546,1,8,0:0:0:0:
192,192,331546,1,0,0:0:0:0:
320,192,331674,1,0,0:0:0:0:
64,192,331801,1,0,0:0:0:0:
448,192,331801,1,2,0:0:0:0:
192,192,331928,1,0,0:0:0:0:
320,192,332055,1,2,0:0:0:0:
448,192,332055,128,0,332182:0:0:0:0:
64,192,332182,1,0,0:0:0:0:
320,192,332309,1,2,0:0:0:0:
192,192,332309,128,0,332436:0:0:0:0:
64,192,332436,1,0,0:0:0:0:
320,192,332563,1,8,0:0:0:0:
448,192,332563,128,0,332691:0:0:0:0:
64,192,332691,1,0,0:0:0:0:
192,192,332691,1,0,0:0:0:0:
320,192,332818,1,0,0:0:0:0:
448,192,332945,1,2,0:0:0:0:
64,192,332945,128,0,333072:0:0:0:0:
192,192,333072,1,0,0:0:0:0:
320,192,333072,1,0,0:0:0:0:
64,192,333199,1,0,0:0:0:0:
448,192,333199,1,8,0:0:0:0:
448,192,333326,1,2,0:0:0:0:
320,192,333326,1,0,0:0:0:0:
192,192,333453,1,0,0:0:0:0:
64,192,333453,1,0,0:0:0:0:
320,192,333580,1,0,0:0:0:0:
448,192,333580,1,8,0:0:0:0:
64,192,333707,1,0,0:0:0:0:
192,192,333835,1,2,0:0:0:0:
320,192,333835,1,0,0:0:0:0:
448,192,333962,1,0,0:0:0:0:
192,192,334089,1,2,0:0:0:0:
64,192,334089,128,0,334216:0:0:0:0:
320,192,334216,1,0,0:0:0:0:
64,192,334343,1,2,0:0:0:0:
448,192,334343,128,0,334470:0:0:0:0:
192,192,334470,1,0,0:0:0:0:
448,192,334597,1,8,0:0:0:0:
64,192,334597,128,0,334724:0:0:0:0:
320,192,334724,1,0,0:0:0:0:
192,192,334724,1,0,0:0:0:0:
448,192,334852,1,2,0:0:0:0:
64,192,334852,1,0,0:0:0:0:
320,192,334979,128,0,335106:0:0:0:0:
192,192,335106,1,4,0:0:0:0:
64,192,335106,1,2,0:0:0:0:
448,192,335106,1,0,0:0:0:0:
320,192,335233,1,0,0:0:0:0:
192,192,335360,1,0,0:0:0:0:
64,192,335360,1,2,0:0:0:0:
320,192,335487,1,2,0:0:0:0:
448,192,335487,1,0,0:0:0:0:
64,192,335614,1,0,0:0:0:0:
192,192,335614,1,2,0:0:0:0:
320,192,335741,1,2,0:0:0:0:
448,192,335741,1,0,0:0:0:0:
320,192,335868,1,2,0:0:0:0:
192,192,335868,1,0,0:0:0:0:
192,192,335996,1,2,0:0:0:0:
64,192,335996,1,0,0:0:0:0:
64,192,336123,128,4,336377:0:0:0:0:
320,192,336123,1,0,0:0:0:0:
448,192,336123,1,2,0:0:0:0:
192,192,336250,1,0,0:0:0:0:
320,192,336377,1,0,0:0:0:0:
448,192,336377,1,2,0:0:0:0:
64,192,336504,128,0,336758:0:0:0:0:
192,192,336504,1,0,0:0:0:0:
320,192,336631,1,0,0:0:0:0:
448,192,336631,1,8,0:0:0:0:
192,192,336758,1,0,0:0:0:0:
64,192,336885,128,0,337140:0:0:0:0:
448,192,336885,1,0,0:0:0:0:
192,192,337013,1,0,0:0:0:0:
320,192,337013,1,2,0:0:0:0:
448,192,337140,1,0,0:0:0:0:
64,192,337267,128,0,337521:0:0:0:0:
192,192,337267,1,0,0:0:0:0:
320,192,337394,1,2,0:0:0:0:
448,192,337394,1,0,0:0:0:0:
192,192,337521,1,0,0:0:0:0:
320,192,337648,128,0,337902:0:0:0:0:
64,192,337648,1,0,0:0:0:0:
448,192,337648,1,8,0:0:0:0:
64,192,337902,128,0,338157:0:0:0:0:
448,192,337902,1,0,0:0:0:0:
448,192,338157,128,0,338411:0:0:0:0:
192,192,338157,1,2,0:0:0:0:
320,192,338284,1,0,0:0:0:0:
64,192,338411,1,0,0:0:0:0:
192,192,338411,1,2,0:0:0:0:
448,192,338538,128,0,338792:0:0:0:0:
320,192,338538,1,0,0:0:0:0:
192,192,338665,1,8,0:0:0:0:
64,192,338665,1,0,0:0:0:0:
320,192,338792,1,0,0:0:0:0:
448,192,338919,128,0,339174:0:0:0:0:
64,192,338919,1,0,0:0:0:0:
192,192,339046,1,0,0:0:0:0:
320,192,339046,1,2,0:0:0:0:
64,192,339174,1,0,0:0:0:0:
448,192,339301,128,0,339555:0:0:0:0:
320,192,339301,1,8,0:0:0:0:
192,192,339428,1,2,0:0:0:0:
64,192,339428,1,0,0:0:0:0:
320,192,339555,1,0,0:0:0:0:
192,192,339682,128,8,339936:0:0:0:0:
64,192,339682,1,0,0:0:0:0:
448,192,339936,128,0,340191:0:0:0:0:
320,192,339936,1,2,0:0:0:0:
192,192,340191,128,0,340445:0:0:0:0:
320,192,340191,1,2,0:0:0:0:
64,192,340318,1,0,0:0:0:0:
320,192,340445,1,2,0:0:0:0:
448,192,340445,1,0,0:0:0:0:
192,192,340572,128,0,340826:0:0:0:0:
64,192,340572,1,0,0:0:0:0:
320,192,340699,1,8,0:0:0:0:
448,192,340699,1,0,0:0:0:0:
64,192,340826,1,0,0:0:0:0:
192,192,340953,128,0,341207:0:0:0:0:
448,192,340953,1,0,0:0:0:0:
320,192,341080,1,2,0:0:0:0:
64,192,341080,1,0,0:0:0:0:
448,192,341207,1,0,0:0:0:0:
192,192,341335,128,0,341589:0:0:0:0:
64,192,341335,1,0,0:0:0:0:
320,192,341462,1,0,0:0:0:0:
448,192,341462,1,2,0:0:0:0:
64,192,341589,1,0,0:0:0:0:
448,192,341716,128,0,341970:0:0:0:0:
192,192,341716,1,8,0:0:0:0:
192,192,341970,128,0,342224:0:0:0:0:
64,192,341970,1,0,0:0:0:0:
320,192,342224,128,0,342479:0:0:0:0:
64,192,342224,1,2,0:0:0:0:
448,192,342352,1,0,0:0:0:0:
192,192,342479,1,0,0:0:0:0:
64,192,342479,1,2,0:0:0:0:
320,192,342606,128,0,342860:0:0:0:0:
448,192,342606,1,0,0:0:0:0:
192,192,342733,1,0,0:0:0:0:
64,192,342733,1,8,0:0:0:0:
448,192,342860,1,0,0:0:0:0:
320,192,342987,128,0,343241:0:0:0:0:
64,192,342987,1,0,0:0:0:0:
192,192,343114,1,2,0:0:0:0:
448,192,343114,1,0,0:0:0:0:
64,192,343241,1,0,0:0:0:0:
448,192,343368,1,0,0:0:0:0:
320,192,343368,1,8,0:0:0:0:
64,192,343496,1,2,0:0:0:0:
192,192,343496,128,0,343750:0:0:0:0:
448,192,343750,1,8,0:0:0:0:
320,192,343750,1,0,0:0:0:0:
192,192,343877,1,0,0:0:0:0:
64,192,343877,128,0,344258:0:0:0:0:
448,192,344004,1,0,0:0:0:0:
320,192,344004,1,0,0:0:0:0:
192,192,344258,1,4,0:0:0:0:
320,192,344258,1,2,0:0:0:0:
448,192,344258,128,0,344513:0:0:0:0:
64,192,344385,1,0,0:0:0:0:
192,192,344513,1,0,0:0:0:0:
320,192,344513,1,2,0:0:0:0:
448,192,344640,128,0,344894:0:0:0:0:
64,192,344640,1,0,0:0:0:0:
192,192,344767,1,0,0:0:0:0:
320,192,344767,1,8,0:0:0:0:
64,192,344894,1,0,0:0:0:0:
448,192,345021,128,0,345275:0:0:0:0:
320,192,345021,1,0,0:0:0:0:
192,192,345148,1,2,0:0:0:0:
64,192,345148,1,0,0:0:0:0:
320,192,345275,1,0,0:0:0:0:
448,192,345402,128,0,345657:0:0:0:0:
64,192,345402,1,0,0:0:0:0:
192,192,345529,1,2,0:0:0:0:
320,192,345529,1,0,0:0:0:0:
64,192,345657,1,0,0:0:0:0:
192,192,345784,128,0,346038:0:0:0:0:
320,192,345784,1,8,0:0:0:0:
320,192,346038,128,0,346292:0:0:0:0:
64,192,346038,1,2,0:0:0:0:
64,192,346292,128,0,346546:0:0:0:0:
192,192,346292,1,2,0:0:0:0:
448,192,346419,1,0,0:0:0:0:
320,192,346546,1,0,0:0:0:0:
192,192,346546,1,2,0:0:0:0:
64,192,346674,128,0,346928:0:0:0:0:
448,192,346674,1,0,0:0:0:0:
192,192,346801,1,8,0:0:0:0:
320,192,346801,1,0,0:0:0:0:
448,192,346928,1,0,0:0:0:0:
64,192,347055,128,0,347309:0:0:0:0:
192,192,347055,1,0,0:0:0:0:
320,192,347182,1,0,0:0:0:0:
448,192,347182,1,2,0:0:0:0:
192,192,347309,1,0,0:0:0:0:
64,192,347436,128,0,347691:0:0:0:0:
448,192,347436,1,0,0:0:0:0:
320,192,347563,1,2,0:0:0:0:
192,192,347563,1,0,0:0:0:0:
448,192,347691,1,0,0:0:0:0:
320,192,347818,128,8,348072:0:0:0:0:
64,192,347818,1,0,0:0:0:0:
192,192,348072,128,0,348326:0:0:0:0:
64,192,348072,1,2,0:0:0:0:
448,192,348326,128,4,348580:0:0:0:0:
64,192,348326,1,2,0:0:0:0:
320,192,348453,1,0,0:0:0:0:
64,192,348580,1,0,0:0:0:0:
192,192,348580,1,2,0:0:0:0:
448,192,348707,128,0,348962:0:0:0:0:
320,192,348707,1,0,0:0:0:0:
192,192,348835,1,0,0:0:0:0:
64,192,348835,1,8,0:0:0:0:
320,192,348962,1,0,0:0:0:0:
448,192,349089,128,0,349343:0:0:0:0:
64,192,349089,1,0,0:0:0:0:
192,192,349216,5,0,0:0:0:0:
320,192,349216,1,2,0:0:0:0:
64,192,349343,1,0,0:0:0:0:
448,192,349470,128,0,349724:0:0:0:0:
320,192,349470,1,0,0:0:0:0:
192,192,349597,1,2,0:0:0:0:
64,192,349597,1,0,0:0:0:0:
320,192,349724,1,0,0:0:0:0:
192,192,349852,128,0,350106:0:0:0:0:
64,192,349852,1,8,0:0:0:0:
320,192,350106,128,0,350360:0:0:0:0:
64,192,350106,1,2,0:0:0:0:
192,192,350360,128,2,350614:0:0:0:0:
64,192,350360,128,0,350614:0:0:0:0:
448,192,350360,1,0,0:0:0:0:
448,192,350741,128,2,350996:0:0:0:0:
192,192,350741,128,8,350996:0:0:0:0:
64,192,350741,128,0,350996:0:0:0:0:
448,192,351123,128,2,351377:0:0:0:0:
192,192,351123,128,8,351377:0:0:0:0:
64,192,351123,128,0,351377:0:0:0:0:
448,192,351504,128,2,351758:0:0:0:0:
320,192,351504,128,8,351758:0:0:0:0:
192,192,351504,128,0,351758:0:0:0:0:
64,192,351504,128,0,351758:0:0:0:0:
