osu file format v14

[General]
AudioFilename: audio.mp3
AudioLeadIn: 0
PreviewTime: 26248
Countdown: 1
SampleSet: Soft
StackLeniency: 0.7
Mode: 0
LetterboxInBreaks: 0
WidescreenStoryboard: 1

[Editor]
Bookmarks: 12727,16952,19487,20332,22867
DistanceSpacing: 1.3
BeatDivisor: 3
GridSize: 16
TimelineZoom: 1.400006

[Metadata]
Title:Transmission
TitleUnicode:Transmission
Artist:TANUKI
ArtistUnicode:TANUKI
Creator:tporter
Version:Shiko's Extra
Source:
Tags:
BeatmapID:1409696
BeatmapSetID:572221

[Difficulty]
HPDrainRate:6
CircleSize:3.3
OverallDifficulty:8
ApproachRate:9.3
SliderMultiplier:1.9
SliderTickRate:1

[Events]
//Background and Video events
0,0,"6879514-city-background.jpg",0,0
//Break Periods
//Storyboard Layer 0 (Background)
//Storyboard Layer 1 (Fail)
//Storyboard Layer 2 (Pass)
//Storyboard Layer 3 (Foreground)
//Storyboard Sound Samples

[TimingPoints]
51,422.535211267606,4,2,2,50,1,0
51,-200,4,2,2,50,0,0
12727,-100,4,2,2,50,0,0
13149,-200,4,2,2,50,0,0
13572,-100,4,2,2,50,0,0
19487,-50,4,3,1,50,0,0
19698,-50,4,2,2,50,0,0
19769,-50,4,3,1,50,0,0
19980,-50,4,2,2,50,0,0
20051,-50,4,3,1,50,0,0
20262,-50,4,2,2,50,0,0
20332,-100,4,2,2,50,0,0
26248,-50,4,3,1,50,0,0
26318,-50,4,2,0,50,0,0
26389,-50,4,3,1,50,0,0
26459,-50,4,2,0,50,0,0
26529,-50,4,3,1,50,0,0
26670,-50,4,2,0,50,0,0
26811,-50,4,3,1,50,0,0
27093,-50,4,2,2,50,0,1
33008,-100,4,3,1,50,0,0
33220,-100,4,2,0,50,0,0
33290,-100,4,3,1,50,0,0
33325,-100,4,3,1,5,0,0
33431,-58.8235294117647,4,2,0,50,0,0
33466,-58.8235294117647,4,2,0,5,0,0
33572,-100,4,3,1,50,0,0
33607,-100,4,3,1,5,0,0
33712,-58.8235294117647,4,3,1,50,0,0
33748,-58.8235294117647,4,3,1,5,0,0
33853,-133.333333333333,4,2,2,50,0,0
36529,-117.647058823529,4,2,2,50,0,0
36811,-105.263157894737,4,2,2,50,0,0
37234,-95.2380952380952,4,2,2,50,0,0
37656,-86.9565217391304,4,2,2,50,0,0
38079,-80,4,2,2,50,0,0
38501,-74.0740740740741,4,2,2,50,0,0
38924,-68.9655172413793,4,2,2,50,0,0
39346,-64.5161290322581,4,2,2,50,0,0
39769,-50,4,3,1,50,0,0
40191,-76.9230769230769,4,3,1,50,0,0
40473,-100,4,3,1,50,0,0
40543,-100,4,2,2,50,0,0
40614,-100,4,3,1,42,0,0
40684,-100,4,2,2,42,0,0
40755,-100,4,3,1,36,0,0
40825,-100,4,2,2,36,0,0
40896,-100,4,3,1,28,0,0
40931,-100,4,3,1,28,0,0
40934,422.535211267606,4,2,2,28,1,0
41036,-100,4,3,1,19,0,0
41107,-100,4,2,2,19,0,0
41113,422.535211267606,4,2,2,19,1,0
41177,-100,4,3,1,10,0,0
41248,-100,4,2,2,10,0,0
41318,-133.333333333333,4,3,1,8,0,0
41324,422.535211267606,4,3,1,8,1,0
41529,-133.333333333333,4,2,2,8,0,0
41552,422.535211267606,4,3,1,6,1,0
41568,-133.333333333333,4,2,2,8,0,0
41811,-153.846153846154,4,2,2,6,0,0
41829,422.535211267606,4,3,1,5,1,0
41833,-153.846153846154,4,2,2,6,0,0
42304,-153.846153846154,4,2,2,5,0,0

[HitObjects]
110,178,51,6,0,B|151:181|178:165|185:131|175:79|175:79|111:-1|15:79|111:143|175:79|175:79|244:45|308:49|308:49|312:92|291:133|286:113|266:148|272:203,1,665
187,260,3431,6,0,P|204:280|364:138,1,332.5
280,199,5121,6,0,P|263:179|103:321,1,332.5
209,236,6811,6,0,P|240:271|347:247,1,158.333333333333
256,192,7656,12,0,12586,0:0:0:0:
133,268,12727,5,0,0:0:0:0:
145,246,12867,1,0,0:0:0:0:
233,135,13008,5,0,0:0:0:0:
243,147,13149,2,0,L|235:187,1,31.6666666666667
126,136,13431,1,0,0:0:0:0:
254,352,13572,2,0,L|316:302,1,63.3333333333333
382,249,13853,1,0,0:0:0:0:
292,208,13994,6,0,P|244:180|216:177,1,63.3333333333333
237,178,14276,1,0,0:0:0:0:
83,181,14417,2,0,P|100:154|125:135,1,63.3333333333333
222,96,14698,1,0,0:0:0:0:
312,83,14839,2,0,L|363:126,1,63.3333333333333
343,207,15121,1,0,0:0:0:0:
126,258,15262,6,0,P|97:272|70:286,2,63.3333333333333
268,146,15684,1,0,0:0:0:0:
172,119,15825,1,0,0:0:0:0:
196,212,15966,1,0,0:0:0:0:
365,174,16107,5,0,0:0:0:0:
296,247,16248,1,0,0:0:0:0:
341,77,16389,1,0,0:0:0:0:
195,216,16529,6,0,P|163:214|134:204,1,63.3333333333333
74,90,16811,1,0,0:0:0:0:
268,146,16952,6,0,P|330:158|342:166,1,63.3333333333333
389,271,17234,1,0,0:0:0:0:
458,203,17374,1,0,0:0:0:0:
293,244,17515,1,0,0:0:0:0:
341,77,17656,1,0,0:0:0:0:
194,215,17797,6,0,L|184:278,1,63.3333333333333
268,146,18079,1,0,0:0:0:0:
98,190,18220,1,0,0:0:0:0:
171,118,18360,1,0,0:0:0:0:
124,286,18501,1,0,0:0:0:0:
367,205,18642,6,0,L|308:237,1,63.3333333333333
220,313,18924,1,0,0:0:0:0:
317,341,19065,1,0,0:0:0:0:
316,156,19205,1,0,0:0:0:0:
361,288,19346,1,0,0:0:0:0:
163,226,19487,6,0,B|212:194|236:117|236:117|198:143|148:146,1,221.666666666667
79,178,19769,6,0,B|30:146|6:69|6:69|44:95|88:97,1,221.666666666667
176,50,20051,6,0,P|288:64|315:161,1,221.666666666667
261,220,20332,5,0,0:0:0:0:
309,339,20473,1,0,0:0:0:0:
143,245,20614,1,0,0:0:0:0:
333,267,20755,5,0,0:0:0:0:
188,182,20896,1,0,0:0:0:0:
190,343,21037,1,0,0:0:0:0:
425,157,21177,6,0,P|388:171|352:173,1,63.3333333333333
296,32,21459,2,0,P|326:57|346:87,1,63.3333333333333
268,146,21741,1,0,0:0:0:0:
437,104,21881,1,0,0:0:0:0:
387,353,22022,6,0,P|350:366|314:369,1,63.3333333333333
293,244,22304,2,0,P|323:269|343:299,1,63.3333333333333
220,313,22586,1,0,0:0:0:0:
365,174,22726,1,0,0:0:0:0:
124,286,22867,6,0,P|130:246|146:214,1,63.3333333333333
268,146,23149,1,0,0:0:0:0:
220,313,23290,1,0,0:0:0:0:
171,118,23431,1,0,0:0:0:0:
293,244,23572,1,0,0:0:0:0:
268,146,23712,6,0,P|271:115|284:86,1,63.3333333333333
350,0,23994,1,0,0:0:0:0:
455,139,24135,1,0,0:0:0:0:
428,58,24276,1,0,0:0:0:0:
340,202,24417,1,0,0:0:0:0:
389,271,24558,5,0,0:0:0:0:
199,216,24698,1,0,0:0:0:0:
317,341,24839,1,0,0:0:0:0:
461,201,24980,2,0,P|464:167|452:132,1,63.3333333333333
428,58,25262,5,0,0:0:0:0:
340,202,25403,1,0,0:0:0:0:
325,114,25543,1,0,0:0:0:0:
389,271,25684,5,0,0:0:0:0:
389,271,25825,2,0,P|345:278|317:272,1,63.3333333333333
174,300,26107,1,0,0:0:0:0:
53,354,26248,5,0,3:0:0:0:
196,216,26389,1,0,0:0:0:0:
389,271,26529,1,0,0:0:0:0:
196,216,26670,5,0,0:0:0:0:
317,341,26811,1,0,0:0:0:0:
437,104,26951,1,0,0:0:0:0:
243,306,27093,6,0,P|180:312|124:286,2,126.666666666667
389,271,27515,1,0,0:0:0:0:
268,146,27656,1,0,0:0:0:0:
292,243,27797,1,0,0:0:0:0:
335,99,27938,6,0,P|361:43|413:7,2,126.666666666667
293,244,28360,1,0,0:0:0:0:
437,104,28501,1,0,0:0:0:0:
196,216,28642,1,0,0:0:0:0:
389,271,28783,6,0,P|424:321|429:384,2,126.666666666667
268,146,29205,1,0,0:0:0:0:
461,201,29346,1,0,0:0:0:0:
293,244,29487,1,0,0:0:0:0:
196,216,29628,6,0,P|145:251|82:256,2,126.666666666667,0|0|0,2:0|2:0|2:0,2:0:0:0:
341,77,30051,1,0,0:0:0:0:
293,244,30191,1,0,0:0:0:0:
268,146,30332,1,0,0:0:0:0:
365,174,30473,6,0,P|400:121|450:77,2,126.666666666667,0|0|0,2:0|2:0|2:0,2:0:0:0:
220,313,30896,1,0,0:0:0:0:
268,146,31036,1,0,0:0:0:0:
317,341,31177,1,0,0:0:0:0:
196,216,31318,6,0,P|143:181|99:131,2,126.666666666667,0|0|0,2:0|2:0|2:0,2:0:0:0:
389,271,31741,1,0,0:0:0:0:
268,146,31881,1,0,0:0:0:0:
220,313,32022,1,0,0:0:0:0:
358,134,32163,6,0,P|414:105|480:92,2,126.666666666667,0|0|0,2:0|2:0|2:0,2:0:0:0:
189,176,32586,1,0,0:0:0:0:
261,106,32727,1,0,0:0:0:0:
213,273,32867,1,0,0:0:0:0:
358,134,33008,6,0,P|372:95|393:70,1,63.3333333333333
280,175,33290,6,0,L|261:218,1,31.6666666666667
331,245,33431,6,0,L|308:296,1,53.8333343601227
157,279,33572,6,0,L|203:284,1,31.6666666666667
192,359,33713,6,0,L|248:365,1,53.8333343601227
414,369,33853,1,0,0:0:0:0:
317,341,33994,1,0,0:0:0:0:
461,201,34135,1,0,0:0:0:0:
293,244,34276,5,0,3:0:0:0:
389,271,34417,1,0,3:0:0:0:
268,146,34558,1,0,3:0:0:0:
437,104,34698,5,0,0:0:0:0:
365,174,34839,1,0,0:0:0:0:
244,49,34980,1,0,0:0:0:0:
293,244,35121,5,0,0:0:0:0:
196,216,35262,1,0,0:0:0:0:
365,174,35403,1,0,0:0:0:0:
74,90,35543,5,0,0:0:0:0:
98,190,35684,1,0,0:0:0:0:
244,49,35825,1,0,0:0:0:0:
319,332,35966,5,0,0:0:0:0:
220,313,36107,1,0,0:0:0:0:
293,244,36248,1,0,0:0:0:0:
74,90,36389,1,0,0:0:0:0:
144,220,36529,6,0,P|161:187|188:160,1,53.8333343601227
293,244,36811,5,0,0:0:0:0:
293,244,36951,2,0,P|255:245|219:235,1,53.8333343601227
226,101,37234,5,0,0:0:0:0:
226,101,37374,2,0,P|246:132|255:169,1,53.8333343601227
335,255,37656,1,0,0:0:0:0:
335,255,37796,2,0,P|271:258|207:241,1,72.833334722519
227,27,38078,5,0,0:0:0:0:
227,27,38218,2,0,P|261:80|278:144,1,79.1666666666667
87,235,38501,1,0,0:0:0:0:
87,235,38641,2,0,P|116:178|162:131,1,85.5000003261566
341,77,38924,5,0,0:0:0:0:
228,233,39065,1,0,0:0:0:0:
327,166,39205,1,0,0:0:0:0:
415,245,39346,5,0,0:0:0:0:
315,0,39487,1,0,0:0:0:0:
327,166,39627,1,0,0:0:0:0:
341,77,39769,5,0,0:0:0:0:
196,216,39910,1,0,0:0:0:0:
389,271,40051,1,0,0:0:0:0:
160,32,40191,2,0,P|212:38|259:78,1,82.3333295644126
179,113,40473,5,0,0:0:0:0:
256,197,40614,1,0,0:0:0:0:
290,88,40755,1,0,0:0:0:0:
268,212,40934,5,0,0:0:0:0:
335,151,41113,1,0,0:0:0:0:
356,240,41324,1,0,0:0:0:0:
236,289,41552,5,0,0:0:0:0:
238,215,41851,1,0,0:0:0:0:
173,249,42251,1,0,0:0:0:0:
