osu file format v14

[General]
AudioFilename: audio.mp3
AudioLeadIn: 0
PreviewTime: 26248
Countdown: 1
SampleSet: Soft
StackLeniency: 0.7
Mode: 0
LetterboxInBreaks: 0
WidescreenStoryboard: 0

[Editor]
DistanceSpacing: 0.8
BeatDivisor: 3
GridSize: 16
TimelineZoom: 1.4

[Metadata]
Title:Transmission
TitleUnicode:Transmission
Artist:TANUKI
ArtistUnicode:TANUKI
Creator:tporter
Version:Insane
Source:
Tags:
BeatmapID:1212547
BeatmapSetID:572221

[Difficulty]
HPDrainRate:6
CircleSize:4.2
OverallDifficulty:8
ApproachRate:9
SliderMultiplier:1.9
SliderTickRate:1

[Events]
//Background and Video events
0,0,"6879514-city-background.jpg",0,0
//Break Periods
//Storyboard Layer 0 (Background)
//Storyboard Layer 1 (Fail)
//Storyboard Layer 2 (Pass)
//Storyboard Layer 3 (Foreground)
//Storyboard Sound Samples

[TimingPoints]
51,422.535211267606,4,2,2,50,1,0
51,-200,4,2,2,50,0,0
12727,-100,4,2,2,50,0,0
19487,-50,4,3,1,50,0,0
19698,-50,4,2,2,50,0,0
19769,-50,4,3,1,50,0,0
19980,-50,4,2,2,50,0,0
20051,-50,4,3,1,50,0,0
20262,-50,4,2,2,50,0,0
20332,-100,4,2,2,50,0,0
26248,-50,4,3,1,50,0,0
26318,-50,4,2,0,50,0,0
26389,-50,4,3,1,50,0,0
26459,-50,4,2,0,50,0,0
26529,-50,4,3,1,50,0,0
26670,-50,4,2,0,50,0,0
26811,-50,4,3,1,50,0,0
27093,-50,4,2,2,50,0,1
33008,-100,4,3,1,50,0,0
33220,-100,4,2,0,50,0,0
33290,-100,4,3,1,50,0,0
33431,-100,4,2,0,50,0,0
33572,-100,4,3,1,50,0,0
33853,-133.333333333333,4,2,2,50,0,0
36529,-117.647058823529,4,2,2,50,0,0
36811,-105.263157894737,4,2,2,50,0,0
37234,-95.2380952380952,4,2,2,50,0,0
37656,-86.9565217391304,4,2,2,50,0,0
38079,-80,4,2,2,50,0,0
38501,-74.0740740740741,4,2,2,50,0,0
38924,-68.9655172413793,4,2,2,50,0,0
39346,-64.5161290322581,4,2,2,50,0,0
39769,-50,4,3,1,50,0,0
40473,-100,4,3,1,50,0,0
40543,-100,4,2,2,50,0,0
40614,-100,4,3,1,42,0,0
40684,-100,4,2,2,42,0,0
40755,-100,4,3,1,36,0,0
40825,-100,4,2,2,36,0,0
40896,-100,4,3,1,28,0,0
40934,422.535211267606,4,3,1,28,1,0
40966,-100,4,2,2,28,0,0
41036,-100,4,3,1,19,0,0
41107,-100,4,2,2,19,0,0
41113,422.535211267606,4,2,2,19,1,0
41177,-100,4,3,1,10,0,0
41248,-100,4,2,2,10,0,0
41318,-133.333333333333,4,3,1,8,0,0
41324,422.535211267606,4,3,1,8,1,0
41529,-133.333333333333,4,2,2,8,0,0
41552,422.535211267606,4,2,2,8,1,0
41600,-153.846153846154,4,3,1,6,0,0
41811,-153.846153846154,4,2,2,6,0,0
41829,422.535211267606,4,2,2,6,1,0
41881,-153.846153846154,4,3,1,6,0,0
42304,-153.846153846154,4,2,2,6,0,0

[HitObjects]
49,74,51,6,0,B|87:73|115:80|142:101|164:145|164:145|182:189|173:245|137:275|103:242|101:202|136:167|207:133|255:144|318:165|318:165|376:187|437:171|437:171|399:221,1,665
359,296,3431,6,0,B|316:269|304:198|336:161|336:161|295:162|256:133|256:133|258:168|246:193|246:193,1,285
166,180,5121,6,0,B|174:220|193:246|232:267|276:254|276:254|279:295|268:315|268:315|203:283,1,285
88,143,6811,2,0,B|106:112|134:96|168:90|203:100|233:123|233:123|272:245,1,285
256,192,8184,12,0,12515,0:0:0:0:
392,62,12727,6,0,L|396:130,1,63.3333333333333
404,223,13008,1,0,0:0:0:0:
345,293,13149,1,0,0:0:0:0:
259,267,13290,1,0,0:0:0:0:
243,181,13431,1,0,0:0:0:0:
214,92,13572,6,0,L|139:83,1,63.3333333333333
67,149,13853,1,0,0:0:0:0:
164,276,13994,2,0,L|172:204,1,63.3333333333333,2|0,0:0|0:0,0:0:0:0:
67,149,14276,1,0,0:0:0:0:
215,93,14417,6,0,L|294:100,1,63.3333333333333
337,186,14698,1,0,0:0:0:0:
229,297,14839,2,0,L|235:217,1,63.3333333333333,2|0,0:0|0:0,0:0:0:0:
337,186,15121,1,0,0:0:0:0:
443,249,15262,6,0,L|440:331,1,63.3333333333333
326,362,15543,1,0,0:0:0:0:
227,264,15684,2,0,L|290:266,1,63.3333333333333,2|0,0:0|0:0,0:0:0:0:
326,362,15966,1,0,0:0:0:0:
165,346,16107,6,0,L|95:344,1,63.3333333333333
42,252,16389,1,0,0:0:0:0:
139,175,16529,2,0,L|137:260,1,63.3333333333333,2|0,0:0|0:0,0:0:0:0:
42,252,16811,1,0,0:0:0:0:
231,166,16952,6,0,L|314:168,1,63.3333333333333
262,268,17234,1,0,0:0:0:0:
147,273,17374,2,0,L|151:197,1,63.3333333333333,2|0,0:0|0:0,0:0:0:0:
262,268,17656,1,0,0:0:0:0:
348,337,17797,6,0,L|415:338,1,63.3333333333333
378,234,18079,1,0,0:0:0:0:
276,179,18220,2,0,L|276:254,1,63.3333333333333,2|0,0:0|0:0,0:0:0:0:
378,234,18501,1,0,0:0:0:0:
444,150,18642,6,0,L|443:84,1,63.3333333333333
357,38,18924,1,0,0:0:0:0:
269,80,19065,2,0,L|269:153,1,63.3333333333333,2|0,0:0|0:0,0:0:0:0:
215,227,19346,1,0,0:0:0:0:
128,190,19487,6,0,B|124:49|124:49|151:114,1,190,4|0,0:0|0:0,0:0:0:0:
215,227,19769,6,0,B|220:368|220:368|243:301,1,190,4|0,0:0|0:0,0:0:0:0:
326,250,20051,6,0,P|382:277|313:270,1,190,4|0,0:0|0:0,0:0:0:0:
331,171,20332,6,0,L|403:160,1,63.3333333333333
434,82,20614,1,0,0:0:0:0:
346,42,20755,2,0,L|272:50,1,63.3333333333333,2|0,0:0|0:0,0:0:0:0:
234,123,21036,1,0,0:0:0:0:
181,206,21177,6,0,L|115:223,1,63.3333333333333
41,126,21459,1,0,0:0:0:0:
142,44,21600,2,0,L|162:119,1,63.3333333333333,2|0,0:0|0:0,0:0:0:0:
41,126,21881,1,0,0:0:0:0:
143,46,22022,6,0,L|209:31,1,63.3333333333333
278,111,22304,1,0,0:0:0:0:
249,214,22445,2,0,L|183:238,1,63.3333333333333,2|0,0:0|0:0,0:0:0:0:
111,156,22727,1,0,0:0:0:0:
206,31,22867,6,0,L|226:115,1,63.3333333333333
305,159,23149,1,0,0:0:0:0:
348,67,23290,2,0,B|329:3,1,63.3333333333333,2|0,0:0|0:0,0:0:0:0:
305,159,23572,1,0,0:0:0:0:
383,224,23712,6,0,L|403:297,1,63.3333333333333
335,355,23994,1,0,0:0:0:0:
251,313,24135,2,0,L|231:247,1,63.3333333333333,2|0,0:0|0:0,0:0:0:0:
294,173,24417,1,0,0:0:0:0:
399,185,24558,6,0,L|464:176,1,63.3333333333333
348,98,24839,1,0,0:0:0:0:
292,17,24980,2,0,L|223:31,1,63.3333333333333,2|0,0:0|0:0,0:0:0:0:
212,124,25262,1,0,0:0:0:0:
272,214,25403,6,0,L|340:196,1,63.3333333333333
398,273,25684,1,0,0:0:0:0:
343,347,25825,2,0,L|276:364,1,63.3333333333333,2|0,0:0|0:0,0:0:0:0:
205,304,26107,1,0,0:0:0:0:
263,209,26248,6,0,B|282:260|282:260|246:276,1,63.3333333333333
178,193,26389,6,0,B|159:142|159:142|195:126,1,63.3333333333333
235,83,26529,6,0,B|328:62|328:62|346:112,1,126.666666666667,0|4,0:0|0:0,0:0:0:0:
367,180,26811,6,0,B|262:208|262:208|302:197,1,126.666666666667,0|2,0:0|0:0,0:0:0:0:
468,148,27093,6,0,P|499:257|493:290,1,126.666666666667
429,344,27374,1,0,0:0:0:0:
336,307,27515,2,0,P|383:254|444:251,2,126.666666666667,2|0|0,0:0|0:0|0:0,0:0:0:0:
239,321,27938,6,0,L|114:296,1,126.666666666667
94,206,28220,1,0,0:0:0:0:
208,221,28360,6,0,L|333:196,1,126.666666666667,2|0,0:0|0:0,0:0:0:0:
352,111,28642,1,0,0:0:0:0:
255,44,28783,6,0,L|122:57,1,126.666666666667
91,155,29065,1,0,0:0:0:0:
251,62,29205,6,0,L|118:75,1,126.666666666667,2|0,0:0|0:0,0:0:0:0:
87,173,29487,1,0,0:0:0:0:
217,149,29628,6,0,L|350:162,1,126.666666666667
381,260,29910,1,0,0:0:0:0:
214,275,30051,6,0,L|217:140,1,126.666666666667,2|0,0:0|0:0,0:0:0:0:
290,68,30332,1,0,0:0:0:0:
401,101,30473,6,0,B|488:162|488:162|469:196,1,126.666666666667
326,55,30755,1,0,0:0:0:0:
149,71,30896,5,2,0:0:0:0:
244,141,31036,1,0,0:0:0:0:
326,55,31177,1,0,0:0:0:0:
149,71,31318,6,0,B|48:109|48:109|58:150,1,126.666666666667
134,202,31600,1,0,0:0:0:0:
212,268,31741,2,0,B|313:230|313:230|303:189,1,126.666666666667,2|0,0:0|0:0,0:0:0:0:
280,135,32022,1,0,0:0:0:0:
235,58,32163,5,0,0:0:0:0:
339,39,32304,1,0,0:0:0:0:
426,100,32445,1,0,0:0:0:0:
439,188,32586,1,2,0:0:0:0:
409,187,32727,1,0,0:0:0:0:
390,186,32867,1,0,0:0:0:0:
374,184,33008,6,0,L|255:173,1,95,4|0,0:0|0:0,0:0:0:0:
199,169,33290,2,0,P|208:218|235:247,1,63.3333333333333,4|0,0:0|0:0,0:0:0:0:
238,78,33572,1,4,0:0:0:0:
238,78,33712,1,0,0:0:0:0:
238,78,33853,6,0,L|173:72,1,47.5000018119813
114,88,34135,1,0,0:0:0:0:
72,170,34276,2,0,L|134:176,1,47.5000018119813,2|0,0:0|0:0,0:0:0:0:
198,180,34558,1,0,0:0:0:0:
281,188,34698,6,0,L|276:127,1,47.5000018119813
315,71,34980,1,0,0:0:0:0:
369,130,35121,2,0,L|377:198,1,47.5000018119813,2|0,0:0|0:0,0:0:0:0:
336,247,35403,1,0,0:0:0:0:
390,307,35543,6,0,L|457:304,1,47.5000018119813
336,247,35825,1,0,0:0:0:0:
295,312,35966,2,0,L|228:316,1,47.5000018119813,2|0,0:0|0:0,0:0:0:0:
173,318,36248,1,0,0:0:0:0:
207,244,36389,6,0,L|197:175,1,47.5000018119813
264,121,36670,1,0,0:0:0:0:
343,171,36811,2,0,L|351:254,1,60.1666650600434,2|0,0:0|0:0,0:0:0:0:
292,312,37093,1,0,0:0:0:0:
203,241,37234,6,0,L|200:150,1,66.4999979705811
264,80,37515,1,0,0:0:0:0:
348,179,37656,2,0,L|353:276,1,72.833334722519,2|0,0:0|0:0,0:0:0:0:
282,324,37938,1,0,0:0:0:0:
199,238,38079,6,0,L|208:136,1,79.1666666666667
278,56,38360,1,0,0:0:0:0:
350,185,38501,2,0,L|346:286,1,79.1666666666667,2|0,0:0|0:0,0:0:0:0:
270,326,38783,1,0,0:0:0:0:
195,231,38924,6,0,L|214:125,1,91.8333361358643
292,40,39205,1,0,0:0:0:0:
350,192,39346,2,0,L|333:317,1,98.1666674156189,2|0,0:0|0:0,0:0:0:0:
257,342,39628,1,0,0:0:0:0:
214,144,39769,6,0,L|301:168,1,63.3333333333333,4|0,0:0|0:0,0:0:0:0:
344,349,39910,2,0,L|278:334,1,63.3333333333333,4|0,0:0|0:0,0:0:0:0:
123,265,40051,1,4,0:0:0:0:
379,206,40191,6,0,B|346:209|306:160|306:160|312:211|258:258,1,190
186,220,40473,6,0,L|152:212,1,31.6666666666667
208,188,40614,6,0,L|242:180,1,31.6666666666667
183,162,40755,6,0,L|149:154,1,31.6666666666667
205,154,40934,6,0,L|239:146,1,31.6666666666667
321,125,41113,6,0,L|326:177,1,31.6666666666667
327,136,41324,6,0,L|332:188,1,31.6666666666667
334,150,41534,6,0,L|339:202,1,31.6666666666667
398,239,41829,2,0,P|305:262|260:168,1,190
